  0
SECTION
  2
HEADER
  9
$ACADVER
  1
AC1015
  9
$ACADMAINTVER
 70
     6
  9
$DWGCODEPAGE
  3
ANSI_1252
  9
$INSBASE
 10
0.0
 20
0.0
 30
0.0
  9
$EXTMIN
 10
0.0
 20
0.0
 30
0.0
  9
$EXTMAX
 10
2940.0
 20
2079.0
 30
0.0
  9
$LIMMIN
 10
0.0
 20
0.0
  9
$LIMMAX
 10
2940.0
 20
2079.0
  9
$ORTHOMODE
 70
     0
  9
$REGENMODE
 70
     1
  9
$FILLMODE
 70
     1
  9
$QTEXTMODE
 70
     0
  9
$MIRRTEXT
 70
     1
  9
$LTSCALE
 40
7.0
  9
$ATTMODE
 70
     1
  9
$TEXTSIZE
 40
24.5
  9
$TRACEWID
 40
1.0
  9
$TEXTSTYLE
  7
STANDARD
  9
$CLAYER
  8
0
  9
$CELTYPE
  6
ByLayer
  9
$CECOLOR
 62
   256
  9
$CELTSCALE
 40
1.0
  9
$DISPSILH
 70
     0
  9
$DIMSCALE
 40
1.0
  9
$DIMASZ
 40
23.114
  9
$DIMEXO
 40
7.0
  9
$DIMDLI
 40
3.75
  9
$DIMRND
 40
0.0
  9
$DIMDLE
 40
0.0
  9
$DIMEXE
 40
7.0
  9
$DIMTP
 40
0.0
  9
$DIMTM
 40
0.0
  9
$DIMTXT
 40
24.5
  9
$DIMCEN
 40
2.5
  9
$DIMTSZ
 40
0.0
  9
$DIMTOL
 70
     0
  9
$DIMLIM
 70
     0
  9
$DIMTIH
 70
     1
  9
$DIMTOH
 70
     1
  9
$DIMSE1
 70
     0
  9
$DIMSE2
 70
     0
  9
$DIMTAD
 70
     1
  9
$DIMZIN
 70
     0
  9
$DIMBLK
  1

  9
$DIMASO
 70
     1
  9
$DIMSHO
 70
     1
  9
$DIMPOST
  1

  9
$DIMAPOST
  1

  9
$DIMALT
 70
     0
  9
$DIMALTD
 70
     3
  9
$DIMALTF
 40
0.0393700787
  9
$DIMLFAC
 40
1.0
  9
$DIMTOFL
 70
     1
  9
$DIMTVP
 40
0.0
  9
$DIMTIX
 70
     0
  9
$DIMSOXD
 70
     0
  9
$DIMSAH
 70
     0
  9
$DIMBLK1
  1

  9
$DIMBLK2
  1

  9
$DIMSTYLE
  2
ISO-25
  9
$DIMCLRD
 70
     0
  9
$DIMCLRE
 70
     0
  9
$DIMCLRT
 70
     0
  9
$DIMTFAC
 40
1.0
  9
$DIMGAP
 40
21.0
  9
$DIMJUST
 70
     0
  9
$DIMSD1
 70
     0
  9
$DIMSD2
 70
     0
  9
$DIMTOLJ
 70
     0
  9
$DIMTZIN
 70
     0
  9
$DIMALTZ
 70
     0
  9
$DIMALTTZ
 70
     0
  9
$DIMUPT
 70
     0
  9
$DIMDEC
 70
     2
  9
$DIMTDEC
 70
     2
  9
$DIMALTU
 70
     2
  9
$DIMALTTD
 70
     3
  9
$DIMTXSTY
  7
STANDARD
  9
$DIMAUNIT
 70
     0
  9
$DIMADEC
 70
     2
  9
$DIMALTRND
 40
0.0
  9
$DIMAZIN
 70
     0
  9
$DIMDSEP
 70
    44
  9
$DIMATFIT
 70
     3
  9
$DIMFRAC
 70
     0
  9
$DIMLDRBLK
  1

  9
$DIMLUNIT
 70
     2
  9
$DIMLWD
 70
    -2
  9
$DIMLWE
 70
    -2
  9
$DIMTMOVE
 70
     0
  9
$LUNITS
 70
     2
  9
$LUPREC
 70
     2
  9
$SKETCHINC
 40
1.0
  9
$FILLETRAD
 40
10.0
  9
$AUNITS
 70
     0
  9
$AUPREC
 70
     2
  9
$MENU
  1
.
  9
$ELEVATION
 40
0.0
  9
$PELEVATION
 40
0.0
  9
$THICKNESS
 40
0.0
  9
$LIMCHECK
 70
     0
  9
$CHAMFERA
 40
0.0
  9
$CHAMFERB
 40
0.0
  9
$CHAMFERC
 40
0.0
  9
$CHAMFERD
 40
0.0
  9
$SKPOLY
 70
     0
  9
$TDCREATE
 40
2460077.458214213
  9
$TDUCREATE
 40
2460077.37488088
  9
$TDUPDATE
 40
2460077.458220139
  9
$TDUUPDATE
 40
2460077.374886806
  9
$TDINDWG
 40
0.0000000116
  9
$TDUSRTIMER
 40
0.0000000116
  9
$USRTIMER
 70
     1
  9
$ANGBASE
 50
0.0
  9
$ANGDIR
 70
     0
  9
$PDMODE
 70
     0
  9
$PDSIZE
 40
-1.0
  9
$PLINEWID
 40
0.0
  9
$SPLFRAME
 70
     0
  9
$SPLINETYPE
 70
     6
  9
$SPLINESEGS
 70
     8
  9
$HANDSEED
  5
710
  9
$SURFTAB1
 70
     6
  9
$SURFTAB2
 70
     6
  9
$SURFTYPE
 70
     6
  9
$SURFU
 70
     6
  9
$SURFV
 70
     6
  9
$UCSBASE
  2

  9
$UCSNAME
  2

  9
$UCSORG
 10
0.0
 20
0.0
 30
0.0
  9
$UCSXDIR
 10
1.0
 20
0.0
 30
0.0
  9
$UCSYDIR
 10
0.0
 20
1.0
 30
0.0
  9
$UCSORTHOREF
  2

  9
$UCSORTHOVIEW
 70
     0
  9
$UCSORGTOP
 10
0.0
 20
0.0
 30
0.0
  9
$UCSORGBOTTOM
 10
0.0
 20
0.0
 30
0.0
  9
$UCSORGLEFT
 10
0.0
 20
0.0
 30
0.0
  9
$UCSORGRIGHT
 10
0.0
 20
0.0
 30
0.0
  9
$UCSORGFRONT
 10
0.0
 20
0.0
 30
0.0
  9
$UCSORGBACK
 10
0.0
 20
0.0
 30
0.0
  9
$PUCSBASE
  2

  9
$PUCSNAME
  2

  9
$PUCSORG
 10
0.0
 20
0.0
 30
0.0
  9
$PUCSXDIR
 10
1.0
 20
0.0
 30
0.0
  9
$PUCSYDIR
 10
0.0
 20
1.0
 30
0.0
  9
$PUCSORTHOREF
  2

  9
$PUCSORTHOVIEW
 70
     0
  9
$PUCSORGTOP
 10
0.0
 20
0.0
 30
0.0
  9
$PUCSORGBOTTOM
 10
0.0
 20
0.0
 30
0.0
  9
$PUCSORGLEFT
 10
0.0
 20
0.0
 30
0.0
  9
$PUCSORGRIGHT
 10
0.0
 20
0.0
 30
0.0
  9
$PUCSORGFRONT
 10
0.0
 20
0.0
 30
0.0
  9
$PUCSORGBACK
 10
0.0
 20
0.0
 30
0.0
  9
$USERI1
 70
     0
  9
$USERI2
 70
     0
  9
$USERI3
 70
     0
  9
$USERI4
 70
     0
  9
$USERI5
 70
     0
  9
$USERR1
 40
0.0
  9
$USERR2
 40
0.0
  9
$USERR3
 40
0.0
  9
$USERR4
 40
0.0
  9
$USERR5
 40
0.0
  9
$WORLDVIEW
 70
     1
  9
$SHADEDGE
 70
     3
  9
$SHADEDIF
 70
    70
  9
$TILEMODE
 70
     1
  9
$MAXACTVP
 70
    64
  9
$PINSBASE
 10
0.0
 20
0.0
 30
0.0
  9
$PLIMCHECK
 70
     0
  9
$PEXTMIN
 10
1.0000000000E+20
 20
1.0000000000E+20
 30
1.0000000000E+20
  9
$PEXTMAX
 10
-1.0000000000E+20
 20
-1.0000000000E+20
 30
-1.0000000000E+20
  9
$PLIMMIN
 10
0.0
 20
0.0
  9
$PLIMMAX
 10
420.0
 20
297.0
  9
$UNITMODE
 70
     0
  9
$VISRETAIN
 70
     1
  9
$PLINEGEN
 70
     0
  9
$PSLTSCALE
 70
     1
  9
$TREEDEPTH
 70
  3020
  9
$CMLSTYLE
  2
Standard
  9
$CMLJUST
 70
     0
  9
$CMLSCALE
 40
20.0
  9
$PROXYGRAPHICS
 70
     1
  9
$MEASUREMENT
 70
     1
  9
$CELWEIGHT
370
    -1
  9
$ENDCAPS
280
     0
  9
$JOINSTYLE
280
     0
  9
$LWDISPLAY
290
     1
  9
$INSUNITS
 70
     4
  9
$HYPERLINKBASE
  1

  9
$STYLESHEET
  1

  9
$XEDIT
290
     1
  9
$CEPSNTYPE
380
     0
  9
$PSTYLEMODE
290
     1
  9
$FINGERPRINTGUID
  2
{516ab424-5286-46c1-95e6-56f752f467c9}
  9
$VERSIONGUID
  2
{FAEB1C32-E019-11D5-929B-00C0DF256EC4}
  9
$EXTNAMES
290
     1
  9
$PSVPSCALE
 40
0.0
  9
$OLESTARTUP
290
     0
  0
ENDSEC
  0
SECTION
  2
CLASSES
  0
CLASS
  1
ACDBDICTIONARYWDFLT
  2
AcDbDictionaryWithDefault
  3
ObjectDBX Classes
 90
        0
280
     0
281
     0
  0
CLASS
  1
VISUALSTYLE
  2
AcDbVisualStyle
  3
ObjectDBX Classes
 90
     4095
280
     0
281
     0
  0
CLASS
  1
MATERIAL
  2
AcDbMaterial
  3
ObjectDBX Classes
 90
     1153
280
     0
281
     0
  0
CLASS
  1
SCALE
  2
AcDbScale
  3
ObjectDBX Classes
 90
     1153
280
     0
281
     0
  0
CLASS
  1
TABLESTYLE
  2
AcDbTableStyle
  3
ObjectDBX Classes
 90
     4095
280
     0
281
     0
  0
CLASS
  1
MLEADERSTYLE
  2
AcDbMLeaderStyle
  3
ACDB_MLEADERSTYLE_CLASS
 90
     4095
280
     0
281
     0
  0
CLASS
  1
SUN
  2
AcDbSun
  3
SCENEOE
 90
     1153
280
     0
281
     0
  0
CLASS
  1
ACDBPLACEHOLDER
  2
AcDbPlaceHolder
  3
ObjectDBX Classes
 90
        0
280
     0
281
     0
  0
CLASS
  1
LAYOUT
  2
AcDbLayout
  3
ObjectDBX Classes
 90
        0
280
     0
281
     0
  0
ENDSEC
  0
SECTION
  2
TABLES
  0
TABLE
  2
VPORT
  5
8
330
0
100
AcDbSymbolTable
 70
     1
  0
VPORT
  5
29
330
8
100
AcDbSymbolTableRecord
100
AcDbViewportTableRecord
  2
*Active
 70
     0
 10
0.0
 20
0.0
 11
1.0
 21
1.0
 12
1470.0
 22
1039.5
 13
0.0
 23
0.0
 14
10.0
 24
10.0
 15
10.0
 25
10.0
 16
0.0
 26
0.0
 36
1.0
 17
0.0
 27
0.0
 37
0.0
 40
2079.0
 41
1.4141414141
 42
50.0
 43
0.0
 44
0.0
 50
0.0
 51
0.0
 71
     0
 72
  2000
 73
     1
 74
     3
 75
     0
 76
     0
 77
     0
 78
     0
281
     0
 65
     1
110
0.0
120
0.0
130
0.0
111
1.0
121
0.0
131
0.0
112
0.0
122
1.0
132
0.0
 79
     0
146
0.0
  0
ENDTAB
  0
TABLE
  2
LTYPE
  5
5
330
0
100
AcDbSymbolTable
 70
     6
  0
LTYPE
  5
14
330
5
100
AcDbSymbolTableRecord
100
AcDbLinetypeTableRecord
  2
ByBlock
 70
     0
  3

 72
    65
 73
     0
 40
0.0
  0
LTYPE
  5
15
330
5
100
AcDbSymbolTableRecord
100
AcDbLinetypeTableRecord
  2
ByLayer
 70
     0
  3

 72
    65
 73
     0
 40
0.0
  0
LTYPE
  5
16
330
5
100
AcDbSymbolTableRecord
100
AcDbLinetypeTableRecord
  2
Continuous
 70
     0
  3
Solid line
 72
    65
 73
     0
 40
0.0
  0
LTYPE
  5
6E
330
5
100
AcDbSymbolTableRecord
100
AcDbLinetypeTableRecord
  2
HIDDEN
 70
     0
  3
Hidden __ __ __ __ __ __ __ __ __ __ __ __ __ __
 72
    65
 73
     2
 40
1.905
 49
1.27
 74
     0
 49
-0.635
 74
     0
  0
LTYPE
  5
6F
330
5
100
AcDbSymbolTableRecord
100
AcDbLinetypeTableRecord
  2
PHANTOM
 70
     0
  3
Phantom ______  __  __  ______  __  __  ______
 72
    65
 73
     6
 40
12.7
 49
6.35
 74
     0
 49
-1.27
 74
     0
 49
1.27
 74
     0
 49
-1.27
 74
     0
 49
1.27
 74
     0
 49
-1.27
 74
     0
  0
LTYPE
  5
70
330
5
100
AcDbSymbolTableRecord
100
AcDbLinetypeTableRecord
  2
CENTER
 70
     0
  3
Center ____ _ ____ _ ____ _ ____ _ ____ _ ____
 72
    65
 73
     4
 40
10.16
 49
6.35
 74
     0
 49
-1.27
 74
     0
 49
1.27
 74
     0
 49
-1.27
 74
     0
  0
LTYPE
  5
71
330
5
100
AcDbSymbolTableRecord
100
AcDbLinetypeTableRecord
  2
CENTERX2
 70
     0
  3
Center (2x) ________  __  ________  __  _____
 72
    65
 73
     4
 40
20.32
 49
12.7
 74
     0
 49
-2.54
 74
     0
 49
2.54
 74
     0
 49
-2.54
 74
     0
  0
LTYPE
  5
72
330
5
100
AcDbSymbolTableRecord
100
AcDbLinetypeTableRecord
  2
DOT2
 70
     0
  3
Dot (.5x) ........................................
 72
    65
 73
     2
 40
0.635
 49
0.0
 74
     0
 49
-0.635
 74
     0
  0
ENDTAB
  0
TABLE
  2
LAYER
  5
2
330
0
100
AcDbSymbolTable
 70
     8
  0
LAYER
  5
10
330
2
100
AcDbSymbolTableRecord
100
AcDbLayerTableRecord
  2
0
 70
     0
 62
     7
  6
Continuous
370
    -3
390
F
  0
LAYER
  5
73
330
2
100
AcDbSymbolTableRecord
100
AcDbLayerTableRecord
  2
FORMAT
 70
     0
 62
     7
  6
Continuous
370
    -3
390
F
  0
LAYER
  5
74
330
2
100
AcDbSymbolTableRecord
100
AcDbLayerTableRecord
  2
VORLAGE
 70
     0
 62
     7
  6
Continuous
370
    -3
390
F
  0
LAYER
  5
75
330
2
100
AcDbSymbolTableRecord
100
AcDbLayerTableRecord
  2
1
 70
     0
 62
   179
  6
Continuous
370
    -3
390
F
  0
LAYER
  5
76
330
2
100
AcDbSymbolTableRecord
100
AcDbLayerTableRecord
  2
LAYER0
 70
     0
 62
     7
  6
Continuous
370
    -3
390
F
  0
LAYER
  5
77
330
2
100
AcDbSymbolTableRecord
100
AcDbLayerTableRecord
  2
BEMASSUNG
 70
     0
 62
     1
  6
Continuous
370
    -3
390
F
  0
LAYER
  5
78
330
2
100
AcDbSymbolTableRecord
100
AcDbLayerTableRecord
  2
ÄNDERUNG
 70
     0
 62
     1
  6
Continuous
370
    -3
390
F
  0
LAYER
  5
79
330
2
100
AcDbSymbolTableRecord
100
AcDbLayerTableRecord
  2
KENNZEICHNUNG
 70
     0
 62
     7
  6
Continuous
370
    -3
390
F
  0
ENDTAB
  0
TABLE
  2
STYLE
  5
3
330
0
100
AcDbSymbolTable
 70
     5
  0
STYLE
  5
11
330
3
100
AcDbSymbolTableRecord
100
AcDbTextStyleTableRecord
  2
STANDARD
 70
     0
 40
0.0
 41
1.0
 50
0.0
 71
     0
 42
24.5
  3
ARIAL.TTF
  4

1001
ACAD
1000
ARIAL
1071
       34
  0
STYLE
  5
8B
330
3
100
AcDbSymbolTableRecord
100
AcDbTextStyleTableRecord
  2
SLDTEXTSTYLE0
 70
     0
 40
0.0
 41
0.948
 50
0.0
 71
     0
 42
24.5
  3
ARIAL.TTF
  4

1001
ACAD
1000
Arial
1071
      290
  0
STYLE
  5
B2
330
3
100
AcDbSymbolTableRecord
100
AcDbTextStyleTableRecord
  2
SLDTEXTSTYLE1
 70
     0
 40
0.0
 41
1.0
 50
0.0
 71
     0
 42
24.5
  3
ARIALUNI.TTF
  4

1001
ACAD
1000
Arial Unicode MS
1071
 33554722
  0
STYLE
  5
B8
330
3
100
AcDbSymbolTableRecord
100
AcDbTextStyleTableRecord
  2
SLDTEXTSTYLE2
 70
     0
 40
0.0
 41
0.87
 50
0.0
 71
     0
 42
24.5
  3
ARIALN.TTF
  4

1001
ACAD
1000
Arial Narrow
1071
      290
  0
STYLE
  5
E8
330
3
100
AcDbSymbolTableRecord
100
AcDbTextStyleTableRecord
  2
SLDTEXTSTYLE3
 70
     0
 40
0.0
 41
0.948
 50
0.0
 71
     0
 42
24.5
  3
ARIALBD.TTF
  4

1001
ACAD
1000
Arial
1071
 33554722
  0
ENDTAB
  0
TABLE
  2
VIEW
  5
6
330
0
100
AcDbSymbolTable
 70
     0
  0
ENDTAB
  0
TABLE
  2
UCS
  5
7
330
0
100
AcDbSymbolTable
 70
     0
  0
ENDTAB
  0
TABLE
  2
APPID
  5
9
330
0
100
AcDbSymbolTable
 70
     1
  0
APPID
  5
12
330
9
100
AcDbSymbolTableRecord
100
AcDbRegAppTableRecord
  2
ACAD
 70
     0
  0
ENDTAB
  0
TABLE
  2
DIMSTYLE
  5
A
330
0
100
AcDbSymbolTable
 70
    12
100
AcDbDimStyleTable
  0
DIMSTYLE
105
27
330
A
100
AcDbSymbolTableRecord
100
AcDbDimStyleTableRecord
  2
ISO-25
 70
     0
 41
2.5
 42
0.625
 43
3.75
 44
1.25
 73
     0
 74
     0
 77
     1
 78
     8
140
2.5
141
2.5
143
0.0393700787
147
0.625
171
     3
172
     1
178
     0
271
     2
272
     2
274
     3
278
    44
283
     0
284
     8
340
11
  0
DIMSTYLE
105
22C
102
{ACAD_REACTORS
330
22B
330
243
330
24D
330
257
330
32B
330
335
330
33E
330
39E
330
3A8
330
3B2
330
3BC
330
3C6
330
55E
330
568
330
572
102
}
330
A
100
AcDbSymbolTableRecord
100
AcDbDimStyleTableRecord
  2
SLDDIMSTYLE0
 70
     0
 41
23.114
 44
0.0
 45
0.000000001
 73
     0
 74
     0
 77
     1
 78
    12
 79
     3
140
24.5
147
6.125
173
     1
178
     0
271
     2
272
     2
276
     2
284
    12
340
8B
  0
DIMSTYLE
105
237
102
{ACAD_REACTORS
330
236
330
354
330
378
330
386
330
392
330
553
102
}
330
A
100
AcDbSymbolTableRecord
100
AcDbDimStyleTableRecord
  2
SLDDIMSTYLE1
 70
     0
 41
23.114
 44
0.0
 45
0.000000001
 73
     0
 74
     0
 77
     1
 78
    12
 79
     3
140
24.5
147
6.125
172
     1
173
     1
178
     0
271
     2
272
     2
276
     2
284
    12
289
     0
340
8B
  0
DIMSTYLE
105
349
102
{ACAD_REACTORS
330
348
330
35F
330
36B
102
}
330
A
100
AcDbSymbolTableRecord
100
AcDbDimStyleTableRecord
  2
SLDDIMSTYLE2
 70
     0
 41
23.114
 44
0.0
 45
0.000000001
 73
     0
 74
     0
 77
     1
 78
    12
 79
     3
140
24.5
147
6.125
172
     1
173
     1
178
     0
271
     0
272
     2
276
     2
284
    12
289
     0
340
8B
  0
DIMSTYLE
105
3D1
330
A
100
AcDbSymbolTableRecord
100
AcDbDimStyleTableRecord
  2
SLDDIMSTYLE3
 70
     0
 41
23.114
 44
0.0
 45
0.000000001
146
23.114
147
0.0
173
     1
178
     0
271
     0
272
     0
276
     2
340
11
  0
DIMSTYLE
105
538
102
{ACAD_REACTORS
330
537
330
548
102
}
330
A
100
AcDbSymbolTableRecord
100
AcDbDimStyleTableRecord
  2
SLDDIMSTYLE4
 70
     0
 41
7.112
 44
0.0
 45
0.000000001
 73
     0
 74
     0
 77
     1
 78
    12
 79
     3
140
17.9782307943
147
4.4945576986
173
     1
178
     0
271
     2
272
     2
276
     2
284
    12
340
8B
341
539
343
539
  0
DIMSTYLE
105
65E
102
{ACAD_REACTORS
330
65D
330
66C
330
688
330
6B0
330
6DF
102
}
330
A
100
AcDbSymbolTableRecord
100
AcDbDimStyleTableRecord
  2
SLDDIMSTYLE5
 70
     0
 41
23.114
 44
0.0
 45
0.000000001
 73
     0
 74
     0
 77
     1
 78
    12
 79
     3
140
24.5
144
0.7142857143
147
6.125
172
     1
173
     1
178
     0
271
     2
272
     2
276
     2
284
    12
289
     0
340
8B
  0
DIMSTYLE
105
67B
102
{ACAD_REACTORS
330
67A
102
}
330
A
100
AcDbSymbolTableRecord
100
AcDbDimStyleTableRecord
  2
SLDDIMSTYLE6
 70
     0
 41
23.114
 44
0.0
 45
0.000000001
 73
     0
 74
     0
 77
     1
 78
    12
 79
     3
140
24.5
144
0.7142857143
147
6.125
172
     1
173
     1
178
     0
271
     2
272
     2
276
     2
284
    12
289
     0
340
E8
  0
DIMSTYLE
105
695
102
{ACAD_REACTORS
330
694
102
}
330
A
100
AcDbSymbolTableRecord
100
AcDbDimStyleTableRecord
  2
SLDDIMSTYLE7
 70
     0
 41
23.114
 44
0.0
 45
0.000000001
 73
     0
 74
     0
 77
     1
 78
    12
 79
     3
140
24.5
144
0.7142857143
147
6.125
172
     1
173
     1
178
     0
271
     2
272
     2
276
     2
284
    12
289
     0
340
8B
344
539
  0
DIMSTYLE
105
6A3
102
{ACAD_REACTORS
330
6A2
102
}
330
A
100
AcDbSymbolTableRecord
100
AcDbDimStyleTableRecord
  2
SLDDIMSTYLE8
 70
     0
 41
7.112
 44
0.0
 45
0.000000001
 73
     0
 74
     0
 77
     1
 78
    12
 79
     3
140
24.5
144
0.7142857143
147
6.125
172
     1
173
     1
178
     0
271
     2
272
     2
276
     2
284
    12
289
     0
340
8B
341
539
343
539
  0
DIMSTYLE
105
6BE
330
A
100
AcDbSymbolTableRecord
100
AcDbDimStyleTableRecord
  2
SLDDIMSTYLE9
 70
     0
 41
7.112
 44
0.0
 45
0.000000001
146
7.112
147
0.0
173
     1
178
     0
271
     0
272
     0
276
     2
340
11
341
539
343
539
344
539
  0
DIMSTYLE
105
6EC
102
{ACAD_REACTORS
330
6EB
102
}
330
A
100
AcDbSymbolTableRecord
100
AcDbDimStyleTableRecord
  2
SLDDIMSTYLE10
 70
     0
 41
23.114
 44
0.0
 45
0.000000001
 73
     0
 74
     0
 77
     1
 78
    12
 79
     3
140
24.5
144
0.7142857143
147
6.125
173
     1
178
     0
271
     2
272
     2
276
     2
284
    12
340
8B
  0
ENDTAB
  0
TABLE
  2
BLOCK_RECORD
  5
1
330
0
100
AcDbSymbolTable
 70
    61
  0
BLOCK_RECORD
  5
1F
330
1
100
AcDbSymbolTableRecord
100
AcDbBlockTableRecord
  2
*Model_Space
340
22
  0
BLOCK_RECORD
  5
1B
330
1
100
AcDbSymbolTableRecord
100
AcDbBlockTableRecord
  2
*Paper_Space
340
1E
  0
BLOCK_RECORD
  5
23
330
1
100
AcDbSymbolTableRecord
100
AcDbBlockTableRecord
  2
*Paper_Space0
340
26
  0
BLOCK_RECORD
  5
7A
330
1
100
AcDbSymbolTableRecord
100
AcDbBlockTableRecord
  2
Block1_3_1
340
0
102
{BLKREFS
331
DA
102
}
  0
BLOCK_RECORD
  5
88
330
1
100
AcDbSymbolTableRecord
100
AcDbBlockTableRecord
  2
SW_NOTE_0
340
0
102
{BLKREFS
331
8E
102
}
  0
BLOCK_RECORD
  5
8F
330
1
100
AcDbSymbolTableRecord
100
AcDbBlockTableRecord
  2
Block2_3_1
340
0
102
{BLKREFS
331
D8
102
}
  0
BLOCK_RECORD
  5
AF
330
1
100
AcDbSymbolTableRecord
100
AcDbBlockTableRecord
  2
SW_NOTE_0_1
340
0
102
{BLKREFS
331
B4
102
}
  0
BLOCK_RECORD
  5
B5
330
1
100
AcDbSymbolTableRecord
100
AcDbBlockTableRecord
  2
SW_NOTE_0_2
340
0
102
{BLKREFS
331
BC
102
}
  0
BLOCK_RECORD
  5
BD
330
1
100
AcDbSymbolTableRecord
100
AcDbBlockTableRecord
  2
rechtlicher_Hinweis_Katalogzeichnungen_1
340
0
102
{BLKREFS
331
D9
102
}
  0
BLOCK_RECORD
  5
C0
330
1
100
AcDbSymbolTableRecord
100
AcDbBlockTableRecord
  2
SW_NOTE_0_3
340
0
102
{BLKREFS
331
C9
102
}
  0
BLOCK_RECORD
  5
DB
330
1
100
AcDbSymbolTableRecord
100
AcDbBlockTableRecord
  2
SW_NOTE_0_4
340
0
102
{BLKREFS
331
E1
102
}
  0
BLOCK_RECORD
  5
F4
330
1
100
AcDbSymbolTableRecord
100
AcDbBlockTableRecord
  2
SW_TABLEANNOTATION_0
340
0
102
{BLKREFS
331
11C
102
}
  0
BLOCK_RECORD
  5
22D
330
1
100
AcDbSymbolTableRecord
100
AcDbBlockTableRecord
  2
_D
340
0
  0
BLOCK_RECORD
  5
238
330
1
100
AcDbSymbolTableRecord
100
AcDbBlockTableRecord
  2
_D_1
340
0
  0
BLOCK_RECORD
  5
244
330
1
100
AcDbSymbolTableRecord
100
AcDbBlockTableRecord
  2
_D_2
340
0
  0
BLOCK_RECORD
  5
24E
330
1
100
AcDbSymbolTableRecord
100
AcDbBlockTableRecord
  2
_D_3
340
0
  0
BLOCK_RECORD
  5
258
330
1
100
AcDbSymbolTableRecord
100
AcDbBlockTableRecord
  2
_D_4
340
0
  0
BLOCK_RECORD
  5
32C
330
1
100
AcDbSymbolTableRecord
100
AcDbBlockTableRecord
  2
_D_5
340
0
  0
BLOCK_RECORD
  5
336
330
1
100
AcDbSymbolTableRecord
100
AcDbBlockTableRecord
  2
_D_6
340
0
  0
BLOCK_RECORD
  5
33F
330
1
100
AcDbSymbolTableRecord
100
AcDbBlockTableRecord
  2
_D_7
340
0
  0
BLOCK_RECORD
  5
34A
330
1
100
AcDbSymbolTableRecord
100
AcDbBlockTableRecord
  2
_D_8
340
0
  0
BLOCK_RECORD
  5
355
330
1
100
AcDbSymbolTableRecord
100
AcDbBlockTableRecord
  2
_D_9
340
0
  0
BLOCK_RECORD
  5
360
330
1
100
AcDbSymbolTableRecord
100
AcDbBlockTableRecord
  2
_D_10
340
0
  0
BLOCK_RECORD
  5
36C
330
1
100
AcDbSymbolTableRecord
100
AcDbBlockTableRecord
  2
_D_11
340
0
  0
BLOCK_RECORD
  5
379
330
1
100
AcDbSymbolTableRecord
100
AcDbBlockTableRecord
  2
_D_12
340
0
  0
BLOCK_RECORD
  5
387
330
1
100
AcDbSymbolTableRecord
100
AcDbBlockTableRecord
  2
_D_13
340
0
  0
BLOCK_RECORD
  5
393
330
1
100
AcDbSymbolTableRecord
100
AcDbBlockTableRecord
  2
_D_14
340
0
  0
BLOCK_RECORD
  5
39F
330
1
100
AcDbSymbolTableRecord
100
AcDbBlockTableRecord
  2
_D_15
340
0
  0
BLOCK_RECORD
  5
3A9
330
1
100
AcDbSymbolTableRecord
100
AcDbBlockTableRecord
  2
_D_16
340
0
  0
BLOCK_RECORD
  5
3B3
330
1
100
AcDbSymbolTableRecord
100
AcDbBlockTableRecord
  2
_D_17
340
0
  0
BLOCK_RECORD
  5
3BD
330
1
100
AcDbSymbolTableRecord
100
AcDbBlockTableRecord
  2
_D_18
340
0
  0
BLOCK_RECORD
  5
3C7
330
1
100
AcDbSymbolTableRecord
100
AcDbBlockTableRecord
  2
_D_19
340
0
  0
BLOCK_RECORD
  5
3D5
330
1
100
AcDbSymbolTableRecord
100
AcDbBlockTableRecord
  2
SW_NOTE_0_5
340
0
102
{BLKREFS
331
3DA
102
}
  0
BLOCK_RECORD
  5
3DC
330
1
100
AcDbSymbolTableRecord
100
AcDbBlockTableRecord
  2
SW_CENTERMARKSYMBOL_0
340
0
102
{BLKREFS
331
3E7
102
}
  0
BLOCK_RECORD
  5
3E8
330
1
100
AcDbSymbolTableRecord
100
AcDbBlockTableRecord
  2
SW_CENTERMARKSYMBOL_1
340
0
102
{BLKREFS
331
3F3
102
}
  0
BLOCK_RECORD
  5
3F4
330
1
100
AcDbSymbolTableRecord
100
AcDbBlockTableRecord
  2
SW_CENTERMARKSYMBOL_2
340
0
102
{BLKREFS
331
3FF
102
}
  0
BLOCK_RECORD
  5
400
330
1
100
AcDbSymbolTableRecord
100
AcDbBlockTableRecord
  2
SW_CENTERMARKSYMBOL_3
340
0
102
{BLKREFS
331
40B
102
}
  0
BLOCK_RECORD
  5
40C
330
1
100
AcDbSymbolTableRecord
100
AcDbBlockTableRecord
  2
SW_CENTERMARKSYMBOL_4
340
0
102
{BLKREFS
331
417
102
}
  0
BLOCK_RECORD
  5
418
330
1
100
AcDbSymbolTableRecord
100
AcDbBlockTableRecord
  2
SW_CENTERMARKSYMBOL_5
340
0
102
{BLKREFS
331
423
102
}
  0
BLOCK_RECORD
  5
424
330
1
100
AcDbSymbolTableRecord
100
AcDbBlockTableRecord
  2
SW_CENTERMARKSYMBOL_6
340
0
102
{BLKREFS
331
42F
102
}
  0
BLOCK_RECORD
  5
430
330
1
100
AcDbSymbolTableRecord
100
AcDbBlockTableRecord
  2
SW_CENTERMARKSYMBOL_7
340
0
102
{BLKREFS
331
43B
102
}
  0
BLOCK_RECORD
  5
43C
330
1
100
AcDbSymbolTableRecord
100
AcDbBlockTableRecord
  2
SW_CENTERMARKSYMBOL_8
340
0
102
{BLKREFS
331
447
102
}
  0
BLOCK_RECORD
  5
448
330
1
100
AcDbSymbolTableRecord
100
AcDbBlockTableRecord
  2
SW_CENTERMARKSYMBOL_9
340
0
102
{BLKREFS
331
453
102
}
  0
BLOCK_RECORD
  5
454
330
1
100
AcDbSymbolTableRecord
100
AcDbBlockTableRecord
  2
SW_CENTERMARKSYMBOL_10
340
0
102
{BLKREFS
331
45F
102
}
  0
BLOCK_RECORD
  5
460
330
1
100
AcDbSymbolTableRecord
100
AcDbBlockTableRecord
  2
SW_CENTERMARKSYMBOL_11
340
0
102
{BLKREFS
331
46B
102
}
  0
BLOCK_RECORD
  5
539
330
1
100
AcDbSymbolTableRecord
100
AcDbBlockTableRecord
  2
_Dot
340
0
102
{BLKREFS
331
541
331
54C
331
69A
331
6A7
102
}
  0
BLOCK_RECORD
  5
53E
330
1
100
AcDbSymbolTableRecord
100
AcDbBlockTableRecord
  2
_D_20
340
0
  0
BLOCK_RECORD
  5
549
330
1
100
AcDbSymbolTableRecord
100
AcDbBlockTableRecord
  2
_D_21
340
0
  0
BLOCK_RECORD
  5
554
330
1
100
AcDbSymbolTableRecord
100
AcDbBlockTableRecord
  2
_D_22
340
0
  0
BLOCK_RECORD
  5
55F
330
1
100
AcDbSymbolTableRecord
100
AcDbBlockTableRecord
  2
_D_23
340
0
  0
BLOCK_RECORD
  5
569
330
1
100
AcDbSymbolTableRecord
100
AcDbBlockTableRecord
  2
_D_24
340
0
  0
BLOCK_RECORD
  5
573
330
1
100
AcDbSymbolTableRecord
100
AcDbBlockTableRecord
  2
_D_25
340
0
  0
BLOCK_RECORD
  5
65F
330
1
100
AcDbSymbolTableRecord
100
AcDbBlockTableRecord
  2
_D_26
340
0
  0
BLOCK_RECORD
  5
66D
330
1
100
AcDbSymbolTableRecord
100
AcDbBlockTableRecord
  2
_D_27
340
0
  0
BLOCK_RECORD
  5
67C
330
1
100
AcDbSymbolTableRecord
100
AcDbBlockTableRecord
  2
_D_28
340
0
  0
BLOCK_RECORD
  5
689
330
1
100
AcDbSymbolTableRecord
100
AcDbBlockTableRecord
  2
_D_29
340
0
  0
BLOCK_RECORD
  5
696
330
1
100
AcDbSymbolTableRecord
100
AcDbBlockTableRecord
  2
_D_30
340
0
  0
BLOCK_RECORD
  5
6A4
330
1
100
AcDbSymbolTableRecord
100
AcDbBlockTableRecord
  2
_D_31
340
0
  0
BLOCK_RECORD
  5
6B1
330
1
100
AcDbSymbolTableRecord
100
AcDbBlockTableRecord
  2
_D_32
340
0
  0
BLOCK_RECORD
  5
6E0
330
1
100
AcDbSymbolTableRecord
100
AcDbBlockTableRecord
  2
_D_33
340
0
  0
BLOCK_RECORD
  5
6ED
330
1
100
AcDbSymbolTableRecord
100
AcDbBlockTableRecord
  2
_D_34
340
0
  0
BLOCK_RECORD
  5
6F7
330
1
100
AcDbSymbolTableRecord
100
AcDbBlockTableRecord
  2
SW_CENTERMARKSYMBOL_12
340
0
102
{BLKREFS
331
702
102
}
  0
BLOCK_RECORD
  5
703
330
1
100
AcDbSymbolTableRecord
100
AcDbBlockTableRecord
  2
SW_CENTERMARKSYMBOL_13
340
0
102
{BLKREFS
331
70E
102
}
  0
ENDTAB
  0
ENDSEC
  0
SECTION
  2
BLOCKS
  0
BLOCK
  5
20
330
1F
100
AcDbEntity
  8
0
100
AcDbBlockBegin
  2
*Model_Space
 70
     0
 10
0.0
 20
0.0
 30
0.0
  3
*Model_Space
  1

  0
ENDBLK
  5
21
330
1F
100
AcDbEntity
  8
0
100
AcDbBlockEnd
  0
BLOCK
  5
1C
330
1B
100
AcDbEntity
 67
     1
  8
0
100
AcDbBlockBegin
  2
*Paper_Space
 70
     0
 10
0.0
 20
0.0
 30
0.0
  3
*Paper_Space
  1

  0
ENDBLK
  5
1D
330
1B
100
AcDbEntity
 67
     1
  8
0
100
AcDbBlockEnd
  0
BLOCK
  5
24
330
23
100
AcDbEntity
  8
0
100
AcDbBlockBegin
  2
*Paper_Space0
 70
     0
 10
0.0
 20
0.0
 30
0.0
  3
*Paper_Space0
  1

  0
ENDBLK
  5
25
330
23
100
AcDbEntity
  8
0
100
AcDbBlockEnd
  0
BLOCK
  5
7B
330
7A
100
AcDbEntity
  8
0
100
AcDbBlockBegin
  2
Block1_3_1
 70
     0
 10
0.0
 20
0.0
 30
0.0
  3
Block1_3_1
  1

  0
CIRCLE
  5
7D
330
7A
100
AcDbEntity
  8
0
  6
Continuous
 62
     7
370
    18
100
AcDbCircle
 10
81.2962813747
 20
63.6276108944
 30
0.0
 40
8.79136307741128
  0
CIRCLE
  5
7E
330
7A
100
AcDbEntity
  8
0
  6
Continuous
 62
     7
370
    18
100
AcDbCircle
 10
81.2962813747
 20
63.6276108944
 30
0.0
 40
15.51210404558959
  0
LINE
  5
7F
330
7A
100
AcDbEntity
  8
0
  6
CENTERX2
 62
     7
370
    18
100
AcDbLine
 10
81.2962813747
 20
63.6276108944
 30
0.0
 11
55.2841773291
 21
63.6276108944
 31
0.0
  0
LINE
  5
80
330
7A
100
AcDbEntity
  8
0
  6
Continuous
 62
     7
370
    18
100
AcDbLine
 10
57.1602751158
 20
48.1155068489
 30
0.0
 11
57.1602751158
 21
79.150109214
 31
0.0
  0
LINE
  5
81
330
7A
100
AcDbEntity
  8
0
  6
Continuous
 62
     7
370
    18
100
AcDbLine
 10
18.7580035265
 20
72.4189739719
 30
0.0
 11
18.7580035265
 21
54.836247817
 31
0.0
  0
LINE
  5
82
330
7A
100
AcDbEntity
  8
0
  6
Continuous
 62
     7
370
    18
100
AcDbLine
 10
18.7580035265
 20
54.836247817
 30
0.0
 11
57.1602751158
 21
48.1155068489
 31
0.0
  0
LINE
  5
83
330
7A
100
AcDbEntity
  8
0
  6
CENTERX2
 62
     7
370
    18
100
AcDbLine
 10
67.6602751158
 20
63.6276108944
 30
0.0
 11
8.2580035265
 21
63.6276108944
 31
0.0
  0
LINE
  5
84
330
7A
100
AcDbEntity
  8
0
  6
Continuous
 62
     7
370
    18
100
AcDbLine
 10
57.1602751158
 20
79.150109214
 30
0.0
 11
18.7580035265
 21
72.4189739719
 31
0.0
  0
LINE
  5
85
330
7A
100
AcDbEntity
  8
0
  6
CENTERX2
 62
     7
370
    18
100
AcDbLine
 10
81.2962813747
 20
63.6276108944
 30
0.0
 11
81.2962813747
 21
37.6155068489
 31
0.0
  0
LINE
  5
86
330
7A
100
AcDbEntity
  8
0
  6
CENTERX2
 62
     7
370
    18
100
AcDbLine
 10
81.2962813747
 20
63.6276108944
 30
0.0
 11
81.2962813747
 21
89.63971494
 31
0.0
  0
LINE
  5
87
330
7A
100
AcDbEntity
  8
0
  6
CENTERX2
 62
     7
370
    18
100
AcDbLine
 10
81.2962813747
 20
63.6276108944
 30
0.0
 11
107.3083854203
 21
63.6276108944
 31
0.0
  0
INSERT
  5
8E
330
7A
100
AcDbEntity
  8
0
  6
Continuous
 62
     7
370
     0
100
AcDbBlockReference
  2
SW_NOTE_0
 10
14.7222830224
 20
16.6281309378
 30
0.0
  0
ENDBLK
  5
7C
330
7A
100
AcDbEntity
  8
0
100
AcDbBlockEnd
  0
BLOCK
  5
89
330
88
100
AcDbEntity
  8
0
100
AcDbBlockBegin
  2
SW_NOTE_0
 70
     0
 10
0.0
 20
0.0
 30
0.0
  3
SW_NOTE_0
  1

  0
MTEXT
  5
8C
330
88
100
AcDbEntity
  8
0
  6
Continuous
 62
     0
370
     0
100
AcDbMText
 10
46.134375
 20
17.144600939
 30
0.0
 40
13.3
 41
0.0
 71
     2
 72
     1
  1
DIN 6  T1 - 
  7
SLDTEXTSTYLE0
 73
     1
 44
1.0
  0
MTEXT
  5
8D
330
88
100
AcDbEntity
  8
0
  6
Continuous
 62
     0
370
     0
100
AcDbMText
 10
46.5984838367
 20
0.0023782104
 30
0.0
 40
13.3
 41
0.0
 71
     2
 72
     1
  1
Proj.methode 1
  7
SLDTEXTSTYLE0
 73
     1
 44
1.0
  0
ENDBLK
  5
8A
330
88
100
AcDbEntity
  8
0
100
AcDbBlockEnd
  0
BLOCK
  5
90
330
8F
100
AcDbEntity
  8
0
100
AcDbBlockBegin
  2
Block2_3_1
 70
     0
 10
0.0
 20
0.0
 30
0.0
  3
Block2_3_1
  1

  0
ARC
  5
92
330
8F
100
AcDbEntity
  8
FORMAT
100
AcDbCircle
 10
1657.2474557671
 20
399.6934206979
 30
0.0
 40
26.25000000000006
100
AcDbArc
 50
93.8225537293
 51
266.1774462707
  0
ARC
  5
93
330
8F
100
AcDbEntity
  8
FORMAT
100
AcDbCircle
 10
1657.2474557671
 20
399.6934206979
 30
0.0
 40
21.0000000000001
100
AcDbArc
 50
94.7801918472
 51
265.2198081528
  0
ARC
  5
94
330
8F
100
AcDbEntity
  8
FORMAT
100
AcDbCircle
 10
1657.2474557671
 20
399.6934206979
 30
0.0
 40
26.25000000000006
100
AcDbArc
 50
273.8225537293
 51
86.1774462707
  0
ARC
  5
95
330
8F
100
AcDbEntity
  8
FORMAT
100
AcDbCircle
 10
1657.2474557671
 20
399.6934206979
 30
0.0
 40
21.0000000000001
100
AcDbArc
 50
274.7801918472
 51
85.2198081528
  0
ARC
  5
96
330
8F
100
AcDbEntity
  8
FORMAT
100
AcDbCircle
 10
1657.2474557671
 20
407.6242915053
 30
0.0
 40
6.022819479648172
100
AcDbArc
 50
304.8395134495
 51
73.1084194601
  0
ARC
  5
97
330
8F
100
AcDbEntity
  8
FORMAT
100
AcDbCircle
 10
1657.2474557671
 20
407.6242915053
 30
0.0
 40
9.81620102162464
100
AcDbArc
 50
313.8988153445
 51
79.7306010333
  0
ARC
  5
98
330
8F
100
AcDbEntity
  8
FORMAT
100
AcDbCircle
 10
1657.2474557671
 20
388.4857005791
 30
0.0
 40
3.440714680707612
100
AcDbArc
 50
300.5716370086
 51
0.0
  0
ARC
  5
99
330
8F
100
AcDbEntity
  8
FORMAT
100
AcDbCircle
 10
1657.2474557671
 20
407.6242915053
 30
0.0
 40
9.81620102162464
100
AcDbArc
 50
100.2693989667
 51
226.1011846555
  0
ARC
  5
9A
330
8F
100
AcDbEntity
  8
FORMAT
100
AcDbCircle
 10
1657.2474557671
 20
388.4857005791
 30
0.0
 40
6.806425489791309
100
AcDbArc
 50
180.0
 51
255.1013518888
  0
ARC
  5
9B
330
8F
100
AcDbEntity
  8
FORMAT
100
AcDbCircle
 10
1657.2474557671
 20
388.4857005791
 30
0.0
 40
6.806425489791309
100
AcDbArc
 50
284.8986481112
 51
0.0
  0
ARC
  5
9C
330
8F
100
AcDbEntity
  8
FORMAT
100
AcDbCircle
 10
1657.2474557671
 20
388.4857005791
 30
0.0
 40
3.440714680707612
100
AcDbArc
 50
180.0
 51
239.4283629914
  0
ARC
  5
9D
330
8F
100
AcDbEntity
  8
FORMAT
100
AcDbCircle
 10
1657.2474557671
 20
407.6242915053
 30
0.0
 40
6.022819479648172
100
AcDbArc
 50
106.8915805399
 51
235.1604865505
  0
LINE
  5
9E
330
8F
100
AcDbEntity
  8
FORMAT
100
AcDbLine
 10
1627.7186808898
 20
370.1646458206
 30
0.0
 11
1686.7762306444
 21
370.1646458206
 31
0.0
  0
LINE
  5
9F
330
8F
100
AcDbEntity
  8
FORMAT
100
AcDbLine
 10
1627.7186808898
 20
429.2221955752
 30
0.0
 11
1686.7762306444
 21
429.2221955752
 31
0.0
  0
LINE
  5
A0
330
8F
100
AcDbEntity
  8
FORMAT
100
AcDbLine
 10
1627.7186808898
 20
429.2221955752
 30
0.0
 11
1627.7186808898
 21
370.1646458206
 31
0.0
  0
LINE
  5
A1
330
8F
100
AcDbEntity
  8
FORMAT
100
AcDbLine
 10
1686.7762306444
 20
429.2221955752
 30
0.0
 11
1686.7762306444
 21
370.1646458206
 31
0.0
  0
LINE
  5
A2
330
8F
100
AcDbEntity
  8
FORMAT
100
AcDbLine
 10
1655.4974557671
 20
425.8850224053
 30
0.0
 11
1655.4974557671
 21
420.6203769983
 31
0.0
  0
LINE
  5
A3
330
8F
100
AcDbEntity
  8
FORMAT
100
AcDbLine
 10
1658.9974557671
 20
425.8850224053
 30
0.0
 11
1658.9974557671
 21
420.6203769983
 31
0.0
  0
LINE
  5
A4
330
8F
100
AcDbEntity
  8
FORMAT
100
AcDbLine
 10
1655.4974557671
 20
378.7664643974
 30
0.0
 11
1655.4974557671
 21
373.5018189904
 31
0.0
  0
LINE
  5
A5
330
8F
100
AcDbEntity
  8
FORMAT
100
AcDbLine
 10
1658.9974557671
 20
378.7664643974
 30
0.0
 11
1658.9974557671
 21
373.5018189904
 31
0.0
  0
LINE
  5
A6
330
8F
100
AcDbEntity
  8
FORMAT
100
AcDbLine
 10
1658.9974557671
 20
417.2832408527
 30
0.0
 11
1658.9974557671
 21
413.3872642177
 31
0.0
  0
LINE
  5
A7
330
8F
100
AcDbEntity
  8
FORMAT
100
AcDbLine
 10
1655.4974557671
 20
417.2832408527
 30
0.0
 11
1655.4974557671
 21
413.3872642177
 31
0.0
  0
LINE
  5
A8
330
8F
100
AcDbEntity
  8
FORMAT
100
AcDbLine
 10
1650.4410302773
 20
388.4857005791
 30
0.0
 11
1650.4410302773
 21
400.5510762146
 31
0.0
  0
LINE
  5
A9
330
8F
100
AcDbEntity
  8
FORMAT
100
AcDbLine
 10
1664.0538812569
 20
388.4857005791
 30
0.0
 11
1664.0538812569
 21
400.5510762146
 31
0.0
  0
LINE
  5
AA
330
8F
100
AcDbEntity
  8
FORMAT
100
AcDbLine
 10
1660.6881704478
 20
388.4857005791
 30
0.0
 11
1660.6881704478
 21
402.6810297309
 31
0.0
  0
LINE
  5
AB
330
8F
100
AcDbEntity
  8
FORMAT
100
AcDbLine
 10
1653.8067410864
 20
388.4857005791
 30
0.0
 11
1653.8067410864
 21
402.6810297309
 31
0.0
  0
LINE
  5
AC
330
8F
100
AcDbEntity
  8
FORMAT
100
AcDbLine
 10
1655.4974557671
 20
385.5232661892
 30
0.0
 11
1655.4974557671
 21
381.9080925071
 31
0.0
  0
LINE
  5
AD
330
8F
100
AcDbEntity
  8
FORMAT
100
AcDbLine
 10
1658.9974557671
 20
385.5232661892
 30
0.0
 11
1658.9974557671
 21
381.9080925071
 31
0.0
  0
HATCH
  5
AE
330
8F
100
AcDbEntity
  8
FORMAT
100
AcDbHatch
 10
0.0
 20
0.0
 30
0.0
210
0.0
220
0.0
230
1.0
  2
SOLID
 70
     1
 71
     0
 91
        5
 92
        0
 93
        4
 72
     1
 10
1686.776230644441
 20
429.2221955751519
 11
1686.776230644441
 21
370.1646458205502
 72
     1
 10
1686.776230644441
 20
370.1646458205502
 11
1627.718680889839
 21
370.1646458205502
 72
     1
 10
1627.718680889839
 20
370.1646458205502
 11
1627.718680889839
 21
429.2221955751519
 72
     1
 10
1627.718680889839
 20
429.2221955751519
 11
1686.776230644441
 21
429.2221955751519
 97
        0
 92
        0
 93
        4
 72
     2
 10
1657.24745576714
 20
399.693420697851
 40
21.00000000000007
 50
94.78019184719915
 51
265.2198081528017
 73
     0
 72
     1
 10
1655.49745576714
 20
420.6203769982786
 11
1655.49745576714
 21
425.8850224052687
 72
     2
 10
1657.24745576714
 20
399.693420697851
 40
26.25000000000005
 50
93.82255372927435
 51
266.1774462707265
 73
     1
 72
     1
 10
1655.49745576714
 20
373.5018189904334
 11
1655.49745576714
 21
378.7664643974235
 97
        0
 92
        0
 93
        8
 72
     1
 10
1664.053881256931
 20
388.4857005790521
 11
1664.053881256931
 21
400.5510762145541
 72
     2
 10
1657.24745576714
 20
407.6242915052733
 40
9.816201021624591
 50
313.8988153445118
 51
439.730601033339
 73
     1
 72
     1
 10
1658.99745576714
 20
417.2832408527408
 11
1658.99745576714
 21
413.3872642177221
 72
     2
 10
1657.24745576714
 20
407.6242915052733
 40
6.022819479648148
 50
286.8915805399267
 51
415.1604865505418
 73
     0
 72
     1
 10
1660.688170447847
 20
402.6810297308583
 11
1660.688170447847
 21
388.4857005790521
 72
     2
 10
1657.24745576714
 20
388.4857005790521
 40
3.440714680707529
 50
0.0
 51
59.42836299135161
 73
     0
 72
     1
 10
1658.99745576714
 20
385.523266189224
 11
1658.99745576714
 21
381.9080925071099
 72
     2
 10
1657.24745576714
 20
388.4857005790521
 40
6.806425489791268
 50
284.8986481111874
 51
360.0000000000008
 73
     1
 97
        0
 92
        0
 93
        8
 72
     2
 10
1657.24745576714
 20
388.4857005790521
 40
3.440714680707529
 50
120.5716370086479
 51
180.0
 73
     0
 72
     1
 10
1653.806741086432
 20
388.4857005790521
 11
1653.806741086432
 21
402.6810297308583
 72
     2
 10
1657.24745576714
 20
407.6242915052733
 40
6.022819479648148
 50
124.839513449459
 51
253.1084194600749
 73
     0
 72
     1
 10
1655.49745576714
 20
413.3872642177221
 11
1655.49745576714
 21
417.2832408527408
 72
     2
 10
1657.24745576714
 20
407.6242915052733
 40
9.816201021624591
 50
100.2693989666618
 51
226.1011846554899
 73
     1
 72
     1
 10
1650.441030277349
 20
400.5510762145541
 11
1650.441030277349
 21
388.4857005790521
 72
     2
 10
1657.24745576714
 20
388.4857005790521
 40
6.806425489791268
 50
180.0
 51
255.1013518888142
 73
     1
 72
     1
 10
1655.49745576714
 20
381.9080925071099
 11
1655.49745576714
 21
385.5232661892239
 97
        0
 92
        0
 93
        4
 72
     2
 10
1657.24745576714
 20
399.693420697851
 40
21.00000000000007
 50
274.7801918471999
 51
445.2198081528016
 73
     0
 72
     1
 10
1658.99745576714
 20
378.7664643974235
 11
1658.99745576714
 21
373.5018189904334
 72
     2
 10
1657.24745576714
 20
399.693420697851
 40
26.25000000000005
 50
273.8225537292751
 51
446.1774462707265
 73
     1
 72
     1
 10
1658.99745576714
 20
425.8850224052687
 11
1658.99745576714
 21
420.6203769982786
 97
        0
 75
     0
 76
     1
 98
        1
 10
0.0
 20
0.0
  0
INSERT
  5
B4
330
8F
100
AcDbEntity
  8
FORMAT
 62
     7
100
AcDbBlockReference
  2
SW_NOTE_0_1
 10
1625.7602656139
 20
334.0630571774
 30
0.0
  0
INSERT
  5
BC
330
8F
100
AcDbEntity
  8
0
  6
Continuous
 62
     7
370
     0
100
AcDbBlockReference
  2
SW_NOTE_0_2
 10
1708.506124485
 20
399.8232127904
 30
0.0
  0
ENDBLK
  5
91
330
8F
100
AcDbEntity
  8
0
100
AcDbBlockEnd
  0
BLOCK
  5
B0
330
AF
100
AcDbEntity
  8
0
100
AcDbBlockBegin
  2
SW_NOTE_0_1
 70
     0
 10
0.0
 20
0.0
 30
0.0
  3
SW_NOTE_0_1
  1

  0
MTEXT
  5
B3
330
AF
100
AcDbEntity
  8
FORMAT
 62
     0
100
AcDbMText
 10
0.0
 20
27.0563380282
 30
0.0
 40
21.0
 41
0.0
 71
     1
 72
     1
  1
ECO
  7
SLDTEXTSTYLE1
 73
     1
 44
1.0
  0
ENDBLK
  5
B1
330
AF
100
AcDbEntity
  8
0
100
AcDbBlockEnd
  0
BLOCK
  5
B6
330
B5
100
AcDbEntity
  8
0
100
AcDbBlockBegin
  2
SW_NOTE_0_2
 70
     0
 10
0.0
 20
0.0
 30
0.0
  3
SW_NOTE_0_2
  1

  0
MTEXT
  5
B9
330
B5
100
AcDbEntity
  8
0
  6
Continuous
 62
     0
370
     0
100
AcDbMText
 10
0.0
 20
22.558685446
 30
0.0
 40
17.5
 41
0.0
 71
     1
 72
     1
  1
ECO Schulte GmbH & Co. KG
  7
SLDTEXTSTYLE2
 73
     1
 44
1.0
  0
MTEXT
  5
BA
330
B5
100
AcDbEntity
  8
0
  6
Continuous
 62
     0
370
     0
100
AcDbMText
 10
0.0
 20
-1.9413153102
 30
0.0
 40
17.5
 41
0.0
 71
     1
 72
     1
  1
Postfach 206
  7
SLDTEXTSTYLE2
 73
     1
 44
1.0
  0
MTEXT
  5
BB
330
B5
100
AcDbEntity
  8
0
  6
Continuous
 62
     0
370
     0
100
AcDbMText
 10
0.0
 20
-26.4413160665
 30
0.0
 40
17.5
 41
0.0
 71
     1
 72
     1
  1
58682 Menden
  7
SLDTEXTSTYLE2
 73
     1
 44
1.0
  0
ENDBLK
  5
B7
330
B5
100
AcDbEntity
  8
0
100
AcDbBlockEnd
  0
BLOCK
  5
BE
330
BD
100
AcDbEntity
  8
0
100
AcDbBlockBegin
  2
rechtlicher_Hinweis_Katalogzeichnungen_1
 70
     0
 10
0.0
 20
0.0
 30
0.0
  3
rechtlicher_Hinweis_Katalogzeichnungen_1
  1

  0
INSERT
  5
C9
330
BD
100
AcDbEntity
  8
0
  6
Continuous
 62
     7
370
     0
100
AcDbBlockReference
  2
SW_NOTE_0_3
 10
2.1768074632
 20
401.5030406501
 30
0.0
  0
ENDBLK
  5
BF
330
BD
100
AcDbEntity
  8
0
100
AcDbBlockEnd
  0
BLOCK
  5
C1
330
C0
100
AcDbEntity
  8
0
100
AcDbBlockBegin
  2
SW_NOTE_0_3
 70
     0
 10
0.0
 20
0.0
 30
0.0
  3
SW_NOTE_0_3
  1

  0
MTEXT
  5
C3
330
C0
100
AcDbEntity
  8
0
  6
Continuous
 62
     0
370
     0
100
AcDbMText
 10
0.0
 20
45.117370892
 30
0.0
 40
35.0
 41
0.0
 71
     1
 72
     1
  1
Technische Änderungen und Irrtümer vorbehalten. Aus dem Gebrauch der Zeichnung können keinerlei Ansprüche (inkl. 
  7
SLDTEXTSTYLE0
 73
     1
 44
1.0
  0
MTEXT
  5
C4
330
C0
100
AcDbEntity
  8
0
  6
Continuous
 62
     0
370
     0
100
AcDbMText
 10
0.0
 20
-3.8826306204
 30
0.0
 40
35.0
 41
0.0
 71
     1
 72
     1
  1
Schadenersatzansprüche) erhoben und gegen ECO Schulte geltend gemacht werden. Die Zeichnung bleibt unser 
  7
SLDTEXTSTYLE0
 73
     1
 44
1.0
  0
MTEXT
  5
C5
330
C0
100
AcDbEntity
  8
0
  6
Continuous
 62
     0
370
     0
100
AcDbMText
 10
0.0
 20
-52.8826321329
 30
0.0
 40
35.0
 41
0.0
 71
     1
 72
     1
  1
Eigentum. Sämtliche sich aus der Zeichnung ergebenden Ansprüche stehen ausschließlich ECO Schulte zu.
  7
SLDTEXTSTYLE0
 73
     1
 44
1.0
  0
MTEXT
  5
C6
330
C0
100
AcDbEntity
  8
0
  6
Continuous
 62
     0
370
     0
100
AcDbMText
 10
0.0
 20
-150.8826351579
 30
0.0
 40
35.0
 41
0.0
 71
     1
 72
     1
  1
Technical changes and errors excepted. No claims (including compensation claims) may be raised against ECO Schulte by 
  7
SLDTEXTSTYLE0
 73
     1
 44
1.0
  0
MTEXT
  5
C7
330
C0
100
AcDbEntity
  8
0
  6
Continuous
 62
     0
370
     0
100
AcDbMText
 10
0.0
 20
-199.8826366703
 30
0.0
 40
35.0
 41
0.0
 71
     1
 72
     1
  1
using of this drawing. The drawing remains the property of ECO Schulte. All claims resulting from this drawing are solely 
  7
SLDTEXTSTYLE0
 73
     1
 44
1.0
  0
MTEXT
  5
C8
330
C0
100
AcDbEntity
  8
0
  6
Continuous
 62
     0
370
     0
100
AcDbMText
 10
0.0
 20
-248.8826381828
 30
0.0
 40
35.0
 41
0.0
 71
     1
 72
     1
  1
entitled to ECO Schulte.
  7
SLDTEXTSTYLE0
 73
     1
 44
1.0
  0
ENDBLK
  5
C2
330
C0
100
AcDbEntity
  8
0
100
AcDbBlockEnd
  0
BLOCK
  5
DC
330
DB
100
AcDbEntity
  8
0
100
AcDbBlockBegin
  2
SW_NOTE_0_4
 70
     0
 10
0.0
 20
0.0
 30
0.0
  3
SW_NOTE_0_4
  1

  0
MTEXT
  5
DE
330
DB
100
AcDbEntity
  8
FORMAT
 62
     0
100
AcDbMText
 10
0.0
 20
23.8746087637
 30
0.0
 40
18.5208333333
 41
0.0
 71
     1
 72
     1
  1
\LBefestigungsmittel:
  7
SLDTEXTSTYLE0
 73
     1
 44
1.0
  0
MTEXT
  5
DF
330
DB
100
AcDbEntity
  8
FORMAT
 62
     0
100
AcDbMText
 10
0.0
 20
-9.7180977825
 30
0.0
 40
18.5208333333
 41
0.0
 71
     1
 72
     1
  1
1. Montageplatte: Stahl/Alu-Tür: 6x M6 (Einnietmutter M6) ; Holztür: 6x Senkschraube ø6x60
  7
SLDTEXTSTYLE0
 73
     1
 44
1.0
  0
MTEXT
  5
E0
330
DB
100
AcDbEntity
  8
FORMAT
 62
     0
100
AcDbMText
 10
0.0
 20
-41.4125430759
 30
0.0
 40
18.5208333333
 41
0.0
 71
     1
 72
     1
  1
2. Gleitschiene: Stahl/Alu-Tür: 2x M6 (Einnietmutter M6) ; Holztür: 2x Senkschraube ø4x30
  7
SLDTEXTSTYLE0
 73
     1
 44
1.0
  0
ENDBLK
  5
DD
330
DB
100
AcDbEntity
  8
0
100
AcDbBlockEnd
  0
BLOCK
  5
F5
330
F4
100
AcDbEntity
  8
0
100
AcDbBlockBegin
  2
SW_TABLEANNOTATION_0
 70
     0
 10
0.0
 20
0.0
 30
0.0
  3
SW_TABLEANNOTATION_0
  1

  0
LINE
  5
F7
330
F4
100
AcDbEntity
  8
FORMAT
 62
     0
100
AcDbLine
 10
0.0
 20
0.0
 30
0.0
 11
0.0
 21
-38.645834446
 31
0.0
  0
LINE
  5
F8
330
F4
100
AcDbEntity
  8
FORMAT
 62
     0
100
AcDbLine
 10
280.6141322497
 20
0.0
 30
0.0
 11
280.6141322497
 21
-38.645834446
 31
0.0
  0
LINE
  5
F9
330
F4
100
AcDbEntity
  8
FORMAT
 62
     0
100
AcDbLine
 10
0.0
 20
-38.645834446
 30
0.0
 11
0.0
 21
-77.2916688919
 31
0.0
  0
LINE
  5
FA
330
F4
100
AcDbEntity
  8
FORMAT
 62
     0
100
AcDbLine
 10
280.6141322497
 20
-38.645834446
 30
0.0
 11
280.6141322497
 21
-77.2916688919
 31
0.0
  0
LINE
  5
FB
330
F4
100
AcDbEntity
  8
FORMAT
 62
     0
100
AcDbLine
 10
0.0
 20
-77.2916688919
 30
0.0
 11
0.0
 21
-115.9375033379
 31
0.0
  0
LINE
  5
FC
330
F4
100
AcDbEntity
  8
FORMAT
 62
     0
100
AcDbLine
 10
280.6141322497
 20
-77.2916688919
 30
0.0
 11
280.6141322497
 21
-115.9375033379
 31
0.0
  0
LINE
  5
FD
330
F4
100
AcDbEntity
  8
FORMAT
 62
     0
100
AcDbLine
 10
0.0
 20
-115.9375033379
 30
0.0
 11
0.0
 21
-154.5833377838
 31
0.0
  0
LINE
  5
FE
330
F4
100
AcDbEntity
  8
FORMAT
 62
     0
100
AcDbLine
 10
280.6141322497
 20
-115.9375033379
 30
0.0
 11
280.6141322497
 21
-154.5833377838
 31
0.0
  0
LINE
  5
FF
330
F4
100
AcDbEntity
  8
FORMAT
 62
     0
100
AcDbLine
 10
0.0
 20
-154.5833377838
 30
0.0
 11
0.0
 21
-193.2291722298
 31
0.0
  0
LINE
  5
100
330
F4
100
AcDbEntity
  8
FORMAT
 62
     0
100
AcDbLine
 10
280.6141322497
 20
-154.5833377838
 30
0.0
 11
280.6141322497
 21
-193.2291722298
 31
0.0
  0
LINE
  5
101
330
F4
100
AcDbEntity
  8
FORMAT
 62
     0
100
AcDbLine
 10
453.5158984537
 20
0.0
 30
0.0
 11
453.5158984537
 21
-38.645834446
 31
0.0
  0
LINE
  5
102
330
F4
100
AcDbEntity
  8
FORMAT
 62
     0
100
AcDbLine
 10
453.5158984537
 20
-38.645834446
 30
0.0
 11
453.5158984537
 21
-77.2916688919
 31
0.0
  0
LINE
  5
103
330
F4
100
AcDbEntity
  8
FORMAT
 62
     0
100
AcDbLine
 10
453.5158984537
 20
-77.2916688919
 30
0.0
 11
453.5158984537
 21
-115.9375033379
 31
0.0
  0
LINE
  5
104
330
F4
100
AcDbEntity
  8
FORMAT
 62
     0
100
AcDbLine
 10
453.5158984537
 20
-115.9375033379
 30
0.0
 11
453.5158984537
 21
-154.5833377838
 31
0.0
  0
LINE
  5
105
330
F4
100
AcDbEntity
  8
FORMAT
 62
     0
100
AcDbLine
 10
453.5158984537
 20
-154.5833377838
 30
0.0
 11
453.5158984537
 21
-193.2291722298
 31
0.0
  0
LINE
  5
106
330
F4
100
AcDbEntity
  8
FORMAT
 62
     0
100
AcDbLine
 10
0.0
 20
0.0
 30
0.0
 11
280.6141322497
 21
0.0
 31
0.0
  0
LINE
  5
107
330
F4
100
AcDbEntity
  8
FORMAT
 62
     0
100
AcDbLine
 10
0.0
 20
-38.645834446
 30
0.0
 11
280.6141322497
 21
-38.645834446
 31
0.0
  0
LINE
  5
108
330
F4
100
AcDbEntity
  8
FORMAT
 62
     0
100
AcDbLine
 10
280.6141322497
 20
0.0
 30
0.0
 11
453.5158984537
 21
0.0
 31
0.0
  0
LINE
  5
109
330
F4
100
AcDbEntity
  8
FORMAT
 62
     0
100
AcDbLine
 10
280.6141322497
 20
-38.645834446
 30
0.0
 11
453.5158984537
 21
-38.645834446
 31
0.0
  0
LINE
  5
10A
330
F4
100
AcDbEntity
  8
FORMAT
 62
     0
100
AcDbLine
 10
0.0
 20
-77.2916688919
 30
0.0
 11
280.6141322497
 21
-77.2916688919
 31
0.0
  0
LINE
  5
10B
330
F4
100
AcDbEntity
  8
FORMAT
 62
     0
100
AcDbLine
 10
280.6141322497
 20
-77.2916688919
 30
0.0
 11
453.5158984537
 21
-77.2916688919
 31
0.0
  0
LINE
  5
10C
330
F4
100
AcDbEntity
  8
FORMAT
 62
     0
100
AcDbLine
 10
0.0
 20
-115.9375033379
 30
0.0
 11
280.6141322497
 21
-115.9375033379
 31
0.0
  0
LINE
  5
10D
330
F4
100
AcDbEntity
  8
FORMAT
 62
     0
100
AcDbLine
 10
280.6141322497
 20
-115.9375033379
 30
0.0
 11
453.5158984537
 21
-115.9375033379
 31
0.0
  0
LINE
  5
10E
330
F4
100
AcDbEntity
  8
FORMAT
 62
     0
100
AcDbLine
 10
0.0
 20
-154.5833377838
 30
0.0
 11
280.6141322497
 21
-154.5833377838
 31
0.0
  0
LINE
  5
10F
330
F4
100
AcDbEntity
  8
FORMAT
 62
     0
100
AcDbLine
 10
280.6141322497
 20
-154.5833377838
 30
0.0
 11
453.5158984537
 21
-154.5833377838
 31
0.0
  0
LINE
  5
110
330
F4
100
AcDbEntity
  8
FORMAT
 62
     0
100
AcDbLine
 10
0.0
 20
-193.2291722298
 30
0.0
 11
280.6141322497
 21
-193.2291722298
 31
0.0
  0
LINE
  5
111
330
F4
100
AcDbEntity
  8
FORMAT
 62
     0
100
AcDbLine
 10
280.6141322497
 20
-193.2291722298
 30
0.0
 11
453.5158984537
 21
-193.2291722298
 31
0.0
  0
MTEXT
  5
112
330
F4
100
AcDbEntity
  8
FORMAT
 62
     0
100
AcDbMText
 10
17.8581113936
 20
-6.7004728098
 30
0.0
 40
24.5
 41
0.0
 71
     1
 72
     1
  1
Sturztiefe (mm)
  7
SLDTEXTSTYLE0
 73
     1
 44
1.0
  0
MTEXT
  5
113
330
F4
100
AcDbEntity
  8
FORMAT
 62
     0
100
AcDbMText
 10
309.1327176525
 20
-6.7004728098
 30
0.0
 40
24.5
 41
0.0
 71
     1
 72
     1
  1
D (mm)
  7
SLDTEXTSTYLE0
 73
     1
 44
1.0
  0
MTEXT
  5
114
330
F4
100
AcDbEntity
  8
FORMAT
 62
     0
100
AcDbMText
 10
64.0508160935
 20
-45.3463072558
 30
0.0
 40
24.5
 41
0.0
 71
     1
 72
     1
  1
-30 ... +30
  7
SLDTEXTSTYLE0
 73
     1
 44
1.0
  0
MTEXT
  5
115
330
F4
100
AcDbEntity
  8
FORMAT
 62
     0
100
AcDbMText
 10
348.3497380375
 20
-45.3463072558
 30
0.0
 40
24.5
 41
0.0
 71
     1
 72
     1
  1
89
  7
SLDTEXTSTYLE0
 73
     1
 44
1.0
  0
MTEXT
  5
116
330
F4
100
AcDbEntity
  8
FORMAT
 62
     0
100
AcDbMText
 10
59.8143610181
 20
-83.9921417017
 30
0.0
 40
24.5
 41
0.0
 71
     1
 72
     1
  1
+31 ... +80
  7
SLDTEXTSTYLE0
 73
     1
 44
1.0
  0
MTEXT
  5
117
330
F4
100
AcDbEntity
  8
FORMAT
 62
     0
100
AcDbMText
 10
348.3497380375
 20
-83.9921417017
 30
0.0
 40
24.5
 41
0.0
 71
     1
 72
     1
  1
99
  7
SLDTEXTSTYLE0
 73
     1
 44
1.0
  0
MTEXT
  5
118
330
F4
100
AcDbEntity
  8
FORMAT
 62
     0
100
AcDbMText
 10
50.456722361
 20
-122.6379761477
 30
0.0
 40
24.5
 41
0.0
 71
     1
 72
     1
  1
+81 ... +100
  7
SLDTEXTSTYLE0
 73
     1
 44
1.0
  0
MTEXT
  5
119
330
F4
100
AcDbEntity
  8
FORMAT
 62
     0
100
AcDbMText
 10
338.9920993804
 20
-122.6379761477
 30
0.0
 40
24.5
 41
0.0
 71
     1
 72
     1
  1
109
  7
SLDTEXTSTYLE0
 73
     1
 44
1.0
  0
MTEXT
  5
11A
330
F4
100
AcDbEntity
  8
FORMAT
 62
     0
100
AcDbMText
 10
41.0990837039
 20
-161.2838105936
 30
0.0
 40
24.5
 41
0.0
 71
     1
 72
     1
  1
+101 ... +120
  7
SLDTEXTSTYLE0
 73
     1
 44
1.0
  0
MTEXT
  5
11B
330
F4
100
AcDbEntity
  8
FORMAT
 62
     0
100
AcDbMText
 10
338.9920993804
 20
-161.2838105936
 30
0.0
 40
24.5
 41
0.0
 71
     1
 72
     1
  1
119
  7
SLDTEXTSTYLE0
 73
     1
 44
1.0
  0
ENDBLK
  5
F6
330
F4
100
AcDbEntity
  8
0
100
AcDbBlockEnd
  0
BLOCK
  5
22E
330
22D
100
AcDbEntity
  8
0
100
AcDbBlockBegin
  2
_D
 70
     0
 10
0.0
 20
0.0
 30
0.0
  3
_D
  1

  0
SOLID
  5
230
330
22D
100
AcDbEntity
  8
FORMAT
100
AcDbTrace
 10
611.7582238174
 20
1438.779911696
 30
0.0
 11
634.8722238174
 21
1435.223911696
 31
0.0
 12
634.8722238174
 22
1442.335911696
 32
0.0
 13
634.8722238174
 23
1442.335911696
 33
0.0
  0
SOLID
  5
231
330
22D
100
AcDbEntity
  8
FORMAT
100
AcDbTrace
 10
1264.7582238174
 20
1438.7799116961
 30
0.0
 11
1241.6442238174
 21
1442.3359116961
 31
0.0
 12
1241.6442238174
 22
1435.2239116961
 32
0.0
 13
1241.6442238174
 23
1435.2239116961
 33
0.0
  0
LINE
  5
232
330
22D
100
AcDbEntity
  8
FORMAT
100
AcDbLine
 10
611.7582238174
 20
1556.8830785669
 30
0.0
 11
611.7582238174
 21
1431.779911696
 31
0.0
  0
LINE
  5
233
330
22D
100
AcDbEntity
  8
FORMAT
100
AcDbLine
 10
1264.7582238174
 20
1556.8830785669
 30
0.0
 11
1264.7582238174
 21
1431.7799116961
 31
0.0
  0
LINE
  5
234
330
22D
100
AcDbEntity
  8
FORMAT
100
AcDbLine
 10
611.7582238174
 20
1438.779911696
 30
0.0
 11
1264.7582238174
 21
1438.7799116961
 31
0.0
  0
MTEXT
  5
235
330
22D
100
AcDbEntity
  8
FORMAT
100
AcDbMText
 10
910.1853078461
 20
1470.3620729503
 30
0.0
 40
24.5
 41
0.0
 71
     1
 72
     1
  1
653
  7
SLDTEXTSTYLE0
 73
     1
 44
1.0
  0
ENDBLK
  5
22F
330
22D
100
AcDbEntity
  8
0
100
AcDbBlockEnd
  0
BLOCK
  5
239
330
238
100
AcDbEntity
  8
0
100
AcDbBlockBegin
  2
_D_1
 70
     0
 10
0.0
 20
0.0
 30
0.0
  3
_D_1
  1

  0
SOLID
  5
23B
330
238
100
AcDbEntity
  8
FORMAT
100
AcDbTrace
 10
1304.7455017408
 20
1563.3830785669
 30
0.0
 11
1301.1895017408
 21
1540.2690785669
 31
0.0
 12
1308.3015017408
 22
1540.2690785669
 32
0.0
 13
1308.3015017408
 23
1540.2690785669
 33
0.0
  0
SOLID
  5
23C
330
238
100
AcDbEntity
  8
FORMAT
100
AcDbTrace
 10
1304.7455017408
 20
1580.3830785669
 30
0.0
 11
1308.3015017408
 21
1603.4970785669
 31
0.0
 12
1301.1895017408
 22
1603.4970785669
 32
0.0
 13
1301.1895017408
 23
1603.4970785669
 33
0.0
  0
LINE
  5
23D
330
238
100
AcDbEntity
  8
FORMAT
100
AcDbLine
 10
1271.2582238174
 20
1563.3830785669
 30
0.0
 11
1311.7455017408
 21
1563.3830785669
 31
0.0
  0
LINE
  5
23E
330
238
100
AcDbEntity
  8
FORMAT
100
AcDbLine
 10
1271.2582238174
 20
1580.3830785669
 30
0.0
 11
1311.7455017408
 21
1580.3830785669
 31
0.0
  0
LINE
  5
23F
330
238
100
AcDbEntity
  8
FORMAT
100
AcDbLine
 10
1304.7455017408
 20
1563.3830785669
 30
0.0
 11
1304.7455017408
 21
1511.0210613489
 31
0.0
  0
LINE
  5
240
330
238
100
AcDbEntity
  8
FORMAT
100
AcDbLine
 10
1304.7455017408
 20
1563.3830785669
 30
0.0
 11
1304.7455017408
 21
1580.3830785669
 31
0.0
  0
LINE
  5
241
330
238
100
AcDbEntity
  8
FORMAT
100
AcDbLine
 10
1304.7455017408
 20
1580.3830785669
 30
0.0
 11
1304.7455017408
 21
1624.8330785669
 31
0.0
  0
MTEXT
  5
242
330
238
100
AcDbEntity
  8
FORMAT
100
AcDbMText
 10
1273.1633404866
 20
1511.0210613489
 30
0.0
 40
24.5
 41
0.0
 71
     1
 72
     1
  1
17
  7
SLDTEXTSTYLE0
 11
-3.269436733918102E-15
 21
1.0
 31
0.0
 73
     1
 44
1.0
  0
ENDBLK
  5
23A
330
238
100
AcDbEntity
  8
0
100
AcDbBlockEnd
  0
BLOCK
  5
245
330
244
100
AcDbEntity
  8
0
100
AcDbBlockBegin
  2
_D_2
 70
     0
 10
0.0
 20
0.0
 30
0.0
  3
_D_2
  1

  0
SOLID
  5
247
330
244
100
AcDbEntity
  8
FORMAT
100
AcDbTrace
 10
506.8802929513
 20
1643.3830785607
 30
0.0
 11
510.4362929513
 21
1666.4970785607
 31
0.0
 12
503.3242929513
 22
1666.4970785607
 32
0.0
 13
503.3242929513
 23
1666.4970785607
 33
0.0
  0
SOLID
  5
248
330
244
100
AcDbEntity
  8
FORMAT
100
AcDbTrace
 10
506.8802929513
 20
1738.3830785607
 30
0.0
 11
503.3242929513
 21
1715.2690785607
 31
0.0
 12
510.4362929513
 22
1715.2690785607
 32
0.0
 13
510.4362929513
 23
1715.2690785607
 33
0.0
  0
LINE
  5
249
330
244
100
AcDbEntity
  8
FORMAT
100
AcDbLine
 10
535.7582239411
 20
1643.3830785607
 30
0.0
 11
499.8802929513
 21
1643.3830785607
 31
0.0
  0
LINE
  5
24A
330
244
100
AcDbEntity
  8
FORMAT
100
AcDbLine
 10
535.7582239411
 20
1738.3830785607
 30
0.0
 11
499.8802929513
 21
1738.3830785607
 31
0.0
  0
LINE
  5
24B
330
244
100
AcDbEntity
  8
FORMAT
100
AcDbLine
 10
506.8802929513
 20
1643.3830785607
 30
0.0
 11
506.8802929513
 21
1738.3830785607
 31
0.0
  0
MTEXT
  5
24C
330
244
100
AcDbEntity
  8
FORMAT
100
AcDbMText
 10
475.2981316971
 20
1672.1678012465
 30
0.0
 40
24.5
 41
0.0
 71
     1
 72
     1
  1
95
  7
SLDTEXTSTYLE0
 11
6.123233995736766E-17
 21
1.0
 31
0.0
 73
     1
 44
1.0
  0
ENDBLK
  5
246
330
244
100
AcDbEntity
  8
0
100
AcDbBlockEnd
  0
BLOCK
  5
24F
330
24E
100
AcDbEntity
  8
0
100
AcDbBlockBegin
  2
_D_3
 70
     0
 10
0.0
 20
0.0
 30
0.0
  3
_D_3
  1

  0
SOLID
  5
251
330
24E
100
AcDbEntity
  8
FORMAT
100
AcDbTrace
 10
533.2582239411
 20
1898.8830785607
 30
0.0
 11
556.3722239411
 21
1895.3270785607
 31
0.0
 12
556.3722239411
 22
1902.4390785607
 32
0.0
 13
556.3722239411
 23
1902.4390785607
 33
0.0
  0
SOLID
  5
252
330
24E
100
AcDbEntity
  8
FORMAT
100
AcDbTrace
 10
1222.2582239411
 20
1898.8830785607
 30
0.0
 11
1199.1442239411
 21
1902.4390785607
 31
0.0
 12
1199.1442239411
 22
1895.3270785607
 32
0.0
 13
1199.1442239411
 23
1895.3270785607
 33
0.0
  0
LINE
  5
253
330
24E
100
AcDbEntity
  8
FORMAT
100
AcDbLine
 10
533.2582239411
 20
1740.3830785607
 30
0.0
 11
533.2582239411
 21
1905.8830785607
 31
0.0
  0
LINE
  5
254
330
24E
100
AcDbEntity
  8
FORMAT
100
AcDbLine
 10
1222.2582239411
 20
1740.3830785607
 30
0.0
 11
1222.2582239411
 21
1905.8830785607
 31
0.0
  0
LINE
  5
255
330
24E
100
AcDbEntity
  8
FORMAT
100
AcDbLine
 10
533.2582239411
 20
1898.8830785607
 30
0.0
 11
1222.2582239411
 21
1898.8830785607
 31
0.0
  0
MTEXT
  5
256
330
24E
100
AcDbEntity
  8
FORMAT
100
AcDbMText
 10
849.6853079698
 20
1930.4652398149
 30
0.0
 40
24.5
 41
0.0
 71
     1
 72
     1
  1
689
  7
SLDTEXTSTYLE0
 73
     1
 44
1.0
  0
ENDBLK
  5
250
330
24E
100
AcDbEntity
  8
0
100
AcDbBlockEnd
  0
BLOCK
  5
259
330
258
100
AcDbEntity
  8
0
100
AcDbBlockBegin
  2
_D_4
 70
     0
 10
0.0
 20
0.0
 30
0.0
  3
_D_4
  1

  0
SOLID
  5
25B
330
258
100
AcDbEntity
  8
FORMAT
100
AcDbTrace
 10
532.7582239411
 20
1372.5175745137
 30
0.0
 11
555.8722239411
 21
1368.9615745137
 31
0.0
 12
555.8722239411
 22
1376.0735745137
 32
0.0
 13
555.8722239411
 23
1376.0735745137
 33
0.0
  0
SOLID
  5
25C
330
258
100
AcDbEntity
  8
FORMAT
100
AcDbTrace
 10
812.7582239412
 20
1372.5175745137
 30
0.0
 11
789.6442239412
 21
1376.0735745137
 31
0.0
 12
789.6442239412
 22
1368.9615745137
 32
0.0
 13
789.6442239412
 23
1368.9615745137
 33
0.0
  0
LINE
  5
25D
330
258
100
AcDbEntity
  8
FORMAT
100
AcDbLine
 10
812.7582239412
 20
1599.3830785608
 30
0.0
 11
812.7582239412
 21
1365.5175745137
 31
0.0
  0
LINE
  5
25E
330
258
100
AcDbEntity
  8
FORMAT
100
AcDbLine
 10
532.7582239411
 20
1372.5175745137
 30
0.0
 11
812.7582239412
 21
1372.5175745137
 31
0.0
  0
MTEXT
  5
25F
330
258
100
AcDbEntity
  8
FORMAT
100
AcDbMText
 10
644.6853079699
 20
1404.099735768
 30
0.0
 40
24.5
 41
0.0
 71
     1
 72
     1
  1
280
  7
SLDTEXTSTYLE0
 73
     1
 44
1.0
  0
ENDBLK
  5
25A
330
258
100
AcDbEntity
  8
0
100
AcDbBlockEnd
  0
BLOCK
  5
32D
330
32C
100
AcDbEntity
  8
0
100
AcDbBlockBegin
  2
_D_5
 70
     0
 10
0.0
 20
0.0
 30
0.0
  3
_D_5
  1

  0
SOLID
  5
32F
330
32C
100
AcDbEntity
  8
FORMAT
100
AcDbTrace
 10
1255.6099599885
 20
805.8357753135
 30
0.0
 11
1259.1659599885
 21
828.9497753135
 31
0.0
 12
1252.0539599885
 22
828.9497753135
 32
0.0
 13
1252.0539599885
 23
828.9497753135
 33
0.0
  0
SOLID
  5
330
330
32C
100
AcDbEntity
  8
FORMAT
100
AcDbTrace
 10
1255.6099599885
 20
896.8357753135
 30
0.0
 11
1252.0539599885
 21
873.7217753135
 31
0.0
 12
1259.1659599885
 22
873.7217753135
 32
0.0
 13
1259.1659599885
 23
873.7217753135
 33
0.0
  0
LINE
  5
331
330
32C
100
AcDbEntity
  8
FORMAT
100
AcDbLine
 10
1219.7582239411
 20
805.8357753135
 30
0.0
 11
1262.6099599885
 21
805.8357753135
 31
0.0
  0
LINE
  5
332
330
32C
100
AcDbEntity
  8
FORMAT
100
AcDbLine
 10
1219.7582239411
 20
896.8357753135
 30
0.0
 11
1262.6099599885
 21
896.8357753135
 31
0.0
  0
LINE
  5
333
330
32C
100
AcDbEntity
  8
FORMAT
100
AcDbLine
 10
1255.6099599885
 20
805.8357753135
 30
0.0
 11
1255.6099599885
 21
896.8357753135
 31
0.0
  0
MTEXT
  5
334
330
32C
100
AcDbEntity
  8
FORMAT
100
AcDbMText
 10
1224.0277987343
 20
832.6204979993
 30
0.0
 40
24.5
 41
0.0
 71
     1
 72
     1
  1
91
  7
SLDTEXTSTYLE0
 11
-6.049014748177263E-16
 21
1.0
 31
0.0
 73
     1
 44
1.0
  0
ENDBLK
  5
32E
330
32C
100
AcDbEntity
  8
0
100
AcDbBlockEnd
  0
BLOCK
  5
337
330
336
100
AcDbEntity
  8
0
100
AcDbBlockBegin
  2
_D_6
 70
     0
 10
0.0
 20
0.0
 30
0.0
  3
_D_6
  1

  0
SOLID
  5
339
330
336
100
AcDbEntity
  8
FORMAT
100
AcDbTrace
 10
532.7582239411
 20
601.9275080585
 30
0.0
 11
555.8722239411
 21
598.3715080585
 31
0.0
 12
555.8722239411
 22
605.4835080585
 32
0.0
 13
555.8722239411
 23
605.4835080585
 33
0.0
  0
SOLID
  5
33A
330
336
100
AcDbEntity
  8
FORMAT
100
AcDbTrace
 10
621.7582239411
 20
601.9275080585
 30
0.0
 11
598.6442239411
 21
605.4835080585
 31
0.0
 12
598.6442239411
 22
598.3715080585
 32
0.0
 13
598.6442239411
 23
598.3715080585
 33
0.0
  0
LINE
  5
33B
330
336
100
AcDbEntity
  8
FORMAT
100
AcDbLine
 10
621.7582239411
 20
719.3357753139
 30
0.0
 11
621.7582239411
 21
594.9275080585
 31
0.0
  0
LINE
  5
33C
330
336
100
AcDbEntity
  8
FORMAT
100
AcDbLine
 10
532.7582239411
 20
601.9275080585
 30
0.0
 11
621.7582239411
 21
601.9275080585
 31
0.0
  0
MTEXT
  5
33D
330
336
100
AcDbEntity
  8
FORMAT
100
AcDbMText
 10
565.1103069945
 20
633.5096693127
 30
0.0
 40
24.5
 41
0.0
 71
     1
 72
     1
  1
D
  7
SLDTEXTSTYLE0
 73
     1
 44
1.0
  0
ENDBLK
  5
338
330
336
100
AcDbEntity
  8
0
100
AcDbBlockEnd
  0
BLOCK
  5
340
330
33F
100
AcDbEntity
  8
0
100
AcDbBlockBegin
  2
_D_7
 70
     0
 10
0.0
 20
0.0
 30
0.0
  3
_D_7
  1

  0
SOLID
  5
342
330
33F
100
AcDbEntity
  8
FORMAT
100
AcDbTrace
 10
621.7582239411
 20
601.9275080585
 30
0.0
 11
644.8722239411
 21
598.3715080585
 31
0.0
 12
644.8722239411
 22
605.4835080585
 32
0.0
 13
644.8722239411
 23
605.4835080585
 33
0.0
  0
SOLID
  5
343
330
33F
100
AcDbEntity
  8
FORMAT
100
AcDbTrace
 10
1254.7582239411
 20
601.9275080585
 30
0.0
 11
1231.6442239411
 21
605.4835080585
 31
0.0
 12
1231.6442239411
 22
598.3715080585
 32
0.0
 13
1231.6442239411
 23
598.3715080585
 33
0.0
  0
LINE
  5
344
330
33F
100
AcDbEntity
  8
FORMAT
100
AcDbLine
 10
621.7582239411
 20
719.3357753139
 30
0.0
 11
621.7582239411
 21
594.9275080585
 31
0.0
  0
LINE
  5
345
330
33F
100
AcDbEntity
  8
FORMAT
100
AcDbLine
 10
1254.7582239411
 20
719.3357753139
 30
0.0
 11
1254.7582239411
 21
594.9275080585
 31
0.0
  0
LINE
  5
346
330
33F
100
AcDbEntity
  8
FORMAT
100
AcDbLine
 10
621.7582239411
 20
601.9275080585
 30
0.0
 11
1254.7582239411
 21
601.9275080585
 31
0.0
  0
MTEXT
  5
347
330
33F
100
AcDbEntity
  8
FORMAT
100
AcDbMText
 10
910.1853079698
 20
633.5096693127
 30
0.0
 40
24.5
 41
0.0
 71
     1
 72
     1
  1
633
  7
SLDTEXTSTYLE0
 73
     1
 44
1.0
  0
ENDBLK
  5
341
330
33F
100
AcDbEntity
  8
0
100
AcDbBlockEnd
  0
BLOCK
  5
34B
330
34A
100
AcDbEntity
  8
0
100
AcDbBlockBegin
  2
_D_8
 70
     0
 10
0.0
 20
0.0
 30
0.0
  3
_D_8
  1

  0
SOLID
  5
34D
330
34A
100
AcDbEntity
  8
FORMAT
100
AcDbTrace
 10
1317.9281760487
 20
732.0857753139
 30
0.0
 11
1314.3721760487
 21
708.9717753139
 31
0.0
 12
1321.4841760487
 22
708.9717753139
 32
0.0
 13
1321.4841760487
 23
708.9717753139
 33
0.0
  0
SOLID
  5
34E
330
34A
100
AcDbEntity
  8
FORMAT
100
AcDbTrace
 10
1317.9281760487
 20
767.3357753139
 30
0.0
 11
1321.4841760487
 21
790.4497753139
 31
0.0
 12
1314.3721760487
 22
790.4497753139
 32
0.0
 13
1314.3721760487
 23
790.4497753139
 33
0.0
  0
LINE
  5
34F
330
34A
100
AcDbEntity
  8
FORMAT
100
AcDbLine
 10
1267.5082239411
 20
732.0857753139
 30
0.0
 11
1324.9281760487
 21
732.0857753139
 31
0.0
  0
LINE
  5
350
330
34A
100
AcDbEntity
  8
FORMAT
100
AcDbLine
 10
1317.9281760487
 20
732.0857753139
 30
0.0
 11
1317.9281760487
 21
662.9058671194
 31
0.0
  0
LINE
  5
351
330
34A
100
AcDbEntity
  8
FORMAT
100
AcDbLine
 10
1317.9281760487
 20
732.0857753139
 30
0.0
 11
1317.9281760487
 21
767.3357753139
 31
0.0
  0
LINE
  5
352
330
34A
100
AcDbEntity
  8
FORMAT
100
AcDbLine
 10
1317.9281760487
 20
767.3357753139
 30
0.0
 11
1317.9281760487
 21
811.7857753139
 31
0.0
  0
MTEXT
  5
353
330
34A
100
AcDbEntity
  8
FORMAT
100
AcDbMText
 10
1286.3460147945
 20
662.9058671194
 30
0.0
 40
24.5
 41
0.0
 71
     1
 72
     1
  1
35
  7
SLDTEXTSTYLE0
 11
6.123233995736766E-17
 21
1.0
 31
0.0
 73
     1
 44
1.0
  0
ENDBLK
  5
34C
330
34A
100
AcDbEntity
  8
0
100
AcDbBlockEnd
  0
BLOCK
  5
356
330
355
100
AcDbEntity
  8
0
100
AcDbBlockBegin
  2
_D_9
 70
     0
 10
0.0
 20
0.0
 30
0.0
  3
_D_9
  1

  0
SOLID
  5
358
330
355
100
AcDbEntity
  8
FORMAT
100
AcDbTrace
 10
732.2838726776
 20
767.3357753139
 30
0.0
 11
728.7278726776
 21
744.2217753139
 31
0.0
 12
735.8398726776
 22
744.2217753139
 32
0.0
 13
735.8398726776
 23
744.2217753139
 33
0.0
  0
SOLID
  5
359
330
355
100
AcDbEntity
  8
FORMAT
100
AcDbTrace
 10
732.2838726776
 20
813.3357753135
 30
0.0
 11
735.8398726776
 21
836.4497753135
 31
0.0
 12
728.7278726776
 22
836.4497753135
 32
0.0
 13
728.7278726776
 23
836.4497753135
 33
0.0
  0
LINE
  5
35A
330
355
100
AcDbEntity
  8
FORMAT
100
AcDbLine
 10
737.0082239411
 20
813.3357753135
 30
0.0
 11
725.2838726776
 21
813.3357753135
 31
0.0
  0
LINE
  5
35B
330
355
100
AcDbEntity
  8
FORMAT
100
AcDbLine
 10
732.2838726776
 20
767.3357753139
 30
0.0
 11
732.2838726776
 21
699.2982023819
 31
0.0
  0
LINE
  5
35C
330
355
100
AcDbEntity
  8
FORMAT
100
AcDbLine
 10
732.2838726776
 20
767.3357753139
 30
0.0
 11
732.2838726776
 21
813.3357753135
 31
0.0
  0
LINE
  5
35D
330
355
100
AcDbEntity
  8
FORMAT
100
AcDbLine
 10
732.2838726776
 20
813.3357753135
 30
0.0
 11
732.2838726776
 21
857.7857753135
 31
0.0
  0
MTEXT
  5
35E
330
355
100
AcDbEntity
  8
FORMAT
100
AcDbMText
 10
700.7017114234
 20
699.2982023819
 30
0.0
 40
24.5
 41
0.0
 71
     1
 72
     1
  1
46
  7
SLDTEXTSTYLE0
 11
6.123233995736766E-17
 21
1.0
 31
0.0
 73
     1
 44
1.0
  0
ENDBLK
  5
357
330
355
100
AcDbEntity
  8
0
100
AcDbBlockEnd
  0
BLOCK
  5
361
330
360
100
AcDbEntity
  8
0
100
AcDbBlockBegin
  2
_D_10
 70
     0
 10
0.0
 20
0.0
 30
0.0
  3
_D_10
  1

  0
SOLID
  5
363
330
360
100
AcDbEntity
  8
FORMAT
100
AcDbTrace
 10
394.3409010692
 20
767.3357753139
 30
0.0
 11
390.7849010692
 21
744.2217753139
 31
0.0
 12
397.8969010692
 22
744.2217753139
 32
0.0
 13
397.8969010692
 23
744.2217753139
 33
0.0
  0
SOLID
  5
364
330
360
100
AcDbEntity
  8
FORMAT
100
AcDbTrace
 10
394.3409010692
 20
805.8357753135
 30
0.0
 11
397.8969010692
 21
828.9497753135
 31
0.0
 12
390.7849010692
 22
828.9497753135
 32
0.0
 13
390.7849010692
 23
828.9497753135
 33
0.0
  0
LINE
  5
365
330
360
100
AcDbEntity
  8
FORMAT
100
AcDbLine
 10
530.7582239411
 20
767.3357753139
 30
0.0
 11
387.3409010692
 21
767.3357753139
 31
0.0
  0
LINE
  5
366
330
360
100
AcDbEntity
  8
FORMAT
100
AcDbLine
 10
535.7582239411
 20
805.8357753135
 30
0.0
 11
387.3409010692
 21
805.8357753135
 31
0.0
  0
LINE
  5
367
330
360
100
AcDbEntity
  8
FORMAT
100
AcDbLine
 10
394.3409010692
 20
767.3357753139
 30
0.0
 11
394.3409010692
 21
699.2982023819
 31
0.0
  0
LINE
  5
368
330
360
100
AcDbEntity
  8
FORMAT
100
AcDbLine
 10
394.3409010692
 20
767.3357753139
 30
0.0
 11
394.3409010692
 21
805.8357753135
 31
0.0
  0
LINE
  5
369
330
360
100
AcDbEntity
  8
FORMAT
100
AcDbLine
 10
394.3409010692
 20
805.8357753135
 30
0.0
 11
394.3409010692
 21
850.2857753135
 31
0.0
  0
MTEXT
  5
36A
330
360
100
AcDbEntity
  8
FORMAT
100
AcDbMText
 10
362.758739815
 20
699.2982023819
 30
0.0
 40
24.5
 41
0.0
 71
     1
 72
     1
  1
39
  7
SLDTEXTSTYLE0
 11
6.123233995736766E-17
 21
1.0
 31
0.0
 73
     1
 44
1.0
  0
ENDBLK
  5
362
330
360
100
AcDbEntity
  8
0
100
AcDbBlockEnd
  0
BLOCK
  5
36D
330
36C
100
AcDbEntity
  8
0
100
AcDbBlockBegin
  2
_D_11
 70
     0
 10
0.0
 20
0.0
 30
0.0
  3
_D_11
  1

  0
SOLID
  5
36F
330
36C
100
AcDbEntity
  8
FORMAT
100
AcDbTrace
 10
348.8813849563
 20
805.8357753135
 30
0.0
 11
345.3253849563
 21
782.7217753135
 31
0.0
 12
352.4373849563
 22
782.7217753135
 32
0.0
 13
352.4373849563
 23
782.7217753135
 33
0.0
  0
SOLID
  5
370
330
36C
100
AcDbEntity
  8
FORMAT
100
AcDbTrace
 10
348.8813849563
 20
840.3357753139
 30
0.0
 11
352.4373849563
 21
863.4497753139
 31
0.0
 12
345.3253849563
 22
863.4497753139
 32
0.0
 13
345.3253849563
 23
863.4497753139
 33
0.0
  0
LINE
  5
371
330
36C
100
AcDbEntity
  8
FORMAT
100
AcDbLine
 10
535.7582239411
 20
805.8357753135
 30
0.0
 11
341.8813849563
 21
805.8357753135
 31
0.0
  0
LINE
  5
372
330
36C
100
AcDbEntity
  8
FORMAT
100
AcDbLine
 10
537.2582239411
 20
840.3357753139
 30
0.0
 11
404.8409010692
 21
840.3357753139
 31
0.0
  0
LINE
  5
373
330
36C
100
AcDbEntity
  8
FORMAT
100
AcDbLine
 10
383.8409010692
 20
840.3357753139
 30
0.0
 11
341.8813849563
 21
840.3357753139
 31
0.0
  0
LINE
  5
374
330
36C
100
AcDbEntity
  8
FORMAT
100
AcDbLine
 10
348.8813849563
 20
805.8357753135
 30
0.0
 11
348.8813849563
 21
699.2982023819
 31
0.0
  0
LINE
  5
375
330
36C
100
AcDbEntity
  8
FORMAT
100
AcDbLine
 10
348.8813849563
 20
805.8357753135
 30
0.0
 11
348.8813849563
 21
840.3357753139
 31
0.0
  0
LINE
  5
376
330
36C
100
AcDbEntity
  8
FORMAT
100
AcDbLine
 10
348.8813849563
 20
840.3357753139
 30
0.0
 11
348.8813849563
 21
884.7857753139
 31
0.0
  0
MTEXT
  5
377
330
36C
100
AcDbEntity
  8
FORMAT
100
AcDbMText
 10
317.2992237021
 20
699.2982023819
 30
0.0
 40
24.5
 41
0.0
 71
     1
 72
     1
  1
35
  7
SLDTEXTSTYLE0
 11
2.832769448823990E-16
 21
1.0
 31
0.0
 73
     1
 44
1.0
  0
ENDBLK
  5
36E
330
36C
100
AcDbEntity
  8
0
100
AcDbBlockEnd
  0
BLOCK
  5
37A
330
379
100
AcDbEntity
  8
0
100
AcDbBlockBegin
  2
_D_12
 70
     0
 10
0.0
 20
0.0
 30
0.0
  3
_D_12
  1

  0
SOLID
  5
37C
330
379
100
AcDbEntity
  8
FORMAT
100
AcDbTrace
 10
302.8622740951
 20
840.3357753139
 30
0.0
 11
299.3062740951
 21
817.2217753139
 31
0.0
 12
306.4182740951
 22
817.2217753139
 32
0.0
 13
306.4182740951
 23
817.2217753139
 33
0.0
  0
SOLID
  5
37D
330
379
100
AcDbEntity
  8
FORMAT
100
AcDbTrace
 10
302.8622740951
 20
863.3357753139
 30
0.0
 11
306.4182740951
 21
886.4497753139
 31
0.0
 12
299.3062740951
 22
886.4497753139
 32
0.0
 13
299.3062740951
 23
886.4497753139
 33
0.0
  0
LINE
  5
37E
330
379
100
AcDbEntity
  8
FORMAT
100
AcDbLine
 10
537.2582239411
 20
840.3357753139
 30
0.0
 11
404.8409010692
 21
840.3357753139
 31
0.0
  0
LINE
  5
37F
330
379
100
AcDbEntity
  8
FORMAT
100
AcDbLine
 10
383.8409010692
 20
840.3357753139
 30
0.0
 11
295.8622740951
 21
840.3357753139
 31
0.0
  0
LINE
  5
380
330
379
100
AcDbEntity
  8
FORMAT
100
AcDbLine
 10
537.2582239411
 20
863.3357753139
 30
0.0
 11
359.3813849563
 21
863.3357753139
 31
0.0
  0
LINE
  5
381
330
379
100
AcDbEntity
  8
FORMAT
100
AcDbLine
 10
338.3813849563
 20
863.3357753139
 30
0.0
 11
295.8622740951
 21
863.3357753139
 31
0.0
  0
LINE
  5
382
330
379
100
AcDbEntity
  8
FORMAT
100
AcDbLine
 10
302.8622740951
 20
840.3357753139
 30
0.0
 11
302.8622740951
 21
699.2982023819
 31
0.0
  0
LINE
  5
383
330
379
100
AcDbEntity
  8
FORMAT
100
AcDbLine
 10
302.8622740951
 20
840.3357753139
 30
0.0
 11
302.8622740951
 21
863.3357753139
 31
0.0
  0
LINE
  5
384
330
379
100
AcDbEntity
  8
FORMAT
100
AcDbLine
 10
302.8622740951
 20
863.3357753139
 30
0.0
 11
302.8622740951
 21
907.7857753139
 31
0.0
  0
MTEXT
  5
385
330
379
100
AcDbEntity
  8
FORMAT
100
AcDbMText
 10
271.2801128409
 20
699.2982023819
 30
0.0
 40
24.5
 41
0.0
 71
     1
 72
     1
  1
23
  7
SLDTEXTSTYLE0
 11
6.123233995736766E-17
 21
1.0
 31
0.0
 73
     1
 44
1.0
  0
ENDBLK
  5
37B
330
379
100
AcDbEntity
  8
0
100
AcDbBlockEnd
  0
BLOCK
  5
388
330
387
100
AcDbEntity
  8
0
100
AcDbBlockBegin
  2
_D_13
 70
     0
 10
0.0
 20
0.0
 30
0.0
  3
_D_13
  1

  0
SOLID
  5
38A
330
387
100
AcDbEntity
  8
FORMAT
100
AcDbTrace
 10
532.7582239411
 20
964.9198130374
 30
0.0
 11
509.6442239411
 21
968.4758130374
 31
0.0
 12
509.6442239411
 22
961.3638130374
 32
0.0
 13
509.6442239411
 23
961.3638130374
 33
0.0
  0
SOLID
  5
38B
330
387
100
AcDbEntity
  8
FORMAT
100
AcDbTrace
 10
542.7582239411
 20
964.9198130374
 30
0.0
 11
565.8722239411
 21
961.3638130374
 31
0.0
 12
565.8722239411
 22
968.4758130374
 32
0.0
 13
565.8722239411
 23
968.4758130374
 33
0.0
  0
LINE
  5
38C
330
387
100
AcDbEntity
  8
FORMAT
100
AcDbLine
 10
532.7582239411
 20
623.3357753139
 30
0.0
 11
532.7582239411
 21
971.9198130374
 31
0.0
  0
LINE
  5
38D
330
387
100
AcDbEntity
  8
FORMAT
100
AcDbLine
 10
542.7582239411
 20
896.3357753135
 30
0.0
 11
542.7582239411
 21
971.9198130374
 31
0.0
  0
LINE
  5
38E
330
387
100
AcDbEntity
  8
FORMAT
100
AcDbLine
 10
532.7582239411
 20
964.9198130374
 30
0.0
 11
460.0404969812
 21
964.9198130374
 31
0.0
  0
LINE
  5
38F
330
387
100
AcDbEntity
  8
FORMAT
100
AcDbLine
 10
532.7582239411
 20
964.9198130374
 30
0.0
 11
542.7582239411
 21
964.9198130374
 31
0.0
  0
LINE
  5
390
330
387
100
AcDbEntity
  8
FORMAT
100
AcDbLine
 10
542.7582239411
 20
964.9198130374
 30
0.0
 11
587.2082239411
 21
964.9198130374
 31
0.0
  0
MTEXT
  5
391
330
387
100
AcDbEntity
  8
FORMAT
100
AcDbMText
 10
460.0404969812
 20
996.5019742917
 30
0.0
 40
24.5
 41
0.0
 71
     1
 72
     1
  1
10
  7
SLDTEXTSTYLE0
 73
     1
 44
1.0
  0
ENDBLK
  5
389
330
387
100
AcDbEntity
  8
0
100
AcDbBlockEnd
  0
BLOCK
  5
394
330
393
100
AcDbEntity
  8
0
100
AcDbBlockBegin
  2
_D_14
 70
     0
 10
0.0
 20
0.0
 30
0.0
  3
_D_14
  1

  0
SOLID
  5
396
330
393
100
AcDbEntity
  8
FORMAT
100
AcDbTrace
 10
532.7582239411
 20
1017.3357753139
 30
0.0
 11
509.6442239411
 21
1020.8917753139
 31
0.0
 12
509.6442239411
 22
1013.7797753139
 32
0.0
 13
509.6442239411
 23
1013.7797753139
 33
0.0
  0
SOLID
  5
397
330
393
100
AcDbEntity
  8
FORMAT
100
AcDbTrace
 10
556.7582239411
 20
1017.3357753139
 30
0.0
 11
579.8722239411
 21
1013.7797753139
 31
0.0
 12
579.8722239411
 22
1020.8917753139
 32
0.0
 13
579.8722239411
 23
1020.8917753139
 33
0.0
  0
LINE
  5
398
330
393
100
AcDbEntity
  8
FORMAT
100
AcDbLine
 10
532.7582239411
 20
623.3357753139
 30
0.0
 11
532.7582239411
 21
1024.3357753139
 31
0.0
  0
LINE
  5
399
330
393
100
AcDbEntity
  8
FORMAT
100
AcDbLine
 10
556.7582239411
 20
882.8357753139
 30
0.0
 11
556.7582239411
 21
1024.3357753139
 31
0.0
  0
LINE
  5
39A
330
393
100
AcDbEntity
  8
FORMAT
100
AcDbLine
 10
532.7582239411
 20
1017.3357753139
 30
0.0
 11
460.0404969812
 21
1017.3357753139
 31
0.0
  0
LINE
  5
39B
330
393
100
AcDbEntity
  8
FORMAT
100
AcDbLine
 10
532.7582239411
 20
1017.3357753139
 30
0.0
 11
556.7582239411
 21
1017.3357753139
 31
0.0
  0
LINE
  5
39C
330
393
100
AcDbEntity
  8
FORMAT
100
AcDbLine
 10
556.7582239411
 20
1017.3357753139
 30
0.0
 11
601.2082239411
 21
1017.3357753139
 31
0.0
  0
MTEXT
  5
39D
330
393
100
AcDbEntity
  8
FORMAT
100
AcDbMText
 10
460.0404969812
 20
1048.9179365682
 30
0.0
 40
24.5
 41
0.0
 71
     1
 72
     1
  1
24
  7
SLDTEXTSTYLE0
 73
     1
 44
1.0
  0
ENDBLK
  5
395
330
393
100
AcDbEntity
  8
0
100
AcDbBlockEnd
  0
BLOCK
  5
3A0
330
39F
100
AcDbEntity
  8
0
100
AcDbBlockBegin
  2
_D_15
 70
     0
 10
0.0
 20
0.0
 30
0.0
  3
_D_15
  1

  0
SOLID
  5
3A2
330
39F
100
AcDbEntity
  8
FORMAT
100
AcDbTrace
 10
532.7582239411
 20
1059.3357753139
 30
0.0
 11
555.8722239411
 21
1055.7797753139
 31
0.0
 12
555.8722239411
 22
1062.8917753139
 32
0.0
 13
555.8722239411
 23
1062.8917753139
 33
0.0
  0
SOLID
  5
3A3
330
39F
100
AcDbEntity
  8
FORMAT
100
AcDbTrace
 10
749.7582239411
 20
1059.3357753139
 30
0.0
 11
726.6442239411
 21
1062.8917753139
 31
0.0
 12
726.6442239411
 22
1055.7797753139
 32
0.0
 13
726.6442239411
 23
1055.7797753139
 33
0.0
  0
LINE
  5
3A4
330
39F
100
AcDbEntity
  8
FORMAT
100
AcDbLine
 10
532.7582239411
 20
623.3357753139
 30
0.0
 11
532.7582239411
 21
1066.3357753139
 31
0.0
  0
LINE
  5
3A5
330
39F
100
AcDbEntity
  8
FORMAT
100
AcDbLine
 10
749.7582239411
 20
902.0857753135
 30
0.0
 11
749.7582239411
 21
1066.3357753139
 31
0.0
  0
LINE
  5
3A6
330
39F
100
AcDbEntity
  8
FORMAT
100
AcDbLine
 10
532.7582239411
 20
1059.3357753139
 30
0.0
 11
749.7582239411
 21
1059.3357753139
 31
0.0
  0
MTEXT
  5
3A7
330
39F
100
AcDbEntity
  8
FORMAT
100
AcDbMText
 10
613.1853079698
 20
1090.9179365682
 30
0.0
 40
24.5
 41
0.0
 71
     1
 72
     1
  1
217
  7
SLDTEXTSTYLE0
 73
     1
 44
1.0
  0
ENDBLK
  5
3A1
330
39F
100
AcDbEntity
  8
0
100
AcDbBlockEnd
  0
BLOCK
  5
3AA
330
3A9
100
AcDbEntity
  8
0
100
AcDbBlockBegin
  2
_D_16
 70
     0
 10
0.0
 20
0.0
 30
0.0
  3
_D_16
  1

  0
SOLID
  5
3AC
330
3A9
100
AcDbEntity
  8
FORMAT
100
AcDbTrace
 10
749.7582239411
 20
1059.3357753139
 30
0.0
 11
772.8722239411
 21
1055.7797753139
 31
0.0
 12
772.8722239411
 22
1062.8917753139
 32
0.0
 13
772.8722239411
 23
1062.8917753139
 33
0.0
  0
SOLID
  5
3AD
330
3A9
100
AcDbEntity
  8
FORMAT
100
AcDbTrace
 10
956.7582239411
 20
1059.3357753139
 30
0.0
 11
933.6442239411
 21
1062.8917753139
 31
0.0
 12
933.6442239411
 22
1055.7797753139
 32
0.0
 13
933.6442239411
 23
1055.7797753139
 33
0.0
  0
LINE
  5
3AE
330
3A9
100
AcDbEntity
  8
FORMAT
100
AcDbLine
 10
749.7582239411
 20
902.0857753135
 30
0.0
 11
749.7582239411
 21
1066.3357753139
 31
0.0
  0
LINE
  5
3AF
330
3A9
100
AcDbEntity
  8
FORMAT
100
AcDbLine
 10
956.7582239411
 20
902.0857753135
 30
0.0
 11
956.7582239411
 21
1066.3357753139
 31
0.0
  0
LINE
  5
3B0
330
3A9
100
AcDbEntity
  8
FORMAT
100
AcDbLine
 10
749.7582239411
 20
1059.3357753139
 30
0.0
 11
956.7582239411
 21
1059.3357753139
 31
0.0
  0
MTEXT
  5
3B1
330
3A9
100
AcDbEntity
  8
FORMAT
100
AcDbMText
 10
825.1853079698
 20
1090.9179365682
 30
0.0
 40
24.5
 41
0.0
 71
     1
 72
     1
  1
207
  7
SLDTEXTSTYLE0
 73
     1
 44
1.0
  0
ENDBLK
  5
3AB
330
3A9
100
AcDbEntity
  8
0
100
AcDbBlockEnd
  0
BLOCK
  5
3B4
330
3B3
100
AcDbEntity
  8
0
100
AcDbBlockBegin
  2
_D_17
 70
     0
 10
0.0
 20
0.0
 30
0.0
  3
_D_17
  1

  0
SOLID
  5
3B6
330
3B3
100
AcDbEntity
  8
FORMAT
100
AcDbTrace
 10
956.7582239411
 20
1059.3357753139
 30
0.0
 11
979.8722239411
 21
1055.7797753139
 31
0.0
 12
979.8722239411
 22
1062.8917753139
 32
0.0
 13
979.8722239411
 23
1062.8917753139
 33
0.0
  0
SOLID
  5
3B7
330
3B3
100
AcDbEntity
  8
FORMAT
100
AcDbTrace
 10
1182.7582239411
 20
1059.3357753139
 30
0.0
 11
1159.6442239411
 21
1062.8917753139
 31
0.0
 12
1159.6442239411
 22
1055.7797753139
 32
0.0
 13
1159.6442239411
 23
1055.7797753139
 33
0.0
  0
LINE
  5
3B8
330
3B3
100
AcDbEntity
  8
FORMAT
100
AcDbLine
 10
956.7582239411
 20
902.0857753135
 30
0.0
 11
956.7582239411
 21
1066.3357753139
 31
0.0
  0
LINE
  5
3B9
330
3B3
100
AcDbEntity
  8
FORMAT
100
AcDbLine
 10
1182.7582239411
 20
896.3357753135
 30
0.0
 11
1182.7582239411
 21
1066.3357753139
 31
0.0
  0
LINE
  5
3BA
330
3B3
100
AcDbEntity
  8
FORMAT
100
AcDbLine
 10
956.7582239411
 20
1059.3357753139
 30
0.0
 11
1182.7582239411
 21
1059.3357753139
 31
0.0
  0
MTEXT
  5
3BB
330
3B3
100
AcDbEntity
  8
FORMAT
100
AcDbMText
 10
1041.6853079698
 20
1090.9179365682
 30
0.0
 40
24.5
 41
0.0
 71
     1
 72
     1
  1
226
  7
SLDTEXTSTYLE0
 73
     1
 44
1.0
  0
ENDBLK
  5
3B5
330
3B3
100
AcDbEntity
  8
0
100
AcDbBlockEnd
  0
BLOCK
  5
3BE
330
3BD
100
AcDbEntity
  8
0
100
AcDbBlockBegin
  2
_D_18
 70
     0
 10
0.0
 20
0.0
 30
0.0
  3
_D_18
  1

  0
SOLID
  5
3C0
330
3BD
100
AcDbEntity
  8
FORMAT
100
AcDbTrace
 10
532.7582239411
 20
1101.3357753139
 30
0.0
 11
555.8722239411
 21
1097.7797753139
 31
0.0
 12
555.8722239411
 22
1104.8917753139
 32
0.0
 13
555.8722239411
 23
1104.8917753139
 33
0.0
  0
SOLID
  5
3C1
330
3BD
100
AcDbEntity
  8
FORMAT
100
AcDbTrace
 10
1198.7582239411
 20
1101.3357753139
 30
0.0
 11
1175.6442239411
 21
1104.8917753139
 31
0.0
 12
1175.6442239411
 22
1097.7797753139
 32
0.0
 13
1175.6442239411
 23
1097.7797753139
 33
0.0
  0
LINE
  5
3C2
330
3BD
100
AcDbEntity
  8
FORMAT
100
AcDbLine
 10
532.7582239411
 20
623.3357753139
 30
0.0
 11
532.7582239411
 21
1108.3357753139
 31
0.0
  0
LINE
  5
3C3
330
3BD
100
AcDbEntity
  8
FORMAT
100
AcDbLine
 10
1198.7582239411
 20
882.8357753139
 30
0.0
 11
1198.7582239411
 21
1108.3357753139
 31
0.0
  0
LINE
  5
3C4
330
3BD
100
AcDbEntity
  8
FORMAT
100
AcDbLine
 10
532.7582239411
 20
1101.3357753139
 30
0.0
 11
1198.7582239411
 21
1101.3357753139
 31
0.0
  0
MTEXT
  5
3C5
330
3BD
100
AcDbEntity
  8
FORMAT
100
AcDbMText
 10
837.6853079698
 20
1132.9179365682
 30
0.0
 40
24.5
 41
0.0
 71
     1
 72
     1
  1
666
  7
SLDTEXTSTYLE0
 73
     1
 44
1.0
  0
ENDBLK
  5
3BF
330
3BD
100
AcDbEntity
  8
0
100
AcDbBlockEnd
  0
BLOCK
  5
3C8
330
3C7
100
AcDbEntity
  8
0
100
AcDbBlockBegin
  2
_D_19
 70
     0
 10
0.0
 20
0.0
 30
0.0
  3
_D_19
  1

  0
SOLID
  5
3CA
330
3C7
100
AcDbEntity
  8
FORMAT
100
AcDbTrace
 10
532.7582239411
 20
1143.3357753139
 30
0.0
 11
555.8722239411
 21
1139.7797753139
 31
0.0
 12
555.8722239411
 22
1146.8917753139
 32
0.0
 13
555.8722239411
 23
1146.8917753139
 33
0.0
  0
SOLID
  5
3CB
330
3C7
100
AcDbEntity
  8
FORMAT
100
AcDbTrace
 10
1212.7582239411
 20
1143.3357753139
 30
0.0
 11
1189.6442239411
 21
1146.8917753139
 31
0.0
 12
1189.6442239411
 22
1139.7797753139
 32
0.0
 13
1189.6442239411
 23
1139.7797753139
 33
0.0
  0
LINE
  5
3CC
330
3C7
100
AcDbEntity
  8
FORMAT
100
AcDbLine
 10
532.7582239411
 20
623.3357753139
 30
0.0
 11
532.7582239411
 21
1150.3357753139
 31
0.0
  0
LINE
  5
3CD
330
3C7
100
AcDbEntity
  8
FORMAT
100
AcDbLine
 10
1212.7582239411
 20
896.3357753135
 30
0.0
 11
1212.7582239411
 21
1150.3357753139
 31
0.0
  0
LINE
  5
3CE
330
3C7
100
AcDbEntity
  8
FORMAT
100
AcDbLine
 10
532.7582239411
 20
1143.3357753139
 30
0.0
 11
1212.7582239411
 21
1143.3357753139
 31
0.0
  0
MTEXT
  5
3CF
330
3C7
100
AcDbEntity
  8
FORMAT
100
AcDbMText
 10
844.6853079698
 20
1174.9179365682
 30
0.0
 40
24.5
 41
0.0
 71
     1
 72
     1
  1
680
  7
SLDTEXTSTYLE0
 73
     1
 44
1.0
  0
ENDBLK
  5
3C9
330
3C7
100
AcDbEntity
  8
0
100
AcDbBlockEnd
  0
BLOCK
  5
3D6
330
3D5
100
AcDbEntity
  8
0
100
AcDbBlockBegin
  2
SW_NOTE_0_5
 70
     0
 10
0.0
 20
0.0
 30
0.0
  3
SW_NOTE_0_5
  1

  0
MTEXT
  5
3D8
330
3D5
100
AcDbEntity
  8
FORMAT
 62
     0
100
AcDbMText
 10
-306.1413286076
 20
37.1114028622
 30
0.0
 40
18.5208333333
 41
0.0
 71
     1
 72
     1
  1
ø20
  7
SLDTEXTSTYLE0
 73
     1
 44
1.0
  0
MTEXT
  5
3D9
330
3D5
100
AcDbEntity
  8
FORMAT
 62
     0
100
AcDbMText
 10
-306.1413286076
 20
5.4169575688
 30
0.0
 40
18.5208333333
 41
0.0
 71
     1
 72
     1
  1
(verdeckte Kabelzuführung)
  7
SLDTEXTSTYLE0
 73
     1
 44
1.0
  0
ENDBLK
  5
3D7
330
3D5
100
AcDbEntity
  8
0
100
AcDbBlockEnd
  0
BLOCK
  5
3DD
330
3DC
100
AcDbEntity
  8
0
100
AcDbBlockBegin
  2
SW_CENTERMARKSYMBOL_0
 70
     0
 10
0.0
 20
0.0
 30
0.0
  3
SW_CENTERMARKSYMBOL_0
  1

  0
LINE
  5
3DF
330
3DC
100
AcDbEntity
  8
FORMAT
 62
     0
100
AcDbLine
 10
0.0
 20
0.0
 30
0.0
 11
0.0
 21
2.5
 31
0.0
  0
LINE
  5
3E0
330
3DC
100
AcDbEntity
  8
FORMAT
 62
     0
100
AcDbLine
 10
0.0
 20
0.0
 30
0.0
 11
-2.5
 21
0.0
 31
0.0
  0
LINE
  5
3E1
330
3DC
100
AcDbEntity
  8
FORMAT
 62
     0
100
AcDbLine
 10
0.0
 20
0.0
 30
0.0
 11
0.0
 21
-2.5
 31
0.0
  0
LINE
  5
3E2
330
3DC
100
AcDbEntity
  8
FORMAT
 62
     0
100
AcDbLine
 10
0.0
 20
0.0
 30
0.0
 11
2.5
 21
0.0
 31
0.0
  0
LINE
  5
3E3
330
3DC
100
AcDbEntity
  8
FORMAT
 62
     0
100
AcDbLine
 10
0.0
 20
5.0
 30
0.0
 11
0.0
 21
5.75
 31
0.0
  0
LINE
  5
3E4
330
3DC
100
AcDbEntity
  8
FORMAT
 62
     0
100
AcDbLine
 10
-5.0
 20
0.0
 30
0.0
 11
-5.75
 21
0.0
 31
0.0
  0
LINE
  5
3E5
330
3DC
100
AcDbEntity
  8
FORMAT
 62
     0
100
AcDbLine
 10
0.0
 20
-5.0
 30
0.0
 11
0.0
 21
-5.75
 31
0.0
  0
LINE
  5
3E6
330
3DC
100
AcDbEntity
  8
FORMAT
 62
     0
100
AcDbLine
 10
5.0
 20
0.0
 30
0.0
 11
5.75
 21
0.0
 31
0.0
  0
ENDBLK
  5
3DE
330
3DC
100
AcDbEntity
  8
0
100
AcDbBlockEnd
  0
BLOCK
  5
3E9
330
3E8
100
AcDbEntity
  8
0
100
AcDbBlockBegin
  2
SW_CENTERMARKSYMBOL_1
 70
     0
 10
0.0
 20
0.0
 30
0.0
  3
SW_CENTERMARKSYMBOL_1
  1

  0
LINE
  5
3EB
330
3E8
100
AcDbEntity
  8
FORMAT
 62
     0
100
AcDbLine
 10
0.0
 20
0.0
 30
0.0
 11
0.0
 21
2.5
 31
0.0
  0
LINE
  5
3EC
330
3E8
100
AcDbEntity
  8
FORMAT
 62
     0
100
AcDbLine
 10
0.0
 20
0.0
 30
0.0
 11
-2.5
 21
0.0
 31
0.0
  0
LINE
  5
3ED
330
3E8
100
AcDbEntity
  8
FORMAT
 62
     0
100
AcDbLine
 10
0.0
 20
0.0
 30
0.0
 11
0.0
 21
-2.5
 31
0.0
  0
LINE
  5
3EE
330
3E8
100
AcDbEntity
  8
FORMAT
 62
     0
100
AcDbLine
 10
0.0
 20
0.0
 30
0.0
 11
2.5
 21
0.0
 31
0.0
  0
LINE
  5
3EF
330
3E8
100
AcDbEntity
  8
FORMAT
 62
     0
100
AcDbLine
 10
0.0
 20
5.0
 30
0.0
 11
0.0
 21
5.75
 31
0.0
  0
LINE
  5
3F0
330
3E8
100
AcDbEntity
  8
FORMAT
 62
     0
100
AcDbLine
 10
-5.0
 20
0.0
 30
0.0
 11
-5.75
 21
0.0
 31
0.0
  0
LINE
  5
3F1
330
3E8
100
AcDbEntity
  8
FORMAT
 62
     0
100
AcDbLine
 10
0.0
 20
-5.0
 30
0.0
 11
0.0
 21
-5.75
 31
0.0
  0
LINE
  5
3F2
330
3E8
100
AcDbEntity
  8
FORMAT
 62
     0
100
AcDbLine
 10
5.0
 20
0.0
 30
0.0
 11
5.75
 21
0.0
 31
0.0
  0
ENDBLK
  5
3EA
330
3E8
100
AcDbEntity
  8
0
100
AcDbBlockEnd
  0
BLOCK
  5
3F5
330
3F4
100
AcDbEntity
  8
0
100
AcDbBlockBegin
  2
SW_CENTERMARKSYMBOL_2
 70
     0
 10
0.0
 20
0.0
 30
0.0
  3
SW_CENTERMARKSYMBOL_2
  1

  0
LINE
  5
3F7
330
3F4
100
AcDbEntity
  8
FORMAT
 62
     0
100
AcDbLine
 10
0.0
 20
0.0
 30
0.0
 11
0.0
 21
2.5
 31
0.0
  0
LINE
  5
3F8
330
3F4
100
AcDbEntity
  8
FORMAT
 62
     0
100
AcDbLine
 10
0.0
 20
0.0
 30
0.0
 11
-2.5
 21
0.0
 31
0.0
  0
LINE
  5
3F9
330
3F4
100
AcDbEntity
  8
FORMAT
 62
     0
100
AcDbLine
 10
0.0
 20
0.0
 30
0.0
 11
0.0
 21
-2.5
 31
0.0
  0
LINE
  5
3FA
330
3F4
100
AcDbEntity
  8
FORMAT
 62
     0
100
AcDbLine
 10
0.0
 20
0.0
 30
0.0
 11
2.5
 21
0.0
 31
0.0
  0
LINE
  5
3FB
330
3F4
100
AcDbEntity
  8
FORMAT
 62
     0
100
AcDbLine
 10
0.0
 20
5.0
 30
0.0
 11
0.0
 21
5.75
 31
0.0
  0
LINE
  5
3FC
330
3F4
100
AcDbEntity
  8
FORMAT
 62
     0
100
AcDbLine
 10
-5.0
 20
0.0
 30
0.0
 11
-5.75
 21
0.0
 31
0.0
  0
LINE
  5
3FD
330
3F4
100
AcDbEntity
  8
FORMAT
 62
     0
100
AcDbLine
 10
0.0
 20
-5.0
 30
0.0
 11
0.0
 21
-5.75
 31
0.0
  0
LINE
  5
3FE
330
3F4
100
AcDbEntity
  8
FORMAT
 62
     0
100
AcDbLine
 10
5.0
 20
0.0
 30
0.0
 11
5.75
 21
0.0
 31
0.0
  0
ENDBLK
  5
3F6
330
3F4
100
AcDbEntity
  8
0
100
AcDbBlockEnd
  0
BLOCK
  5
401
330
400
100
AcDbEntity
  8
0
100
AcDbBlockBegin
  2
SW_CENTERMARKSYMBOL_3
 70
     0
 10
0.0
 20
0.0
 30
0.0
  3
SW_CENTERMARKSYMBOL_3
  1

  0
LINE
  5
403
330
400
100
AcDbEntity
  8
FORMAT
 62
     0
100
AcDbLine
 10
0.0
 20
0.0
 30
0.0
 11
0.0
 21
2.5
 31
0.0
  0
LINE
  5
404
330
400
100
AcDbEntity
  8
FORMAT
 62
     0
100
AcDbLine
 10
0.0
 20
0.0
 30
0.0
 11
-2.5
 21
0.0
 31
0.0
  0
LINE
  5
405
330
400
100
AcDbEntity
  8
FORMAT
 62
     0
100
AcDbLine
 10
0.0
 20
0.0
 30
0.0
 11
0.0
 21
-2.5
 31
0.0
  0
LINE
  5
406
330
400
100
AcDbEntity
  8
FORMAT
 62
     0
100
AcDbLine
 10
0.0
 20
0.0
 30
0.0
 11
2.5
 21
0.0
 31
0.0
  0
LINE
  5
407
330
400
100
AcDbEntity
  8
FORMAT
 62
     0
100
AcDbLine
 10
0.0
 20
5.0
 30
0.0
 11
0.0
 21
5.75
 31
0.0
  0
LINE
  5
408
330
400
100
AcDbEntity
  8
FORMAT
 62
     0
100
AcDbLine
 10
-5.0
 20
0.0
 30
0.0
 11
-5.75
 21
0.0
 31
0.0
  0
LINE
  5
409
330
400
100
AcDbEntity
  8
FORMAT
 62
     0
100
AcDbLine
 10
0.0
 20
-5.0
 30
0.0
 11
0.0
 21
-5.75
 31
0.0
  0
LINE
  5
40A
330
400
100
AcDbEntity
  8
FORMAT
 62
     0
100
AcDbLine
 10
5.0
 20
0.0
 30
0.0
 11
5.75
 21
0.0
 31
0.0
  0
ENDBLK
  5
402
330
400
100
AcDbEntity
  8
0
100
AcDbBlockEnd
  0
BLOCK
  5
40D
330
40C
100
AcDbEntity
  8
0
100
AcDbBlockBegin
  2
SW_CENTERMARKSYMBOL_4
 70
     0
 10
0.0
 20
0.0
 30
0.0
  3
SW_CENTERMARKSYMBOL_4
  1

  0
LINE
  5
40F
330
40C
100
AcDbEntity
  8
FORMAT
 62
     0
100
AcDbLine
 10
0.0
 20
0.0
 30
0.0
 11
0.0
 21
2.5
 31
0.0
  0
LINE
  5
410
330
40C
100
AcDbEntity
  8
FORMAT
 62
     0
100
AcDbLine
 10
0.0
 20
0.0
 30
0.0
 11
-2.5
 21
0.0
 31
0.0
  0
LINE
  5
411
330
40C
100
AcDbEntity
  8
FORMAT
 62
     0
100
AcDbLine
 10
0.0
 20
0.0
 30
0.0
 11
0.0
 21
-2.5
 31
0.0
  0
LINE
  5
412
330
40C
100
AcDbEntity
  8
FORMAT
 62
     0
100
AcDbLine
 10
0.0
 20
0.0
 30
0.0
 11
2.5
 21
0.0
 31
0.0
  0
LINE
  5
413
330
40C
100
AcDbEntity
  8
FORMAT
 62
     0
100
AcDbLine
 10
0.0
 20
5.0
 30
0.0
 11
0.0
 21
5.75
 31
0.0
  0
LINE
  5
414
330
40C
100
AcDbEntity
  8
FORMAT
 62
     0
100
AcDbLine
 10
-5.0
 20
0.0
 30
0.0
 11
-5.75
 21
0.0
 31
0.0
  0
LINE
  5
415
330
40C
100
AcDbEntity
  8
FORMAT
 62
     0
100
AcDbLine
 10
0.0
 20
-5.0
 30
0.0
 11
0.0
 21
-5.75
 31
0.0
  0
LINE
  5
416
330
40C
100
AcDbEntity
  8
FORMAT
 62
     0
100
AcDbLine
 10
5.0
 20
0.0
 30
0.0
 11
5.75
 21
0.0
 31
0.0
  0
ENDBLK
  5
40E
330
40C
100
AcDbEntity
  8
0
100
AcDbBlockEnd
  0
BLOCK
  5
419
330
418
100
AcDbEntity
  8
0
100
AcDbBlockBegin
  2
SW_CENTERMARKSYMBOL_5
 70
     0
 10
0.0
 20
0.0
 30
0.0
  3
SW_CENTERMARKSYMBOL_5
  1

  0
LINE
  5
41B
330
418
100
AcDbEntity
  8
FORMAT
 62
     0
100
AcDbLine
 10
0.0
 20
0.0
 30
0.0
 11
0.0
 21
2.5
 31
0.0
  0
LINE
  5
41C
330
418
100
AcDbEntity
  8
FORMAT
 62
     0
100
AcDbLine
 10
0.0
 20
0.0
 30
0.0
 11
-2.5
 21
0.0
 31
0.0
  0
LINE
  5
41D
330
418
100
AcDbEntity
  8
FORMAT
 62
     0
100
AcDbLine
 10
0.0
 20
0.0
 30
0.0
 11
0.0
 21
-2.5
 31
0.0
  0
LINE
  5
41E
330
418
100
AcDbEntity
  8
FORMAT
 62
     0
100
AcDbLine
 10
0.0
 20
0.0
 30
0.0
 11
2.5
 21
0.0
 31
0.0
  0
LINE
  5
41F
330
418
100
AcDbEntity
  8
FORMAT
 62
     0
100
AcDbLine
 10
0.0
 20
5.0
 30
0.0
 11
0.0
 21
5.75
 31
0.0
  0
LINE
  5
420
330
418
100
AcDbEntity
  8
FORMAT
 62
     0
100
AcDbLine
 10
-5.0
 20
0.0
 30
0.0
 11
-5.75
 21
0.0
 31
0.0
  0
LINE
  5
421
330
418
100
AcDbEntity
  8
FORMAT
 62
     0
100
AcDbLine
 10
0.0
 20
-5.0
 30
0.0
 11
0.0
 21
-5.75
 31
0.0
  0
LINE
  5
422
330
418
100
AcDbEntity
  8
FORMAT
 62
     0
100
AcDbLine
 10
5.0
 20
0.0
 30
0.0
 11
5.75
 21
0.0
 31
0.0
  0
ENDBLK
  5
41A
330
418
100
AcDbEntity
  8
0
100
AcDbBlockEnd
  0
BLOCK
  5
425
330
424
100
AcDbEntity
  8
0
100
AcDbBlockBegin
  2
SW_CENTERMARKSYMBOL_6
 70
     0
 10
0.0
 20
0.0
 30
0.0
  3
SW_CENTERMARKSYMBOL_6
  1

  0
LINE
  5
427
330
424
100
AcDbEntity
  8
FORMAT
 62
     0
100
AcDbLine
 10
0.0
 20
0.0
 30
0.0
 11
0.0
 21
2.5
 31
0.0
  0
LINE
  5
428
330
424
100
AcDbEntity
  8
FORMAT
 62
     0
100
AcDbLine
 10
0.0
 20
0.0
 30
0.0
 11
-2.5
 21
0.0
 31
0.0
  0
LINE
  5
429
330
424
100
AcDbEntity
  8
FORMAT
 62
     0
100
AcDbLine
 10
0.0
 20
0.0
 30
0.0
 11
0.0
 21
-2.5
 31
0.0
  0
LINE
  5
42A
330
424
100
AcDbEntity
  8
FORMAT
 62
     0
100
AcDbLine
 10
0.0
 20
0.0
 30
0.0
 11
2.5
 21
0.0
 31
0.0
  0
LINE
  5
42B
330
424
100
AcDbEntity
  8
FORMAT
 62
     0
100
AcDbLine
 10
0.0
 20
5.0
 30
0.0
 11
0.0
 21
5.75
 31
0.0
  0
LINE
  5
42C
330
424
100
AcDbEntity
  8
FORMAT
 62
     0
100
AcDbLine
 10
-5.0
 20
0.0
 30
0.0
 11
-5.75
 21
0.0
 31
0.0
  0
LINE
  5
42D
330
424
100
AcDbEntity
  8
FORMAT
 62
     0
100
AcDbLine
 10
0.0
 20
-5.0
 30
0.0
 11
0.0
 21
-5.75
 31
0.0
  0
LINE
  5
42E
330
424
100
AcDbEntity
  8
FORMAT
 62
     0
100
AcDbLine
 10
5.0
 20
0.0
 30
0.0
 11
5.75
 21
0.0
 31
0.0
  0
ENDBLK
  5
426
330
424
100
AcDbEntity
  8
0
100
AcDbBlockEnd
  0
BLOCK
  5
431
330
430
100
AcDbEntity
  8
0
100
AcDbBlockBegin
  2
SW_CENTERMARKSYMBOL_7
 70
     0
 10
0.0
 20
0.0
 30
0.0
  3
SW_CENTERMARKSYMBOL_7
  1

  0
LINE
  5
433
330
430
100
AcDbEntity
  8
FORMAT
 62
     0
100
AcDbLine
 10
0.0
 20
0.0
 30
0.0
 11
0.0
 21
2.5
 31
0.0
  0
LINE
  5
434
330
430
100
AcDbEntity
  8
FORMAT
 62
     0
100
AcDbLine
 10
0.0
 20
0.0
 30
0.0
 11
-2.5
 21
0.0
 31
0.0
  0
LINE
  5
435
330
430
100
AcDbEntity
  8
FORMAT
 62
     0
100
AcDbLine
 10
0.0
 20
0.0
 30
0.0
 11
0.0
 21
-2.5
 31
0.0
  0
LINE
  5
436
330
430
100
AcDbEntity
  8
FORMAT
 62
     0
100
AcDbLine
 10
0.0
 20
0.0
 30
0.0
 11
2.5
 21
0.0
 31
0.0
  0
LINE
  5
437
330
430
100
AcDbEntity
  8
FORMAT
 62
     0
100
AcDbLine
 10
0.0
 20
5.0
 30
0.0
 11
0.0
 21
5.75
 31
0.0
  0
LINE
  5
438
330
430
100
AcDbEntity
  8
FORMAT
 62
     0
100
AcDbLine
 10
-5.0
 20
0.0
 30
0.0
 11
-5.75
 21
0.0
 31
0.0
  0
LINE
  5
439
330
430
100
AcDbEntity
  8
FORMAT
 62
     0
100
AcDbLine
 10
0.0
 20
-5.0
 30
0.0
 11
0.0
 21
-5.75
 31
0.0
  0
LINE
  5
43A
330
430
100
AcDbEntity
  8
FORMAT
 62
     0
100
AcDbLine
 10
5.0
 20
0.0
 30
0.0
 11
5.75
 21
0.0
 31
0.0
  0
ENDBLK
  5
432
330
430
100
AcDbEntity
  8
0
100
AcDbBlockEnd
  0
BLOCK
  5
43D
330
43C
100
AcDbEntity
  8
0
100
AcDbBlockBegin
  2
SW_CENTERMARKSYMBOL_8
 70
     0
 10
0.0
 20
0.0
 30
0.0
  3
SW_CENTERMARKSYMBOL_8
  1

  0
LINE
  5
43F
330
43C
100
AcDbEntity
  8
FORMAT
 62
     0
100
AcDbLine
 10
0.0
 20
0.0
 30
0.0
 11
0.0
 21
2.5
 31
0.0
  0
LINE
  5
440
330
43C
100
AcDbEntity
  8
FORMAT
 62
     0
100
AcDbLine
 10
0.0
 20
0.0
 30
0.0
 11
-2.5
 21
0.0
 31
0.0
  0
LINE
  5
441
330
43C
100
AcDbEntity
  8
FORMAT
 62
     0
100
AcDbLine
 10
0.0
 20
0.0
 30
0.0
 11
0.0
 21
-2.5
 31
0.0
  0
LINE
  5
442
330
43C
100
AcDbEntity
  8
FORMAT
 62
     0
100
AcDbLine
 10
0.0
 20
0.0
 30
0.0
 11
2.5
 21
0.0
 31
0.0
  0
LINE
  5
443
330
43C
100
AcDbEntity
  8
FORMAT
 62
     0
100
AcDbLine
 10
0.0
 20
5.0
 30
0.0
 11
0.0
 21
12.5
 31
0.0
  0
LINE
  5
444
330
43C
100
AcDbEntity
  8
FORMAT
 62
     0
100
AcDbLine
 10
-5.0
 20
0.0
 30
0.0
 11
-12.5
 21
0.0
 31
0.0
  0
LINE
  5
445
330
43C
100
AcDbEntity
  8
FORMAT
 62
     0
100
AcDbLine
 10
0.0
 20
-5.0
 30
0.0
 11
0.0
 21
-12.5
 31
0.0
  0
LINE
  5
446
330
43C
100
AcDbEntity
  8
FORMAT
 62
     0
100
AcDbLine
 10
5.0
 20
0.0
 30
0.0
 11
12.5
 21
0.0
 31
0.0
  0
ENDBLK
  5
43E
330
43C
100
AcDbEntity
  8
0
100
AcDbBlockEnd
  0
BLOCK
  5
449
330
448
100
AcDbEntity
  8
0
100
AcDbBlockBegin
  2
SW_CENTERMARKSYMBOL_9
 70
     0
 10
0.0
 20
0.0
 30
0.0
  3
SW_CENTERMARKSYMBOL_9
  1

  0
LINE
  5
44B
330
448
100
AcDbEntity
  8
FORMAT
 62
     0
100
AcDbLine
 10
0.0
 20
0.0
 30
0.0
 11
0.0
 21
2.5
 31
0.0
  0
LINE
  5
44C
330
448
100
AcDbEntity
  8
FORMAT
 62
     0
100
AcDbLine
 10
0.0
 20
0.0
 30
0.0
 11
-2.5
 21
0.0
 31
0.0
  0
LINE
  5
44D
330
448
100
AcDbEntity
  8
FORMAT
 62
     0
100
AcDbLine
 10
0.0
 20
0.0
 30
0.0
 11
0.0
 21
-2.5
 31
0.0
  0
LINE
  5
44E
330
448
100
AcDbEntity
  8
FORMAT
 62
     0
100
AcDbLine
 10
0.0
 20
0.0
 30
0.0
 11
2.5
 21
0.0
 31
0.0
  0
LINE
  5
44F
330
448
100
AcDbEntity
  8
FORMAT
 62
     0
100
AcDbLine
 10
0.0
 20
5.0
 30
0.0
 11
0.0
 21
12.5
 31
0.0
  0
LINE
  5
450
330
448
100
AcDbEntity
  8
FORMAT
 62
     0
100
AcDbLine
 10
-5.0
 20
0.0
 30
0.0
 11
-12.5
 21
0.0
 31
0.0
  0
LINE
  5
451
330
448
100
AcDbEntity
  8
FORMAT
 62
     0
100
AcDbLine
 10
0.0
 20
-5.0
 30
0.0
 11
0.0
 21
-12.5
 31
0.0
  0
LINE
  5
452
330
448
100
AcDbEntity
  8
FORMAT
 62
     0
100
AcDbLine
 10
5.0
 20
0.0
 30
0.0
 11
12.5
 21
0.0
 31
0.0
  0
ENDBLK
  5
44A
330
448
100
AcDbEntity
  8
0
100
AcDbBlockEnd
  0
BLOCK
  5
455
330
454
100
AcDbEntity
  8
0
100
AcDbBlockBegin
  2
SW_CENTERMARKSYMBOL_10
 70
     0
 10
0.0
 20
0.0
 30
0.0
  3
SW_CENTERMARKSYMBOL_10
  1

  0
LINE
  5
457
330
454
100
AcDbEntity
  8
FORMAT
 62
     0
100
AcDbLine
 10
0.0
 20
0.0
 30
0.0
 11
0.0
 21
2.5
 31
0.0
  0
LINE
  5
458
330
454
100
AcDbEntity
  8
FORMAT
 62
     0
100
AcDbLine
 10
0.0
 20
0.0
 30
0.0
 11
-2.5
 21
0.0
 31
0.0
  0
LINE
  5
459
330
454
100
AcDbEntity
  8
FORMAT
 62
     0
100
AcDbLine
 10
0.0
 20
0.0
 30
0.0
 11
0.0
 21
-2.5
 31
0.0
  0
LINE
  5
45A
330
454
100
AcDbEntity
  8
FORMAT
 62
     0
100
AcDbLine
 10
0.0
 20
0.0
 30
0.0
 11
2.5
 21
0.0
 31
0.0
  0
LINE
  5
45B
330
454
100
AcDbEntity
  8
FORMAT
 62
     0
100
AcDbLine
 10
0.0
 20
5.0
 30
0.0
 11
0.0
 21
12.5
 31
0.0
  0
LINE
  5
45C
330
454
100
AcDbEntity
  8
FORMAT
 62
     0
100
AcDbLine
 10
-5.0
 20
0.0
 30
0.0
 11
-12.5
 21
0.0
 31
0.0
  0
LINE
  5
45D
330
454
100
AcDbEntity
  8
FORMAT
 62
     0
100
AcDbLine
 10
0.0
 20
-5.0
 30
0.0
 11
0.0
 21
-12.5
 31
0.0
  0
LINE
  5
45E
330
454
100
AcDbEntity
  8
FORMAT
 62
     0
100
AcDbLine
 10
5.0
 20
0.0
 30
0.0
 11
12.5
 21
0.0
 31
0.0
  0
ENDBLK
  5
456
330
454
100
AcDbEntity
  8
0
100
AcDbBlockEnd
  0
BLOCK
  5
461
330
460
100
AcDbEntity
  8
0
100
AcDbBlockBegin
  2
SW_CENTERMARKSYMBOL_11
 70
     0
 10
0.0
 20
0.0
 30
0.0
  3
SW_CENTERMARKSYMBOL_11
  1

  0
LINE
  5
463
330
460
100
AcDbEntity
  8
FORMAT
 62
     0
100
AcDbLine
 10
0.0
 20
0.0
 30
0.0
 11
0.0
 21
2.5
 31
0.0
  0
LINE
  5
464
330
460
100
AcDbEntity
  8
FORMAT
 62
     0
100
AcDbLine
 10
0.0
 20
0.0
 30
0.0
 11
-2.5
 21
0.0
 31
0.0
  0
LINE
  5
465
330
460
100
AcDbEntity
  8
FORMAT
 62
     0
100
AcDbLine
 10
0.0
 20
0.0
 30
0.0
 11
0.0
 21
-2.5
 31
0.0
  0
LINE
  5
466
330
460
100
AcDbEntity
  8
FORMAT
 62
     0
100
AcDbLine
 10
0.0
 20
0.0
 30
0.0
 11
2.5
 21
0.0
 31
0.0
  0
LINE
  5
467
330
460
100
AcDbEntity
  8
FORMAT
 62
     0
100
AcDbLine
 10
0.0
 20
5.0
 30
0.0
 11
0.0
 21
12.5
 31
0.0
  0
LINE
  5
468
330
460
100
AcDbEntity
  8
FORMAT
 62
     0
100
AcDbLine
 10
-5.0
 20
0.0
 30
0.0
 11
-12.5
 21
0.0
 31
0.0
  0
LINE
  5
469
330
460
100
AcDbEntity
  8
FORMAT
 62
     0
100
AcDbLine
 10
0.0
 20
-5.0
 30
0.0
 11
0.0
 21
-12.5
 31
0.0
  0
LINE
  5
46A
330
460
100
AcDbEntity
  8
FORMAT
 62
     0
100
AcDbLine
 10
5.0
 20
0.0
 30
0.0
 11
12.5
 21
0.0
 31
0.0
  0
ENDBLK
  5
462
330
460
100
AcDbEntity
  8
0
100
AcDbBlockEnd
  0
BLOCK
  5
53A
330
539
100
AcDbEntity
  8
0
100
AcDbBlockBegin
  2
_Dot
 70
     0
 10
0.0
 20
0.0
 30
0.0
  3
_Dot
  1

  0
LWPOLYLINE
  5
53C
330
539
100
AcDbEntity
  8
0
  6
ByBlock
 62
     0
100
AcDbPolyline
 90
        2
 70
     1
 43
0.5
 10
-0.25
 20
0.0
 42
1.0
 10
0.25
 20
0.0
 42
1.0
  0
LINE
  5
53D
330
539
100
AcDbEntity
  8
0
  6
ByBlock
 62
     0
370
    -2
100
AcDbLine
 10
-0.5
 20
0.0
 30
0.0
 11
-1.0
 21
0.0
 31
0.0
  0
ENDBLK
  5
53B
330
539
100
AcDbEntity
  8
0
100
AcDbBlockEnd
  0
BLOCK
  5
53F
330
53E
100
AcDbEntity
  8
0
100
AcDbBlockBegin
  2
_D_20
 70
     0
 10
0.0
 20
0.0
 30
0.0
  3
_D_20
  1

  0
INSERT
  5
541
330
53E
100
AcDbEntity
  8
FORMAT
100
AcDbBlockReference
  2
_Dot
 10
2314.4678156537
 20
1862.954331875
 30
0.0
 41
7.112
 42
7.112
 50
180.0
  0
SOLID
  5
542
330
53E
100
AcDbEntity
  8
FORMAT
100
AcDbTrace
 10
2434.4678156537
 20
1862.954331875
 30
0.0
 11
2411.3538156537
 21
1866.510331875
 31
0.0
 12
2411.3538156537
 22
1859.398331875
 32
0.0
 13
2411.3538156537
 23
1859.398331875
 33
0.0
  0
LINE
  5
543
330
53E
100
AcDbEntity
  8
FORMAT
100
AcDbLine
 10
2314.4678156537
 20
1793.8830785607
 30
0.0
 11
2314.4678156537
 21
1869.954331875
 31
0.0
  0
LINE
  5
544
330
53E
100
AcDbEntity
  8
FORMAT
100
AcDbLine
 10
2314.4678156537
 20
1862.954331875
 30
0.0
 11
2434.4678156537
 21
1862.954331875
 31
0.0
  0
LINE
  5
545
330
53E
100
AcDbEntity
  8
FORMAT
100
AcDbLine
 10
2434.4678156537
 20
1862.954331875
 30
0.0
 11
2558.9281867916
 21
1862.954331875
 31
0.0
  0
MTEXT
  5
546
330
53E
100
AcDbEntity
  8
FORMAT
100
AcDbMText
 10
2443.0014759029
 20
1886.828941861
 30
0.0
 40
18.5208333333
 41
0.0
 71
     1
 72
     1
  1
max. +
  7
SLDTEXTSTYLE0
 73
     1
 44
1.0
  0
MTEXT
  5
547
330
53E
100
AcDbEntity
  8
FORMAT
100
AcDbMText
 10
2517.7707679296
 20
1886.828941861
 30
0.0
 40
18.5208333333
 41
0.0
 71
     1
 72
     1
  1
120
  7
SLDTEXTSTYLE0
 73
     1
 44
1.0
  0
ENDBLK
  5
540
330
53E
100
AcDbEntity
  8
0
100
AcDbBlockEnd
  0
BLOCK
  5
54A
330
549
100
AcDbEntity
  8
0
100
AcDbBlockBegin
  2
_D_21
 70
     0
 10
0.0
 20
0.0
 30
0.0
  3
_D_21
  1

  0
INSERT
  5
54C
330
549
100
AcDbEntity
  8
FORMAT
100
AcDbBlockReference
  2
_Dot
 10
2314.4678156537
 20
1862.954331875
 30
0.0
 41
7.112
 42
7.112
 50
0.0
  0
SOLID
  5
54D
330
549
100
AcDbEntity
  8
FORMAT
100
AcDbTrace
 10
2284.4678156537
 20
1862.954331875
 30
0.0
 11
2307.5818156537
 21
1859.398331875
 31
0.0
 12
2307.5818156537
 22
1866.510331875
 32
0.0
 13
2307.5818156537
 23
1866.510331875
 33
0.0
  0
LINE
  5
54E
330
549
100
AcDbEntity
  8
FORMAT
100
AcDbLine
 10
2314.4678156537
 20
1793.8830785607
 30
0.0
 11
2314.4678156537
 21
1869.954331875
 31
0.0
  0
LINE
  5
54F
330
549
100
AcDbEntity
  8
FORMAT
100
AcDbLine
 10
2314.4678156537
 20
1862.954331875
 30
0.0
 11
2284.4678156537
 21
1862.954331875
 31
0.0
  0
LINE
  5
550
330
549
100
AcDbEntity
  8
FORMAT
100
AcDbLine
 10
2284.4678156537
 20
1862.954331875
 30
0.0
 11
2180.1841279139
 21
1862.954331875
 31
0.0
  0
MTEXT
  5
551
330
549
100
AcDbEntity
  8
FORMAT
100
AcDbMText
 10
2180.1841279139
 20
1886.8289418611
 30
0.0
 40
18.5208333333
 41
0.0
 71
     1
 72
     1
  1
max. -
  7
SLDTEXTSTYLE0
 73
     1
 44
1.0
  0
MTEXT
  5
552
330
549
100
AcDbEntity
  8
FORMAT
100
AcDbMText
 10
2248.7798064594
 20
1886.8289418611
 30
0.0
 40
18.5208333333
 41
0.0
 71
     1
 72
     1
  1
30
  7
SLDTEXTSTYLE0
 73
     1
 44
1.0
  0
ENDBLK
  5
54B
330
549
100
AcDbEntity
  8
0
100
AcDbBlockEnd
  0
BLOCK
  5
555
330
554
100
AcDbEntity
  8
0
100
AcDbBlockBegin
  2
_D_22
 70
     0
 10
0.0
 20
0.0
 30
0.0
  3
_D_22
  1

  0
SOLID
  5
557
330
554
100
AcDbEntity
  8
FORMAT
100
AcDbTrace
 10
2314.4678156537
 20
1495.4285427411
 30
0.0
 11
2291.3538156537
 21
1498.9845427411
 31
0.0
 12
2291.3538156537
 22
1491.8725427411
 32
0.0
 13
2291.3538156537
 23
1491.8725427411
 33
0.0
  0
SOLID
  5
558
330
554
100
AcDbEntity
  8
FORMAT
100
AcDbTrace
 10
2342.4678156514
 20
1495.4285427411
 30
0.0
 11
2365.5818156514
 21
1491.8725427411
 31
0.0
 12
2365.5818156514
 22
1498.9845427411
 32
0.0
 13
2365.5818156514
 23
1498.9845427411
 33
0.0
  0
LINE
  5
559
330
554
100
AcDbEntity
  8
FORMAT
100
AcDbLine
 10
2342.4678156514
 20
1556.8830785669
 30
0.0
 11
2342.4678156514
 21
1488.4285427411
 31
0.0
  0
LINE
  5
55A
330
554
100
AcDbEntity
  8
FORMAT
100
AcDbLine
 10
2314.4678156537
 20
1495.4285427411
 30
0.0
 11
2270.0178156537
 21
1495.4285427411
 31
0.0
  0
LINE
  5
55B
330
554
100
AcDbEntity
  8
FORMAT
100
AcDbLine
 10
2314.4678156537
 20
1495.4285427411
 30
0.0
 11
2342.4678156514
 21
1495.4285427411
 31
0.0
  0
LINE
  5
55C
330
554
100
AcDbEntity
  8
FORMAT
100
AcDbLine
 10
2342.4678156514
 20
1495.4285427411
 30
0.0
 11
2415.0532178192
 21
1495.4285427411
 31
0.0
  0
MTEXT
  5
55D
330
554
100
AcDbEntity
  8
FORMAT
100
AcDbMText
 10
2377.6226631908
 20
1527.0107039953
 30
0.0
 40
24.5
 41
0.0
 71
     1
 72
     1
  1
28
  7
SLDTEXTSTYLE0
 73
     1
 44
1.0
  0
ENDBLK
  5
556
330
554
100
AcDbEntity
  8
0
100
AcDbBlockEnd
  0
BLOCK
  5
560
330
55F
100
AcDbEntity
  8
0
100
AcDbBlockBegin
  2
_D_23
 70
     0
 10
0.0
 20
0.0
 30
0.0
  3
_D_23
  1

  0
SOLID
  5
562
330
55F
100
AcDbEntity
  8
FORMAT
100
AcDbTrace
 10
2314.4678156534
 20
1434.5208658335
 30
0.0
 11
2337.5818156534
 21
1430.9648658335
 31
0.0
 12
2337.5818156534
 22
1438.0768658335
 32
0.0
 13
2337.5818156534
 23
1438.0768658335
 33
0.0
  0
SOLID
  5
563
330
55F
100
AcDbEntity
  8
FORMAT
100
AcDbTrace
 10
2434.4678156534
 20
1434.5208658335
 30
0.0
 11
2411.3538156534
 21
1438.0768658335
 31
0.0
 12
2411.3538156534
 22
1430.9648658335
 32
0.0
 13
2411.3538156534
 23
1430.9648658335
 33
0.0
  0
LINE
  5
564
330
55F
100
AcDbEntity
  8
FORMAT
100
AcDbLine
 10
2314.4678156534
 20
1638.3830785607
 30
0.0
 11
2314.4678156534
 21
1427.5208658335
 31
0.0
  0
LINE
  5
565
330
55F
100
AcDbEntity
  8
FORMAT
100
AcDbLine
 10
2434.4678156534
 20
1641.3830785607
 30
0.0
 11
2434.4678156534
 21
1427.5208658335
 31
0.0
  0
LINE
  5
566
330
55F
100
AcDbEntity
  8
FORMAT
100
AcDbLine
 10
2314.4678156534
 20
1434.5208658335
 30
0.0
 11
2434.4678156534
 21
1434.5208658335
 31
0.0
  0
MTEXT
  5
567
330
55F
100
AcDbEntity
  8
FORMAT
100
AcDbMText
 10
2346.3948996821
 20
1466.1030270877
 30
0.0
 40
24.5
 41
0.0
 71
     1
 72
     1
  1
120
  7
SLDTEXTSTYLE0
 73
     1
 44
1.0
  0
ENDBLK
  5
561
330
55F
100
AcDbEntity
  8
0
100
AcDbBlockEnd
  0
BLOCK
  5
56A
330
569
100
AcDbEntity
  8
0
100
AcDbBlockBegin
  2
_D_24
 70
     0
 10
0.0
 20
0.0
 30
0.0
  3
_D_24
  1

  0
SOLID
  5
56C
330
569
100
AcDbEntity
  8
FORMAT
100
AcDbTrace
 10
2511.6881724612
 20
1563.3830785669
 30
0.0
 11
2515.2441724612
 21
1586.4970785669
 31
0.0
 12
2508.1321724612
 22
1586.4970785669
 32
0.0
 13
2508.1321724612
 23
1586.4970785669
 33
0.0
  0
SOLID
  5
56D
330
569
100
AcDbEntity
  8
FORMAT
100
AcDbTrace
 10
2511.6881724612
 20
1738.3830785607
 30
0.0
 11
2508.1321724612
 21
1715.2690785607
 31
0.0
 12
2515.2441724612
 22
1715.2690785607
 32
0.0
 13
2515.2441724612
 23
1715.2690785607
 33
0.0
  0
LINE
  5
56E
330
569
100
AcDbEntity
  8
FORMAT
100
AcDbLine
 10
2348.9678156514
 20
1563.3830785669
 30
0.0
 11
2518.6881724612
 21
1563.3830785669
 31
0.0
  0
LINE
  5
56F
330
569
100
AcDbEntity
  8
FORMAT
100
AcDbLine
 10
2436.4678156534
 20
1738.3830785607
 30
0.0
 11
2518.6881724612
 21
1738.3830785607
 31
0.0
  0
LINE
  5
570
330
569
100
AcDbEntity
  8
FORMAT
100
AcDbLine
 10
2511.6881724612
 20
1563.3830785669
 30
0.0
 11
2511.6881724612
 21
1738.3830785607
 31
0.0
  0
MTEXT
  5
571
330
569
100
AcDbEntity
  8
FORMAT
100
AcDbMText
 10
2480.106011207
 20
1622.8101625925
 30
0.0
 40
24.5
 41
0.0
 71
     1
 72
     1
  1
175
  7
SLDTEXTSTYLE0
 11
6.123233995736766E-17
 21
1.0
 31
0.0
 73
     1
 44
1.0
  0
ENDBLK
  5
56B
330
569
100
AcDbEntity
  8
0
100
AcDbBlockEnd
  0
BLOCK
  5
574
330
573
100
AcDbEntity
  8
0
100
AcDbBlockBegin
  2
_D_25
 70
     0
 10
0.0
 20
0.0
 30
0.0
  3
_D_25
  1

  0
SOLID
  5
576
330
573
100
AcDbEntity
  8
FORMAT
100
AcDbTrace
 10
2201.0534659638
 20
1611.8830785607
 30
0.0
 11
2204.6094659638
 21
1634.9970785607
 31
0.0
 12
2197.4974659638
 22
1634.9970785607
 32
0.0
 13
2197.4974659638
 23
1634.9970785607
 33
0.0
  0
SOLID
  5
577
330
573
100
AcDbEntity
  8
FORMAT
100
AcDbTrace
 10
2201.0534659638
 20
1739.3830785607
 30
0.0
 11
2197.4974659638
 21
1716.2690785607
 31
0.0
 12
2204.6094659638
 22
1716.2690785607
 32
0.0
 13
2204.6094659638
 23
1716.2690785607
 33
0.0
  0
LINE
  5
578
330
573
100
AcDbEntity
  8
FORMAT
100
AcDbLine
 10
2267.4678156537
 20
1611.8830785607
 30
0.0
 11
2194.0534659638
 21
1611.8830785607
 31
0.0
  0
LINE
  5
579
330
573
100
AcDbEntity
  8
FORMAT
100
AcDbLine
 10
2308.4678156534
 20
1739.3830785607
 30
0.0
 11
2194.0534659638
 21
1739.3830785607
 31
0.0
  0
LINE
  5
57A
330
573
100
AcDbEntity
  8
FORMAT
100
AcDbLine
 10
2201.0534659638
 20
1611.8830785607
 30
0.0
 11
2201.0534659638
 21
1739.3830785607
 31
0.0
  0
MTEXT
  5
57B
330
573
100
AcDbEntity
  8
FORMAT
100
AcDbMText
 10
2169.4713047096
 20
1633.5237046038
 30
0.0
 40
24.5
 41
0.0
 71
     1
 72
     1
  1
127,5
  7
SLDTEXTSTYLE0
 11
-5.489882783168415E-15
 21
1.0
 31
0.0
 73
     1
 44
1.0
  0
ENDBLK
  5
575
330
573
100
AcDbEntity
  8
0
100
AcDbBlockEnd
  0
BLOCK
  5
660
330
65F
100
AcDbEntity
  8
0
100
AcDbBlockBegin
  2
_D_26
 70
     0
 10
0.0
 20
0.0
 30
0.0
  3
_D_26
  1

  0
ARC
  5
662
330
65F
100
AcDbEntity
  8
FORMAT
100
AcDbCircle
 10
2494.0181883361
 20
592.934684058
 30
0.0
 40
42.03885414329039
100
AcDbArc
 50
153.4349488229
 51
206.5650511771
  0
ARC
  5
663
330
65F
100
AcDbEntity
  8
FORMAT
100
AcDbCircle
 10
2456.247354516
 20
592.934684058
 30
0.0
 40
42.03885414329039
100
AcDbArc
 50
333.4349488229
 51
26.5650511771
  0
SOLID
  5
664
330
65F
100
AcDbEntity
  8
FORMAT
100
AcDbTrace
 10
2368.81215144
 20
574.1343369458
 30
0.0
 11
2345.69815144
 21
577.6903369458
 31
0.0
 12
2345.69815144
 22
570.5783369458
 32
0.0
 13
2345.69815144
 23
570.5783369458
 33
0.0
  0
SOLID
  5
665
330
65F
100
AcDbEntity
  8
FORMAT
100
AcDbTrace
 10
2408.0121514368
 20
574.1343369458
 30
0.0
 11
2431.1261514368
 21
570.5783369458
 31
0.0
 12
2431.1261514368
 22
577.6903369458
 32
0.0
 13
2431.1261514368
 23
577.6903369458
 33
0.0
  0
LINE
  5
666
330
65F
100
AcDbEntity
  8
FORMAT
100
AcDbLine
 10
2368.81215144
 20
627.252026924
 30
0.0
 11
2368.81215144
 21
567.1343369458
 31
0.0
  0
LINE
  5
667
330
65F
100
AcDbEntity
  8
FORMAT
100
AcDbLine
 10
2408.0121514368
 20
666.7878977118
 30
0.0
 11
2408.0121514368
 21
567.1343369458
 31
0.0
  0
LINE
  5
668
330
65F
100
AcDbEntity
  8
FORMAT
100
AcDbLine
 10
2368.81215144
 20
574.1343369458
 30
0.0
 11
2324.36215144
 21
574.1343369458
 31
0.0
  0
LINE
  5
669
330
65F
100
AcDbEntity
  8
FORMAT
100
AcDbLine
 10
2368.81215144
 20
574.1343369458
 30
0.0
 11
2408.0121514368
 21
574.1343369458
 31
0.0
  0
LINE
  5
66A
330
65F
100
AcDbEntity
  8
FORMAT
100
AcDbLine
 10
2408.0121514368
 20
574.1343369458
 30
0.0
 11
2498.2862072141
 21
574.1343369458
 31
0.0
  0
MTEXT
  5
66B
330
65F
100
AcDbEntity
  8
FORMAT
100
AcDbMText
 10
2456.4174941118
 20
605.7164982001
 30
0.0
 40
24.5
 41
0.0
 71
     1
 72
     1
  1
28
  7
SLDTEXTSTYLE0
 73
     1
 44
1.0
  0
ENDBLK
  5
661
330
65F
100
AcDbEntity
  8
0
100
AcDbBlockEnd
  0
BLOCK
  5
66E
330
66D
100
AcDbEntity
  8
0
100
AcDbBlockBegin
  2
_D_27
 70
     0
 10
0.0
 20
0.0
 30
0.0
  3
_D_27
  1

  0
ARC
  5
670
330
66D
100
AcDbEntity
  8
FORMAT
100
AcDbCircle
 10
2548.0529725122
 20
617.9660560561
 30
0.0
 40
42.03885414329059
100
AcDbArc
 50
243.4349488229
 51
296.5650511771
  0
ARC
  5
671
330
66D
100
AcDbEntity
  8
FORMAT
100
AcDbCircle
 10
2548.0529725122
 20
580.195222236
 30
0.0
 40
42.03885414329059
100
AcDbArc
 50
63.4349488229
 51
116.5650511771
  0
SOLID
  5
672
330
66D
100
AcDbEntity
  8
FORMAT
100
AcDbTrace
 10
2566.8533196243
 20
673.0878977118
 30
0.0
 11
2563.2973196243
 21
649.9738977118
 31
0.0
 12
2570.4093196243
 22
649.9738977118
 32
0.0
 13
2570.4093196243
 23
649.9738977118
 33
0.0
  0
SOLID
  5
673
330
66D
100
AcDbEntity
  8
FORMAT
100
AcDbTrace
 10
2566.8533196243
 20
696.8878977118
 30
0.0
 11
2570.4093196243
 21
720.0018977118
 31
0.0
 12
2563.2973196243
 22
720.0018977118
 32
0.0
 13
2563.2973196243
 23
720.0018977118
 33
0.0
  0
LINE
  5
674
330
66D
100
AcDbEntity
  8
FORMAT
100
AcDbLine
 10
2414.3121514368
 20
673.0878977118
 30
0.0
 11
2573.8533196243
 21
673.0878977118
 31
0.0
  0
LINE
  5
675
330
66D
100
AcDbEntity
  8
FORMAT
100
AcDbLine
 10
2414.3121514368
 20
696.8878977118
 30
0.0
 11
2573.8533196243
 21
696.8878977118
 31
0.0
  0
LINE
  5
676
330
66D
100
AcDbEntity
  8
FORMAT
100
AcDbLine
 10
2566.8533196243
 20
673.0878977118
 30
0.0
 11
2566.8533196243
 21
575.9272017281
 31
0.0
  0
LINE
  5
677
330
66D
100
AcDbEntity
  8
FORMAT
100
AcDbLine
 10
2566.8533196243
 20
673.0878977118
 30
0.0
 11
2566.8533196243
 21
696.8878977118
 31
0.0
  0
LINE
  5
678
330
66D
100
AcDbEntity
  8
FORMAT
100
AcDbLine
 10
2566.8533196243
 20
696.8878977118
 30
0.0
 11
2566.8533196243
 21
741.3378977118
 31
0.0
  0
MTEXT
  5
679
330
66D
100
AcDbEntity
  8
FORMAT
100
AcDbMText
 10
2535.2711583701
 20
580.3653618319
 30
0.0
 40
24.5
 41
0.0
 71
     1
 72
     1
  1
17
  7
SLDTEXTSTYLE0
 11
-1.191767205047844E-13
 21
1.0
 31
0.0
 73
     1
 44
1.0
  0
ENDBLK
  5
66F
330
66D
100
AcDbEntity
  8
0
100
AcDbBlockEnd
  0
BLOCK
  5
67D
330
67C
100
AcDbEntity
  8
0
100
AcDbBlockBegin
  2
_D_28
 70
     0
 10
0.0
 20
0.0
 30
0.0
  3
_D_28
  1

  0
SOLID
  5
67F
330
67C
100
AcDbEntity
  8
FORMAT
100
AcDbTrace
 10
2621.674677243
 20
733.987897697
 30
0.0
 11
2618.118677243
 21
710.873897697
 31
0.0
 12
2625.230677243
 22
710.873897697
 32
0.0
 13
2625.230677243
 23
710.873897697
 33
0.0
  0
SOLID
  5
680
330
67C
100
AcDbEntity
  8
FORMAT
100
AcDbTrace
 10
2621.674677243
 20
739.587897698
 30
0.0
 11
2625.230677243
 21
762.701897698
 31
0.0
 12
2618.118677243
 22
762.701897698
 32
0.0
 13
2618.118677243
 23
762.701897698
 33
0.0
  0
LINE
  5
681
330
67C
100
AcDbEntity
  8
FORMAT
100
AcDbLine
 10
2375.81215144
 20
733.987897697
 30
0.0
 11
2628.674677243
 21
733.987897697
 31
0.0
  0
LINE
  5
682
330
67C
100
AcDbEntity
  8
FORMAT
100
AcDbLine
 10
2459.9875062498
 20
739.587897698
 30
0.0
 11
2628.674677243
 21
739.587897698
 31
0.0
  0
LINE
  5
683
330
67C
100
AcDbEntity
  8
FORMAT
100
AcDbLine
 10
2621.674677243
 20
733.987897697
 30
0.0
 11
2621.674677243
 21
675.3447478246
 31
0.0
  0
LINE
  5
684
330
67C
100
AcDbEntity
  8
FORMAT
100
AcDbLine
 10
2621.674677243
 20
733.987897697
 30
0.0
 11
2621.674677243
 21
739.587897698
 31
0.0
  0
LINE
  5
685
330
67C
100
AcDbEntity
  8
FORMAT
100
AcDbLine
 10
2621.674677243
 20
739.587897698
 30
0.0
 11
2621.674677243
 21
784.037897698
 31
0.0
  0
MTEXT
  5
686
330
67C
100
AcDbEntity
  8
FORMAT
100
AcDbMText
 10
2590.0925159887
 20
675.3447478246
 30
0.0
 40
24.5
 41
0.0
 71
     1
 72
     1
  1
4
  7
SLDTEXTSTYLE0
 11
6.123233995736766E-17
 21
1.0
 31
0.0
 73
     1
 44
1.0
  0
MTEXT
  5
687
330
67C
100
AcDbEntity
  8
FORMAT
100
AcDbMText
 10
2590.0925159887
 20
694.0600251388
 30
0.0
 40
24.5
 41
0.0
 71
     1
 72
     1
  1
*
  7
SLDTEXTSTYLE0
 11
6.123233995736766E-17
 21
1.0
 31
0.0
 73
     1
 44
1.0
  0
ENDBLK
  5
67E
330
67C
100
AcDbEntity
  8
0
100
AcDbBlockEnd
  0
BLOCK
  5
68A
330
689
100
AcDbEntity
  8
0
100
AcDbBlockBegin
  2
_D_29
 70
     0
 10
0.0
 20
0.0
 30
0.0
  3
_D_29
  1

  0
SOLID
  5
68C
330
689
100
AcDbEntity
  8
FORMAT
100
AcDbTrace
 10
2671.2244998962
 20
739.5878976972
 30
0.0
 11
2667.6684998962
 21
716.4738976972
 31
0.0
 12
2674.7804998962
 22
716.4738976972
 32
0.0
 13
2674.7804998962
 23
716.4738976972
 33
0.0
  0
SOLID
  5
68D
330
689
100
AcDbEntity
  8
FORMAT
100
AcDbTrace
 10
2671.2244998962
 20
785.087897697
 30
0.0
 11
2674.7804998962
 21
808.201897697
 31
0.0
 12
2667.6684998962
 22
808.201897697
 32
0.0
 13
2667.6684998962
 23
808.201897697
 33
0.0
  0
LINE
  5
68E
330
689
100
AcDbEntity
  8
FORMAT
100
AcDbLine
 10
2440.3464774354
 20
739.5878976972
 30
0.0
 11
2678.2244998962
 21
739.5878976972
 31
0.0
  0
LINE
  5
68F
330
689
100
AcDbEntity
  8
FORMAT
100
AcDbLine
 10
2536.8121514395
 20
785.087897697
 30
0.0
 11
2678.2244998962
 21
785.087897697
 31
0.0
  0
LINE
  5
690
330
689
100
AcDbEntity
  8
FORMAT
100
AcDbLine
 10
2671.2244998962
 20
739.5878976972
 30
0.0
 11
2671.2244998962
 21
695.1378976972
 31
0.0
  0
LINE
  5
691
330
689
100
AcDbEntity
  8
FORMAT
100
AcDbLine
 10
2671.2244998962
 20
739.5878976972
 30
0.0
 11
2671.2244998962
 21
785.087897697
 31
0.0
  0
LINE
  5
692
330
689
100
AcDbEntity
  8
FORMAT
100
AcDbLine
 10
2671.2244998962
 20
785.087897697
 30
0.0
 11
2671.2244998962
 21
879.6657038368
 31
0.0
  0
MTEXT
  5
693
330
689
100
AcDbEntity
  8
FORMAT
100
AcDbMText
 10
2639.6423386419
 20
814.1622332371
 30
0.0
 40
24.5
 41
0.0
 71
     1
 72
     1
  1
32,5
  7
SLDTEXTSTYLE0
 11
6.123233995736766E-17
 21
1.0
 31
0.0
 73
     1
 44
1.0
  0
ENDBLK
  5
68B
330
689
100
AcDbEntity
  8
0
100
AcDbBlockEnd
  0
BLOCK
  5
697
330
696
100
AcDbEntity
  8
0
100
AcDbBlockBegin
  2
_D_30
 70
     0
 10
0.0
 20
0.0
 30
0.0
  3
_D_30
  1

  0
SOLID
  5
699
330
696
100
AcDbEntity
  8
FORMAT
100
AcDbTrace
 10
2186.7356570524
 20
696.8878977118
 30
0.0
 11
2183.1796570524
 21
673.7738977118
 31
0.0
 12
2190.2916570524
 22
673.7738977118
 32
0.0
 13
2190.2916570524
 23
673.7738977118
 33
0.0
  0
INSERT
  5
69A
330
696
100
AcDbEntity
  8
FORMAT
100
AcDbBlockReference
  2
_Dot
 10
2186.7356570524
 20
733.987897697
 30
991.3547341424
 41
7.112
 42
7.112
 50
270.0
  0
LINE
  5
69B
330
696
100
AcDbEntity
  8
FORMAT
100
AcDbLine
 10
2362.5121514368
 20
696.8878977118
 30
0.0
 11
2179.7356570524
 21
696.8878977118
 31
0.0
  0
LINE
  5
69C
330
696
100
AcDbEntity
  8
FORMAT
100
AcDbLine
 10
2305.81215144
 20
733.987897697
 30
0.0
 11
2251.658259732
 21
733.987897697
 31
0.0
  0
LINE
  5
69D
330
696
100
AcDbEntity
  8
FORMAT
100
AcDbLine
 10
2230.658259732
 20
733.987897697
 30
0.0
 11
2179.7356570524
 21
733.987897697
 31
0.0
  0
LINE
  5
69E
330
696
100
AcDbEntity
  8
FORMAT
100
AcDbLine
 10
2186.7356570524
 20
696.8878977118
 30
0.0
 11
2186.7356570524
 21
605.2217378741
 31
0.0
  0
LINE
  5
69F
330
696
100
AcDbEntity
  8
FORMAT
100
AcDbLine
 10
2186.7356570524
 20
696.8878977118
 30
0.0
 11
2186.7356570524
 21
733.987897697
 31
0.0
  0
LINE
  5
6A0
330
696
100
AcDbEntity
  8
FORMAT
100
AcDbLine
 10
2186.7356570524
 20
733.987897697
 30
0.0
 11
2186.7356570524
 21
778.437897697
 31
0.0
  0
MTEXT
  5
6A1
330
696
100
AcDbEntity
  8
FORMAT
100
AcDbMText
 10
2155.1534957981
 20
605.2217378741
 30
0.0
 40
24.5
 41
0.0
 71
     1
 72
     1
  1
26,5
  7
SLDTEXTSTYLE0
 11
6.123233995736766E-17
 21
1.0
 31
0.0
 73
     1
 44
1.0
  0
ENDBLK
  5
698
330
696
100
AcDbEntity
  8
0
100
AcDbBlockEnd
  0
BLOCK
  5
6A5
330
6A4
100
AcDbEntity
  8
0
100
AcDbBlockBegin
  2
_D_31
 70
     0
 10
0.0
 20
0.0
 30
0.0
  3
_D_31
  1

  0
INSERT
  5
6A7
330
6A4
100
AcDbEntity
  8
FORMAT
100
AcDbBlockReference
  2
_Dot
 10
2186.7356570524
 20
733.987897697
 30
991.3547341424
 41
7.112
 42
7.112
 50
90.0
  0
SOLID
  5
6A8
330
6A4
100
AcDbEntity
  8
FORMAT
100
AcDbTrace
 10
2186.7356570524
 20
785.087897697
 30
0.0
 11
2190.2916570524
 21
808.201897697
 31
0.0
 12
2183.1796570524
 22
808.201897697
 32
0.0
 13
2183.1796570524
 23
808.201897697
 33
0.0
  0
LINE
  5
6A9
330
6A4
100
AcDbEntity
  8
FORMAT
100
AcDbLine
 10
2305.81215144
 20
733.987897697
 30
0.0
 11
2251.658259732
 21
733.987897697
 31
0.0
  0
LINE
  5
6AA
330
6A4
100
AcDbEntity
  8
FORMAT
100
AcDbLine
 10
2230.658259732
 20
733.987897697
 30
0.0
 11
2179.7356570524
 21
733.987897697
 31
0.0
  0
LINE
  5
6AB
330
6A4
100
AcDbEntity
  8
FORMAT
100
AcDbLine
 10
2361.8121514395
 20
785.087897697
 30
0.0
 11
2179.7356570524
 21
785.087897697
 31
0.0
  0
LINE
  5
6AC
330
6A4
100
AcDbEntity
  8
FORMAT
100
AcDbLine
 10
2186.7356570524
 20
733.987897697
 30
0.0
 11
2186.7356570524
 21
707.3878977118
 31
0.0
  0
LINE
  5
6AD
330
6A4
100
AcDbEntity
  8
FORMAT
100
AcDbLine
 10
2186.7356570524
 20
733.987897697
 30
0.0
 11
2186.7356570524
 21
785.087897697
 31
0.0
  0
LINE
  5
6AE
330
6A4
100
AcDbEntity
  8
FORMAT
100
AcDbLine
 10
2186.7356570524
 20
785.087897697
 30
0.0
 11
2186.7356570524
 21
879.6657038351
 31
0.0
  0
MTEXT
  5
6AF
330
6A4
100
AcDbEntity
  8
FORMAT
100
AcDbMText
 10
2155.1534957981
 20
814.1622332354
 30
0.0
 40
24.5
 41
0.0
 71
     1
 72
     1
  1
36,5
  7
SLDTEXTSTYLE0
 11
6.123233995736766E-17
 21
1.0
 31
0.0
 73
     1
 44
1.0
  0
ENDBLK
  5
6A6
330
6A4
100
AcDbEntity
  8
0
100
AcDbBlockEnd
  0
BLOCK
  5
6B2
330
6B1
100
AcDbEntity
  8
0
100
AcDbBlockBegin
  2
_D_32
 70
     0
 10
0.0
 20
0.0
 30
0.0
  3
_D_32
  1

  0
SOLID
  5
6B4
330
6B1
100
AcDbEntity
  8
FORMAT
100
AcDbTrace
 10
2241.158259732
 20
749.3878976971
 30
0.0
 11
2237.602259732
 21
726.2738976971
 31
0.0
 12
2244.714259732
 22
726.2738976971
 32
0.0
 13
2244.714259732
 23
726.2738976971
 33
0.0
  0
SOLID
  5
6B5
330
6B1
100
AcDbEntity
  8
FORMAT
100
AcDbTrace
 10
2241.158259732
 20
785.087897697
 30
0.0
 11
2244.714259732
 21
808.201897697
 31
0.0
 12
2237.602259732
 22
808.201897697
 32
0.0
 13
2237.602259732
 23
808.201897697
 33
0.0
  0
LINE
  5
6B6
330
6B1
100
AcDbEntity
  8
FORMAT
100
AcDbLine
 10
2391.9081135864
 20
749.3878976971
 30
0.0
 11
2234.158259732
 21
749.3878976971
 31
0.0
  0
LINE
  5
6B7
330
6B1
100
AcDbEntity
  8
FORMAT
100
AcDbLine
 10
2361.8121514395
 20
785.087897697
 30
0.0
 11
2234.158259732
 21
785.087897697
 31
0.0
  0
LINE
  5
6B8
330
6B1
100
AcDbEntity
  8
FORMAT
100
AcDbLine
 10
2241.158259732
 20
749.3878976971
 30
0.0
 11
2241.158259732
 21
704.9378976971
 31
0.0
  0
LINE
  5
6B9
330
6B1
100
AcDbEntity
  8
FORMAT
100
AcDbLine
 10
2241.158259732
 20
749.3878976971
 30
0.0
 11
2241.158259732
 21
785.087897697
 31
0.0
  0
LINE
  5
6BA
330
6B1
100
AcDbEntity
  8
FORMAT
100
AcDbLine
 10
2241.158259732
 20
785.087897697
 30
0.0
 11
2241.158259732
 21
871.5522774811
 31
0.0
  0
MTEXT
  5
6BB
330
6B1
100
AcDbEntity
  8
FORMAT
100
AcDbMText
 10
2209.5760984778
 20
806.0488068814
 30
0.0
 40
24.5
 41
0.0
 71
     1
 72
     1
  1
25,5
  7
SLDTEXTSTYLE0
 11
6.123233995736766E-17
 21
1.0
 31
0.0
 73
     1
 44
1.0
  0
ENDBLK
  5
6B3
330
6B1
100
AcDbEntity
  8
0
100
AcDbBlockEnd
  0
BLOCK
  5
6E1
330
6E0
100
AcDbEntity
  8
0
100
AcDbBlockBegin
  2
_D_33
 70
     0
 10
0.0
 20
0.0
 30
0.0
  3
_D_33
  1

  0
SOLID
  5
6E3
330
6E0
100
AcDbEntity
  8
FORMAT
100
AcDbTrace
 10
1769.9162053903
 20
215.5861505377
 30
0.0
 11
1766.3602053903
 21
192.4721505377
 31
0.0
 12
1773.4722053903
 22
192.4721505377
 32
0.0
 13
1773.4722053903
 23
192.4721505377
 33
0.0
  0
SOLID
  5
6E4
330
6E0
100
AcDbEntity
  8
FORMAT
100
AcDbTrace
 10
1769.9162053903
 20
226.0861505377
 30
0.0
 11
1773.4722053903
 21
249.2001505377
 31
0.0
 12
1766.3602053903
 22
249.2001505377
 32
0.0
 13
1766.3602053903
 23
249.2001505377
 33
0.0
  0
LINE
  5
6E5
330
6E0
100
AcDbEntity
  8
FORMAT
100
AcDbLine
 10
1818.2838707876
 20
215.5861505377
 30
0.0
 11
1762.9162053903
 21
215.5861505377
 31
0.0
  0
LINE
  5
6E6
330
6E0
100
AcDbEntity
  8
FORMAT
100
AcDbLine
 10
1855.9348393392
 20
226.0861505377
 30
0.0
 11
1762.9162053903
 21
226.0861505377
 31
0.0
  0
LINE
  5
6E7
330
6E0
100
AcDbEntity
  8
FORMAT
100
AcDbLine
 10
1769.9162053903
 20
215.5861505377
 30
0.0
 11
1769.9162053903
 21
140.1768372191
 31
0.0
  0
LINE
  5
6E8
330
6E0
100
AcDbEntity
  8
FORMAT
100
AcDbLine
 10
1769.9162053903
 20
215.5861505377
 30
0.0
 11
1769.9162053903
 21
226.0861505377
 31
0.0
  0
LINE
  5
6E9
330
6E0
100
AcDbEntity
  8
FORMAT
100
AcDbLine
 10
1769.9162053903
 20
226.0861505377
 30
0.0
 11
1769.9162053903
 21
270.5361505377
 31
0.0
  0
MTEXT
  5
6EA
330
6E0
100
AcDbEntity
  8
FORMAT
100
AcDbMText
 10
1738.334044136
 20
140.1768372191
 30
0.0
 40
24.5
 41
0.0
 71
     1
 72
     1
  1
7,5
  7
SLDTEXTSTYLE0
 11
2.832769448823990E-16
 21
1.0
 31
0.0
 73
     1
 44
1.0
  0
ENDBLK
  5
6E2
330
6E0
100
AcDbEntity
  8
0
100
AcDbBlockEnd
  0
BLOCK
  5
6EE
330
6ED
100
AcDbEntity
  8
0
100
AcDbBlockBegin
  2
_D_34
 70
     0
 10
0.0
 20
0.0
 30
0.0
  3
_D_34
  1

  0
SOLID
  5
6F0
330
6ED
100
AcDbEntity
  8
FORMAT
100
AcDbTrace
 10
1728.2326775621
 20
226.0861505377
 30
0.0
 11
1731.7886775621
 21
249.2001505377
 31
0.0
 12
1724.6766775621
 22
249.2001505377
 32
0.0
 13
1724.6766775621
 23
249.2001505377
 33
0.0
  0
SOLID
  5
6F1
330
6ED
100
AcDbEntity
  8
FORMAT
100
AcDbTrace
 10
1728.2326775621
 20
332.4861505377
 30
0.0
 11
1724.6766775621
 21
309.3721505377
 31
0.0
 12
1731.7886775621
 22
309.3721505377
 32
0.0
 13
1731.7886775621
 23
309.3721505377
 33
0.0
  0
LINE
  5
6F2
330
6ED
100
AcDbEntity
  8
FORMAT
100
AcDbLine
 10
1855.9348393392
 20
226.0861505377
 30
0.0
 11
1721.2326775621
 21
226.0861505377
 31
0.0
  0
LINE
  5
6F3
330
6ED
100
AcDbEntity
  8
FORMAT
100
AcDbLine
 10
1855.9348393392
 20
332.4861505377
 30
0.0
 11
1721.2326775621
 21
332.4861505377
 31
0.0
  0
LINE
  5
6F4
330
6ED
100
AcDbEntity
  8
FORMAT
100
AcDbLine
 10
1728.2326775621
 20
226.0861505377
 30
0.0
 11
1728.2326775621
 21
332.4861505377
 31
0.0
  0
MTEXT
  5
6F5
330
6ED
100
AcDbEntity
  8
FORMAT
100
AcDbMText
 10
1696.6505163079
 20
260.5708732236
 30
0.0
 40
24.5
 41
0.0
 71
     1
 72
     1
  1
76
  7
SLDTEXTSTYLE0
 11
6.123233995736766E-17
 21
1.0
 31
0.0
 73
     1
 44
1.0
  0
ENDBLK
  5
6EF
330
6ED
100
AcDbEntity
  8
0
100
AcDbBlockEnd
  0
BLOCK
  5
6F8
330
6F7
100
AcDbEntity
  8
0
100
AcDbBlockBegin
  2
SW_CENTERMARKSYMBOL_12
 70
     0
 10
0.0
 20
0.0
 30
0.0
  3
SW_CENTERMARKSYMBOL_12
  1

  0
LINE
  5
6FA
330
6F7
100
AcDbEntity
  8
FORMAT
 62
     0
100
AcDbLine
 10
0.0
 20
0.0
 30
0.0
 11
0.0
 21
3.500007093
 31
0.0
  0
LINE
  5
6FB
330
6F7
100
AcDbEntity
  8
FORMAT
 62
     0
100
AcDbLine
 10
0.0
 20
0.0
 30
0.0
 11
-3.4999966621
 21
0.0
 31
0.0
  0
LINE
  5
6FC
330
6F7
100
AcDbEntity
  8
FORMAT
 62
     0
100
AcDbLine
 10
0.0
 20
0.0
 30
0.0
 11
0.0
 21
-3.4999966621
 31
0.0
  0
LINE
  5
6FD
330
6F7
100
AcDbEntity
  8
FORMAT
 62
     0
100
AcDbLine
 10
0.0
 20
0.0
 30
0.0
 11
3.4999966621
 21
0.0
 31
0.0
  0
LINE
  5
6FE
330
6F7
100
AcDbEntity
  8
FORMAT
 62
     0
100
AcDbLine
 10
0.0
 20
7.0000037551
 30
0.0
 11
0.0
 21
8.0500006676
 31
0.0
  0
LINE
  5
6FF
330
6F7
100
AcDbEntity
  8
FORMAT
 62
     0
100
AcDbLine
 10
-6.9999933243
 20
0.0
 30
0.0
 11
-8.0500006676
 21
0.0
 31
0.0
  0
LINE
  5
700
330
6F7
100
AcDbEntity
  8
FORMAT
 62
     0
100
AcDbLine
 10
0.0
 20
-6.9999933243
 30
0.0
 11
0.0
 21
-8.0499902368
 31
0.0
  0
LINE
  5
701
330
6F7
100
AcDbEntity
  8
FORMAT
 62
     0
100
AcDbLine
 10
6.9999933243
 20
0.0
 30
0.0
 11
8.0500006676
 21
0.0
 31
0.0
  0
ENDBLK
  5
6F9
330
6F7
100
AcDbEntity
  8
0
100
AcDbBlockEnd
  0
BLOCK
  5
704
330
703
100
AcDbEntity
  8
0
100
AcDbBlockBegin
  2
SW_CENTERMARKSYMBOL_13
 70
     0
 10
0.0
 20
0.0
 30
0.0
  3
SW_CENTERMARKSYMBOL_13
  1

  0
LINE
  5
706
330
703
100
AcDbEntity
  8
FORMAT
 62
     0
100
AcDbLine
 10
0.0
 20
0.0
 30
0.0
 11
0.0
 21
3.4999966621
 31
0.0
  0
LINE
  5
707
330
703
100
AcDbEntity
  8
FORMAT
 62
     0
100
AcDbLine
 10
0.0
 20
0.0
 30
0.0
 11
-3.4999966621
 21
0.0
 31
0.0
  0
LINE
  5
708
330
703
100
AcDbEntity
  8
FORMAT
 62
     0
100
AcDbLine
 10
0.0
 20
0.0
 30
0.0
 11
0.0
 21
-3.4999966621
 31
0.0
  0
LINE
  5
709
330
703
100
AcDbEntity
  8
FORMAT
 62
     0
100
AcDbLine
 10
0.0
 20
0.0
 30
0.0
 11
3.4999966621
 21
0.0
 31
0.0
  0
LINE
  5
70A
330
703
100
AcDbEntity
  8
FORMAT
 62
     0
100
AcDbLine
 10
0.0
 20
6.9999933243
 30
0.0
 11
0.0
 21
8.0500006676
 31
0.0
  0
LINE
  5
70B
330
703
100
AcDbEntity
  8
FORMAT
 62
     0
100
AcDbLine
 10
-6.9999933243
 20
0.0
 30
0.0
 11
-8.0500006676
 21
0.0
 31
0.0
  0
LINE
  5
70C
330
703
100
AcDbEntity
  8
FORMAT
 62
     0
100
AcDbLine
 10
0.0
 20
-6.9999933243
 30
0.0
 11
0.0
 21
-8.0500006676
 31
0.0
  0
LINE
  5
70D
330
703
100
AcDbEntity
  8
FORMAT
 62
     0
100
AcDbLine
 10
6.9999933243
 20
0.0
 30
0.0
 11
8.0500006676
 21
0.0
 31
0.0
  0
ENDBLK
  5
705
330
703
100
AcDbEntity
  8
0
100
AcDbBlockEnd
  0
ENDSEC
  0
SECTION
  2
ENTITIES
  0
LINE
  5
CA
330
1F
100
AcDbEntity
  8
FORMAT
  6
Continuous
 62
     7
370
    18
100
AcDbLine
 10
2648.7467156628
 20
249.0548071362
 30
0.0
 11
2121.8704816337
 21
249.0548071362
 31
0.0
  0
LINE
  5
CB
330
1F
100
AcDbEntity
  8
FORMAT
  6
Continuous
 62
     7
370
    18
100
AcDbLine
 10
2648.7467156628
 20
341.1944719343
 30
0.0
 11
2869.6070185003
 21
341.1944719343
 31
0.0
  0
LINE
  5
CC
330
1F
100
AcDbEntity
  8
0
  6
Continuous
 62
     7
370
    18
100
AcDbLine
 10
2552.9704263625
 20
249.0548071362
 30
0.0
 11
2552.9704263625
 21
181.3583509723
 31
0.0
  0
LINE
  5
CD
330
1F
100
AcDbEntity
  8
FORMAT
100
AcDbLine
 10
2869.6070185003
 20
2009.0
 30
0.0
 11
69.6070185003
 21
2009.0
 31
0.0
  0
LINE
  5
CE
330
1F
100
AcDbEntity
  8
FORMAT
100
AcDbLine
 10
69.6070185003
 20
2009.0
 30
0.0
 11
69.6070185003
 21
70.0
 31
0.0
  0
LINE
  5
CF
330
1F
100
AcDbEntity
  8
BEMASSUNG
  6
Continuous
 62
     7
370
    18
100
AcDbLine
 10
2648.7467156628
 20
283.9466531596
 30
0.0
 11
2869.6070185003
 21
283.9466531596
 31
0.0
  0
LINE
  5
D0
330
1F
100
AcDbEntity
  8
FORMAT
100
AcDbLine
 10
69.6070185003
 20
70.0
 30
0.0
 11
2869.6070185003
 21
70.0
 31
0.0
  0
LINE
  5
D1
330
1F
100
AcDbEntity
  8
FORMAT
100
AcDbLine
 10
2869.6070185003
 20
70.0
 30
0.0
 11
2869.6070185003
 21
2009.0
 31
0.0
  0
LINE
  5
D2
330
1F
100
AcDbEntity
  8
0
  6
Continuous
 62
     7
370
    18
100
AcDbLine
 10
2121.8704816337
 20
368.7467824209
 30
0.0
 11
2121.8704816337
 21
70.0000160588
 31
0.0
  0
LINE
  5
D3
330
1F
100
AcDbEntity
  8
0
  6
Continuous
 62
     7
370
    18
100
AcDbLine
 10
2766.39523512
 20
70.0
 30
0.0
 11
2766.39523512
 21
135.4292810523
 31
0.0
  0
LINE
  5
D4
330
1F
100
AcDbEntity
  8
0
  6
Continuous
 62
     7
370
    18
100
AcDbLine
 10
2121.8704816337
 20
181.3583509723
 30
0.0
 11
2869.6070185003
 21
181.3583509723
 31
0.0
  0
LINE
  5
D5
330
1F
100
AcDbEntity
  8
0
  6
Continuous
 62
     7
370
    18
100
AcDbLine
 10
2648.7467156628
 20
135.4292810523
 30
0.0
 11
2869.6070185003
 21
135.4292810523
 31
0.0
  0
LINE
  5
D6
330
1F
100
AcDbEntity
  8
0
  6
Continuous
 62
     7
370
    18
100
AcDbLine
 10
2121.8704816337
 20
368.7467824209
 30
0.0
 11
2869.7006917056
 21
368.7467824209
 31
0.0
  0
LINE
  5
D7
330
1F
100
AcDbEntity
  8
0
  6
Continuous
 62
     7
370
    18
100
AcDbLine
 10
2648.7467156628
 20
70.0
 30
0.0
 11
2648.7467156628
 21
368.7467824209
 31
0.0
  0
INSERT
  5
D8
330
1F
100
AcDbEntity
  8
0
  6
Continuous
 62
     7
100
AcDbBlockReference
  2
Block2_3_1
 10
509.1807851128
 20
-261.5944962483
 30
0.0
  0
INSERT
  5
D9
330
1F
100
AcDbEntity
  8
FORMAT
100
AcDbBlockReference
  2
rechtlicher_Hinweis_Katalogzeichnungen_1
 10
86.2294908427
 20
31.5549972483
 30
0.0
 41
0.5
 42
0.5
 43
0.5
  0
INSERT
  5
DA
330
1F
100
AcDbEntity
  8
0
  6
Continuous
 62
     7
100
AcDbBlockReference
  2
Block1_3_1
 10
2700.6135347481
 20
189.6696797211
 30
0.0
  0
INSERT
  5
E1
330
1F
100
AcDbEntity
  8
FORMAT
100
AcDbBlockReference
  2
SW_NOTE_0_4
 10
92.6434981293
 20
347.3244111932
 30
0.0
  0
MTEXT
  5
E2
330
1F
100
AcDbEntity
  8
FORMAT
100
AcDbMText
 10
2263.2109793343
 20
529.9130096148
 30
0.0
 40
18.5208333333
 41
0.0
 71
     1
 72
     1
  1
* Abstand Unterkante Hebel zu Oberkante Türflügel
  7
SLDTEXTSTYLE0
 73
     1
 44
1.0
  0
MTEXT
  5
E3
330
1F
100
AcDbEntity
  8
0
  6
Continuous
 62
     7
370
     0
100
AcDbMText
 10
2655.2495495755
 20
165.0094332157
 30
0.0
 40
14.0
 41
0.0
 71
     1
 72
     1
  1
Maßstab:
  7
SLDTEXTSTYLE0
 73
     1
 44
1.0
  0
MTEXT
  5
E4
330
1F
100
AcDbEntity
  8
0
  6
Continuous
 62
     7
370
     0
100
AcDbMText
 10
2785.9502817651
 20
125.2286542559
 30
0.0
 40
14.0
 41
0.0
 71
     1
 72
     1
  1
Format
  7
SLDTEXTSTYLE0
 73
     1
 44
1.0
  0
MTEXT
  5
E5
330
1F
100
AcDbEntity
  8
0
  6
Continuous
 62
     7
370
     0
100
AcDbMText
 10
2135.8123898948
 20
356.9818853041
 30
0.0
 40
14.0
 41
0.0
 71
     1
 72
     1
  1
Benennung:
  7
SLDTEXTSTYLE0
 73
     1
 44
1.0
  0
MTEXT
  5
E6
330
1F
100
AcDbEntity
  8
0
  6
Continuous
 62
     7
370
     0
100
AcDbMText
 10
2664.5005395913
 20
125.2286542559
 30
0.0
 40
14.0
 41
0.0
 71
     1
 72
     1
  1
Blatt / von
  7
SLDTEXTSTYLE0
 73
     1
 44
1.0
  0
MTEXT
  5
E7
330
1F
100
AcDbEntity
  8
0
  6
Continuous
 62
     7
370
     0
100
AcDbMText
 10
2706.4725907482
 20
100.6974422258
 30
0.0
 40
17.5
 41
0.0
 71
     2
 72
     1
  1
/
  7
SLDTEXTSTYLE0
 73
     1
 44
1.0
  0
MTEXT
  5
E9
330
1F
100
AcDbEntity
  8
0
  6
Continuous
 62
     7
370
     0
100
AcDbMText
 10
2134.2541581219
 20
214.7882486886
 30
0.0
 40
22.225
 41
0.0
 71
     1
 72
     1
  1
D052-49467
  7
SLDTEXTSTYLE3
 73
     1
 44
1.0
  0
MTEXT
  5
EA
330
1F
100
AcDbEntity
  8
0
  6
Continuous
 62
     7
370
     0
100
AcDbMText
 10
2752.495267605
 20
165.9085614452
 30
0.0
 40
14.8166666667
 41
0.0
 71
     1
 72
     1
  1
1:7
  7
SLDTEXTSTYLE0
 73
     1
 44
1.0
  0
MTEXT
  5
EB
330
1F
100
AcDbEntity
  8
0
  6
Continuous
 62
     7
370
     0
100
AcDbMText
 10
2803.7489693293
 20
99.2074950551
 30
0.0
 40
14.8166666667
 41
0.0
 71
     1
 72
     1
  1
A3
  7
SLDTEXTSTYLE0
 73
     1
 44
1.0
  0
MTEXT
  5
EC
330
1F
100
AcDbEntity
  8
0
  6
Continuous
 62
     7
370
     0
100
AcDbMText
 10
2680.0334055091
 20
99.9642475618
 30
0.0
 40
14.8166666667
 41
0.0
 71
     1
 72
     1
  1
1
  7
SLDTEXTSTYLE0
 73
     1
 44
1.0
  0
MTEXT
  5
ED
330
1F
100
AcDbEntity
  8
0
  6
Continuous
 62
     7
370
     0
100
AcDbMText
 10
2722.5410575592
 20
99.9642475618
 30
0.0
 40
14.8166666667
 41
0.0
 71
     1
 72
     1
  1
1
  7
SLDTEXTSTYLE0
 73
     1
 44
1.0
  0
MTEXT
  5
EE
330
1F
100
AcDbEntity
  8
FORMAT
100
AcDbMText
 10
2137.971220638
 20
240.9301481691
 30
0.0
 40
14.0
 41
0.0
 71
     1
 72
     1
  1
Zeichnungsnummer:
  7
SLDTEXTSTYLE0
 73
     1
 44
1.0
  0
MTEXT
  5
EF
330
1F
100
AcDbEntity
  8
FORMAT
100
AcDbMText
 10
2666.6233339517
 20
361.2067203863
 30
0.0
 40
12.6
 41
0.0
 71
     1
 72
     1
  1
KATALOGZEICHNUNG
  7
SLDTEXTSTYLE3
 73
     1
 44
1.0
  0
MTEXT
  5
F0
330
1F
100
AcDbEntity
  8
FORMAT
100
AcDbMText
 10
2573.4610565193
 20
241.0417881835
 30
0.0
 40
14.0
 41
0.0
 71
     1
 72
     1
  1
Index:
  7
SLDTEXTSTYLE0
 73
     1
 44
1.0
  0
MTEXT
  5
F1
330
1F
100
AcDbEntity
  8
BEMASSUNG
 62
     7
100
AcDbMText
 10
2654.3752871088
 20
335.5547520888
 30
0.0
 40
14.0
 41
0.0
 71
     1
 72
     1
  1
Ausführung:
  7
SLDTEXTSTYLE0
 73
     1
 44
1.0
  0
MTEXT
  5
F2
330
1F
100
AcDbEntity
  8
FORMAT
100
AcDbMText
 10
2134.4508235056
 20
277.1473496808
 30
0.0
 40
17.5
 41
0.0
 71
     1
 72
     1
  1
Bandseite DIN Links
  7
SLDTEXTSTYLE3
 73
     1
 44
1.0
  0
MTEXT
  5
F3
330
1F
100
AcDbEntity
  8
FORMAT
100
AcDbMText
 10
2134.4508235056
 20
333.2914097385
 30
0.0
 40
24.5
 41
0.0
 71
     1
 72
     1
  1
ETS 73 (GSZ - GB 46 - AV 20)
  7
SLDTEXTSTYLE3
 73
     1
 44
1.0
  0
INSERT
  5
11C
330
1F
100
AcDbEntity
  8
FORMAT
100
AcDbBlockReference
  2
SW_TABLEANNOTATION_0
 10
1708.3125360539
 20
1489.8083679086
 30
0.0
  0
LINE
  5
11D
330
1F
100
AcDbEntity
  8
0
  6
Continuous
 62
     7
370
    25
100
AcDbLine
 10
827.7582239411
 20
1633.6270625917
 30
0.0
 11
827.7582239411
 21
1643.3830785607
 31
0.0
  0
LINE
  5
11E
330
1F
100
AcDbEntity
  8
0
  6
Continuous
 62
     7
370
    25
100
AcDbLine
 10
797.7582239411
 20
1643.3830785607
 30
0.0
 11
797.7582239411
 21
1633.6270625917
 31
0.0
  0
LINE
  5
11F
330
1F
100
AcDbEntity
  8
0
  6
Continuous
 62
     7
370
    25
100
AcDbLine
 10
1203.0168770863
 20
1610.3830785607
 30
0.0
 11
1203.0168770863
 21
1580.3830785649
 31
0.0
  0
LINE
  5
120
330
1F
100
AcDbEntity
  8
0
  6
Continuous
 62
     7
370
    25
100
AcDbLine
 10
1217.0168770863
 20
1580.3830785649
 30
0.0
 11
1217.0168770863
 21
1610.3830785607
 31
0.0
  0
LINE
  5
121
330
1F
100
AcDbEntity
  8
0
  6
Continuous
 62
     7
370
    25
100
AcDbLine
 10
1215.0168770863
 20
1610.3830785607
 30
0.0
 11
1215.0168770863
 21
1610.8830785607
 31
0.0
  0
LINE
  5
122
330
1F
100
AcDbEntity
  8
0
  6
Continuous
 62
     7
370
    25
100
AcDbLine
 10
1205.0168770863
 20
1610.8830785607
 30
0.0
 11
1205.0168770863
 21
1610.3830785607
 31
0.0
  0
ARC
  5
123
330
1F
100
AcDbEntity
  8
0
  6
Continuous
 62
     7
370
    25
100
AcDbCircle
 10
830.7582239412
 20
1620.8830785608
 30
0.0
 40
3.0
100
AcDbArc
 50
179.9999999998
 51
270.0
  0
LINE
  5
124
330
1F
100
AcDbEntity
  8
0
  6
Continuous
 62
     7
370
    25
100
AcDbLine
 10
797.7582239413
 20
1631.6830785608
 30
0.0
 11
797.7582239413
 21
1611.8830785608
 31
0.0
  0
LINE
  5
125
330
1F
100
AcDbEntity
  8
0
  6
Continuous
 62
     7
370
    25
100
AcDbLine
 10
827.7582239412
 20
1620.8830785608
 30
0.0
 11
827.7582239412
 21
1631.6830785608
 31
0.0
  0
LINE
  5
126
330
1F
100
AcDbEntity
  8
0
  6
Continuous
 62
     7
370
    25
100
AcDbLine
 10
797.7582239413
 20
1611.8830785608
 30
0.0
 11
798.7582239413
 21
1610.8830785608
 31
0.0
  0
LINE
  5
127
330
1F
100
AcDbEntity
  8
0
  6
Continuous
 62
     7
370
    25
100
AcDbLine
 10
827.7582239412
 20
1631.6830785608
 30
0.0
 11
827.5582239412
 21
1631.8830785608
 31
0.0
  0
LINE
  5
128
330
1F
100
AcDbEntity
  8
0
  6
Continuous
 62
     7
370
    25
100
AcDbLine
 10
797.9582239413
 20
1631.8830785608
 30
0.0
 11
797.7582239413
 21
1631.6830785608
 31
0.0
  0
LWPOLYLINE
  5
129
330
1F
100
AcDbEntity
  8
0
  6
Continuous
 62
     7
370
    25
100
AcDbPolyline
 90
       12
 70
   128
 43
0.0
 10
804.1725143975
 20
1632.6910596198
 10
804.062538762
 20
1632.3920129616
 10
803.8779164136
 20
1632.1558004014
 10
803.7669520158
 20
1632.0654471251
 10
803.6531087701
 20
1631.9960524656
 10
803.5467889517
 20
1631.9472039171
 10
803.4581969865
 20
1631.9157673711
 10
803.3970560121
 20
1631.8974808854
 10
803.3726332507
 20
1631.8881429056
 10
803.3934635555
 20
1631.8842416196
 10
803.4663469174
 20
1631.8831525685
 10
803.5519242431
 20
1631.8831030865
  0
LINE
  5
12A
330
1F
100
AcDbEntity
  8
0
  6
Continuous
 62
     7
370
    25
100
AcDbLine
 10
804.3555052201
 20
1633.6270625917
 30
0.0
 11
804.1593814541
 21
1632.6238865151
 31
0.0
  0
LWPOLYLINE
  5
12B
330
1F
100
AcDbEntity
  8
0
  6
Continuous
 62
     7
370
    25
100
AcDbPolyline
 90
       11
 70
   128
 43
0.0
 10
822.988517842
 20
1631.8831012965
 10
823.028126417
 20
1631.8831239816
 10
823.0537559138
 20
1631.8841753055
 10
823.0351531774
 20
1631.888231765
 10
822.9818945324
 20
1631.8981266077
 10
822.9022988295
 20
1631.917517245
 10
822.8037911821
 20
1631.9505698629
 10
822.6937941465
 20
1632.0011938915
 10
822.4727067546
 20
1632.1614009979
 10
822.2955888221
 20
1632.3892197343
 10
822.187735957
 20
1632.672306043
  0
LINE
  5
12C
330
1F
100
AcDbEntity
  8
0
  6
Continuous
 62
     7
370
    25
100
AcDbLine
 10
822.1877366837
 20
1632.6723041357
 30
0.0
 11
821.981948817
 21
1633.6270625917
 31
0.0
  0
LINE
  5
12D
330
1F
100
AcDbEntity
  8
0
  6
Continuous
 62
     7
370
    25
100
AcDbLine
 10
803.5344990655
 20
1633.6270625917
 30
0.0
 11
803.3184576579
 21
1632.6247325515
 31
0.0
  0
ARC
  5
12E
330
1F
100
AcDbEntity
  8
0
  6
Continuous
 62
     7
370
    25
100
AcDbCircle
 10
802.3627246199
 20
1632.8688384418
 30
0.0
 40
0.9857770834018513
100
AcDbArc
 50
269.5440885488
 51
348.4999965656
  0
LINE
  5
12F
330
1F
100
AcDbEntity
  8
0
  6
Continuous
 62
     7
370
    25
100
AcDbLine
 10
1221.0168770863
 20
1616.8830785607
 30
0.0
 11
1220.0168770863
 21
1617.8830785607
 31
0.0
  0
LINE
  5
130
330
1F
100
AcDbEntity
  8
0
  6
Continuous
 62
     7
370
    25
100
AcDbLine
 10
1220.0168770863
 20
1610.8830785607
 30
0.0
 11
1221.0168770863
 21
1611.8830785607
 31
0.0
  0
LINE
  5
131
330
1F
100
AcDbEntity
  8
0
  6
Continuous
 62
     7
370
    25
100
AcDbLine
 10
1221.0168770863
 20
1611.8830785607
 30
0.0
 11
1221.0168770863
 21
1616.8830785607
 31
0.0
  0
LINE
  5
132
330
1F
100
AcDbEntity
  8
0
  6
Continuous
 62
     7
370
    25
100
AcDbLine
 10
520.7582239411
 20
1426.8830785607
 30
0.0
 11
520.7582239411
 21
1386.8830785607
 31
0.0
  0
LINE
  5
133
330
1F
100
AcDbEntity
  8
0
  6
Continuous
 62
     7
370
    25
100
AcDbLine
 10
544.7882239411
 20
1426.8830785607
 30
0.0
 11
544.7882239411
 21
1456.8830785607
 31
0.0
  0
LINE
  5
134
330
1F
100
AcDbEntity
  8
0
  6
Continuous
 62
     7
370
    25
100
AcDbLine
 10
544.7882239411
 20
1356.8830785607
 30
0.0
 11
544.7882239411
 21
1386.8830785607
 31
0.0
  0
LINE
  5
135
330
1F
100
AcDbEntity
  8
0
  6
Continuous
 62
     7
370
    25
100
AcDbLine
 10
808.9192401192
 20
1633.6270625917
 30
0.0
 11
827.7582239411
 21
1633.6270625917
 31
0.0
  0
LINE
  5
136
330
1F
100
AcDbEntity
  8
0
  6
Continuous
 62
     7
370
    25
100
AcDbLine
 10
797.7582239411
 20
1633.6270625917
 30
0.0
 11
808.9192401192
 21
1633.6270625917
 31
0.0
  0
LINE
  5
137
330
1F
100
AcDbEntity
  8
0
  6
Continuous
 62
     7
370
    25
100
AcDbLine
 10
1217.0168770863
 20
1610.3830785607
 30
0.0
 11
1203.0168770863
 21
1610.3830785607
 31
0.0
  0
LWPOLYLINE
  5
138
330
1F
100
AcDbEntity
  8
0
  6
Continuous
 62
     7
370
    25
100
AcDbPolyline
 90
       16
 70
   128
 43
0.0
 10
825.6306454422
 20
1617.8830785608
 10
823.8246448914
 20
1618.0193363619
 10
821.9734895846
 20
1618.3786947807
 10
820.0736663205
 20
1618.9043929062
 10
818.7660616337
 20
1619.3287107067
 10
817.2979065435
 20
1619.8453460151
 10
816.9601326912
 20
1619.9683709247
 10
816.6157545295
 20
1620.0950145983
 10
816.264629191
 20
1620.2251052053
 10
815.9065868831
 20
1620.3584464819
 10
814.8769104334
 20
1620.7459800663
 10
814.6111887672
 20
1620.8461377521
 10
814.5405261933
 20
1620.8725155584
 10
814.5207511409
 20
1620.8797740111
 10
814.5147533704
 20
1620.8819205261
 10
814.5113489412
 20
1620.8830785608
  0
LINE
  5
139
330
1F
100
AcDbEntity
  8
0
  6
Continuous
 62
     7
370
    25
100
AcDbLine
 10
825.7475204422
 20
1616.8830785608
 30
0.0
 11
825.6306454422
 21
1617.8830785608
 31
0.0
  0
LWPOLYLINE
  5
13A
330
1F
100
AcDbEntity
  8
0
  6
Continuous
 62
     7
370
    25
100
AcDbPolyline
 90
       16
 70
   128
 43
0.0
 10
825.7475204422
 20
1616.8830785608
 10
823.7627804622
 20
1617.0623466569
 10
821.7896501002
 20
1617.5412159503
 10
819.8413135287
 20
1618.2448385986
 10
819.0017670771
 20
1618.6055082916
 10
818.0994233232
 20
1619.0237069915
 10
817.134282267
 20
1619.4994346984
 10
815.8174388882
 20
1620.1835678383
 10
815.5787106171
 20
1620.3102443914
 10
815.360830495
 20
1620.4266251333
 10
815.1637985218
 20
1620.5327100637
 10
814.6884411871
 20
1620.7891968351
 10
814.5626119281
 20
1620.8564633287
 10
814.5276596507
 20
1620.8748523524
 10
814.5171740999
 20
1620.8802358085
 10
814.5113489412
 20
1620.8830785608
  0
LINE
  5
13B
330
1F
100
AcDbEntity
  8
0
  6
Continuous
 62
     7
370
    25
100
AcDbLine
 10
814.5113489412
 20
1611.8830785608
 30
0.0
 11
814.5113489412
 21
1620.8830785608
 31
0.0
  0
LINE
  5
13C
330
1F
100
AcDbEntity
  8
0
  6
Continuous
 62
     7
370
    25
100
AcDbLine
 10
814.5113489412
 20
1611.8830785608
 30
0.0
 11
797.7582239413
 21
1611.8830785608
 31
0.0
  0
LINE
  5
13D
330
1F
100
AcDbEntity
  8
0
  6
Continuous
 62
     7
370
    25
100
AcDbLine
 10
814.5113489413
 20
1631.6830785608
 30
0.0
 11
797.7582239413
 21
1631.6830785608
 31
0.0
  0
LINE
  5
13E
330
1F
100
AcDbEntity
  8
0
  6
Continuous
 62
     7
370
    25
100
AcDbLine
 10
827.7582239412
 20
1631.6830785608
 30
0.0
 11
814.5113489413
 21
1631.6830785608
 31
0.0
  0
LINE
  5
13F
330
1F
100
AcDbEntity
  8
0
  6
Continuous
 62
     7
370
    25
100
AcDbLine
 10
814.3944739412
 20
1610.8830785608
 30
0.0
 11
814.5113489412
 21
1611.8830785608
 31
0.0
  0
LINE
  5
140
330
1F
100
AcDbEntity
  8
0
  6
Continuous
 62
     7
370
    25
100
AcDbLine
 10
814.3944739412
 20
1610.8830785608
 30
0.0
 11
798.7582239413
 21
1610.8830785608
 31
0.0
  0
LINE
  5
141
330
1F
100
AcDbEntity
  8
0
  6
Continuous
 62
     7
370
    25
100
AcDbLine
 10
814.4879739413
 20
1631.8830785608
 30
0.0
 11
797.9582239413
 21
1631.8830785608
 31
0.0
  0
LINE
  5
142
330
1F
100
AcDbEntity
  8
0
  6
Continuous
 62
     7
370
    25
100
AcDbLine
 10
827.5582239412
 20
1631.8830785608
 30
0.0
 11
814.4879739413
 21
1631.8830785608
 31
0.0
  0
LINE
  5
143
330
1F
100
AcDbEntity
  8
0
  6
Continuous
 62
     7
370
    25
100
AcDbLine
 10
1023.5401959841
 20
1611.8830785607
 30
0.0
 11
1023.5401959841
 21
1616.8830785607
 31
0.0
  0
LINE
  5
144
330
1F
100
AcDbEntity
  8
0
  6
Continuous
 62
     7
370
    25
100
AcDbLine
 10
1023.5401959841
 20
1611.8830785607
 30
0.0
 11
814.5113489412
 21
1611.8830785608
 31
0.0
  0
LINE
  5
145
330
1F
100
AcDbEntity
  8
0
  6
Continuous
 62
     7
370
    25
100
AcDbLine
 10
1023.5401959841
 20
1616.8830785607
 30
0.0
 11
825.7475204422
 21
1616.8830785608
 31
0.0
  0
LINE
  5
146
330
1F
100
AcDbEntity
  8
0
  6
Continuous
 62
     7
370
    25
100
AcDbLine
 10
1023.5401959841
 20
1611.8830785607
 30
0.0
 11
1023.4233209841
 21
1610.8830785608
 31
0.0
  0
LINE
  5
147
330
1F
100
AcDbEntity
  8
0
  6
Continuous
 62
     7
370
    25
100
AcDbLine
 10
1023.4233209841
 20
1610.8830785608
 30
0.0
 11
814.3944739412
 21
1610.8830785608
 31
0.0
  0
LINE
  5
148
330
1F
100
AcDbEntity
  8
0
  6
Continuous
 62
     7
370
    25
100
AcDbLine
 10
825.6306454422
 20
1617.8830785608
 30
0.0
 11
1023.4233209841
 21
1617.8830785607
 31
0.0
  0
LINE
  5
149
330
1F
100
AcDbEntity
  8
0
  6
Continuous
 62
     7
370
    25
100
AcDbLine
 10
1023.5401959841
 20
1616.8830785607
 30
0.0
 11
1023.4233209841
 21
1617.8830785607
 31
0.0
  0
LWPOLYLINE
  5
14A
330
1F
100
AcDbEntity
  8
0
  6
Continuous
 62
     7
370
    25
100
AcDbPolyline
 90
        9
 70
   128
 43
0.0
 10
810.8820734458
 20
1631.8830785608
 10
810.796277973
 20
1631.8986519927
 10
810.7131547602
 20
1631.9448872249
 10
810.6352928346
 20
1632.0203441748
 10
810.5651173511
 20
1632.1226725952
 10
810.504814056
 20
1632.2486852767
 10
810.4562612076
 20
1632.3944573193
 10
810.4209710751
 20
1632.5554483813
 10
810.4000428353
 20
1632.7266440958
  0
ARC
  5
14B
330
1F
100
AcDbEntity
  8
0
  6
Continuous
 62
     7
370
    25
100
AcDbCircle
 10
808.9462334098
 20
1632.8006354269
 30
0.0
 40
0.919149847262404
100
AcDbArc
 50
273.3737472446
 51
355.3827081636
  0
ARC
  5
14C
330
1F
100
AcDbEntity
  8
0
  6
Continuous
 62
     7
370
    25
100
AcDbCircle
 10
810.1312215484
 20
1633.2606082241
 30
0.0
 40
0.5978148330875755
100
AcDbArc
 50
243.2772849693
 51
296.7227163649
  0
LWPOLYLINE
  5
14D
330
1F
100
AcDbEntity
  8
0
  6
Continuous
 62
     7
370
    25
100
AcDbPolyline
 90
        3
 70
   128
 43
0.0
 10
813.5620065005
 20
1632.1226725952
 10
813.656481384
 20
1631.9448872249
 10
813.7718375441
 20
1631.8830785608
  0
LINE
  5
14E
330
1F
100
AcDbEntity
  8
0
  6
Continuous
 62
     7
370
    25
100
AcDbLine
 10
810.4000428353
 20
1632.7266440958
 30
0.0
 11
813.5040570357
 21
1632.7266440958
 31
0.0
  0
LWPOLYLINE
  5
14F
330
1F
100
AcDbEntity
  8
0
  6
Continuous
 62
     7
370
    25
100
AcDbPolyline
 90
        3
 70
   128
 43
0.0
 10
813.5040570357
 20
1632.7266440958
 10
813.5067128825
 20
1632.3944573193
 10
813.5620065005
 20
1632.1226725952
  0
LWPOLYLINE
  5
150
330
1F
100
AcDbEntity
  8
0
  6
Continuous
 62
     7
370
    25
100
AcDbPolyline
 90
        3
 70
   128
 43
0.0
 10
813.8304369905
 20
1632.1226725932
 10
813.8320724522
 20
1632.3944573179
 10
813.8043623025
 20
1632.7266440958
  0
LINE
  5
151
330
1F
100
AcDbEntity
  8
0
  6
Continuous
 62
     7
370
    25
100
AcDbLine
 10
813.8043623025
 20
1632.7266440958
 30
0.0
 11
817.2264954117
 21
1632.7266440958
 31
0.0
  0
LWPOLYLINE
  5
152
330
1F
100
AcDbEntity
  8
0
  6
Continuous
 62
     7
370
    25
100
AcDbPolyline
 90
        9
 70
   128
 43
0.0
 10
817.2264954117
 20
1632.7266440958
 10
817.2148278967
 20
1632.5554483812
 10
817.1951536118
 20
1632.3944573193
 10
817.1680853494
 20
1632.2486852766
 10
817.1344662008
 20
1632.1226725952
 10
817.0953432972
 20
1632.0203441748
 10
817.0519351943
 20
1631.9448872249
 10
817.0055939184
 20
1631.8986519927
 10
816.9577628549
 20
1631.8830785608
  0
LWPOLYLINE
  5
153
330
1F
100
AcDbEntity
  8
0
  6
Continuous
 62
     7
370
    25
100
AcDbPolyline
 90
        3
 70
   128
 43
0.0
 10
813.7718375441
 20
1631.8830785608
 10
813.8069579337
 20
1631.9448872243
 10
813.8304369905
 20
1632.1226725932
  0
LWPOLYLINE
  5
154
330
1F
100
AcDbEntity
  8
0
  6
Continuous
 62
     7
370
    25
100
AcDbPolyline
 90
        3
 70
   128
 43
0.0
 10
807.8914630622
 20
1632.1226725932
 10
808.0561946242
 20
1632.3944573179
 10
808.1267874531
 20
1632.7266440958
  0
LINE
  5
155
330
1F
100
AcDbEntity
  8
0
  6
Continuous
 62
     7
370
    25
100
AcDbLine
 10
808.1267874531
 20
1632.7266440958
 30
0.0
 11
809.8624002748
 21
1632.7266440958
 31
0.0
  0
LWPOLYLINE
  5
156
330
1F
100
AcDbEntity
  8
0
  6
Continuous
 62
     7
370
    25
100
AcDbPolyline
 90
        3
 70
   128
 43
0.0
 10
807.384509786
 20
1631.8830785608
 10
807.6566587277
 20
1631.9448872244
 10
807.8914630622
 20
1632.1226725932
  0
ARC
  5
157
330
1F
100
AcDbEntity
  8
0
  6
Continuous
 62
     7
370
    25
100
AcDbCircle
 10
818.6798349656
 20
1632.8574546258
 30
0.0
 40
0.9744953823070281
100
AcDbArc
 50
187.7143350978
 51
269.1033892401
  0
ARC
  5
158
330
1F
100
AcDbEntity
  8
0
  6
Continuous
 62
     7
370
    25
100
AcDbCircle
 10
817.4703272561
 20
1633.141016489
 30
0.0
 40
0.4807894070799222
100
AcDbArc
 50
239.525891122
 51
300.4741103491
  0
LWPOLYLINE
  5
159
330
1F
100
AcDbEntity
  8
0
  6
Continuous
 62
     7
370
    25
100
AcDbPolyline
 90
        3
 70
   128
 43
0.0
 10
818.9738510478
 20
1632.1226725952
 10
819.2490416655
 20
1631.9448872249
 10
819.5654042007
 20
1631.8830785608
  0
LINE
  5
15A
330
1F
100
AcDbEntity
  8
0
  6
Continuous
 62
     7
370
    25
100
AcDbLine
 10
817.7141591114
 20
1632.7266440958
 30
0.0
 11
818.6817650188
 21
1632.7266440958
 31
0.0
  0
LWPOLYLINE
  5
15B
330
1F
100
AcDbEntity
  8
0
  6
Continuous
 62
     7
370
    25
100
AcDbPolyline
 90
        3
 70
   128
 43
0.0
 10
818.6817650188
 20
1632.7266440958
 10
818.7759147028
 20
1632.3944573193
 10
818.9738510478
 20
1632.1226725952
  0
ARC
  5
15C
330
1F
100
AcDbEntity
  8
0
  6
Continuous
 62
     7
370
    25
100
AcDbCircle
 10
812.2635088178
 20
1633.174579548
 30
0.0
 40
1.671108754449902
100
AcDbArc
 50
320.9892283156
 51
327.6243106454
  0
ARC
  5
15D
330
1F
100
AcDbEntity
  8
0
  6
Continuous
 62
     7
370
    25
100
AcDbCircle
 10
814.5332532062
 20
1632.9743858218
 30
0.0
 40
1.104249091875737
100
AcDbArc
 50
218.9803668011
 51
230.4712529789
  0
LINE
  5
15E
330
1F
100
AcDbEntity
  8
0
  6
Continuous
 62
     7
370
    25
100
AcDbLine
 10
813.6509746706
 20
1632.7141095548
 30
0.0
 11
813.5040570357
 21
1632.7266440958
 31
0.0
  0
ARC
  5
15F
330
1F
100
AcDbEntity
  8
0
  6
Continuous
 62
     7
370
    25
100
AcDbCircle
 10
820.0080043489
 20
1632.8457378364
 30
0.0
 40
6.358392235949287
100
AcDbArc
 50
181.1861930226
 51
185.1068718155
  0
LINE
  5
160
330
1F
100
AcDbEntity
  8
0
  6
Continuous
 62
     7
370
    25
100
AcDbLine
 10
813.8043623025
 20
1632.7266440958
 30
0.0
 11
813.6509746706
 21
1632.7141095548
 31
0.0
  0
LWPOLYLINE
  5
161
330
1F
100
AcDbEntity
  8
0
  6
Continuous
 62
     7
370
    25
100
AcDbPolyline
 90
        3
 70
   128
 43
0.0
 10
807.6793170311
 20
1632.1226725952
 10
807.5377340751
 20
1631.9448872249
 10
807.384509786
 20
1631.8830785608
  0
LWPOLYLINE
  5
162
330
1F
100
AcDbEntity
  8
0
  6
Continuous
 62
     7
370
    25
100
AcDbPolyline
 90
        9
 70
   128
 43
0.0
 10
804.1985845117
 20
1631.8830785608
 10
804.2464155753
 20
1631.8986519927
 10
804.2927568512
 20
1631.9448872249
 10
804.3361649541
 20
1632.0203441748
 10
804.3752878577
 20
1632.1226725952
 10
804.4089070062
 20
1632.2486852767
 10
804.4359752686
 20
1632.3944573193
 10
804.4556495535
 20
1632.5554483813
 10
804.4673170685
 20
1632.7266440958
  0
LINE
  5
163
330
1F
100
AcDbEntity
  8
0
  6
Continuous
 62
     7
370
    25
100
AcDbLine
 10
804.4673170685
 20
1632.7266440958
 30
0.0
 11
807.8894501411
 21
1632.7266440958
 31
0.0
  0
LWPOLYLINE
  5
164
330
1F
100
AcDbEntity
  8
0
  6
Continuous
 62
     7
370
    25
100
AcDbPolyline
 90
        3
 70
   128
 43
0.0
 10
807.8894501411
 20
1632.7266440958
 10
807.7990563917
 20
1632.3944573193
 10
807.6793170311
 20
1632.1226725952
  0
ARC
  5
165
330
1F
100
AcDbEntity
  8
0
  6
Continuous
 62
     7
370
    25
100
AcDbCircle
 10
807.2012406023
 20
1633.0220173366
 30
0.0
 40
1.01851756764587
100
AcDbArc
 50
297.9943549484
 51
313.2167180077
  0
ARC
  5
166
330
1F
100
AcDbEntity
  8
0
  6
Continuous
 62
     7
370
    25
100
AcDbCircle
 10
807.4328724086
 20
1632.2224497258
 30
0.0
 40
0.4693195752845755
100
AcDbArc
 50
347.7252635683
 51
7.0132914397
  0
ARC
  5
167
330
1F
100
AcDbEntity
  8
0
  6
Continuous
 62
     7
370
    25
100
AcDbCircle
 10
806.6811567784
 20
1632.8708254031
 30
0.0
 40
1.35341419374177
100
AcDbArc
 50
334.104790299
 51
353.3506380247
  0
LINE
  5
168
330
1F
100
AcDbEntity
  8
0
  6
Continuous
 62
     7
370
    25
100
AcDbLine
 10
808.1267874531
 20
1632.7266440958
 30
0.0
 11
808.0254672691
 21
1632.7141095548
 31
0.0
  0
LINE
  5
169
330
1F
100
AcDbEntity
  8
0
  6
Continuous
 62
     7
370
    25
100
AcDbLine
 10
808.0254672691
 20
1632.7141095548
 30
0.0
 11
807.8894501411
 21
1632.7266440958
 31
0.0
  0
LINE
  5
16A
330
1F
100
AcDbEntity
  8
0
  6
Continuous
 62
     7
370
    25
100
AcDbLine
 10
803.3848930943
 20
1631.893822902
 30
0.0
 11
803.2442125839
 21
1631.8830785608
 31
0.0
  0
LWPOLYLINE
  5
16B
330
1F
100
AcDbEntity
  8
0
  6
Continuous
 62
     7
370
    25
100
AcDbPolyline
 90
        8
 70
   128
 43
0.0
 10
804.1946393665
 20
1632.7266440895
 10
804.1727070768
 20
1632.6817734216
 10
804.1863904124
 20
1632.668914638
 10
804.2175826413
 20
1632.6645924638
 10
804.2646681945
 20
1632.6689891802
 10
804.3204496402
 20
1632.6807504489
 10
804.3884130053
 20
1632.6999579547
 10
804.4673170685
 20
1632.7266440958
  0
LWPOLYLINE
  5
16C
330
1F
100
AcDbEntity
  8
0
  6
Continuous
 62
     7
370
    25
100
AcDbPolyline
 90
        3
 70
   128
 43
0.0
 10
819.1413230563
 20
1632.1226725932
 10
818.9789043863
 20
1632.3944573179
 10
818.869123488
 20
1632.7266440958
  0
LINE
  5
16D
330
1F
100
AcDbEntity
  8
0
  6
Continuous
 62
     7
370
    25
100
AcDbLine
 10
818.869123488
 20
1632.7266440958
 30
0.0
 11
821.9731377215
 21
1632.7266440958
 31
0.0
  0
LWPOLYLINE
  5
16E
330
1F
100
AcDbEntity
  8
0
  6
Continuous
 62
     7
370
    25
100
AcDbPolyline
 90
        9
 70
   128
 43
0.0
 10
821.9731377215
 20
1632.7266440958
 10
821.9940659613
 20
1632.5554483812
 10
822.0293560938
 20
1632.3944573193
 10
822.0779089422
 20
1632.2486852766
 10
822.1382122373
 20
1632.1226725952
 10
822.2083877208
 20
1632.0203441748
 10
822.2862496464
 20
1631.9448872249
 10
822.3693728592
 20
1631.8986519927
 10
822.455168332
 20
1631.8830785608
  0
LWPOLYLINE
  5
16F
330
1F
100
AcDbEntity
  8
0
  6
Continuous
 62
     7
370
    25
100
AcDbPolyline
 90
        3
 70
   128
 43
0.0
 10
819.5654042007
 20
1631.8830785608
 10
819.3429229903
 20
1631.9448872243
 10
819.1413230563
 20
1632.1226725932
  0
ARC
  5
170
330
1F
100
AcDbEntity
  8
0
  6
Continuous
 62
     7
370
    25
100
AcDbCircle
 10
819.2667728687
 20
1632.3240542517
 30
0.0
 40
0.3554683736911933
100
AcDbArc
 50
187.1591901883
 51
214.5082446726
  0
ARC
  5
171
330
1F
100
AcDbEntity
  8
0
  6
Continuous
 62
     7
370
    25
100
AcDbCircle
 10
819.5557897901
 20
1632.9651957824
 30
0.0
 40
0.9389504767895799
100
AcDbArc
 50
226.8871512525
 51
243.8058075804
  0
LINE
  5
172
330
1F
100
AcDbEntity
  8
0
  6
Continuous
 62
     7
370
    25
100
AcDbLine
 10
818.7535208027
 20
1632.7141095548
 30
0.0
 11
818.6817650188
 21
1632.7266440958
 31
0.0
  0
ARC
  5
173
330
1F
100
AcDbEntity
  8
0
  6
Continuous
 62
     7
370
    25
100
AcDbCircle
 10
819.8869166166
 20
1632.8862045614
 30
0.0
 40
1.146386562269967
100
AcDbArc
 50
188.6338504036
 51
211.9386567671
  0
LINE
  5
174
330
1F
100
AcDbEntity
  8
0
  6
Continuous
 62
     7
370
    25
100
AcDbLine
 10
818.869123488
 20
1632.7266440958
 30
0.0
 11
818.7535208027
 21
1632.7141095548
 31
0.0
  0
LWPOLYLINE
  5
175
330
1F
100
AcDbEntity
  8
0
  6
Continuous
 62
     7
370
    25
100
AcDbPolyline
 90
        9
 70
   128
 43
0.0
 10
821.973137722
 20
1632.7266440895
 10
822.0453688674
 20
1632.6995162244
 10
822.1037009232
 20
1632.6801389809
 10
822.1469674173
 20
1632.6684437273
 10
822.1746788601
 20
1632.6645050907
 10
822.1871403315
 20
1632.6684374056
 10
822.1837049658
 20
1632.6801312361
 10
822.1632373171
 20
1632.6995109052
 10
822.1251557791
 20
1632.7266440958
  0
ARC
  5
176
330
1F
100
AcDbEntity
  8
0
  6
Continuous
 62
     7
370
    25
100
AcDbCircle
 10
802.4751252383
 20
1632.8006354269
 30
0.0
 40
0.9191498472668772
100
AcDbArc
 50
273.3737472448
 51
355.3827081651
  0
LINE
  5
177
330
1F
100
AcDbEntity
  8
0
  6
Continuous
 62
     7
370
    25
100
AcDbLine
 10
1024.4511066286
 20
1610.8830785608
 30
0.0
 11
1024.5889568459
 21
1611.8830785607
 31
0.0
  0
LINE
  5
178
330
1F
100
AcDbEntity
  8
0
  6
Continuous
 62
     7
370
    25
100
AcDbLine
 10
1023.5401959841
 20
1611.8830785607
 30
0.0
 11
1024.5889568459
 21
1611.8830785607
 31
0.0
  0
LINE
  5
179
330
1F
100
AcDbEntity
  8
0
  6
Continuous
 62
     7
370
    25
100
AcDbLine
 10
1024.4511066286
 20
1610.8830785608
 30
0.0
 11
1023.4233209841
 21
1610.8830785608
 31
0.0
  0
LINE
  5
17A
330
1F
100
AcDbEntity
  8
0
  6
Continuous
 62
     7
370
    25
100
AcDbLine
 10
1024.5889568459
 20
1616.8830785607
 30
0.0
 11
1023.5401959841
 21
1616.8830785607
 31
0.0
  0
LINE
  5
17B
330
1F
100
AcDbEntity
  8
0
  6
Continuous
 62
     7
370
    25
100
AcDbLine
 10
1024.5889568459
 20
1616.8830785607
 30
0.0
 11
1024.5889568459
 21
1611.8830785607
 31
0.0
  0
LINE
  5
17C
330
1F
100
AcDbEntity
  8
0
  6
Continuous
 62
     7
370
    25
100
AcDbLine
 10
1024.4511066286
 20
1617.8830785607
 30
0.0
 11
1024.5889568459
 21
1616.8830785607
 31
0.0
  0
LINE
  5
17D
330
1F
100
AcDbEntity
  8
0
  6
Continuous
 62
     7
370
    25
100
AcDbLine
 10
1023.4233209841
 20
1617.8830785607
 30
0.0
 11
1024.4511066286
 21
1617.8830785607
 31
0.0
  0
LINE
  5
17E
330
1F
100
AcDbEntity
  8
0
  6
Continuous
 62
     7
370
    25
100
AcDbLine
 10
1211.3953792587
 20
1610.8830785607
 30
0.0
 11
1211.5332294759
 21
1611.8830785607
 31
0.0
  0
LINE
  5
17F
330
1F
100
AcDbEntity
  8
0
  6
Continuous
 62
     7
370
    25
100
AcDbLine
 10
1211.5332294759
 20
1611.8830785607
 30
0.0
 11
1024.5889568459
 21
1611.8830785607
 31
0.0
  0
LINE
  5
180
330
1F
100
AcDbEntity
  8
0
  6
Continuous
 62
     7
370
    25
100
AcDbLine
 10
1211.3953792587
 20
1610.8830785607
 30
0.0
 11
1024.4511066286
 21
1610.8830785608
 31
0.0
  0
LINE
  5
181
330
1F
100
AcDbEntity
  8
0
  6
Continuous
 62
     7
370
    25
100
AcDbLine
 10
1211.5332294759
 20
1616.8830785607
 30
0.0
 11
1211.3953792587
 21
1617.8830785607
 31
0.0
  0
LINE
  5
182
330
1F
100
AcDbEntity
  8
0
  6
Continuous
 62
     7
370
    25
100
AcDbLine
 10
1211.5332294759
 20
1616.8830785607
 30
0.0
 11
1024.5889568459
 21
1616.8830785607
 31
0.0
  0
LINE
  5
183
330
1F
100
AcDbEntity
  8
0
  6
Continuous
 62
     7
370
    25
100
AcDbLine
 10
1024.4511066286
 20
1617.8830785607
 30
0.0
 11
1211.3953792587
 21
1617.8830785607
 31
0.0
  0
LINE
  5
184
330
1F
100
AcDbEntity
  8
0
  6
Continuous
 62
     7
370
    25
100
AcDbLine
 10
1211.5332294759
 20
1611.8830785607
 30
0.0
 11
1211.5332294759
 21
1616.8830785607
 31
0.0
  0
LINE
  5
185
330
1F
100
AcDbEntity
  8
0
  6
Continuous
 62
     7
370
    25
100
AcDbLine
 10
1221.0168770863
 20
1616.8830785607
 30
0.0
 11
1211.5332294759
 21
1616.8830785607
 31
0.0
  0
LINE
  5
186
330
1F
100
AcDbEntity
  8
0
  6
Continuous
 62
     7
370
    25
100
AcDbLine
 10
1211.3953792587
 20
1617.8830785607
 30
0.0
 11
1220.0168770863
 21
1617.8830785607
 31
0.0
  0
LINE
  5
187
330
1F
100
AcDbEntity
  8
0
  6
Continuous
 62
     7
370
    25
100
AcDbLine
 10
1221.0168770863
 20
1611.8830785607
 30
0.0
 11
1211.5332294759
 21
1611.8830785607
 31
0.0
  0
LINE
  5
188
330
1F
100
AcDbEntity
  8
0
  6
Continuous
 62
     7
370
    25
100
AcDbLine
 10
1220.0168770863
 20
1610.8830785607
 30
0.0
 11
1211.3953792587
 21
1610.8830785607
 31
0.0
  0
LINE
  5
189
330
1F
100
AcDbEntity
  8
0
  6
Continuous
 62
     7
370
    25
100
AcDbLine
 10
1264.7582238174
 20
1579.8830785669
 30
0.0
 11
1264.7582238174
 21
1563.8830785669
 31
0.0
  0
LINE
  5
18A
330
1F
100
AcDbEntity
  8
0
  6
Continuous
 62
     7
370
    25
100
AcDbLine
 10
1264.2582238174
 20
1563.8830785669
 30
0.0
 11
1264.7582238174
 21
1563.8830785669
 31
0.0
  0
LINE
  5
18B
330
1F
100
AcDbEntity
  8
0
  6
Continuous
 62
     7
370
    25
100
AcDbLine
 10
1264.2582238174
 20
1579.8830785669
 30
0.0
 11
1264.2582238174
 21
1563.8830785669
 31
0.0
  0
LINE
  5
18C
330
1F
100
AcDbEntity
  8
0
  6
Continuous
 62
     7
370
    25
100
AcDbLine
 10
1264.7582238174
 20
1579.8830785669
 30
0.0
 11
1264.2582238174
 21
1579.8830785669
 31
0.0
  0
LINE
  5
18D
330
1F
100
AcDbEntity
  8
0
  6
Continuous
 62
     7
370
    25
100
AcDbLine
 10
1246.7582238179
 20
1563.8830785669
 30
0.0
 11
1264.2582238174
 21
1563.8830785669
 31
0.0
  0
LINE
  5
18E
330
1F
100
AcDbEntity
  8
0
  6
Continuous
 62
     7
370
    25
100
AcDbLine
 10
1246.758223818
 20
1579.8830785669
 30
0.0
 11
1246.7582238179
 21
1563.8830785669
 31
0.0
  0
LINE
  5
18F
330
1F
100
AcDbEntity
  8
0
  6
Continuous
 62
     7
370
    25
100
AcDbLine
 10
1264.2582238174
 20
1579.8830785669
 30
0.0
 11
1246.758223818
 21
1579.8830785669
 31
0.0
  0
LINE
  5
190
330
1F
100
AcDbEntity
  8
0
  6
Continuous
 62
     7
370
    25
100
AcDbLine
 10
1246.2582238177
 20
1563.8830785669
 30
0.0
 11
1246.7582238179
 21
1563.8830785669
 31
0.0
  0
LINE
  5
191
330
1F
100
AcDbEntity
  8
0
  6
Continuous
 62
     7
370
    25
100
AcDbLine
 10
1246.258223818
 20
1579.8830785669
 30
0.0
 11
1246.2582238177
 21
1563.8830785669
 31
0.0
  0
LINE
  5
192
330
1F
100
AcDbEntity
  8
0
  6
Continuous
 62
     7
370
    25
100
AcDbLine
 10
1246.758223818
 20
1579.8830785669
 30
0.0
 11
1246.258223818
 21
1579.8830785669
 31
0.0
  0
LINE
  5
193
330
1F
100
AcDbEntity
  8
0
  6
Continuous
 62
     7
370
    25
100
AcDbLine
 10
1246.758223818
 20
1580.3830785669
 30
0.0
 11
1246.758223818
 21
1579.8830785669
 31
0.0
  0
LINE
  5
194
330
1F
100
AcDbEntity
  8
0
  6
Continuous
 62
     7
370
    25
100
AcDbLine
 10
1246.758223818
 20
1580.3830785669
 30
0.0
 11
1264.2582238174
 21
1580.3830785669
 31
0.0
  0
LINE
  5
195
330
1F
100
AcDbEntity
  8
0
  6
Continuous
 62
     7
370
    25
100
AcDbLine
 10
1264.2582238174
 20
1580.3830785669
 30
0.0
 11
1264.2582238174
 21
1579.8830785669
 31
0.0
  0
ARC
  5
196
330
1F
100
AcDbEntity
  8
0
  6
Continuous
 62
     7
370
    25
100
AcDbCircle
 10
1264.2582238174
 20
1579.8830785669
 30
0.0
 40
0.5
100
AcDbArc
 50
0.0000000002
 51
90.0
  0
ARC
  5
197
330
1F
100
AcDbEntity
  8
0
  6
Continuous
 62
     7
370
    25
100
AcDbCircle
 10
1246.758223818
 20
1579.8830785669
 30
0.0
 40
0.5
100
AcDbArc
 50
90.0
 51
179.9999999989
  0
ARC
  5
198
330
1F
100
AcDbEntity
  8
0
  6
Continuous
 62
     7
370
    25
100
AcDbCircle
 10
1264.2582238174
 20
1563.8830785669
 30
0.0
 40
0.5
100
AcDbArc
 50
270.0
 51
0.0
  0
LINE
  5
199
330
1F
100
AcDbEntity
  8
0
  6
Continuous
 62
     7
370
    25
100
AcDbLine
 10
1264.2582238174
 20
1563.8830785669
 30
0.0
 11
1264.2582238174
 21
1563.3830785669
 31
0.0
  0
LINE
  5
19A
330
1F
100
AcDbEntity
  8
0
  6
Continuous
 62
     7
370
    25
100
AcDbLine
 10
1264.2582238174
 20
1563.3830785669
 30
0.0
 11
1246.7582238177
 21
1563.3830785669
 31
0.0
  0
LINE
  5
19B
330
1F
100
AcDbEntity
  8
0
  6
Continuous
 62
     7
370
    25
100
AcDbLine
 10
1246.7582238179
 20
1563.8830785669
 30
0.0
 11
1246.7582238177
 21
1563.3830785669
 31
0.0
  0
ARC
  5
19C
330
1F
100
AcDbEntity
  8
0
  6
Continuous
 62
     7
370
    25
100
AcDbCircle
 10
1246.7582238177
 20
1563.8830785669
 30
0.0
 40
0.5
100
AcDbArc
 50
179.9999999989
 51
270.0
  0
LINE
  5
19D
330
1F
100
AcDbEntity
  8
0
  6
Continuous
 62
     7
370
    25
100
AcDbLine
 10
630.2582238168
 20
1579.8830785669
 30
0.0
 11
629.7582238168
 21
1579.8830785669
 31
0.0
  0
LINE
  5
19E
330
1F
100
AcDbEntity
  8
0
  6
Continuous
 62
     7
370
    25
100
AcDbLine
 10
630.2582238171
 20
1563.8830785669
 30
0.0
 11
630.2582238168
 21
1579.8830785669
 31
0.0
  0
LINE
  5
19F
330
1F
100
AcDbEntity
  8
0
  6
Continuous
 62
     7
370
    25
100
AcDbLine
 10
629.7582238171
 20
1563.8830785669
 30
0.0
 11
630.2582238171
 21
1563.8830785669
 31
0.0
  0
LINE
  5
1A0
330
1F
100
AcDbEntity
  8
0
  6
Continuous
 62
     7
370
    25
100
AcDbLine
 10
629.7582238171
 20
1563.8830785669
 30
0.0
 11
629.7582238168
 21
1579.8830785669
 31
0.0
  0
LINE
  5
1A1
330
1F
100
AcDbEntity
  8
0
  6
Continuous
 62
     7
370
    25
100
AcDbLine
 10
612.2582238174
 20
1563.8830785669
 30
0.0
 11
612.2582238174
 21
1579.8830785669
 31
0.0
  0
LINE
  5
1A2
330
1F
100
AcDbEntity
  8
0
  6
Continuous
 62
     7
370
    25
100
AcDbLine
 10
629.7582238168
 20
1579.8830785669
 30
0.0
 11
612.2582238174
 21
1579.8830785669
 31
0.0
  0
LINE
  5
1A3
330
1F
100
AcDbEntity
  8
0
  6
Continuous
 62
     7
370
    25
100
AcDbLine
 10
612.2582238174
 20
1563.8830785669
 30
0.0
 11
629.7582238171
 21
1563.8830785669
 31
0.0
  0
LINE
  5
1A4
330
1F
100
AcDbEntity
  8
0
  6
Continuous
 62
     7
370
    25
100
AcDbLine
 10
612.2582238174
 20
1563.8830785669
 30
0.0
 11
612.2582238174
 21
1563.3830785669
 31
0.0
  0
LINE
  5
1A5
330
1F
100
AcDbEntity
  8
0
  6
Continuous
 62
     7
370
    25
100
AcDbLine
 10
629.7582238171
 20
1563.3830785669
 30
0.0
 11
629.7582238171
 21
1563.8830785669
 31
0.0
  0
LINE
  5
1A6
330
1F
100
AcDbEntity
  8
0
  6
Continuous
 62
     7
370
    25
100
AcDbLine
 10
629.7582238171
 20
1563.3830785669
 30
0.0
 11
612.2582238174
 21
1563.3830785669
 31
0.0
  0
LINE
  5
1A7
330
1F
100
AcDbEntity
  8
0
  6
Continuous
 62
     7
370
    25
100
AcDbLine
 10
612.2582238174
 20
1579.8830785669
 30
0.0
 11
612.2582238175
 21
1580.3830785669
 31
0.0
  0
LINE
  5
1A8
330
1F
100
AcDbEntity
  8
0
  6
Continuous
 62
     7
370
    25
100
AcDbLine
 10
612.2582238175
 20
1580.3830785669
 30
0.0
 11
629.7582238168
 21
1580.3830785669
 31
0.0
  0
LINE
  5
1A9
330
1F
100
AcDbEntity
  8
0
  6
Continuous
 62
     7
370
    25
100
AcDbLine
 10
629.7582238168
 20
1579.8830785669
 30
0.0
 11
629.7582238168
 21
1580.3830785669
 31
0.0
  0
LINE
  5
1AA
330
1F
100
AcDbEntity
  8
0
  6
Continuous
 62
     7
370
    25
100
AcDbLine
 10
612.2582238174
 20
1579.8830785669
 30
0.0
 11
611.7582238174
 21
1579.8830785669
 31
0.0
  0
ARC
  5
1AB
330
1F
100
AcDbEntity
  8
0
  6
Continuous
 62
     7
370
    25
100
AcDbCircle
 10
612.2582238174
 20
1579.8830785669
 30
0.0
 40
0.5000000000002274
100
AcDbArc
 50
89.9999999939
 51
180.0
  0
ARC
  5
1AC
330
1F
100
AcDbEntity
  8
0
  6
Continuous
 62
     7
370
    25
100
AcDbCircle
 10
629.7582238168
 20
1579.8830785669
 30
0.0
 40
0.5
100
AcDbArc
 50
0.000000003
 51
90.0
  0
LINE
  5
1AD
330
1F
100
AcDbEntity
  8
0
  6
Continuous
 62
     7
370
    25
100
AcDbLine
 10
611.7582238174
 20
1563.8830785669
 30
0.0
 11
612.2582238174
 21
1563.8830785669
 31
0.0
  0
LINE
  5
1AE
330
1F
100
AcDbEntity
  8
0
  6
Continuous
 62
     7
370
    25
100
AcDbLine
 10
611.7582238174
 20
1563.8830785669
 30
0.0
 11
611.7582238174
 21
1579.8830785669
 31
0.0
  0
ARC
  5
1AF
330
1F
100
AcDbEntity
  8
0
  6
Continuous
 62
     7
370
    25
100
AcDbCircle
 10
612.2582238174
 20
1563.8830785669
 30
0.0
 40
0.5000000000001137
100
AcDbArc
 50
180.0
 51
270.0
  0
ARC
  5
1B0
330
1F
100
AcDbEntity
  8
0
  6
Continuous
 62
     7
370
    25
100
AcDbCircle
 10
629.7582238171
 20
1563.8830785669
 30
0.0
 40
0.5000000000002274
100
AcDbArc
 50
270.0
 51
0.0000000011
  0
LINE
  5
1B1
330
1F
100
AcDbEntity
  8
0
  6
Continuous
 62
     7
370
    25
100
AcDbLine
 10
629.7582238168
 20
1580.3830785649
 30
0.0
 11
1246.758223818
 21
1580.3830785649
 31
0.0
  0
LINE
  5
1B2
330
1F
100
AcDbEntity
  8
0
  6
Continuous
 62
     7
370
    25
100
AcDbLine
 10
1246.7582238177
 20
1563.3830785669
 30
0.0
 11
629.7582238171
 21
1563.3830785669
 31
0.0
  0
LINE
  5
1B3
330
1F
100
AcDbEntity
  8
0
  6
Continuous
 62
     7
370
    25
100
AcDbLine
 10
789.7582239411
 20
1739.3830785607
 30
0.0
 11
789.7582239411
 21
1738.3830785607
 31
0.0
  0
LINE
  5
1B4
330
1F
100
AcDbEntity
  8
0
  6
Continuous
 62
     7
370
    25
100
AcDbLine
 10
789.7582239411
 20
1739.3830785607
 30
0.0
 11
835.7582239411
 21
1739.3830785607
 31
0.0
  0
LINE
  5
1B5
330
1F
100
AcDbEntity
  8
0
  6
Continuous
 62
     7
370
    25
100
AcDbLine
 10
835.7582239411
 20
1739.3830785607
 30
0.0
 11
835.7582239411
 21
1738.3830785607
 31
0.0
  0
LINE
  5
1B6
330
1F
100
AcDbEntity
  8
0
  6
Continuous
 62
     7
370
    25
100
AcDbLine
 10
792.9845040078
 20
1642.3830785607
 30
0.0
 11
792.9845040078
 21
1643.3830785607
 31
0.0
  0
LINE
  5
1B7
330
1F
100
AcDbEntity
  8
0
  6
Continuous
 62
     7
370
    25
100
AcDbLine
 10
789.7582239411
 20
1643.3830785607
 30
0.0
 11
789.7582239411
 21
1642.3830785607
 31
0.0
  0
LINE
  5
1B8
330
1F
100
AcDbEntity
  8
0
  6
Continuous
 62
     7
370
    25
100
AcDbLine
 10
792.9845040078
 20
1642.3830785607
 30
0.0
 11
789.7582239411
 21
1642.3830785607
 31
0.0
  0
LINE
  5
1B9
330
1F
100
AcDbEntity
  8
0
  6
Continuous
 62
     7
370
    25
100
AcDbLine
 10
832.5319438744
 20
1643.3830785607
 30
0.0
 11
832.5319438744
 21
1642.3830785607
 31
0.0
  0
LINE
  5
1BA
330
1F
100
AcDbEntity
  8
0
  6
Continuous
 62
     7
370
    25
100
AcDbLine
 10
835.7582239411
 20
1642.3830785607
 30
0.0
 11
832.5319438744
 21
1642.3830785607
 31
0.0
  0
LINE
  5
1BB
330
1F
100
AcDbEntity
  8
0
  6
Continuous
 62
     7
370
    25
100
AcDbLine
 10
835.7582239411
 20
1642.3830785607
 30
0.0
 11
835.7582239411
 21
1643.3830785607
 31
0.0
  0
LINE
  5
1BC
330
1F
100
AcDbEntity
  8
0
  6
Continuous
 62
     7
370
    25
100
AcDbLine
 10
832.5319438744
 20
1642.3830785607
 30
0.0
 11
827.7582239411
 21
1642.3830785607
 31
0.0
  0
LINE
  5
1BD
330
1F
100
AcDbEntity
  8
0
  6
Continuous
 62
     7
370
    25
100
AcDbLine
 10
797.7582239411
 20
1642.3830785607
 30
0.0
 11
792.9845040078
 21
1642.3830785607
 31
0.0
  0
LINE
  5
1BE
330
1F
100
AcDbEntity
  8
0
  6
Continuous
 62
     7
370
    25
100
AcDbLine
 10
540.7582239411
 20
1648.3830785607
 30
0.0
 11
540.7582239411
 21
1643.3830785607
 31
0.0
  0
LINE
  5
1BF
330
1F
100
AcDbEntity
  8
0
  6
Continuous
 62
     7
370
    25
100
AcDbLine
 10
542.7582239411
 20
1648.3830785607
 30
0.0
 11
540.7582239411
 21
1648.3830785607
 31
0.0
  0
LINE
  5
1C0
330
1F
100
AcDbEntity
  8
0
  6
Continuous
 62
     7
370
    25
100
AcDbLine
 10
542.7582239411
 20
1648.3830785607
 30
0.0
 11
542.7582239411
 21
1643.3830785607
 31
0.0
  0
LINE
  5
1C1
330
1F
100
AcDbEntity
  8
0
  6
Continuous
 62
     7
370
    25
100
AcDbLine
 10
542.7582239411
 20
1643.3830785607
 30
0.0
 11
540.7582239411
 21
1643.3830785607
 31
0.0
  0
LINE
  5
1C2
330
1F
100
AcDbEntity
  8
0
  6
Continuous
 62
     7
370
    25
100
AcDbLine
 10
542.7582239411
 20
1733.3830785607
 30
0.0
 11
540.7582239411
 21
1733.3830785607
 31
0.0
  0
LINE
  5
1C3
330
1F
100
AcDbEntity
  8
0
  6
Continuous
 62
     7
370
    25
100
AcDbLine
 10
542.7582239411
 20
1733.3830785607
 30
0.0
 11
542.7582239411
 21
1648.3830785607
 31
0.0
  0
LINE
  5
1C4
330
1F
100
AcDbEntity
  8
0
  6
Continuous
 62
     7
370
    25
100
AcDbLine
 10
540.7582239411
 20
1733.3830785607
 30
0.0
 11
540.7582239411
 21
1648.3830785607
 31
0.0
  0
LINE
  5
1C5
330
1F
100
AcDbEntity
  8
0
  6
Continuous
 62
     7
370
    25
100
AcDbLine
 10
542.7582239411
 20
1738.3830785607
 30
0.0
 11
540.7582239411
 21
1738.3830785607
 31
0.0
  0
LINE
  5
1C6
330
1F
100
AcDbEntity
  8
0
  6
Continuous
 62
     7
370
    25
100
AcDbLine
 10
542.7582239411
 20
1738.3830785607
 30
0.0
 11
542.7582239411
 21
1733.3830785607
 31
0.0
  0
LINE
  5
1C7
330
1F
100
AcDbEntity
  8
0
  6
Continuous
 62
     7
370
    25
100
AcDbLine
 10
540.7582239411
 20
1738.3830785607
 30
0.0
 11
540.7582239411
 21
1733.3830785607
 31
0.0
  0
LINE
  5
1C8
330
1F
100
AcDbEntity
  8
0
  6
Continuous
 62
     7
370
    25
100
AcDbLine
 10
536.2582239411
 20
1648.3830785607
 30
0.0
 11
536.2582239411
 21
1733.3830785654
 31
0.0
  0
LINE
  5
1C9
330
1F
100
AcDbEntity
  8
0
  6
Continuous
 62
     7
370
    25
100
AcDbLine
 10
533.2582239411
 20
1648.3830785607
 30
0.0
 11
536.2582239411
 21
1648.3830785607
 31
0.0
  0
LINE
  5
1CA
330
1F
100
AcDbEntity
  8
0
  6
Continuous
 62
     7
370
    25
100
AcDbLine
 10
533.2582239411
 20
1648.3830785607
 30
0.0
 11
533.2582239411
 21
1733.3830785607
 31
0.0
  0
LINE
  5
1CB
330
1F
100
AcDbEntity
  8
0
  6
Continuous
 62
     7
370
    25
100
AcDbLine
 10
536.2582239411
 20
1733.3830785607
 30
0.0
 11
533.2582239411
 21
1733.3830785607
 31
0.0
  0
LINE
  5
1CC
330
1F
100
AcDbEntity
  8
0
  6
Continuous
 62
     7
370
    25
100
AcDbLine
 10
540.7582239411
 20
1733.3830785607
 30
0.0
 11
536.2582239411
 21
1733.3830785607
 31
0.0
  0
LINE
  5
1CD
330
1F
100
AcDbEntity
  8
0
  6
Continuous
 62
     7
370
    25
100
AcDbLine
 10
536.2582239411
 20
1733.3830785701
 30
0.0
 11
536.2582239411
 21
1736.3830785607
 31
0.0
  0
LINE
  5
1CE
330
1F
100
AcDbEntity
  8
0
  6
Continuous
 62
     7
370
    25
100
AcDbLine
 10
536.2582239411
 20
1736.3830785607
 30
0.0
 11
540.7582239411
 21
1736.3830785607
 31
0.0
  0
LINE
  5
1CF
330
1F
100
AcDbEntity
  8
0
  6
Continuous
 62
     7
370
    25
100
AcDbLine
 10
536.2582239411
 20
1648.3830785607
 30
0.0
 11
540.7582239411
 21
1648.3830785607
 31
0.0
  0
LINE
  5
1D0
330
1F
100
AcDbEntity
  8
0
  6
Continuous
 62
     7
370
    25
100
AcDbLine
 10
540.7582239411
 20
1645.3830785607
 30
0.0
 11
536.2582239411
 21
1645.3830785607
 31
0.0
  0
LINE
  5
1D1
330
1F
100
AcDbEntity
  8
0
  6
Continuous
 62
     7
370
    25
100
AcDbLine
 10
536.2582239411
 20
1645.3830785607
 30
0.0
 11
536.2582239411
 21
1648.3830785607
 31
0.0
  0
ARC
  5
1D2
330
1F
100
AcDbEntity
  8
0
  6
Continuous
 62
     7
370
    25
100
AcDbCircle
 10
536.2582239411
 20
1648.3830785607
 30
0.0
 40
3.0
100
AcDbArc
 50
180.0
 51
270.0
  0
ARC
  5
1D3
330
1F
100
AcDbEntity
  8
0
  6
Continuous
 62
     7
370
    25
100
AcDbCircle
 10
536.2582239411
 20
1733.3830785607
 30
0.0
 40
3.0
100
AcDbArc
 50
90.0
 51
180.0
  0
LINE
  5
1D4
330
1F
100
AcDbEntity
  8
0
  6
Continuous
 62
     7
370
    25
100
AcDbLine
 10
1214.7582239411
 20
1648.3830785607
 30
0.0
 11
1214.7582239411
 21
1733.3830785607
 31
0.0
  0
LINE
  5
1D5
330
1F
100
AcDbEntity
  8
0
  6
Continuous
 62
     7
370
    25
100
AcDbLine
 10
1212.7582239411
 20
1648.3830785607
 30
0.0
 11
1214.7582239411
 21
1648.3830785607
 31
0.0
  0
LINE
  5
1D6
330
1F
100
AcDbEntity
  8
0
  6
Continuous
 62
     7
370
    25
100
AcDbLine
 10
1212.7582239411
 20
1648.3830785607
 30
0.0
 11
1212.7582239411
 21
1733.3830785607
 31
0.0
  0
LINE
  5
1D7
330
1F
100
AcDbEntity
  8
0
  6
Continuous
 62
     7
370
    25
100
AcDbLine
 10
1212.7582239411
 20
1733.3830785607
 30
0.0
 11
1214.7582239411
 21
1733.3830785607
 31
0.0
  0
LINE
  5
1D8
330
1F
100
AcDbEntity
  8
0
  6
Continuous
 62
     7
370
    25
100
AcDbLine
 10
1214.7582239411
 20
1733.3830785607
 30
0.0
 11
1214.7582239411
 21
1738.3830785607
 31
0.0
  0
LINE
  5
1D9
330
1F
100
AcDbEntity
  8
0
  6
Continuous
 62
     7
370
    25
100
AcDbLine
 10
1212.7582239411
 20
1733.3830785607
 30
0.0
 11
1212.7582239411
 21
1738.3830785607
 31
0.0
  0
LINE
  5
1DA
330
1F
100
AcDbEntity
  8
0
  6
Continuous
 62
     7
370
    25
100
AcDbLine
 10
1212.7582239411
 20
1738.3830785607
 30
0.0
 11
1214.7582239411
 21
1738.3830785607
 31
0.0
  0
LINE
  5
1DB
330
1F
100
AcDbEntity
  8
0
  6
Continuous
 62
     7
370
    25
100
AcDbLine
 10
1212.7582239411
 20
1643.3830785607
 30
0.0
 11
1214.7582239411
 21
1643.3830785607
 31
0.0
  0
LINE
  5
1DC
330
1F
100
AcDbEntity
  8
0
  6
Continuous
 62
     7
370
    25
100
AcDbLine
 10
1214.7582239411
 20
1643.3830785607
 30
0.0
 11
1214.7582239411
 21
1648.3830785607
 31
0.0
  0
LINE
  5
1DD
330
1F
100
AcDbEntity
  8
0
  6
Continuous
 62
     7
370
    25
100
AcDbLine
 10
1212.7582239411
 20
1643.3830785607
 30
0.0
 11
1212.7582239411
 21
1648.3830785607
 31
0.0
  0
LINE
  5
1DE
330
1F
100
AcDbEntity
  8
0
  6
Continuous
 62
     7
370
    25
100
AcDbLine
 10
1219.2582239411
 20
1733.3830785607
 30
0.0
 11
1219.2582239411
 21
1648.383078556
 31
0.0
  0
LINE
  5
1DF
330
1F
100
AcDbEntity
  8
0
  6
Continuous
 62
     7
370
    25
100
AcDbLine
 10
1222.2582239411
 20
1733.3830785607
 30
0.0
 11
1219.2582239411
 21
1733.3830785607
 31
0.0
  0
LINE
  5
1E0
330
1F
100
AcDbEntity
  8
0
  6
Continuous
 62
     7
370
    25
100
AcDbLine
 10
1222.2582239411
 20
1733.3830785607
 30
0.0
 11
1222.2582239411
 21
1648.3830785607
 31
0.0
  0
LINE
  5
1E1
330
1F
100
AcDbEntity
  8
0
  6
Continuous
 62
     7
370
    25
100
AcDbLine
 10
1219.2582239411
 20
1648.3830785607
 30
0.0
 11
1222.2582239411
 21
1648.3830785607
 31
0.0
  0
LINE
  5
1E2
330
1F
100
AcDbEntity
  8
0
  6
Continuous
 62
     7
370
    25
100
AcDbLine
 10
1214.7582239411
 20
1648.3830785607
 30
0.0
 11
1219.2582239411
 21
1648.3830785607
 31
0.0
  0
LINE
  5
1E3
330
1F
100
AcDbEntity
  8
0
  6
Continuous
 62
     7
370
    25
100
AcDbLine
 10
1219.2582239411
 20
1648.3830785512
 30
0.0
 11
1219.2582239411
 21
1645.3830785607
 31
0.0
  0
LINE
  5
1E4
330
1F
100
AcDbEntity
  8
0
  6
Continuous
 62
     7
370
    25
100
AcDbLine
 10
1219.2582239411
 20
1645.3830785607
 30
0.0
 11
1214.7582239411
 21
1645.3830785607
 31
0.0
  0
LINE
  5
1E5
330
1F
100
AcDbEntity
  8
0
  6
Continuous
 62
     7
370
    25
100
AcDbLine
 10
1219.2582239411
 20
1733.3830785607
 30
0.0
 11
1214.7582239411
 21
1733.3830785607
 31
0.0
  0
LINE
  5
1E6
330
1F
100
AcDbEntity
  8
0
  6
Continuous
 62
     7
370
    25
100
AcDbLine
 10
1214.7582239411
 20
1736.3830785607
 30
0.0
 11
1219.2582239411
 21
1736.3830785607
 31
0.0
  0
LINE
  5
1E7
330
1F
100
AcDbEntity
  8
0
  6
Continuous
 62
     7
370
    25
100
AcDbLine
 10
1219.2582239411
 20
1736.3830785607
 30
0.0
 11
1219.2582239411
 21
1733.3830785607
 31
0.0
  0
ARC
  5
1E8
330
1F
100
AcDbEntity
  8
0
  6
Continuous
 62
     7
370
    25
100
AcDbCircle
 10
1219.2582239411
 20
1733.3830785607
 30
0.0
 40
3.000000000000227
100
AcDbArc
 50
0.0
 51
90.0
  0
ARC
  5
1E9
330
1F
100
AcDbEntity
  8
0
  6
Continuous
 62
     7
370
    25
100
AcDbCircle
 10
1219.2582239411
 20
1648.3830785607
 30
0.0
 40
3.0
100
AcDbArc
 50
270.0
 51
0.0
  0
LINE
  5
1EA
330
1F
100
AcDbEntity
  8
0
  6
Continuous
 62
     7
370
    25
100
AcDbLine
 10
542.7582239411
 20
1738.3830785607
 30
0.0
 11
1212.7582239411
 21
1738.3830785607
 31
0.0
  0
LINE
  5
1EB
330
1F
100
AcDbEntity
  8
0
  6
Continuous
 62
     7
370
    25
100
AcDbLine
 10
542.7582239411
 20
1733.3830785607
 30
0.0
 11
1212.7582239411
 21
1733.3830785607
 31
0.0
  0
LINE
  5
1EC
330
1F
100
AcDbEntity
  8
0
  6
Continuous
 62
     7
370
    25
100
AcDbLine
 10
542.7582239411
 20
1648.3830785607
 30
0.0
 11
1212.7582239411
 21
1648.3830785607
 31
0.0
  0
LINE
  5
1ED
330
1F
100
AcDbEntity
  8
0
  6
Continuous
 62
     7
370
    25
100
AcDbLine
 10
542.7582239411
 20
1643.3830785607
 30
0.0
 11
1212.7582239411
 21
1643.3830785607
 31
0.0
  0
LINE
  5
1EE
330
1F
100
AcDbEntity
  8
0
  6
Continuous
 62
     7
370
    25
100
AcDbLine
 10
542.4625018834
 20
1426.8830785607
 30
0.0
 11
542.4625018834
 21
1386.8830785607
 31
0.0
  0
LINE
  5
1EF
330
1F
100
AcDbEntity
  8
0
  6
Continuous
 62
     7
370
    25
100
AcDbLine
 10
546.505951026
 20
1426.8830785607
 30
0.0
 11
546.505951026
 21
1386.8830785607
 31
0.0
  0
LINE
  5
1F0
330
1F
100
AcDbEntity
  8
0
  6
Continuous
 62
     7
370
    25
100
AcDbLine
 10
546.505951026
 20
1386.8830785607
 30
0.0
 11
542.7502238357
 21
1386.8830785607
 31
0.0
  0
LINE
  5
1F1
330
1F
100
AcDbEntity
  8
0
  6
Continuous
 62
     7
370
    25
100
AcDbLine
 10
546.505951026
 20
1426.8830785607
 30
0.0
 11
542.7502238357
 21
1426.8830785607
 31
0.0
  0
LINE
  5
1F2
330
1F
100
AcDbEntity
  8
0
  6
Continuous
 62
     7
370
    25
100
AcDbLine
 10
564.7582239411
 20
1426.8830785607
 30
0.0
 11
564.7582239411
 21
1386.8830785607
 31
0.0
  0
LINE
  5
1F3
330
1F
100
AcDbEntity
  8
0
  6
Continuous
 62
     7
370
    25
100
AcDbLine
 10
564.7582239411
 20
1386.8830785607
 30
0.0
 11
546.505951026
 21
1386.8830785607
 31
0.0
  0
LINE
  5
1F4
330
1F
100
AcDbEntity
  8
0
  6
Continuous
 62
     7
370
    25
100
AcDbLine
 10
564.7582239411
 20
1426.8830785607
 30
0.0
 11
546.505951026
 21
1426.8830785607
 31
0.0
  0
LINE
  5
1F5
330
1F
100
AcDbEntity
  8
0
  6
Continuous
 62
     7
370
    25
100
AcDbLine
 10
1527.7582239411
 20
1286.8830785607
 30
0.0
 11
537.7582239411
 21
1286.8830785607
 31
0.0
  0
LINE
  5
1F6
330
1F
100
AcDbEntity
  8
0
  6
Continuous
 62
     7
370
    25
100
AcDbLine
 10
537.7582239411
 20
1286.8830785607
 30
0.0
 11
537.7582239411
 21
1356.8830785607
 31
0.0
  0
LINE
  5
1F7
330
1F
100
AcDbEntity
  8
0
  6
Continuous
 62
     7
370
    25
100
AcDbLine
 10
537.7582239411
 20
1456.8830785607
 30
0.0
 11
537.7582239411
 21
1606.8830785607
 31
0.0
  0
LINE
  5
1F8
330
1F
100
AcDbEntity
  8
0
  6
Continuous
 62
     7
370
    25
100
AcDbLine
 10
537.7582239411
 20
1606.8830785607
 30
0.0
 11
1203.0168770863
 21
1606.8830785607
 31
0.0
  0
LINE
  5
1F9
330
1F
100
AcDbEntity
  8
0
  6
Continuous
 62
     7
370
    25
100
AcDbLine
 10
1217.0168770863
 20
1606.8830785607
 30
0.0
 11
1527.7582239411
 21
1606.8830785607
 31
0.0
  0
LINE
  5
1FA
330
1F
100
AcDbEntity
  8
0
  6
Continuous
 62
     7
370
    25
100
AcDbLine
 10
1527.7582239411
 20
1606.8830785607
 30
0.0
 11
1527.7582239411
 21
1286.8830785607
 31
0.0
  0
LINE
  5
1FB
330
1F
100
AcDbEntity
  8
0
  6
Continuous
 62
     7
370
    25
100
AcDbLine
 10
522.7736682655
 20
1456.8830785607
 30
0.0
 11
522.7736682655
 21
1426.8830785607
 31
0.0
  0
LINE
  5
1FC
330
1F
100
AcDbEntity
  8
0
  6
Continuous
 62
     7
370
    25
100
AcDbLine
 10
544.7882239411
 20
1456.8830785607
 30
0.0
 11
522.7736682655
 21
1456.8830785607
 31
0.0
  0
LINE
  5
1FD
330
1F
100
AcDbEntity
  8
0
  6
Continuous
 62
     7
370
    25
100
AcDbLine
 10
542.7502238357
 20
1426.8830785607
 30
0.0
 11
522.7736682655
 21
1426.8830785607
 31
0.0
  0
LINE
  5
1FE
330
1F
100
AcDbEntity
  8
0
  6
Continuous
 62
     7
370
    25
100
AcDbLine
 10
522.7736682655
 20
1386.8830785607
 30
0.0
 11
522.7736682655
 21
1356.8830785607
 31
0.0
  0
LINE
  5
1FF
330
1F
100
AcDbEntity
  8
0
  6
Continuous
 62
     7
370
    25
100
AcDbLine
 10
544.7882239411
 20
1356.8830785607
 30
0.0
 11
522.7736682655
 21
1356.8830785607
 31
0.0
  0
LINE
  5
200
330
1F
100
AcDbEntity
  8
0
  6
Continuous
 62
     7
370
    25
100
AcDbLine
 10
542.7502238357
 20
1386.8830785607
 30
0.0
 11
522.7736682655
 21
1386.8830785607
 31
0.0
  0
LINE
  5
201
330
1F
100
AcDbEntity
  8
0
  6
Continuous
 62
     7
370
    25
100
AcDbLine
 10
519.0082239411
 20
1386.8830785607
 30
0.0
 11
519.0082239411
 21
1356.8830785607
 31
0.0
  0
LINE
  5
202
330
1F
100
AcDbEntity
  8
0
  6
Continuous
 62
     7
370
    25
100
AcDbLine
 10
522.7736682655
 20
1356.8830785607
 30
0.0
 11
519.0082239411
 21
1356.8830785607
 31
0.0
  0
LINE
  5
203
330
1F
100
AcDbEntity
  8
0
  6
Continuous
 62
     7
370
    25
100
AcDbLine
 10
522.7736682655
 20
1386.8830785607
 30
0.0
 11
519.0082239411
 21
1386.8830785607
 31
0.0
  0
LINE
  5
204
330
1F
100
AcDbEntity
  8
0
  6
Continuous
 62
     7
370
    25
100
AcDbLine
 10
519.0082239411
 20
1456.8830785607
 30
0.0
 11
519.0082239411
 21
1426.8830785607
 31
0.0
  0
LINE
  5
205
330
1F
100
AcDbEntity
  8
0
  6
Continuous
 62
     7
370
    25
100
AcDbLine
 10
522.7736682655
 20
1456.8830785607
 30
0.0
 11
519.0082239411
 21
1456.8830785607
 31
0.0
  0
LINE
  5
206
330
1F
100
AcDbEntity
  8
0
  6
Continuous
 62
     7
370
    25
100
AcDbLine
 10
522.7736682655
 20
1426.8830785607
 30
0.0
 11
519.0082239411
 21
1426.8830785607
 31
0.0
  0
LINE
  5
207
330
1F
100
AcDbEntity
  8
0
  6
Continuous
 62
     7
370
    25
100
AcDbLine
 10
500.7582239411
 20
1456.8830785607
 30
0.0
 11
500.7582239411
 21
1426.8830785607
 31
0.0
  0
LINE
  5
208
330
1F
100
AcDbEntity
  8
0
  6
Continuous
 62
     7
370
    25
100
AcDbLine
 10
519.0082239411
 20
1456.8830785607
 30
0.0
 11
500.7582239411
 21
1456.8830785607
 31
0.0
  0
LINE
  5
209
330
1F
100
AcDbEntity
  8
0
  6
Continuous
 62
     7
370
    25
100
AcDbLine
 10
519.0082239411
 20
1426.8830785607
 30
0.0
 11
500.7582239411
 21
1426.8830785607
 31
0.0
  0
LINE
  5
20A
330
1F
100
AcDbEntity
  8
0
  6
Continuous
 62
     7
370
    25
100
AcDbLine
 10
500.7582239411
 20
1386.8830785607
 30
0.0
 11
500.7582239411
 21
1356.8830785607
 31
0.0
  0
LINE
  5
20B
330
1F
100
AcDbEntity
  8
0
  6
Continuous
 62
     7
370
    25
100
AcDbLine
 10
519.0082239411
 20
1356.8830785607
 30
0.0
 11
500.7582239411
 21
1356.8830785607
 31
0.0
  0
LINE
  5
20C
330
1F
100
AcDbEntity
  8
0
  6
Continuous
 62
     7
370
    25
100
AcDbLine
 10
519.0082239411
 20
1386.8830785607
 30
0.0
 11
500.7582239411
 21
1386.8830785607
 31
0.0
  0
LINE
  5
20D
330
1F
100
AcDbEntity
  8
0
  6
Continuous
 62
     7
370
    25
100
AcDbLine
 10
432.7582239411
 20
1786.8830785607
 30
0.0
 11
432.7582239411
 21
1286.8830785607
 31
0.0
  0
LINE
  5
20E
330
1F
100
AcDbEntity
  8
0
  6
Continuous
 62
     7
370
    25
100
AcDbLine
 10
1632.7582239411
 20
1286.8830785607
 30
0.0
 11
1632.7582239411
 21
1786.8830785607
 31
0.0
  0
LINE
  5
20F
330
1F
100
AcDbEntity
  8
0
  6
Continuous
 62
     7
370
    25
100
AcDbLine
 10
1532.7582239411
 20
1611.8830785607
 30
0.0
 11
1221.0168770863
 21
1611.8830785607
 31
0.0
  0
LINE
  5
210
330
1F
100
AcDbEntity
  8
0
  6
Continuous
 62
     7
370
    25
100
AcDbLine
 10
797.7582239414
 20
1611.8830785607
 30
0.0
 11
532.7582239411
 21
1611.8830785607
 31
0.0
  0
LINE
  5
211
330
1F
100
AcDbEntity
  8
0
  6
Continuous
 62
     7
370
    25
100
AcDbLine
 10
1632.7582239411
 20
1786.8830785607
 30
0.0
 11
432.7582239411
 21
1786.8830785607
 31
0.0
  0
LINE
  5
212
330
1F
100
AcDbEntity
  8
0
  6
Continuous
 62
     7
370
    25
100
AcDbLine
 10
1532.7582239411
 20
1286.8830785607
 30
0.0
 11
1532.7582239411
 21
1611.8830785607
 31
0.0
  0
LINE
  5
213
330
1F
100
AcDbEntity
  8
0
  6
Continuous
 62
     7
370
    25
100
AcDbLine
 10
432.7582239411
 20
1286.8830785607
 30
0.0
 11
532.7582239411
 21
1286.8830785607
 31
0.0
  0
LINE
  5
214
330
1F
100
AcDbEntity
  8
0
  6
Continuous
 62
     7
370
    25
100
AcDbLine
 10
532.7582239411
 20
1611.8830785607
 30
0.0
 11
532.7582239411
 21
1456.8830785607
 31
0.0
  0
LINE
  5
215
330
1F
100
AcDbEntity
  8
0
  6
Continuous
 62
     7
370
    25
100
AcDbLine
 10
532.7582239411
 20
1356.8830785607
 30
0.0
 11
532.7582239411
 21
1286.8830785607
 31
0.0
  0
LINE
  5
216
330
1F
100
AcDbEntity
  8
0
  6
Continuous
 62
     7
370
    25
100
AcDbLine
 10
1532.7582239411
 20
1286.8830785607
 30
0.0
 11
1632.7582239411
 21
1286.8830785607
 31
0.0
  0
LINE
  5
217
330
1F
100
AcDbEntity
  8
0
  6
Continuous
 62
     7
370
    25
100
AcDbLine
 10
532.7582239411
 20
1286.8830785607
 30
0.0
 11
537.7582239411
 21
1286.8830785607
 31
0.0
  0
LINE
  5
218
330
1F
100
AcDbEntity
  8
0
  6
Continuous
 62
     7
370
    25
100
AcDbLine
 10
1527.7582239411
 20
1286.8830785607
 30
0.0
 11
1532.7582239411
 21
1286.8830785607
 31
0.0
  0
LINE
  5
219
330
1F
100
AcDbEntity
  8
0
  6
Continuous
 62
     7
370
    25
100
AcDbLine
 10
814.5113489412
 20
1620.8830785608
 30
0.0
 11
827.7582239412
 21
1620.8830785608
 31
0.0
  0
LINE
  5
21A
330
1F
100
AcDbEntity
  8
0
  6
Continuous
 62
     7
370
    25
100
AcDbLine
 10
810.4549175502
 20
1633.6270625917
 30
0.0
 11
810.4000428353
 21
1632.7266440958
 31
0.0
  0
LINE
  5
21B
330
1F
100
AcDbEntity
  8
0
  6
Continuous
 62
     7
370
    25
100
AcDbLine
 10
809.8624002743
 20
1632.7266440958
 30
0.0
 11
809.9172749874
 21
1633.6270625917
 31
0.0
  0
LINE
  5
21C
330
1F
100
AcDbEntity
  8
0
  6
Continuous
 62
     7
370
    25
100
AcDbLine
 10
808.2224331269
 20
1633.6270625917
 30
0.0
 11
808.1267874531
 21
1632.7266440958
 31
0.0
  0
LINE
  5
21D
330
1F
100
AcDbEntity
  8
0
  6
Continuous
 62
     7
370
    25
100
AcDbLine
 10
813.5040570357
 20
1632.7266440958
 30
0.0
 11
813.486015928
 21
1633.6270625917
 31
0.0
  0
LINE
  5
21E
330
1F
100
AcDbEntity
  8
0
  6
Continuous
 62
     7
370
    25
100
AcDbLine
 10
817.2264954107
 20
1632.7266440958
 30
0.0
 11
817.1280656053
 21
1633.6270625917
 31
0.0
  0
LINE
  5
21F
330
1F
100
AcDbEntity
  8
0
  6
Continuous
 62
     7
370
    25
100
AcDbLine
 10
813.7863211948
 20
1633.6270625917
 30
0.0
 11
813.8043623025
 21
1632.7266440958
 31
0.0
  0
LINE
  5
220
330
1F
100
AcDbEntity
  8
0
  6
Continuous
 62
     7
370
    25
100
AcDbLine
 10
817.6157293096
 20
1633.6270625917
 30
0.0
 11
817.7141591114
 21
1632.7266440958
 31
0.0
  0
LINE
  5
221
330
1F
100
AcDbEntity
  8
0
  6
Continuous
 62
     7
370
    25
100
AcDbLine
 10
818.6817650188
 20
1632.7266440958
 30
0.0
 11
818.5606053659
 21
1633.6270625917
 31
0.0
  0
LINE
  5
222
330
1F
100
AcDbEntity
  8
0
  6
Continuous
 62
     7
370
    25
100
AcDbLine
 10
807.8894501411
 20
1632.7266440958
 30
0.0
 11
807.9850958149
 21
1633.6270625917
 31
0.0
  0
LINE
  5
223
330
1F
100
AcDbEntity
  8
0
  6
Continuous
 62
     7
370
    25
100
AcDbLine
 10
804.6433514364
 20
1633.6270625917
 30
0.0
 11
804.4673170685
 21
1632.7266440958
 31
0.0
  0
LINE
  5
224
330
1F
100
AcDbEntity
  8
0
  6
Continuous
 62
     7
370
    25
100
AcDbLine
 10
818.747963835
 20
1633.6270625917
 30
0.0
 11
818.869123488
 21
1632.7266440958
 31
0.0
  0
LINE
  5
225
330
1F
100
AcDbEntity
  8
0
  6
Continuous
 62
     7
370
    25
100
AcDbLine
 10
821.9731377207
 20
1632.7266440958
 30
0.0
 11
821.7790622418
 21
1633.6270625917
 31
0.0
  0
LINE
  5
226
330
1F
100
AcDbEntity
  8
0
  6
Continuous
 62
     7
370
    25
100
AcDbLine
 10
803.3912921034
 20
1632.7266440958
 30
0.0
 11
804.1794708523
 21
1632.7266440958
 31
0.0
  0
LINE
  5
227
330
1F
100
AcDbEntity
  8
0
  6
Continuous
 62
     7
370
    25
100
AcDbLine
 10
803.5853675789
 20
1633.6270625917
 30
0.0
 11
803.3912921034
 21
1632.7266440958
 31
0.0
  0
LWPOLYLINE
  5
228
330
1F
100
AcDbEntity
  8
0
  6
Continuous
 62
     7
370
    25
100
AcDbPolyline
 90
        3
 70
   128
 43
0.0
 10
803.3307893752
 20
1632.6733368918
 10
803.3342436033
 20
1632.68175944
 10
803.3912921034
 20
1632.7266440958
  0
LINE
  5
229
330
1F
100
AcDbEntity
  8
0
  6
Continuous
 62
     7
370
    25
100
AcDbLine
 10
1246.258223818
 20
1579.8830785649
 30
0.0
 11
630.2582238168
 21
1579.8830785649
 31
0.0
  0
LINE
  5
22A
330
1F
100
AcDbEntity
  8
0
  6
Continuous
 62
     7
370
    25
100
AcDbLine
 10
1246.2582238177
 20
1563.8830785669
 30
0.0
 11
630.2582238171
 21
1563.8830785669
 31
0.0
  0
DIMENSION
  5
22B
330
1F
100
AcDbEntity
  8
FORMAT
100
AcDbDimension
  2
_D
 10
1264.7582238174
 20
1438.7799116961
 30
0.0
 11
938.2582238174
 21
1438.779911696
 31
0.0
 70
   160
  1
<>
 71
     2
 42
-1.0
  3
SLDDIMSTYLE0
100
AcDbAlignedDimension
 13
611.7582238174
 23
1563.8830785669
 33
0.0
 14
1264.7582238174
 24
1563.8830785669
 34
0.0
 50
0.0
100
AcDbRotatedDimension
  0
DIMENSION
  5
236
330
1F
100
AcDbEntity
  8
FORMAT
100
AcDbDimension
  2
_D_1
 10
1304.7455017408
 20
1580.3830785669
 30
0.0
 11
1304.7455017408
 21
1529.7363386631
 31
0.0
 70
   160
  1
<>
 71
     2
 42
-1.0
  3
SLDDIMSTYLE1
100
AcDbAlignedDimension
 13
1264.2582238174
 23
1563.3830785669
 33
0.0
 14
1264.2582238174
 24
1580.3830785669
 34
0.0
 50
90.0
100
AcDbRotatedDimension
  0
DIMENSION
  5
243
330
1F
100
AcDbEntity
  8
FORMAT
100
AcDbDimension
  2
_D_2
 10
506.8802929513
 20
1738.3830785607
 30
0.0
 11
506.8802929513
 21
1690.8830785607
 31
0.0
 70
   160
  1
<>
 71
     2
 42
-1.0
  3
SLDDIMSTYLE0
100
AcDbAlignedDimension
 13
542.7582239411
 23
1643.3830785607
 33
0.0
 14
542.7582239411
 24
1738.3830785607
 34
0.0
 50
90.0
100
AcDbRotatedDimension
  0
DIMENSION
  5
24D
330
1F
100
AcDbEntity
  8
FORMAT
100
AcDbDimension
  2
_D_3
 10
1222.2582239411
 20
1898.8830785607
 30
0.0
 11
877.7582239411
 21
1898.8830785607
 31
0.0
 70
   160
  1
<>
 71
     2
 42
-1.0
  3
SLDDIMSTYLE0
100
AcDbAlignedDimension
 13
533.2582239411
 23
1733.3830785607
 33
0.0
 14
1222.2582239411
 24
1733.3830785607
 34
0.0
100
AcDbRotatedDimension
  0
DIMENSION
  5
257
330
1F
100
AcDbEntity
  8
FORMAT
100
AcDbDimension
  2
_D_4
 10
812.7582239412
 20
1372.5175745137
 30
0.0
 11
672.7582239411
 21
1372.5175745137
 31
0.0
 70
   160
  1
<>
 71
     2
 42
-1.0
  3
SLDDIMSTYLE0
100
AcDbAlignedDimension
 13
532.7582239411
 23
1352.7931750588
 33
0.0
 14
812.7582239412
 24
1606.3830785608
 34
0.0
100
AcDbRotatedDimension
  0
LINE
  5
260
330
1F
100
AcDbEntity
  8
0
  6
CENTER
 62
     7
370
    18
100
AcDbLine
 10
648.9792977159
 20
1846.8830785607
 30
0.0
 11
648.9792977159
 21
1226.8830785607
 31
0.0
  0
LINE
  5
261
330
1F
100
AcDbEntity
  8
0
  6
Continuous
 62
     7
370
    18
100
AcDbLine
 10
560.0792977159
 20
1832.8830785607
 30
0.0
 11
648.9792977159
 21
1832.8830785607
 31
0.0
  0
SOLID
  5
262
330
1F
100
AcDbEntity
  8
0
  6
Continuous
 62
     7
370
    18
100
AcDbTrace
 10
648.9792977159
 20
1832.8830785607
 30
0.0
 11
604.5292977159
 21
1839.9950785607
 31
0.0
 12
604.5292977159
 22
1825.7710785607
 32
0.0
 13
604.5292977159
 23
1825.7710785607
 33
0.0
  0
LINE
  5
263
330
1F
100
AcDbEntity
  8
0
  6
Continuous
 62
     7
370
    18
100
AcDbLine
 10
560.0792977159
 20
1240.8830785607
 30
0.0
 11
648.9792977159
 21
1240.8830785607
 31
0.0
  0
SOLID
  5
264
330
1F
100
AcDbEntity
  8
0
  6
Continuous
 62
     7
370
    18
100
AcDbTrace
 10
648.9792977159
 20
1240.8830785607
 30
0.0
 11
604.5292977159
 21
1247.9950785607
 31
0.0
 12
604.5292977159
 22
1233.7710785607
 32
0.0
 13
604.5292977159
 23
1233.7710785607
 33
0.0
  0
MTEXT
  5
265
330
1F
100
AcDbEntity
  8
0
  6
Continuous
 62
     7
100
AcDbMText
 10
560.0792977159
 20
1886.5782013272
 30
0.0
 40
35.0
 41
0.0
 71
     1
 72
     1
  1
A
  7
SLDTEXTSTYLE0
 73
     1
 44
1.0
  0
MTEXT
  5
266
330
1F
100
AcDbEntity
  8
0
  6
Continuous
 62
     7
100
AcDbMText
 10
560.0792977159
 20
1223.0026026794
 30
0.0
 40
35.0
 41
0.0
 71
     1
 72
     1
  1
A
  7
SLDTEXTSTYLE0
 73
     1
 44
1.0
  0
LINE
  5
267
330
1F
100
AcDbEntity
  8
FORMAT
  6
CENTERX2
370
    18
100
AcDbLine
 10
812.7582239412
 20
1606.3830785608
 30
0.0
 11
812.7582239412
 21
1658.0840813172
 31
0.0
  0
LINE
  5
268
330
1F
100
AcDbEntity
  8
FORMAT
  6
CENTERX2
370
    18
100
AcDbLine
 10
532.7582239411
 20
1455.8830785607
 30
0.0
 11
532.7582239411
 21
1352.7931750588
 31
0.0
  0
LINE
  5
269
330
1F
100
AcDbEntity
  8
0
  6
Continuous
 62
     7
370
    25
100
AcDbLine
 10
520.7582239411
 20
587.3357753139
 30
0.0
 11
520.7582239411
 21
547.3357753139
 31
0.0
  0
LINE
  5
26A
330
1F
100
AcDbEntity
  8
0
  6
Continuous
 62
     7
370
    25
100
AcDbLine
 10
544.7882239411
 20
517.3357753139
 30
0.0
 11
544.7882239411
 21
547.3357753139
 31
0.0
  0
LINE
  5
26B
330
1F
100
AcDbEntity
  8
0
  6
Continuous
 62
     7
370
    25
100
AcDbLine
 10
544.7882239411
 20
587.3357753139
 30
0.0
 11
544.7882239411
 21
617.3357753139
 31
0.0
  0
ARC
  5
26C
330
1F
100
AcDbEntity
  8
0
  6
Continuous
 62
     7
370
    25
100
AcDbCircle
 10
1202.2582239411
 20
889.3357753135
 30
0.0
 40
2.000000000000113
100
AcDbArc
 50
14.4775121862
 51
165.5224878124
  0
ARC
  5
26D
330
1F
100
AcDbEntity
  8
0
  6
Continuous
 62
     7
370
    25
100
AcDbCircle
 10
1182.7582239411
 20
889.3357753135
 30
0.0
 40
3.250000000000175
100
AcDbArc
 50
8.8498831004
 51
171.1501169005
  0
ARC
  5
26E
330
1F
100
AcDbEntity
  8
0
  6
Continuous
 62
     7
370
    25
100
AcDbCircle
 10
956.7582239411
 20
889.3357753135
 30
0.0
 40
3.249999999996354
100
AcDbArc
 50
8.8498830993
 51
171.1501169007
  0
ARC
  5
26F
330
1F
100
AcDbEntity
  8
0
  6
Continuous
 62
     7
370
    25
100
AcDbCircle
 10
889.7582239411
 20
889.3357753135
 30
0.0
 40
3.00000000000034
100
AcDbArc
 50
9.5940682278
 51
170.4059317722
  0
ARC
  5
270
330
1F
100
AcDbEntity
  8
0
  6
Continuous
 62
     7
370
    25
100
AcDbCircle
 10
765.7582239411
 20
889.3357753135
 30
0.0
 40
3.000000000000363
100
AcDbArc
 50
9.594068228
 51
170.4059317719
  0
ARC
  5
271
330
1F
100
AcDbEntity
  8
0
  6
Continuous
 62
     7
370
    25
100
AcDbCircle
 10
749.7582239411
 20
889.3357753135
 30
0.0
 40
3.249999999996426
100
AcDbArc
 50
8.8498830994
 51
171.1501169005
  0
ARC
  5
272
330
1F
100
AcDbEntity
  8
0
  6
Continuous
 62
     7
370
    25
100
AcDbCircle
 10
582.7582239411
 20
889.3357753135
 30
0.0
 40
2.000000000000572
100
AcDbArc
 50
14.4775121877
 51
165.5224878124
  0
ARC
  5
273
330
1F
100
AcDbEntity
  8
0
  6
Continuous
 62
     7
370
    25
100
AcDbCircle
 10
553.2582239411
 20
889.3357753135
 30
0.0
 40
2.000000000000652
100
AcDbArc
 50
14.4775121876
 51
165.5224878126
  0
LINE
  5
274
330
1F
100
AcDbEntity
  8
0
  6
Continuous
 62
     7
370
    25
100
AcDbLine
 10
1212.7582239411
 20
895.8357753135
 30
0.0
 11
1212.7582239411
 21
889.8357753135
 31
0.0
  0
LINE
  5
275
330
1F
100
AcDbEntity
  8
0
  6
Continuous
 62
     7
370
    25
100
AcDbLine
 10
542.7582239411
 20
889.8357753135
 30
0.0
 11
542.7582239411
 21
895.8357753135
 31
0.0
  0
ARC
  5
276
330
1F
100
AcDbEntity
  8
0
  6
Continuous
 62
     7
370
    25
100
AcDbCircle
 10
553.2582239411
 20
889.3357753135
 30
0.0
 40
2.000000000000737
100
AcDbArc
 50
165.5224878126
 51
180.0000000001
  0
LINE
  5
277
330
1F
100
AcDbEntity
  8
0
  6
Continuous
 62
     7
370
    25
100
AcDbLine
 10
542.7582239411
 20
889.8357753135
 30
0.0
 11
542.7582239411
 21
889.3357753135
 31
0.0
  0
ARC
  5
278
330
1F
100
AcDbEntity
  8
0
  6
Continuous
 62
     7
370
    25
100
AcDbCircle
 10
749.7582239411
 20
813.3357753135
 30
0.0
 40
3.249999999996315
100
AcDbArc
 50
8.8498830984
 51
171.1501169016
  0
ARC
  5
279
330
1F
100
AcDbEntity
  8
0
  6
Continuous
 62
     7
370
    25
100
AcDbCircle
 10
582.7582239411
 20
813.3357753135
 30
0.0
 40
2.000000000000086
100
AcDbArc
 50
14.4775121861
 51
165.5224878138
  0
ARC
  5
27A
330
1F
100
AcDbEntity
  8
0
  6
Continuous
 62
     7
370
    25
100
AcDbCircle
 10
553.2582239411
 20
813.3357753135
 30
0.0
 40
1.999999999999976
100
AcDbArc
 50
14.4775121862
 51
165.5224878138
  0
LINE
  5
27B
330
1F
100
AcDbEntity
  8
0
  6
Continuous
 62
     7
370
    25
100
AcDbLine
 10
542.7582239411
 20
813.8357753135
 30
0.0
 11
542.7582239411
 21
823.5357753135
 31
0.0
  0
ARC
  5
27C
330
1F
100
AcDbEntity
  8
0
  6
Continuous
 62
     7
370
    25
100
AcDbCircle
 10
1202.2582239411
 20
813.3357753135
 30
0.0
 40
2.000000000000555
100
AcDbArc
 50
14.4775121862
 51
165.5224878136
  0
ARC
  5
27D
330
1F
100
AcDbEntity
  8
0
  6
Continuous
 62
     7
370
    25
100
AcDbCircle
 10
1182.7582239411
 20
813.3357753135
 30
0.0
 40
3.250000000000196
100
AcDbArc
 50
8.8498830987
 51
171.1501169013
  0
ARC
  5
27E
330
1F
100
AcDbEntity
  8
0
  6
Continuous
 62
     7
370
    25
100
AcDbCircle
 10
956.7582239411
 20
813.3357753135
 30
0.0
 40
3.249999999995944
100
AcDbArc
 50
8.8498830985
 51
171.1501169015
  0
ARC
  5
27F
330
1F
100
AcDbEntity
  8
0
  6
Continuous
 62
     7
370
    25
100
AcDbCircle
 10
889.7582239411
 20
813.3357753135
 30
0.0
 40
3.000000000000055
100
AcDbArc
 50
9.5940682269
 51
170.4059317731
  0
ARC
  5
280
330
1F
100
AcDbEntity
  8
0
  6
Continuous
 62
     7
370
    25
100
AcDbCircle
 10
765.7582239411
 20
813.3357753135
 30
0.0
 40
3.000000000000527
100
AcDbArc
 50
9.5940682272
 51
170.4059317729
  0
LINE
  5
281
330
1F
100
AcDbEntity
  8
0
  6
Continuous
 62
     7
370
    25
100
AcDbLine
 10
1212.7582239411
 20
823.5357753135
 30
0.0
 11
1212.7582239411
 21
813.8357753135
 31
0.0
  0
ARC
  5
282
330
1F
100
AcDbEntity
  8
0
  6
Continuous
 62
     7
370
    25
100
AcDbCircle
 10
553.2582239411
 20
889.3357753135
 30
0.0
 40
2.000000000000021
100
AcDbArc
 50
194.4775121861
 51
345.5224878139
  0
ARC
  5
283
330
1F
100
AcDbEntity
  8
0
  6
Continuous
 62
     7
370
    25
100
AcDbCircle
 10
582.7582239411
 20
889.3357753135
 30
0.0
 40
2.00000000000012
100
AcDbArc
 50
194.4775121861
 51
345.5224878141
  0
ARC
  5
284
330
1F
100
AcDbEntity
  8
0
  6
Continuous
 62
     7
370
    25
100
AcDbCircle
 10
749.7582239411
 20
889.3357753135
 30
0.0
 40
3.249999999995901
100
AcDbArc
 50
188.8498830984
 51
351.1501169016
  0
ARC
  5
285
330
1F
100
AcDbEntity
  8
0
  6
Continuous
 62
     7
370
    25
100
AcDbCircle
 10
765.7582239411
 20
889.3357753135
 30
0.0
 40
3.000000000000107
100
AcDbArc
 50
189.5940682267
 51
350.4059317733
  0
ARC
  5
286
330
1F
100
AcDbEntity
  8
0
  6
Continuous
 62
     7
370
    25
100
AcDbCircle
 10
889.7582239411
 20
889.3357753135
 30
0.0
 40
3.00000000000013
100
AcDbArc
 50
189.5940682269
 51
350.4059317731
  0
ARC
  5
287
330
1F
100
AcDbEntity
  8
0
  6
Continuous
 62
     7
370
    25
100
AcDbCircle
 10
956.7582239411
 20
889.3357753135
 30
0.0
 40
3.249999999996013
100
AcDbArc
 50
188.8498830984
 51
351.1501169016
  0
ARC
  5
288
330
1F
100
AcDbEntity
  8
0
  6
Continuous
 62
     7
370
    25
100
AcDbCircle
 10
1182.7582239411
 20
889.3357753135
 30
0.0
 40
3.250000000000393
100
AcDbArc
 50
188.8498830983
 51
351.1501169018
  0
ARC
  5
289
330
1F
100
AcDbEntity
  8
0
  6
Continuous
 62
     7
370
    25
100
AcDbCircle
 10
1202.2582239411
 20
889.3357753135
 30
0.0
 40
2.000000000000204
100
AcDbArc
 50
194.4775121856
 51
345.5224878144
  0
LINE
  5
28A
330
1F
100
AcDbEntity
  8
0
  6
Continuous
 62
     7
370
    25
100
AcDbLine
 10
1212.7582239411
 20
888.8357753135
 30
0.0
 11
1212.7582239411
 21
877.3357753135
 31
0.0
  0
LINE
  5
28B
330
1F
100
AcDbEntity
  8
0
  6
Continuous
 62
     7
370
    25
100
AcDbLine
 10
542.7582239411
 20
877.3357753135
 30
0.0
 11
542.7582239411
 21
888.8357753135
 31
0.0
  0
ARC
  5
28C
330
1F
100
AcDbEntity
  8
0
  6
Continuous
 62
     7
370
    25
100
AcDbCircle
 10
553.2582239411
 20
889.3357753135
 30
0.0
 40
2.000000000000114
100
AcDbArc
 50
180.0000000001
 51
194.4775121861
  0
LINE
  5
28D
330
1F
100
AcDbEntity
  8
0
  6
Continuous
 62
     7
370
    25
100
AcDbLine
 10
542.7582239411
 20
889.3357753135
 30
0.0
 11
542.7582239411
 21
888.8357753135
 31
0.0
  0
ARC
  5
28E
330
1F
100
AcDbEntity
  8
0
  6
Continuous
 62
     7
370
    25
100
AcDbCircle
 10
1202.2582239411
 20
813.3357753135
 30
0.0
 40
2.000000000000555
100
AcDbArc
 50
0.0000000001
 51
14.4775121862
  0
LINE
  5
28F
330
1F
100
AcDbEntity
  8
0
  6
Continuous
 62
     7
370
    25
100
AcDbLine
 10
1212.7582239411
 20
813.3357753135
 30
0.0
 11
1212.7582239411
 21
813.8357753135
 31
0.0
  0
ARC
  5
290
330
1F
100
AcDbEntity
  8
0
  6
Continuous
 62
     7
370
    25
100
AcDbCircle
 10
1202.2582239411
 20
889.3357753135
 30
0.0
 40
2.0
100
AcDbArc
 50
345.5224878144
 51
0.0000000003
  0
LINE
  5
291
330
1F
100
AcDbEntity
  8
0
  6
Continuous
 62
     7
370
    25
100
AcDbLine
 10
1212.7582239411
 20
888.8357753135
 30
0.0
 11
1212.7582239411
 21
889.3357753135
 31
0.0
  0
ARC
  5
292
330
1F
100
AcDbEntity
  8
0
  6
Continuous
 62
     7
370
    25
100
AcDbCircle
 10
1202.2582239411
 20
889.3357753135
 30
0.0
 40
2.0
100
AcDbArc
 50
0.0000000003
 51
14.4775121862
  0
LINE
  5
293
330
1F
100
AcDbEntity
  8
0
  6
Continuous
 62
     7
370
    25
100
AcDbLine
 10
1212.7582239411
 20
889.3357753135
 30
0.0
 11
1212.7582239411
 21
889.8357753135
 31
0.0
  0
LINE
  5
294
330
1F
100
AcDbEntity
  8
0
  6
Continuous
 62
     7
370
    25
100
AcDbLine
 10
1212.7582239411
 20
877.3357753135
 30
0.0
 11
1212.7582239411
 21
876.8357753135
 31
0.0
  0
LINE
  5
295
330
1F
100
AcDbEntity
  8
0
  6
Continuous
 62
     7
370
    25
100
AcDbLine
 10
542.7582239411
 20
876.8357753135
 30
0.0
 11
542.7582239411
 21
877.3357753135
 31
0.0
  0
ARC
  5
296
330
1F
100
AcDbEntity
  8
0
  6
Continuous
 62
     7
370
    25
100
AcDbCircle
 10
553.2582239411
 20
813.3357753135
 30
0.0
 40
2.000000000000114
100
AcDbArc
 50
179.9999999998
 51
194.4775121859
  0
LINE
  5
297
330
1F
100
AcDbEntity
  8
0
  6
Continuous
 62
     7
370
    25
100
AcDbLine
 10
542.7582239411
 20
813.3357753135
 30
0.0
 11
542.7582239411
 21
812.8357753135
 31
0.0
  0
ARC
  5
298
330
1F
100
AcDbEntity
  8
0
  6
Continuous
 62
     7
370
    25
100
AcDbCircle
 10
956.7582239411
 20
813.3357753135
 30
0.0
 40
3.249999999995961
100
AcDbArc
 50
188.8498830984
 51
351.1501169016
  0
ARC
  5
299
330
1F
100
AcDbEntity
  8
0
  6
Continuous
 62
     7
370
    25
100
AcDbCircle
 10
1182.7582239411
 20
813.3357753135
 30
0.0
 40
3.250000000000168
100
AcDbArc
 50
188.8498830983
 51
351.1501169018
  0
ARC
  5
29A
330
1F
100
AcDbEntity
  8
0
  6
Continuous
 62
     7
370
    25
100
AcDbCircle
 10
1202.2582239411
 20
813.3357753135
 30
0.0
 40
2.000000000000147
100
AcDbArc
 50
194.4775121873
 51
345.5224878127
  0
ARC
  5
29B
330
1F
100
AcDbEntity
  8
0
  6
Continuous
 62
     7
370
    25
100
AcDbCircle
 10
553.2582239411
 20
813.3357753135
 30
0.0
 40
2.000000000000035
100
AcDbArc
 50
194.4775121859
 51
345.5224878142
  0
ARC
  5
29C
330
1F
100
AcDbEntity
  8
0
  6
Continuous
 62
     7
370
    25
100
AcDbCircle
 10
582.7582239411
 20
813.3357753135
 30
0.0
 40
2.000000000000024
100
AcDbArc
 50
194.4775121858
 51
345.5224878144
  0
ARC
  5
29D
330
1F
100
AcDbEntity
  8
0
  6
Continuous
 62
     7
370
    25
100
AcDbCircle
 10
749.7582239411
 20
813.3357753135
 30
0.0
 40
3.249999999995849
100
AcDbArc
 50
188.8498830984
 51
351.1501169015
  0
ARC
  5
29E
330
1F
100
AcDbEntity
  8
0
  6
Continuous
 62
     7
370
    25
100
AcDbCircle
 10
765.7582239411
 20
813.3357753135
 30
0.0
 40
2.999999999999931
100
AcDbArc
 50
189.5940682268
 51
350.4059317733
  0
ARC
  5
29F
330
1F
100
AcDbEntity
  8
0
  6
Continuous
 62
     7
370
    25
100
AcDbCircle
 10
889.7582239411
 20
813.3357753135
 30
0.0
 40
3.000000000000111
100
AcDbArc
 50
189.5940682269
 51
350.4059317731
  0
LINE
  5
2A0
330
1F
100
AcDbEntity
  8
0
  6
Continuous
 62
     7
370
    25
100
AcDbLine
 10
542.7582239411
 20
806.8357753135
 30
0.0
 11
542.7582239411
 21
812.8357753135
 31
0.0
  0
LINE
  5
2A1
330
1F
100
AcDbEntity
  8
0
  6
Continuous
 62
     7
370
    25
100
AcDbLine
 10
1212.7582239411
 20
812.8357753135
 30
0.0
 11
1212.7582239411
 21
806.8357753135
 31
0.0
  0
ARC
  5
2A2
330
1F
100
AcDbEntity
  8
0
  6
Continuous
 62
     7
370
    25
100
AcDbCircle
 10
553.2582239411
 20
813.3357753135
 30
0.0
 40
2.000000000000114
100
AcDbArc
 50
165.5224878138
 51
179.9999999998
  0
LINE
  5
2A3
330
1F
100
AcDbEntity
  8
0
  6
Continuous
 62
     7
370
    25
100
AcDbLine
 10
542.7582239411
 20
813.8357753135
 30
0.0
 11
542.7582239411
 21
813.3357753135
 31
0.0
  0
ARC
  5
2A4
330
1F
100
AcDbEntity
  8
0
  6
Continuous
 62
     7
370
    25
100
AcDbCircle
 10
1202.2582239411
 20
813.3357753135
 30
0.0
 40
2.0
100
AcDbArc
 50
345.5224878127
 51
0.0000000001
  0
LINE
  5
2A5
330
1F
100
AcDbEntity
  8
0
  6
Continuous
 62
     7
370
    25
100
AcDbLine
 10
1212.7582239411
 20
812.8357753135
 30
0.0
 11
1212.7582239411
 21
813.3357753135
 31
0.0
  0
LINE
  5
2A6
330
1F
100
AcDbEntity
  8
0
  6
Continuous
 62
     7
370
    25
100
AcDbLine
 10
1212.7582239411
 20
896.8357753135
 30
0.0
 11
542.7582239411
 21
896.8357753135
 31
0.0
  0
LINE
  5
2A7
330
1F
100
AcDbEntity
  8
0
  6
Continuous
 62
     7
370
    25
100
AcDbLine
 10
1212.7582239411
 20
895.8357753135
 30
0.0
 11
1212.7582239411
 21
896.8357753135
 31
0.0
  0
LINE
  5
2A8
330
1F
100
AcDbEntity
  8
0
  6
Continuous
 62
     7
370
    25
100
AcDbLine
 10
542.7582239411
 20
896.8357753135
 30
0.0
 11
542.7582239411
 21
895.8357753135
 31
0.0
  0
LINE
  5
2A9
330
1F
100
AcDbEntity
  8
0
  6
Continuous
 62
     7
370
    25
100
AcDbLine
 10
542.7582239411
 20
805.8357753135
 30
0.0
 11
1212.7582239411
 21
805.8357753135
 31
0.0
  0
LINE
  5
2AA
330
1F
100
AcDbEntity
  8
0
  6
Continuous
 62
     7
370
    25
100
AcDbLine
 10
542.7582239411
 20
806.8357753135
 30
0.0
 11
542.7582239411
 21
805.8357753135
 31
0.0
  0
LINE
  5
2AB
330
1F
100
AcDbEntity
  8
0
  6
Continuous
 62
     7
370
    25
100
AcDbLine
 10
1212.7582239411
 20
805.8357753135
 30
0.0
 11
1212.7582239411
 21
806.8357753135
 31
0.0
  0
ARC
  5
2AC
330
1F
100
AcDbEntity
  8
0
  6
Continuous
 62
     7
370
    25
100
AcDbCircle
 10
1202.2582239411
 20
889.3357753135
 30
0.0
 40
2.000000000000226
100
AcDbArc
 50
165.5224878124
 51
179.9999999991
  0
ARC
  5
2AD
330
1F
100
AcDbEntity
  8
0
  6
Continuous
 62
     7
370
    25
100
AcDbCircle
 10
1182.7582239411
 20
889.3357753135
 30
0.0
 40
3.250000000000227
100
AcDbArc
 50
0.0000000005
 51
8.8498831004
  0
ARC
  5
2AE
330
1F
100
AcDbEntity
  8
0
  6
Continuous
 62
     7
370
    25
100
AcDbCircle
 10
582.7582239411
 20
889.3357753135
 30
0.0
 40
2.000000000000657
100
AcDbArc
 50
0.0
 51
14.4775121877
  0
ARC
  5
2AF
330
1F
100
AcDbEntity
  8
0
  6
Continuous
 62
     7
370
    25
100
AcDbCircle
 10
749.7582239411
 20
889.3357753135
 30
0.0
 40
3.249999999996303
100
AcDbArc
 50
171.1501169005
 51
180.0
  0
ARC
  5
2B0
330
1F
100
AcDbEntity
  8
0
  6
Continuous
 62
     7
370
    25
100
AcDbCircle
 10
765.7582239411
 20
889.3357753135
 30
0.0
 40
3.000000000000439
100
AcDbArc
 50
0.0000000001
 51
9.594068228
  0
ARC
  5
2B1
330
1F
100
AcDbEntity
  8
0
  6
Continuous
 62
     7
370
    25
100
AcDbCircle
 10
889.7582239411
 20
889.3357753135
 30
0.0
 40
3.000000000000397
100
AcDbArc
 50
170.4059317722
 51
180.0000000001
  0
ARC
  5
2B2
330
1F
100
AcDbEntity
  8
0
  6
Continuous
 62
     7
370
    25
100
AcDbCircle
 10
889.7582239411
 20
889.3357753135
 30
0.0
 40
3.000000000000397
100
AcDbArc
 50
360.0
 51
9.5940682278
  0
ARC
  5
2B3
330
1F
100
AcDbEntity
  8
0
  6
Continuous
 62
     7
370
    25
100
AcDbCircle
 10
956.7582239411
 20
889.3357753135
 30
0.0
 40
3.249999999996232
100
AcDbArc
 50
171.1501169007
 51
180.0000000001
  0
ARC
  5
2B4
330
1F
100
AcDbEntity
  8
0
  6
Continuous
 62
     7
370
    25
100
AcDbCircle
 10
1182.7582239411
 20
889.3357753135
 30
0.0
 40
3.250000000000088
100
AcDbArc
 50
171.1501169005
 51
179.9999999999
  0
ARC
  5
2B5
330
1F
100
AcDbEntity
  8
0
  6
Continuous
 62
     7
370
    25
100
AcDbCircle
 10
956.7582239411
 20
889.3357753135
 30
0.0
 40
3.249999999996232
100
AcDbArc
 50
359.9999999999
 51
8.8498830993
  0
ARC
  5
2B6
330
1F
100
AcDbEntity
  8
0
  6
Continuous
 62
     7
370
    25
100
AcDbCircle
 10
765.7582239411
 20
889.3357753135
 30
0.0
 40
3.000000000000114
100
AcDbArc
 50
170.4059317719
 51
179.9999999999
  0
ARC
  5
2B7
330
1F
100
AcDbEntity
  8
0
  6
Continuous
 62
     7
370
    25
100
AcDbCircle
 10
749.7582239411
 20
889.3357753135
 30
0.0
 40
3.249999999995794
100
AcDbArc
 50
359.9999999999
 51
8.8498830994
  0
ARC
  5
2B8
330
1F
100
AcDbEntity
  8
0
  6
Continuous
 62
     7
370
    25
100
AcDbCircle
 10
553.2582239411
 20
889.3357753135
 30
0.0
 40
1.999999999999982
100
AcDbArc
 50
359.9999999999
 51
14.4775121876
  0
ARC
  5
2B9
330
1F
100
AcDbEntity
  8
0
  6
Continuous
 62
     7
370
    25
100
AcDbCircle
 10
582.7582239411
 20
889.3357753135
 30
0.0
 40
2.0
100
AcDbArc
 50
165.5224878124
 51
180.0000000001
  0
ARC
  5
2BA
330
1F
100
AcDbEntity
  8
0
  6
Continuous
 62
     7
370
    25
100
AcDbCircle
 10
1182.7582239411
 20
813.3357753135
 30
0.0
 40
3.250000000000273
100
AcDbArc
 50
351.1501169017
 51
0.0000000002
  0
ARC
  5
2BB
330
1F
100
AcDbEntity
  8
0
  6
Continuous
 62
     7
370
    25
100
AcDbCircle
 10
1202.2582239411
 20
813.3357753135
 30
0.0
 40
2.000000000000147
100
AcDbArc
 50
179.9999999997
 51
194.4775121873
  0
ARC
  5
2BC
330
1F
100
AcDbEntity
  8
0
  6
Continuous
 62
     7
370
    25
100
AcDbCircle
 10
889.7582239411
 20
813.3357753135
 30
0.0
 40
2.999999999999961
100
AcDbArc
 50
0.0
 51
9.5940682269
  0
ARC
  5
2BD
330
1F
100
AcDbEntity
  8
0
  6
Continuous
 62
     7
370
    25
100
AcDbCircle
 10
956.7582239411
 20
813.3357753135
 30
0.0
 40
3.249999999995907
100
AcDbArc
 50
171.1501169015
 51
180.0
  0
ARC
  5
2BE
330
1F
100
AcDbEntity
  8
0
  6
Continuous
 62
     7
370
    25
100
AcDbCircle
 10
582.7582239411
 20
813.3357753135
 30
0.0
 40
1.999999999999993
100
AcDbArc
 50
0.0000000001
 51
14.4775121861
  0
ARC
  5
2BF
330
1F
100
AcDbEntity
  8
0
  6
Continuous
 62
     7
370
    25
100
AcDbCircle
 10
749.7582239411
 20
813.3357753135
 30
0.0
 40
3.24999999999621
100
AcDbArc
 50
171.1501169016
 51
180.0000000001
  0
ARC
  5
2C0
330
1F
100
AcDbEntity
  8
0
  6
Continuous
 62
     7
370
    25
100
AcDbCircle
 10
1182.7582239411
 20
813.3357753135
 30
0.0
 40
3.25
100
AcDbArc
 50
171.1501169013
 51
179.9999999998
  0
ARC
  5
2C1
330
1F
100
AcDbEntity
  8
0
  6
Continuous
 62
     7
370
    25
100
AcDbCircle
 10
956.7582239411
 20
813.3357753135
 30
0.0
 40
3.249999999996021
100
AcDbArc
 50
360.0
 51
8.8498830985
  0
ARC
  5
2C2
330
1F
100
AcDbEntity
  8
0
  6
Continuous
 62
     7
370
    25
100
AcDbCircle
 10
749.7582239411
 20
813.3357753135
 30
0.0
 40
3.249999999996098
100
AcDbArc
 50
359.9999999999
 51
8.8498830984
  0
ARC
  5
2C3
330
1F
100
AcDbEntity
  8
0
  6
Continuous
 62
     7
370
    25
100
AcDbCircle
 10
765.7582239411
 20
813.3357753135
 30
0.0
 40
3.000000000000546
100
AcDbArc
 50
170.4059317729
 51
180.0
  0
ARC
  5
2C4
330
1F
100
AcDbEntity
  8
0
  6
Continuous
 62
     7
370
    25
100
AcDbCircle
 10
889.7582239411
 20
813.3357753135
 30
0.0
 40
3.000000000000114
100
AcDbArc
 50
170.4059317731
 51
180.0
  0
ARC
  5
2C5
330
1F
100
AcDbEntity
  8
0
  6
Continuous
 62
     7
370
    25
100
AcDbCircle
 10
765.7582239411
 20
813.3357753135
 30
0.0
 40
3.000000000000053
100
AcDbArc
 50
0.0000000001
 51
9.5940682272
  0
ARC
  5
2C6
330
1F
100
AcDbEntity
  8
0
  6
Continuous
 62
     7
370
    25
100
AcDbCircle
 10
1182.7582239411
 20
813.3357753135
 30
0.0
 40
3.250000000000227
100
AcDbArc
 50
0.0000000002
 51
8.8498830987
  0
ARC
  5
2C7
330
1F
100
AcDbEntity
  8
0
  6
Continuous
 62
     7
370
    25
100
AcDbCircle
 10
1202.2582239411
 20
813.3357753135
 30
0.0
 40
2.000000000000072
100
AcDbArc
 50
165.5224878136
 51
179.9999999997
  0
LINE
  5
2C8
330
1F
100
AcDbEntity
  8
0
  6
Continuous
 62
     7
370
    25
100
AcDbLine
 10
542.7582239411
 20
823.8357753135
 30
0.0
 11
542.7582239411
 21
823.5357753135
 31
0.0
  0
LINE
  5
2C9
330
1F
100
AcDbEntity
  8
0
  6
Continuous
 62
     7
370
    25
100
AcDbLine
 10
1212.7582239411
 20
823.5357753135
 30
0.0
 11
1212.7582239411
 21
823.8357753135
 31
0.0
  0
ARC
  5
2CA
330
1F
100
AcDbEntity
  8
0
  6
Continuous
 62
     7
370
    25
100
AcDbCircle
 10
889.7582239411
 20
889.3357753135
 30
0.0
 40
2.999999999999961
100
AcDbArc
 50
350.4059317731
 51
360.0
  0
ARC
  5
2CB
330
1F
100
AcDbEntity
  8
0
  6
Continuous
 62
     7
370
    25
100
AcDbCircle
 10
956.7582239411
 20
889.3357753135
 30
0.0
 40
3.249999999996136
100
AcDbArc
 50
180.0000000001
 51
188.8498830985
  0
ARC
  5
2CC
330
1F
100
AcDbEntity
  8
0
  6
Continuous
 62
     7
370
    25
100
AcDbCircle
 10
765.7582239411
 20
889.3357753135
 30
0.0
 40
3.000000000000114
100
AcDbArc
 50
179.9999999999
 51
189.5940682267
  0
ARC
  5
2CD
330
1F
100
AcDbEntity
  8
0
  6
Continuous
 62
     7
370
    25
100
AcDbCircle
 10
749.7582239411
 20
889.3357753135
 30
0.0
 40
3.249999999996023
100
AcDbArc
 50
351.1501169015
 51
359.9999999999
  0
ARC
  5
2CE
330
1F
100
AcDbEntity
  8
0
  6
Continuous
 62
     7
370
    25
100
AcDbCircle
 10
765.7582239411
 20
889.3357753135
 30
0.0
 40
3.000000000000031
100
AcDbArc
 50
350.4059317733
 51
0.0000000001
  0
ARC
  5
2CF
330
1F
100
AcDbEntity
  8
0
  6
Continuous
 62
     7
370
    25
100
AcDbCircle
 10
889.7582239411
 20
889.3357753135
 30
0.0
 40
3.000000000000114
100
AcDbArc
 50
180.0000000001
 51
189.5940682269
  0
ARC
  5
2D0
330
1F
100
AcDbEntity
  8
0
  6
Continuous
 62
     7
370
    25
100
AcDbCircle
 10
582.7582239411
 20
889.3357753135
 30
0.0
 40
2.000000000000035
100
AcDbArc
 50
345.5224878141
 51
0.0
  0
ARC
  5
2D1
330
1F
100
AcDbEntity
  8
0
  6
Continuous
 62
     7
370
    25
100
AcDbCircle
 10
749.7582239411
 20
889.3357753135
 30
0.0
 40
3.249999999996023
100
AcDbArc
 50
180.0
 51
188.8498830985
  0
ARC
  5
2D2
330
1F
100
AcDbEntity
  8
0
  6
Continuous
 62
     7
370
    25
100
AcDbCircle
 10
1182.7582239411
 20
889.3357753135
 30
0.0
 40
3.250000000000031
100
AcDbArc
 50
179.9999999999
 51
188.8498830983
  0
ARC
  5
2D3
330
1F
100
AcDbEntity
  8
0
  6
Continuous
 62
     7
370
    25
100
AcDbCircle
 10
956.7582239411
 20
889.3357753135
 30
0.0
 40
3.249999999996136
100
AcDbArc
 50
351.1501169015
 51
359.9999999999
  0
ARC
  5
2D4
330
1F
100
AcDbEntity
  8
0
  6
Continuous
 62
     7
370
    25
100
AcDbCircle
 10
1202.2582239411
 20
889.3357753135
 30
0.0
 40
2.00000000000009
100
AcDbArc
 50
179.9999999991
 51
194.4775121856
  0
ARC
  5
2D5
330
1F
100
AcDbEntity
  8
0
  6
Continuous
 62
     7
370
    25
100
AcDbCircle
 10
1182.7582239411
 20
889.3357753135
 30
0.0
 40
3.25000000000048
100
AcDbArc
 50
351.1501169017
 51
0.0000000005
  0
ARC
  5
2D6
330
1F
100
AcDbEntity
  8
0
  6
Continuous
 62
     7
370
    25
100
AcDbCircle
 10
553.2582239411
 20
889.3357753135
 30
0.0
 40
1.999999999999886
100
AcDbArc
 50
345.5224878139
 51
359.9999999999
  0
ARC
  5
2D7
330
1F
100
AcDbEntity
  8
0
  6
Continuous
 62
     7
370
    25
100
AcDbCircle
 10
582.7582239411
 20
889.3357753135
 30
0.0
 40
2.0
100
AcDbArc
 50
180.0000000001
 51
194.4775121861
  0
ARC
  5
2D8
330
1F
100
AcDbEntity
  8
0
  6
Continuous
 62
     7
370
    25
100
AcDbCircle
 10
582.7582239411
 20
813.3357753135
 30
0.0
 40
2.000000000000114
100
AcDbArc
 50
165.5224878138
 51
179.9999999998
  0
ARC
  5
2D9
330
1F
100
AcDbEntity
  8
0
  6
Continuous
 62
     7
370
    25
100
AcDbCircle
 10
553.2582239411
 20
813.3357753135
 30
0.0
 40
2.000000000000004
100
AcDbArc
 50
0.0000000002
 51
14.4775121862
  0
ARC
  5
2DA
330
1F
100
AcDbEntity
  8
0
  6
Continuous
 62
     7
370
    25
100
AcDbCircle
 10
582.7582239411
 20
813.3357753135
 30
0.0
 40
2.000000000000114
100
AcDbArc
 50
179.9999999998
 51
194.4775121858
  0
ARC
  5
2DB
330
1F
100
AcDbEntity
  8
0
  6
Continuous
 62
     7
370
    25
100
AcDbCircle
 10
553.2582239411
 20
813.3357753135
 30
0.0
 40
1.999999999999886
100
AcDbArc
 50
345.5224878142
 51
0.0000000002
  0
ARC
  5
2DC
330
1F
100
AcDbEntity
  8
0
  6
Continuous
 62
     7
370
    25
100
AcDbCircle
 10
582.7582239411
 20
813.3357753135
 30
0.0
 40
1.999999999999927
100
AcDbArc
 50
345.5224878144
 51
0.0000000001
  0
ARC
  5
2DD
330
1F
100
AcDbEntity
  8
0
  6
Continuous
 62
     7
370
    25
100
AcDbCircle
 10
749.7582239411
 20
813.3357753135
 30
0.0
 40
3.249999999995953
100
AcDbArc
 50
180.0000000001
 51
188.8498830985
  0
ARC
  5
2DE
330
1F
100
AcDbEntity
  8
0
  6
Continuous
 62
     7
370
    25
100
AcDbCircle
 10
889.7582239411
 20
813.3357753135
 30
0.0
 40
3.000000000000114
100
AcDbArc
 50
180.0
 51
189.5940682269
  0
ARC
  5
2DF
330
1F
100
AcDbEntity
  8
0
  6
Continuous
 62
     7
370
    25
100
AcDbCircle
 10
765.7582239411
 20
813.3357753135
 30
0.0
 40
2.999999999999886
100
AcDbArc
 50
350.4059317733
 51
0.0000000001
  0
ARC
  5
2E0
330
1F
100
AcDbEntity
  8
0
  6
Continuous
 62
     7
370
    25
100
AcDbCircle
 10
1182.7582239411
 20
813.3357753135
 30
0.0
 40
3.250000000000048
100
AcDbArc
 50
179.9999999998
 51
188.8498830983
  0
ARC
  5
2E1
330
1F
100
AcDbEntity
  8
0
  6
Continuous
 62
     7
370
    25
100
AcDbCircle
 10
956.7582239411
 20
813.3357753135
 30
0.0
 40
3.249999999996065
100
AcDbArc
 50
351.1501169016
 51
360.0
  0
ARC
  5
2E2
330
1F
100
AcDbEntity
  8
0
  6
Continuous
 62
     7
370
    25
100
AcDbCircle
 10
889.7582239411
 20
813.3357753135
 30
0.0
 40
2.99999999999998
100
AcDbArc
 50
350.4059317731
 51
0.0
  0
ARC
  5
2E3
330
1F
100
AcDbEntity
  8
0
  6
Continuous
 62
     7
370
    25
100
AcDbCircle
 10
956.7582239411
 20
813.3357753135
 30
0.0
 40
3.249999999996065
100
AcDbArc
 50
180.0
 51
188.8498830985
  0
ARC
  5
2E4
330
1F
100
AcDbEntity
  8
0
  6
Continuous
 62
     7
370
    25
100
AcDbCircle
 10
749.7582239411
 20
813.3357753135
 30
0.0
 40
3.249999999995954
100
AcDbArc
 50
351.1501169015
 51
359.9999999999
  0
ARC
  5
2E5
330
1F
100
AcDbEntity
  8
0
  6
Continuous
 62
     7
370
    25
100
AcDbCircle
 10
765.7582239411
 20
813.3357753135
 30
0.0
 40
3.000000000000114
100
AcDbArc
 50
180.0
 51
189.5940682268
  0
ARC
  5
2E6
330
1F
100
AcDbEntity
  8
0
  6
Continuous
 62
     7
370
    25
100
AcDbCircle
 10
565.7582239411
 20
869.8357753135
 30
0.0
 40
5.000000000004775
100
AcDbArc
 50
0.0000000002
 51
90.0
  0
LINE
  5
2E7
330
1F
100
AcDbEntity
  8
0
  6
Continuous
 62
     7
370
    25
100
AcDbLine
 10
542.7582239411
 20
874.8357753135
 30
0.0
 11
565.7582239411
 21
874.8357753135
 31
0.0
  0
ARC
  5
2E8
330
1F
100
AcDbEntity
  8
0
  6
Continuous
 62
     7
370
    25
100
AcDbCircle
 10
1189.7582239411
 20
869.8357753135
 30
0.0
 40
5.000000000000227
100
AcDbArc
 50
90.0
 51
180.0000000001
  0
LINE
  5
2E9
330
1F
100
AcDbEntity
  8
0
  6
Continuous
 62
     7
370
    25
100
AcDbLine
 10
1184.7582239411
 20
869.8357753135
 30
0.0
 11
1184.7582239411
 21
864.0319277362
 31
0.0
  0
LINE
  5
2EA
330
1F
100
AcDbEntity
  8
0
  6
Continuous
 62
     7
370
    25
100
AcDbLine
 10
570.7582239411
 20
864.0319277362
 30
0.0
 11
570.7582239411
 21
869.8357753135
 31
0.0
  0
LINE
  5
2EB
330
1F
100
AcDbEntity
  8
0
  6
Continuous
 62
     7
370
    25
100
AcDbLine
 10
1189.7582239411
 20
874.8357753135
 30
0.0
 11
1212.7582239411
 21
874.8357753135
 31
0.0
  0
LINE
  5
2EC
330
1F
100
AcDbEntity
  8
0
  6
Continuous
 62
     7
370
    25
100
AcDbLine
 10
1212.7582239411
 20
874.8357753135
 30
0.0
 11
1212.7582239411
 21
876.8357753135
 31
0.0
  0
LINE
  5
2ED
330
1F
100
AcDbEntity
  8
0
  6
Continuous
 62
     7
370
    25
100
AcDbLine
 10
542.7582239411
 20
876.8357753135
 30
0.0
 11
542.7582239411
 21
874.8357753135
 31
0.0
  0
LINE
  5
2EE
330
1F
100
AcDbEntity
  8
0
  6
Continuous
 62
     7
370
    25
100
AcDbLine
 10
570.7582239411
 20
859.7018007173
 30
0.0
 11
570.7582239411
 21
864.0319277362
 31
0.0
  0
LINE
  5
2EF
330
1F
100
AcDbEntity
  8
0
  6
Continuous
 62
     7
370
    25
100
AcDbLine
 10
1184.7582239411
 20
864.0319277362
 30
0.0
 11
1184.7582239411
 21
859.7018007173
 31
0.0
  0
LINE
  5
2F0
330
1F
100
AcDbEntity
  8
0
  6
Continuous
 62
     7
370
    25
100
AcDbLine
 10
570.7582239411
 20
857.2480620733
 30
0.0
 11
570.7582239411
 21
859.7018007173
 31
0.0
  0
LINE
  5
2F1
330
1F
100
AcDbEntity
  8
0
  6
Continuous
 62
     7
370
    25
100
AcDbLine
 10
1184.7582239411
 20
859.7018007173
 30
0.0
 11
1184.7582239411
 21
857.2480620733
 31
0.0
  0
LINE
  5
2F2
330
1F
100
AcDbEntity
  8
0
  6
Continuous
 62
     7
370
    25
100
AcDbLine
 10
570.7582239411
 20
855.9490239676
 30
0.0
 11
570.7582239411
 21
857.2480620733
 31
0.0
  0
LINE
  5
2F3
330
1F
100
AcDbEntity
  8
0
  6
Continuous
 62
     7
370
    25
100
AcDbLine
 10
1184.7582239411
 20
857.2480620733
 30
0.0
 11
1184.7582239411
 21
855.9490239676
 31
0.0
  0
LINE
  5
2F4
330
1F
100
AcDbEntity
  8
0
  6
Continuous
 62
     7
370
    25
100
AcDbLine
 10
542.7582239411
 20
827.8357753135
 30
0.0
 11
565.7582239411
 21
827.8357753135
 31
0.0
  0
ARC
  5
2F5
330
1F
100
AcDbEntity
  8
0
  6
Continuous
 62
     7
370
    25
100
AcDbCircle
 10
565.7582239411
 20
832.8357753135
 30
0.0
 40
5.000000000000114
100
AcDbArc
 50
270.0
 51
359.9999999999
  0
ARC
  5
2F6
330
1F
100
AcDbEntity
  8
0
  6
Continuous
 62
     7
370
    25
100
AcDbCircle
 10
1189.7582239411
 20
832.8357753135
 30
0.0
 40
5.000000000011028
100
AcDbArc
 50
180.0000000003
 51
270.0
  0
LINE
  5
2F7
330
1F
100
AcDbEntity
  8
0
  6
Continuous
 62
     7
370
    25
100
AcDbLine
 10
1189.7582239411
 20
827.8357753135
 30
0.0
 11
1212.7582239411
 21
827.8357753135
 31
0.0
  0
LINE
  5
2F8
330
1F
100
AcDbEntity
  8
0
  6
Continuous
 62
     7
370
    25
100
AcDbLine
 10
570.7582239411
 20
832.8357753135
 30
0.0
 11
570.7582239411
 21
855.9490239676
 31
0.0
  0
LINE
  5
2F9
330
1F
100
AcDbEntity
  8
0
  6
Continuous
 62
     7
370
    25
100
AcDbLine
 10
1184.7582239411
 20
855.9490239676
 30
0.0
 11
1184.7582239411
 21
832.8357753135
 31
0.0
  0
LINE
  5
2FA
330
1F
100
AcDbEntity
  8
0
  6
Continuous
 62
     7
370
    25
100
AcDbLine
 10
542.7582239411
 20
823.8357753135
 30
0.0
 11
542.7582239411
 21
827.8357753135
 31
0.0
  0
LINE
  5
2FB
330
1F
100
AcDbEntity
  8
0
  6
Continuous
 62
     7
370
    25
100
AcDbLine
 10
1212.7582239411
 20
827.8357753135
 30
0.0
 11
1212.7582239411
 21
823.8357753135
 31
0.0
  0
LINE
  5
2FC
330
1F
100
AcDbEntity
  8
0
  6
Continuous
 62
     7
370
    25
100
AcDbLine
 10
542.4625018834
 20
587.3357753139
 30
0.0
 11
542.4625018834
 21
547.3357753139
 31
0.0
  0
LINE
  5
2FD
330
1F
100
AcDbEntity
  8
0
  6
Continuous
 62
     7
370
    25
100
AcDbLine
 10
546.505951026
 20
587.3357753139
 30
0.0
 11
546.505951026
 21
547.3357753139
 31
0.0
  0
LINE
  5
2FE
330
1F
100
AcDbEntity
  8
0
  6
Continuous
 62
     7
370
    25
100
AcDbLine
 10
546.505951026
 20
547.3357753139
 30
0.0
 11
542.7502238357
 21
547.3357753139
 31
0.0
  0
LINE
  5
2FF
330
1F
100
AcDbEntity
  8
0
  6
Continuous
 62
     7
370
    25
100
AcDbLine
 10
546.505951026
 20
587.3357753139
 30
0.0
 11
542.7502238357
 21
587.3357753139
 31
0.0
  0
LINE
  5
300
330
1F
100
AcDbEntity
  8
0
  6
Continuous
 62
     7
370
    25
100
AcDbLine
 10
564.7582239411
 20
587.3357753139
 30
0.0
 11
564.7582239411
 21
547.3357753139
 31
0.0
  0
LINE
  5
301
330
1F
100
AcDbEntity
  8
0
  6
Continuous
 62
     7
370
    25
100
AcDbLine
 10
564.7582239411
 20
547.3357753139
 30
0.0
 11
546.505951026
 21
547.3357753139
 31
0.0
  0
LINE
  5
302
330
1F
100
AcDbEntity
  8
0
  6
Continuous
 62
     7
370
    25
100
AcDbLine
 10
564.7582239411
 20
587.3357753139
 30
0.0
 11
546.505951026
 21
587.3357753139
 31
0.0
  0
LINE
  5
303
330
1F
100
AcDbEntity
  8
0
  6
Continuous
 62
     7
370
    25
100
AcDbLine
 10
1527.7582239411
 20
447.3357753139
 30
0.0
 11
537.7582239411
 21
447.3357753139
 31
0.0
  0
LINE
  5
304
330
1F
100
AcDbEntity
  8
0
  6
Continuous
 62
     7
370
    25
100
AcDbLine
 10
537.7582239411
 20
447.3357753139
 30
0.0
 11
537.7582239411
 21
517.3357753139
 31
0.0
  0
LINE
  5
305
330
1F
100
AcDbEntity
  8
0
  6
Continuous
 62
     7
370
    25
100
AcDbLine
 10
537.7582239411
 20
617.3357753139
 30
0.0
 11
537.7582239411
 21
767.3357753139
 31
0.0
  0
LINE
  5
306
330
1F
100
AcDbEntity
  8
0
  6
Continuous
 62
     7
370
    25
100
AcDbLine
 10
537.7582239411
 20
767.3357753139
 30
0.0
 11
1527.7582239411
 21
767.3357753139
 31
0.0
  0
LINE
  5
307
330
1F
100
AcDbEntity
  8
0
  6
Continuous
 62
     7
370
    25
100
AcDbLine
 10
1527.7582239411
 20
767.3357753139
 30
0.0
 11
1527.7582239411
 21
447.3357753139
 31
0.0
  0
CIRCLE
  5
308
330
1F
100
AcDbEntity
  8
0
  6
Continuous
 62
     7
370
    25
100
AcDbCircle
 10
1254.7582239411
 20
732.0857753139
 30
0.0
 40
3.25
  0
CIRCLE
  5
309
330
1F
100
AcDbEntity
  8
0
  6
Continuous
 62
     7
370
    25
100
AcDbCircle
 10
621.7582239411
 20
732.0857753139
 30
0.0
 40
3.249999999999886
  0
LINE
  5
30A
330
1F
100
AcDbEntity
  8
0
  6
Continuous
 62
     7
370
    25
100
AcDbLine
 10
522.7736682655
 20
547.3357753139
 30
0.0
 11
522.7736682655
 21
517.3357753139
 31
0.0
  0
LINE
  5
30B
330
1F
100
AcDbEntity
  8
0
  6
Continuous
 62
     7
370
    25
100
AcDbLine
 10
542.7502238357
 20
547.3357753139
 30
0.0
 11
522.7736682655
 21
547.3357753139
 31
0.0
  0
LINE
  5
30C
330
1F
100
AcDbEntity
  8
0
  6
Continuous
 62
     7
370
    25
100
AcDbLine
 10
544.7882239411
 20
517.3357753139
 30
0.0
 11
522.7736682655
 21
517.3357753139
 31
0.0
  0
LINE
  5
30D
330
1F
100
AcDbEntity
  8
0
  6
Continuous
 62
     7
370
    25
100
AcDbLine
 10
522.7736682655
 20
617.3357753139
 30
0.0
 11
522.7736682655
 21
587.3357753139
 31
0.0
  0
LINE
  5
30E
330
1F
100
AcDbEntity
  8
0
  6
Continuous
 62
     7
370
    25
100
AcDbLine
 10
542.7502238357
 20
587.3357753139
 30
0.0
 11
522.7736682655
 21
587.3357753139
 31
0.0
  0
LINE
  5
30F
330
1F
100
AcDbEntity
  8
0
  6
Continuous
 62
     7
370
    25
100
AcDbLine
 10
544.7882239411
 20
617.3357753139
 30
0.0
 11
522.7736682655
 21
617.3357753139
 31
0.0
  0
LINE
  5
310
330
1F
100
AcDbEntity
  8
0
  6
Continuous
 62
     7
370
    25
100
AcDbLine
 10
519.0082239411
 20
547.3357753139
 30
0.0
 11
519.0082239411
 21
517.3357753139
 31
0.0
  0
LINE
  5
311
330
1F
100
AcDbEntity
  8
0
  6
Continuous
 62
     7
370
    25
100
AcDbLine
 10
522.7736682655
 20
517.3357753139
 30
0.0
 11
519.0082239411
 21
517.3357753139
 31
0.0
  0
LINE
  5
312
330
1F
100
AcDbEntity
  8
0
  6
Continuous
 62
     7
370
    25
100
AcDbLine
 10
522.7736682655
 20
547.3357753139
 30
0.0
 11
519.0082239411
 21
547.3357753139
 31
0.0
  0
LINE
  5
313
330
1F
100
AcDbEntity
  8
0
  6
Continuous
 62
     7
370
    25
100
AcDbLine
 10
519.0082239411
 20
617.3357753139
 30
0.0
 11
519.0082239411
 21
587.3357753139
 31
0.0
  0
LINE
  5
314
330
1F
100
AcDbEntity
  8
0
  6
Continuous
 62
     7
370
    25
100
AcDbLine
 10
522.7736682655
 20
587.3357753139
 30
0.0
 11
519.0082239411
 21
587.3357753139
 31
0.0
  0
LINE
  5
315
330
1F
100
AcDbEntity
  8
0
  6
Continuous
 62
     7
370
    25
100
AcDbLine
 10
522.7736682655
 20
617.3357753139
 30
0.0
 11
519.0082239411
 21
617.3357753139
 31
0.0
  0
LINE
  5
316
330
1F
100
AcDbEntity
  8
0
  6
Continuous
 62
     7
370
    25
100
AcDbLine
 10
500.7582239411
 20
547.3357753139
 30
0.0
 11
500.7582239411
 21
517.3357753139
 31
0.0
  0
LINE
  5
317
330
1F
100
AcDbEntity
  8
0
  6
Continuous
 62
     7
370
    25
100
AcDbLine
 10
519.0082239411
 20
517.3357753139
 30
0.0
 11
500.7582239411
 21
517.3357753139
 31
0.0
  0
LINE
  5
318
330
1F
100
AcDbEntity
  8
0
  6
Continuous
 62
     7
370
    25
100
AcDbLine
 10
519.0082239411
 20
547.3357753139
 30
0.0
 11
500.7582239411
 21
547.3357753139
 31
0.0
  0
LINE
  5
319
330
1F
100
AcDbEntity
  8
0
  6
Continuous
 62
     7
370
    25
100
AcDbLine
 10
500.7582239411
 20
617.3357753139
 30
0.0
 11
500.7582239411
 21
587.3357753139
 31
0.0
  0
LINE
  5
31A
330
1F
100
AcDbEntity
  8
0
  6
Continuous
 62
     7
370
    25
100
AcDbLine
 10
519.0082239411
 20
587.3357753139
 30
0.0
 11
500.7582239411
 21
587.3357753139
 31
0.0
  0
LINE
  5
31B
330
1F
100
AcDbEntity
  8
0
  6
Continuous
 62
     7
370
    25
100
AcDbLine
 10
519.0082239411
 20
617.3357753139
 30
0.0
 11
500.7582239411
 21
617.3357753139
 31
0.0
  0
LINE
  5
31C
330
1F
100
AcDbEntity
  8
0
  6
Continuous
 62
     7
370
    25
100
AcDbLine
 10
532.7582239411
 20
772.3357753139
 30
0.0
 11
532.7582239411
 21
617.3357753139
 31
0.0
  0
LINE
  5
31D
330
1F
100
AcDbEntity
  8
0
  6
Continuous
 62
     7
370
    25
100
AcDbLine
 10
532.7582239411
 20
517.3357753139
 30
0.0
 11
532.7582239411
 21
447.3357753139
 31
0.0
  0
LINE
  5
31E
330
1F
100
AcDbEntity
  8
0
  6
Continuous
 62
     7
370
    25
100
AcDbLine
 10
1532.7582239411
 20
447.3357753139
 30
0.0
 11
1632.7582239411
 21
447.3357753139
 31
0.0
  0
CIRCLE
  5
31F
330
1F
100
AcDbEntity
  8
0
  6
Continuous
 62
     7
370
    25
100
AcDbCircle
 10
556.7582239411
 20
863.3357753139
 30
0.0
 40
10.0
  0
LINE
  5
320
330
1F
100
AcDbEntity
  8
0
  6
Continuous
 62
     7
370
    25
100
AcDbLine
 10
1532.7582239411
 20
447.3357753139
 30
0.0
 11
1532.7582239411
 21
772.3357753139
 31
0.0
  0
LINE
  5
321
330
1F
100
AcDbEntity
  8
0
  6
Continuous
 62
     7
370
    25
100
AcDbLine
 10
1532.7582239411
 20
772.3357753139
 30
0.0
 11
532.7582239411
 21
772.3357753139
 31
0.0
  0
LINE
  5
322
330
1F
100
AcDbEntity
  8
0
  6
Continuous
 62
     7
370
    25
100
AcDbLine
 10
1632.7582239411
 20
947.3357753139
 30
0.0
 11
432.7582239411
 21
947.3357753139
 31
0.0
  0
LINE
  5
323
330
1F
100
AcDbEntity
  8
0
  6
Continuous
 62
     7
370
    25
100
AcDbLine
 10
1632.7582239411
 20
447.3357753139
 30
0.0
 11
1632.7582239411
 21
947.3357753139
 31
0.0
  0
CIRCLE
  5
324
330
1F
100
AcDbEntity
  8
0
  6
Continuous
 62
     7
370
    25
100
AcDbCircle
 10
1198.7582239411
 20
840.3357753139
 30
0.0
 40
10.00000000000023
  0
LINE
  5
325
330
1F
100
AcDbEntity
  8
0
  6
Continuous
 62
     7
370
    25
100
AcDbLine
 10
432.7582239411
 20
947.3357753139
 30
0.0
 11
432.7582239411
 21
447.3357753139
 31
0.0
  0
LINE
  5
326
330
1F
100
AcDbEntity
  8
0
  6
Continuous
 62
     7
370
    25
100
AcDbLine
 10
432.7582239411
 20
447.3357753139
 30
0.0
 11
532.7582239411
 21
447.3357753139
 31
0.0
  0
CIRCLE
  5
327
330
1F
100
AcDbEntity
  8
0
  6
Continuous
 62
     7
370
    25
100
AcDbCircle
 10
556.7582239411
 20
840.3357753139
 30
0.0
 40
10.0
  0
CIRCLE
  5
328
330
1F
100
AcDbEntity
  8
0
  6
Continuous
 62
     7
370
    25
100
AcDbCircle
 10
1198.7582239411
 20
863.3357753139
 30
0.0
 40
10.00000000000023
  0
LINE
  5
329
330
1F
100
AcDbEntity
  8
0
  6
Continuous
 62
     7
370
    25
100
AcDbLine
 10
1527.7582239411
 20
447.3357753139
 30
0.0
 11
1532.7582239411
 21
447.3357753139
 31
0.0
  0
LINE
  5
32A
330
1F
100
AcDbEntity
  8
0
  6
Continuous
 62
     7
370
    25
100
AcDbLine
 10
532.7582239411
 20
447.3357753139
 30
0.0
 11
537.7582239411
 21
447.3357753139
 31
0.0
  0
DIMENSION
  5
32B
330
1F
100
AcDbEntity
  8
FORMAT
100
AcDbDimension
  2
_D_5
 10
1255.6099599885
 20
896.8357753135
 30
0.0
 11
1255.6099599885
 21
851.3357753135
 31
0.0
 70
   160
  1
<>
 71
     2
 42
-1.0
  3
SLDDIMSTYLE0
100
AcDbAlignedDimension
 13
1212.7582239411
 23
805.8357753135
 33
0.0
 14
1212.7582239411
 24
896.8357753135
 34
0.0
 50
90.0
100
AcDbRotatedDimension
  0
DIMENSION
  5
335
330
1F
100
AcDbEntity
  8
FORMAT
100
AcDbDimension
  2
_D_6
 10
621.7582239411
 20
601.9275080585
 30
0.0
 11
577.2582239411
 21
601.9275080585
 31
0.0
 70
   160
  1
<>
 71
     2
 42
-1.0
  3
SLDDIMSTYLE0
100
AcDbAlignedDimension
 13
532.7582239411
 23
616.3357753139
 33
0.0
 14
621.7582239411
 24
726.3357753139
 34
0.0
100
AcDbRotatedDimension
  0
DIMENSION
  5
33E
330
1F
100
AcDbEntity
  8
FORMAT
100
AcDbDimension
  2
_D_7
 10
1254.7582239411
 20
601.9275080585
 30
0.0
 11
938.2582239411
 21
601.9275080585
 31
0.0
 70
   160
  1
<>
 71
     2
 42
-1.0
  3
SLDDIMSTYLE0
100
AcDbAlignedDimension
 13
621.7582239411
 23
726.3357753139
 33
0.0
 14
1254.7582239411
 24
726.3357753139
 34
0.0
100
AcDbRotatedDimension
  0
DIMENSION
  5
348
330
1F
100
AcDbEntity
  8
FORMAT
100
AcDbDimension
  2
_D_8
 10
1317.9281760487
 20
767.3357753139
 30
0.0
 11
1317.9281760487
 21
681.6211444336
 31
0.0
 70
   160
  1
<>
 71
     2
 42
-1.0
  3
SLDDIMSTYLE2
100
AcDbAlignedDimension
 13
1260.5082239411
 23
732.0857753139
 33
0.0
 14
1527.7582239411
 24
767.3357753139
 34
0.0
 50
90.0
100
AcDbRotatedDimension
  0
DIMENSION
  5
354
330
1F
100
AcDbEntity
  8
FORMAT
100
AcDbDimension
  2
_D_9
 10
732.2838726776
 20
813.3357753135
 30
0.0
 11
732.2838726776
 21
718.0134796961
 31
0.0
 70
   160
  1
<>
 71
     2
 42
-1.0
  3
SLDDIMSTYLE1
100
AcDbAlignedDimension
 13
537.7582239411
 23
767.3357753139
 33
0.0
 14
744.0082239411
 24
813.3357753135
 34
0.0
 50
90.0
100
AcDbRotatedDimension
  0
DIMENSION
  5
35F
330
1F
100
AcDbEntity
  8
FORMAT
100
AcDbDimension
  2
_D_10
 10
394.3409010692
 20
805.8357753135
 30
0.0
 11
394.3409010692
 21
718.0134796961
 31
0.0
 70
   160
  1
<>
 71
     2
 42
-1.0
  3
SLDDIMSTYLE2
100
AcDbAlignedDimension
 13
537.7582239411
 23
767.3357753139
 33
0.0
 14
542.7582239411
 24
805.8357753135
 34
0.0
 50
90.0
100
AcDbRotatedDimension
  0
DIMENSION
  5
36B
330
1F
100
AcDbEntity
  8
FORMAT
100
AcDbDimension
  2
_D_11
 10
348.8813849563
 20
840.3357753139
 30
0.0
 11
348.8813849563
 21
718.0134796961
 31
0.0
 70
   160
  1
<>
 71
     2
 42
-1.0
  3
SLDDIMSTYLE2
100
AcDbAlignedDimension
 13
542.7582239411
 23
805.8357753135
 33
0.0
 14
544.2582239411
 24
840.3357753139
 34
0.0
 50
90.0
100
AcDbRotatedDimension
  0
DIMENSION
  5
378
330
1F
100
AcDbEntity
  8
FORMAT
100
AcDbDimension
  2
_D_12
 10
302.8622740951
 20
863.3357753139
 30
0.0
 11
302.8622740951
 21
718.0134796961
 31
0.0
 70
   160
  1
<>
 71
     2
 42
-1.0
  3
SLDDIMSTYLE1
100
AcDbAlignedDimension
 13
544.2582239411
 23
840.3357753139
 33
0.0
 14
544.2582239411
 24
863.3357753139
 34
0.0
 50
90.0
100
AcDbRotatedDimension
  0
DIMENSION
  5
386
330
1F
100
AcDbEntity
  8
FORMAT
100
AcDbDimension
  2
_D_13
 10
542.7582239411
 20
964.9198130374
 30
0.0
 11
478.7557742954
 21
964.9198130374
 31
0.0
 70
   160
  1
<>
 71
     2
 42
-1.0
  3
SLDDIMSTYLE1
100
AcDbAlignedDimension
 13
532.7582239411
 23
616.3357753139
 33
0.0
 14
542.7582239411
 24
889.3357753135
 34
0.0
100
AcDbRotatedDimension
  0
DIMENSION
  5
392
330
1F
100
AcDbEntity
  8
FORMAT
100
AcDbDimension
  2
_D_14
 10
556.7582239411
 20
1017.3357753139
 30
0.0
 11
478.7557742954
 21
1017.3357753139
 31
0.0
 70
   160
  1
<>
 71
     2
 42
-1.0
  3
SLDDIMSTYLE1
100
AcDbAlignedDimension
 13
532.7582239411
 23
616.3357753139
 33
0.0
 14
556.7582239411
 24
875.8357753139
 34
0.0
100
AcDbRotatedDimension
  0
DIMENSION
  5
39E
330
1F
100
AcDbEntity
  8
FORMAT
100
AcDbDimension
  2
_D_15
 10
749.7582239411
 20
1059.3357753139
 30
0.0
 11
641.2582239411
 21
1059.3357753139
 31
0.0
 70
   160
  1
<>
 71
     2
 42
-1.0
  3
SLDDIMSTYLE0
100
AcDbAlignedDimension
 13
532.7582239411
 23
616.3357753139
 33
0.0
 14
749.7582239411
 24
895.0857753135
 34
0.0
100
AcDbRotatedDimension
  0
DIMENSION
  5
3A8
330
1F
100
AcDbEntity
  8
FORMAT
100
AcDbDimension
  2
_D_16
 10
956.7582239411
 20
1059.3357753139
 30
0.0
 11
853.2582239411
 21
1059.3357753139
 31
0.0
 70
   160
  1
<>
 71
     2
 42
-1.0
  3
SLDDIMSTYLE0
100
AcDbAlignedDimension
 13
749.7582239411
 23
895.0857753135
 33
0.0
 14
956.7582239411
 24
895.0857753135
 34
0.0
100
AcDbRotatedDimension
  0
DIMENSION
  5
3B2
330
1F
100
AcDbEntity
  8
FORMAT
100
AcDbDimension
  2
_D_17
 10
1182.7582239411
 20
1059.3357753139
 30
0.0
 11
1069.7582239411
 21
1059.3357753139
 31
0.0
 70
   160
  1
<>
 71
     2
 42
-1.0
  3
SLDDIMSTYLE0
100
AcDbAlignedDimension
 13
956.7582239411
 23
895.0857753135
 33
0.0
 14
1182.7582239411
 24
889.3357753135
 34
0.0
100
AcDbRotatedDimension
  0
DIMENSION
  5
3BC
330
1F
100
AcDbEntity
  8
FORMAT
100
AcDbDimension
  2
_D_18
 10
1198.7582239411
 20
1101.3357753139
 30
0.0
 11
865.7582239411
 21
1101.3357753139
 31
0.0
 70
   160
  1
<>
 71
     2
 42
-1.0
  3
SLDDIMSTYLE0
100
AcDbAlignedDimension
 13
532.7582239411
 23
616.3357753139
 33
0.0
 14
1198.7582239411
 24
875.8357753139
 34
0.0
100
AcDbRotatedDimension
  0
DIMENSION
  5
3C6
330
1F
100
AcDbEntity
  8
FORMAT
100
AcDbDimension
  2
_D_19
 10
1212.7582239411
 20
1143.3357753139
 30
0.0
 11
872.7582239411
 21
1143.3357753139
 31
0.0
 70
   160
  1
<>
 71
     2
 42
-1.0
  3
SLDDIMSTYLE0
100
AcDbAlignedDimension
 13
532.7582239411
 23
616.3357753139
 33
0.0
 14
1212.7582239411
 24
889.3357753135
 34
0.0
100
AcDbRotatedDimension
  0
MTEXT
  5
3D0
330
1F
100
AcDbEntity
  8
FORMAT
100
AcDbMText
 10
1393.6885909405
 20
863.1145442294
 30
0.0
 40
18.5208333333
 41
0.0
 71
     1
 72
     1
  1
Oberkante Türflügel
  7
SLDTEXTSTYLE0
 73
     1
 44
1.0
  0
LEADER
  5
3D2
330
1F
100
AcDbEntity
  8
FORMAT
100
AcDbLeader
  3
SLDDIMSTYLE3
 76
     3
 10
1346.1361016035
 20
767.3357753139
 30
0.0
 10
1345.3023051132
 20
853.9815080312
 30
0.0
 10
1389.7523051132
 20
853.9815080312
 30
0.0
  0
MTEXT
  5
3D3
330
1F
100
AcDbEntity
  8
FORMAT
100
AcDbMText
 10
1360.8299937345
 20
1005.4801920981
 30
0.0
 40
18.5208333333
 41
0.0
 71
     1
 72
     1
  1
ø20 (optional)
  7
SLDTEXTSTYLE0
 73
     1
 44
1.0
  0
LEADER
  5
3D4
330
1F
100
AcDbEntity
  8
FORMAT
100
AcDbLeader
  3
SLDDIMSTYLE3
 76
     3
 10
1206.8051315676
 20
869.2727170898
 30
0.0
 10
1312.4439647946
 20
996.5632347705
 30
0.0
 10
1356.8939647946
 20
996.5632347705
 30
0.0
  0
INSERT
  5
3DA
102
{ACAD_REACTORS
330
3DB
102
}
330
1F
100
AcDbEntity
  8
FORMAT
100
AcDbBlockReference
  2
SW_NOTE_0_5
 10
389.7188388396
 20
961.3687897183
 30
0.0
  0
LEADER
  5
3DB
330
1F
100
AcDbEntity
  8
FORMAT
100
AcDbLeader
  3
SLDDIMSTYLE3
 73
     2
 76
     3
 10
547.9445239527
 20
868.0600416606
 30
0.0
 10
434.1688388396
 20
961.3687897183
 30
0.0
 10
389.7188388396
 20
961.3687897183
 30
0.0
340
3DA
  0
INSERT
  5
3E7
330
1F
100
AcDbEntity
  8
FORMAT
100
AcDbBlockReference
  2
SW_CENTERMARKSYMBOL_0
 10
749.7582239411
 20
889.3357753135
 30
0.0
  0
INSERT
  5
3F3
330
1F
100
AcDbEntity
  8
FORMAT
100
AcDbBlockReference
  2
SW_CENTERMARKSYMBOL_1
 10
956.7582239411
 20
889.3357753135
 30
0.0
  0
INSERT
  5
3FF
330
1F
100
AcDbEntity
  8
FORMAT
100
AcDbBlockReference
  2
SW_CENTERMARKSYMBOL_2
 10
1182.7582239411
 20
889.3357753135
 30
0.0
  0
INSERT
  5
40B
330
1F
100
AcDbEntity
  8
FORMAT
100
AcDbBlockReference
  2
SW_CENTERMARKSYMBOL_3
 10
621.7582239411
 20
732.0857753139
 30
0.0
  0
INSERT
  5
417
330
1F
100
AcDbEntity
  8
FORMAT
100
AcDbBlockReference
  2
SW_CENTERMARKSYMBOL_4
 10
1254.7582239411
 20
732.0857753139
 30
0.0
  0
INSERT
  5
423
330
1F
100
AcDbEntity
  8
FORMAT
100
AcDbBlockReference
  2
SW_CENTERMARKSYMBOL_5
 10
1182.7582239411
 20
813.3357753135
 30
0.0
  0
INSERT
  5
42F
330
1F
100
AcDbEntity
  8
FORMAT
100
AcDbBlockReference
  2
SW_CENTERMARKSYMBOL_6
 10
956.7582239411
 20
813.3357753135
 30
0.0
  0
INSERT
  5
43B
330
1F
100
AcDbEntity
  8
FORMAT
100
AcDbBlockReference
  2
SW_CENTERMARKSYMBOL_7
 10
749.7582239411
 20
813.3357753135
 30
0.0
  0
INSERT
  5
447
330
1F
100
AcDbEntity
  8
FORMAT
100
AcDbBlockReference
  2
SW_CENTERMARKSYMBOL_8
 10
556.7582239411
 20
840.3357753139
 30
0.0
  0
INSERT
  5
453
330
1F
100
AcDbEntity
  8
FORMAT
100
AcDbBlockReference
  2
SW_CENTERMARKSYMBOL_9
 10
556.7582239411
 20
863.3357753139
 30
0.0
  0
INSERT
  5
45F
330
1F
100
AcDbEntity
  8
FORMAT
100
AcDbBlockReference
  2
SW_CENTERMARKSYMBOL_10
 10
1198.7582239411
 20
840.3357753139
 30
0.0
  0
INSERT
  5
46B
330
1F
100
AcDbEntity
  8
FORMAT
100
AcDbBlockReference
  2
SW_CENTERMARKSYMBOL_11
 10
1198.7582239411
 20
863.3357753139
 30
0.0
  0
CIRCLE
  5
46C
330
1F
100
AcDbEntity
  8
0
  6
Continuous
 62
     7
370
    18
100
AcDbCircle
 10
748.7854391904
 20
850.6519632531
 30
0.0
 40
54.8773934215028
  0
MTEXT
  5
46D
330
1F
100
AcDbEntity
  8
0
  6
Continuous
 62
     7
370
    18
100
AcDbMText
 10
801.4486833536
 20
943.3356759844
 30
0.0
 40
35.0
 41
0.0
 71
     1
 72
     1
  1
C
  7
SLDTEXTSTYLE0
 73
     1
 44
1.0
  0
LINE
  5
46E
330
1F
100
AcDbEntity
  8
FORMAT
  6
CENTERX2
370
    18
100
AcDbLine
 10
532.7582239411
 20
616.3357753139
 30
0.0
 11
532.7582239411
 21
516.3368794132
 31
0.0
  0
LINE
  5
46F
330
1F
100
AcDbEntity
  8
0
  6
Continuous
 62
     7
370
    25
100
AcDbLine
 10
2389.4678156534
 20
1633.6270625917
 30
0.0
 11
2389.4678156534
 21
1643.3830785607
 31
0.0
  0
LINE
  5
470
330
1F
100
AcDbEntity
  8
0
  6
Continuous
 62
     7
370
    25
100
AcDbLine
 10
2359.4678156534
 20
1642.3830785607
 30
0.0
 11
2359.4678156534
 21
1633.6270625917
 31
0.0
  0
LINE
  5
471
330
1F
100
AcDbEntity
  8
0
  6
Continuous
 62
     7
370
    25
100
AcDbLine
 10
2320.7178156526
 20
1610.3830785607
 30
0.0
 11
2320.7178156526
 21
1580.3830785669
 31
0.0
  0
LINE
  5
472
330
1F
100
AcDbEntity
  8
0
  6
Continuous
 62
     7
370
    25
100
AcDbLine
 10
2334.7178156526
 20
1580.3830785669
 30
0.0
 11
2334.7178156526
 21
1610.3830785607
 31
0.0
  0
LINE
  5
473
330
1F
100
AcDbEntity
  8
0
  6
Continuous
 62
     7
370
    25
100
AcDbLine
 10
2332.7178156526
 20
1610.3830785607
 30
0.0
 11
2332.7178156526
 21
1610.8830785607
 31
0.0
  0
LINE
  5
474
330
1F
100
AcDbEntity
  8
0
  6
Continuous
 62
     7
370
    25
100
AcDbLine
 10
2322.7178156526
 20
1610.8830785607
 30
0.0
 11
2322.7178156526
 21
1610.3830785607
 31
0.0
  0
LINE
  5
475
330
1F
100
AcDbEntity
  8
0
  6
Continuous
 62
     7
370
    25
100
AcDbLine
 10
2359.4678156535
 20
1631.6830785608
 30
0.0
 11
2359.4678156535
 21
1620.8830785608
 31
0.0
  0
LINE
  5
476
330
1F
100
AcDbEntity
  8
0
  6
Continuous
 62
     7
370
    25
100
AcDbLine
 10
2389.4678156533
 20
1611.8830785608
 30
0.0
 11
2389.4678156533
 21
1631.6830785608
 31
0.0
  0
LINE
  5
477
330
1F
100
AcDbEntity
  8
0
  6
Continuous
 62
     7
370
    25
100
AcDbLine
 10
2388.4678156533
 20
1610.8830785608
 30
0.0
 11
2389.4678156533
 21
1611.8830785608
 31
0.0
  0
LINE
  5
478
330
1F
100
AcDbEntity
  8
0
  6
Continuous
 62
     7
370
    25
100
AcDbLine
 10
2389.4678156533
 20
1631.6830785608
 30
0.0
 11
2389.2678156533
 21
1631.8830785608
 31
0.0
  0
LINE
  5
479
330
1F
100
AcDbEntity
  8
0
  6
Continuous
 62
     7
370
    25
100
AcDbLine
 10
2359.6678156535
 20
1631.8830785608
 30
0.0
 11
2359.4678156535
 21
1631.6830785608
 31
0.0
  0
LWPOLYLINE
  5
47A
330
1F
100
AcDbEntity
  8
0
  6
Continuous
 62
     7
370
    25
100
AcDbPolyline
 90
       12
 70
   128
 43
0.0
 10
2365.8821061097
 20
1632.6910596198
 10
2365.7721304741
 20
1632.3920129616
 10
2365.5875081258
 20
1632.1558004014
 10
2365.4765437279
 20
1632.0654471251
 10
2365.3627004823
 20
1631.9960524656
 10
2365.2563806638
 20
1631.9472039171
 10
2365.1677886987
 20
1631.9157673711
 10
2365.1066477243
 20
1631.8974808854
 10
2365.0822249628
 20
1631.8881429056
 10
2365.1030552677
 20
1631.8842416196
 10
2365.1759386295
 20
1631.8831525685
 10
2365.2615159552
 20
1631.8831030865
  0
LINE
  5
47B
330
1F
100
AcDbEntity
  8
0
  6
Continuous
 62
     7
370
    25
100
AcDbLine
 10
2366.0650969323
 20
1633.6270625917
 30
0.0
 11
2365.8689731662
 21
1632.6238865151
 31
0.0
  0
LWPOLYLINE
  5
47C
330
1F
100
AcDbEntity
  8
0
  6
Continuous
 62
     7
370
    25
100
AcDbPolyline
 90
        4
 70
   128
 43
0.0
 10
2384.6981095541
 20
1631.8831012965
 10
2384.7377181291
 20
1631.8831239816
 10
2384.763347626
 20
1631.8841753055
 10
2384.7626190802
 20
1631.8843341701
  0
ARC
  5
47D
330
1F
100
AcDbEntity
  8
0
  6
Continuous
 62
     7
370
    25
100
AcDbCircle
 10
2384.8891307917
 20
1632.8942580196
 30
0.0
 40
1.016334646529422
100
AcDbArc
 50
192.6141786487
 51
261.8326251792
  0
LWPOLYLINE
  5
47E
330
1F
100
AcDbEntity
  8
0
  6
Continuous
 62
     7
370
    25
100
AcDbPolyline
 90
        3
 70
   128
 43
0.0
 10
2359.3156309213
 20
1619.8255549764
 10
2359.2514446238
 20
1619.4819475834
 10
2359.1655567112
 20
1619.0936051054
  0
LINE
  5
47F
330
1F
100
AcDbEntity
  8
0
  6
Continuous
 62
     7
370
    25
100
AcDbLine
 10
2383.8973283958
 20
1632.6723041357
 30
0.0
 11
2383.6915405292
 21
1633.6270625917
 31
0.0
  0
ARC
  5
480
330
1F
100
AcDbEntity
  8
0
  6
Continuous
 62
     7
370
    25
100
AcDbCircle
 10
2356.4678156535
 20
1620.8830785608
 30
0.0
 40
3.000000000000455
100
AcDbArc
 50
347.449168654
 51
0.0000000003
  0
LINE
  5
481
330
1F
100
AcDbEntity
  8
0
  6
Continuous
 62
     7
370
    25
100
AcDbLine
 10
2365.2440907776
 20
1633.6270625917
 30
0.0
 11
2365.038302822
 21
1632.672303723
 31
0.0
  0
ARC
  5
482
330
1F
100
AcDbEntity
  8
0
  6
Continuous
 62
     7
370
    25
100
AcDbCircle
 10
2364.0084305151
 20
1632.9160157863
 30
0.0
 40
1.058316156627395
100
AcDbArc
 50
282.5729823151
 51
346.686404055
  0
LINE
  5
483
330
1F
100
AcDbEntity
  8
0
  6
Continuous
 62
     7
370
    25
100
AcDbLine
 10
2316.7178156526
 20
1611.8830785607
 30
0.0
 11
2317.7178156526
 21
1610.8830785607
 31
0.0
  0
LINE
  5
484
330
1F
100
AcDbEntity
  8
0
  6
Continuous
 62
     7
370
    25
100
AcDbLine
 10
2317.7178156526
 20
1617.8830785607
 30
0.0
 11
2316.7178156526
 21
1616.8830785607
 31
0.0
  0
LINE
  5
485
330
1F
100
AcDbEntity
  8
0
  6
Continuous
 62
     7
370
    25
100
AcDbLine
 10
2316.7178156526
 20
1616.8830785607
 30
0.0
 11
2316.7178156526
 21
1611.8830785607
 31
0.0
  0
LINE
  5
486
330
1F
100
AcDbEntity
  8
0
  6
Continuous
 62
     7
370
    25
100
AcDbLine
 10
2397.4678156534
 20
1738.3830785607
 30
0.0
 11
2397.4678156534
 21
1739.3830785607
 31
0.0
  0
LINE
  5
487
330
1F
100
AcDbEntity
  8
0
  6
Continuous
 62
     7
370
    25
100
AcDbLine
 10
2314.4678156537
 20
1286.8830785607
 30
0.0
 11
2314.4678156537
 21
1563.8830785669
 31
0.0
  0
LINE
  5
488
330
1F
100
AcDbEntity
  8
0
  6
Continuous
 62
     7
370
    25
100
AcDbLine
 10
2314.4678156537
 20
1579.8830785649
 30
0.0
 11
2314.4678156537
 21
1606.8830785607
 31
0.0
  0
LINE
  5
489
330
1F
100
AcDbEntity
  8
0
  6
Continuous
 62
     7
370
    25
100
AcDbLine
 10
2314.4678156537
 20
1286.8830785607
 30
0.0
 11
2244.4678156537
 21
1286.8830785607
 31
0.0
  0
LINE
  5
48A
330
1F
100
AcDbEntity
  8
0
  6
Continuous
 62
     7
370
    25
100
AcDbLine
 10
2244.4678156537
 20
1286.8830785607
 30
0.0
 11
2244.4678156537
 21
1581.8830785607
 31
0.0
  0
LINE
  5
48B
330
1F
100
AcDbEntity
  8
0
  6
Continuous
 62
     7
370
    25
100
AcDbLine
 10
2244.4678156537
 20
1581.8830785607
 30
0.0
 11
2274.4678156537
 21
1581.8830785607
 31
0.0
  0
LINE
  5
48C
330
1F
100
AcDbEntity
  8
0
  6
Continuous
 62
     7
370
    25
100
AcDbLine
 10
2274.4678156537
 20
1581.8830785607
 30
0.0
 11
2274.4678156537
 21
1606.8830785607
 31
0.0
  0
LINE
  5
48D
330
1F
100
AcDbEntity
  8
0
  6
Continuous
 62
     7
370
    25
100
AcDbLine
 10
2274.4678156537
 20
1606.8830785607
 30
0.0
 11
2314.4678156537
 21
1606.8830785607
 31
0.0
  0
LINE
  5
48E
330
1F
100
AcDbEntity
  8
0
  6
Continuous
 62
     7
370
    25
100
AcDbLine
 10
2314.4678156537
 20
1786.8830785607
 30
0.0
 11
2314.4678156537
 21
1738.3830785607
 31
0.0
  0
LINE
  5
48F
330
1F
100
AcDbEntity
  8
0
  6
Continuous
 62
     7
370
    25
100
AcDbLine
 10
2314.4678156537
 20
1643.3830785607
 30
0.0
 11
2314.4678156537
 21
1611.8830785607
 31
0.0
  0
LINE
  5
490
330
1F
100
AcDbEntity
  8
0
  6
Continuous
 62
     7
370
    25
100
AcDbLine
 10
2314.4678156537
 20
1611.8830785607
 30
0.0
 11
2274.4678156537
 21
1611.8830785607
 31
0.0
  0
LINE
  5
491
330
1F
100
AcDbEntity
  8
0
  6
Continuous
 62
     7
370
    25
100
AcDbLine
 10
2274.4678156537
 20
1611.8830785607
 30
0.0
 11
2274.4678156537
 21
1586.8830785607
 31
0.0
  0
LINE
  5
492
330
1F
100
AcDbEntity
  8
0
  6
Continuous
 62
     7
370
    25
100
AcDbLine
 10
2244.4678156537
 20
1786.8830785607
 30
0.0
 11
2314.4678156537
 21
1786.8830785607
 31
0.0
  0
LINE
  5
493
330
1F
100
AcDbEntity
  8
0
  6
Continuous
 62
     7
370
    25
100
AcDbLine
 10
2244.4678156537
 20
1786.8830785607
 30
0.0
 11
2244.4678156537
 21
1586.8830785607
 31
0.0
  0
LINE
  5
494
330
1F
100
AcDbEntity
  8
0
  6
Continuous
 62
     7
370
    25
100
AcDbLine
 10
2274.4678156537
 20
1586.8830785607
 30
0.0
 11
2244.4678156537
 21
1586.8830785607
 31
0.0
  0
LINE
  5
495
330
1F
100
AcDbEntity
  8
0
  6
Continuous
 62
     7
370
    25
100
AcDbLine
 10
2244.4678156537
 20
1581.8830785607
 30
0.0
 11
2244.4678156537
 21
1586.8830785607
 31
0.0
  0
LINE
  5
496
330
1F
100
AcDbEntity
  8
0
  6
Continuous
 62
     7
370
    25
100
AcDbLine
 10
2314.4678156537
 20
1606.8830785607
 30
0.0
 11
2314.4678156537
 21
1611.8830785607
 31
0.0
  0
LINE
  5
497
330
1F
100
AcDbEntity
  8
0
  6
Continuous
 62
     7
370
    25
100
AcDbLine
 10
2388.9682364478
 20
1633.6270625917
 30
0.0
 11
2389.4678156534
 21
1633.6270625917
 31
0.0
  0
LINE
  5
498
330
1F
100
AcDbEntity
  8
0
  6
Continuous
 62
     7
370
    25
100
AcDbLine
 10
2359.4678156534
 20
1633.6270625917
 30
0.0
 11
2388.9682364478
 21
1633.6270625917
 31
0.0
  0
LINE
  5
499
330
1F
100
AcDbEntity
  8
0
  6
Continuous
 62
     7
370
    25
100
AcDbLine
 10
2334.7178156526
 20
1610.3830785607
 30
0.0
 11
2320.7178156526
 21
1610.3830785607
 31
0.0
  0
LINE
  5
49A
330
1F
100
AcDbEntity
  8
0
  6
Continuous
 62
     7
370
    25
100
AcDbLine
 10
2389.4678156533
 20
1611.8830785608
 30
0.0
 11
2359.5706161605
 21
1611.8830785608
 31
0.0
  0
LINE
  5
49B
330
1F
100
AcDbEntity
  8
0
  6
Continuous
 62
     7
370
    25
100
AcDbLine
 10
2359.5706161605
 20
1611.8830785608
 30
0.0
 11
2359.5706161605
 21
1620.8830785608
 31
0.0
  0
LINE
  5
49C
330
1F
100
AcDbEntity
  8
0
  6
Continuous
 62
     7
370
    25
100
AcDbLine
 10
2389.4678156533
 20
1631.6830785608
 30
0.0
 11
2359.4678156535
 21
1631.6830785608
 31
0.0
  0
LINE
  5
49D
330
1F
100
AcDbEntity
  8
0
  6
Continuous
 62
     7
370
    25
100
AcDbLine
 10
2388.4678156533
 20
1610.8830785608
 30
0.0
 11
2360.5637627933
 21
1610.8830785608
 31
0.0
  0
LINE
  5
49E
330
1F
100
AcDbEntity
  8
0
  6
Continuous
 62
     7
370
    25
100
AcDbLine
 10
2360.5637627933
 20
1610.8830785608
 30
0.0
 11
2359.5706161605
 21
1611.8830785608
 31
0.0
  0
LINE
  5
49F
330
1F
100
AcDbEntity
  8
0
  6
Continuous
 62
     7
370
    25
100
AcDbLine
 10
2389.2678156533
 20
1631.8830785608
 30
0.0
 11
2359.6678156535
 21
1631.8830785608
 31
0.0
  0
LWPOLYLINE
  5
4A0
330
1F
100
AcDbEntity
  8
0
  6
Continuous
 62
     7
370
    25
100
AcDbPolyline
 90
        9
 70
   128
 43
0.0
 10
2372.591665158
 20
1631.8830785608
 10
2372.5058696852
 20
1631.8986519927
 10
2372.4227464723
 20
1631.9448872249
 10
2372.3448845468
 20
1632.0203441748
 10
2372.2747090633
 20
1632.1226725952
 10
2372.2144057681
 20
1632.2486852767
 10
2372.1658529198
 20
1632.3944573193
 10
2372.1305627873
 20
1632.5554483813
 10
2372.1096345475
 20
1632.7266440958
  0
ARC
  5
4A1
330
1F
100
AcDbEntity
  8
0
  6
Continuous
 62
     7
370
    25
100
AcDbCircle
 10
2370.6558251219
 20
1632.8006354269
 30
0.0
 40
0.9191498472629884
100
AcDbArc
 50
273.3737472447
 51
355.3827081636
  0
ARC
  5
4A2
330
1F
100
AcDbEntity
  8
0
  6
Continuous
 62
     7
370
    25
100
AcDbCircle
 10
2371.8408132606
 20
1633.2601014072
 30
0.0
 40
0.5973621911642828
100
AcDbArc
 50
243.255425835
 51
296.7445754991
  0
LWPOLYLINE
  5
4A3
330
1F
100
AcDbEntity
  8
0
  6
Continuous
 62
     7
370
    25
100
AcDbPolyline
 90
        3
 70
   128
 43
0.0
 10
2375.2715982126
 20
1632.1226725952
 10
2375.3660730962
 20
1631.9448872249
 10
2375.4814292563
 20
1631.8830785608
  0
LINE
  5
4A4
330
1F
100
AcDbEntity
  8
0
  6
Continuous
 62
     7
370
    25
100
AcDbLine
 10
2372.1096345475
 20
1632.7266440958
 30
0.0
 11
2375.2136487479
 21
1632.7266440958
 31
0.0
  0
LWPOLYLINE
  5
4A5
330
1F
100
AcDbEntity
  8
0
  6
Continuous
 62
     7
370
    25
100
AcDbPolyline
 90
        3
 70
   128
 43
0.0
 10
2375.2136487479
 20
1632.7266440958
 10
2375.2163045947
 20
1632.3944573193
 10
2375.2715982126
 20
1632.1226725952
  0
LWPOLYLINE
  5
4A6
330
1F
100
AcDbEntity
  8
0
  6
Continuous
 62
     7
370
    25
100
AcDbPolyline
 90
        3
 70
   128
 43
0.0
 10
2375.5400287026
 20
1632.1226725932
 10
2375.5416641643
 20
1632.3944573179
 10
2375.5139540147
 20
1632.7266440958
  0
LINE
  5
4A7
330
1F
100
AcDbEntity
  8
0
  6
Continuous
 62
     7
370
    25
100
AcDbLine
 10
2375.5139540147
 20
1632.7266440958
 30
0.0
 11
2378.9360871239
 21
1632.7266440958
 31
0.0
  0
LWPOLYLINE
  5
4A8
330
1F
100
AcDbEntity
  8
0
  6
Continuous
 62
     7
370
    25
100
AcDbPolyline
 90
        9
 70
   128
 43
0.0
 10
2378.9360871239
 20
1632.7266440958
 10
2378.9244196088
 20
1632.5554483812
 10
2378.904745324
 20
1632.3944573193
 10
2378.8776770615
 20
1632.2486852766
 10
2378.844057913
 20
1632.1226725952
 10
2378.8049350094
 20
1632.0203441748
 10
2378.7615269065
 20
1631.9448872249
 10
2378.7151856306
 20
1631.8986519927
 10
2378.667354567
 20
1631.8830785608
  0
LWPOLYLINE
  5
4A9
330
1F
100
AcDbEntity
  8
0
  6
Continuous
 62
     7
370
    25
100
AcDbPolyline
 90
        3
 70
   128
 43
0.0
 10
2375.4814292563
 20
1631.8830785608
 10
2375.5165496459
 20
1631.9448872244
 10
2375.5400287026
 20
1632.1226725932
  0
LWPOLYLINE
  5
4AA
330
1F
100
AcDbEntity
  8
0
  6
Continuous
 62
     7
370
    25
100
AcDbPolyline
 90
        3
 70
   128
 43
0.0
 10
2369.6010547744
 20
1632.1226725932
 10
2369.7657863364
 20
1632.3944573179
 10
2369.8363791653
 20
1632.7266440958
  0
LINE
  5
4AB
330
1F
100
AcDbEntity
  8
0
  6
Continuous
 62
     7
370
    25
100
AcDbLine
 10
2369.8363791653
 20
1632.7266440958
 30
0.0
 11
2371.571991987
 21
1632.7266440958
 31
0.0
  0
LWPOLYLINE
  5
4AC
330
1F
100
AcDbEntity
  8
0
  6
Continuous
 62
     7
370
    25
100
AcDbPolyline
 90
        3
 70
   128
 43
0.0
 10
2369.0941014982
 20
1631.8830785608
 10
2369.3662504398
 20
1631.9448872244
 10
2369.6010547744
 20
1632.1226725932
  0
ARC
  5
4AD
330
1F
100
AcDbEntity
  8
0
  6
Continuous
 62
     7
370
    25
100
AcDbCircle
 10
2380.3894266778
 20
1632.8574546258
 30
0.0
 40
0.974495382306368
100
AcDbArc
 50
187.7143350976
 51
269.1033892401
  0
LWPOLYLINE
  5
4AE
330
1F
100
AcDbEntity
  8
0
  6
Continuous
 62
     7
370
    25
100
AcDbPolyline
 90
        8
 70
   128
 43
0.0
 10
2378.9360871236
 20
1632.7266440895
 10
2379.089883417
 20
1632.6817734216
 10
2379.1699590348
 20
1632.668914638
 10
2379.2443786121
 20
1632.6645924638
 10
2379.3093430472
 20
1632.6689891802
 10
2379.3587973546
 20
1632.6807504489
 10
2379.3977504812
 20
1632.6999579547
 10
2379.4237508236
 20
1632.7266440958
  0
LWPOLYLINE
  5
4AF
330
1F
100
AcDbEntity
  8
0
  6
Continuous
 62
     7
370
    25
100
AcDbPolyline
 90
        3
 70
   128
 43
0.0
 10
2380.68344276
 20
1632.1226725952
 10
2380.9586333776
 20
1631.9448872249
 10
2381.2749959128
 20
1631.8830785608
  0
LINE
  5
4B0
330
1F
100
AcDbEntity
  8
0
  6
Continuous
 62
     7
370
    25
100
AcDbLine
 10
2379.4237508236
 20
1632.7266440958
 30
0.0
 11
2380.391356731
 21
1632.7266440958
 31
0.0
  0
LWPOLYLINE
  5
4B1
330
1F
100
AcDbEntity
  8
0
  6
Continuous
 62
     7
370
    25
100
AcDbPolyline
 90
        3
 70
   128
 43
0.0
 10
2380.391356731
 20
1632.7266440958
 10
2380.485506415
 20
1632.3944573193
 10
2380.68344276
 20
1632.1226725952
  0
ARC
  5
4B2
330
1F
100
AcDbEntity
  8
0
  6
Continuous
 62
     7
370
    25
100
AcDbCircle
 10
2373.9731005308
 20
1633.1745795474
 30
0.0
 40
1.6711087534629
100
AcDbArc
 50
320.9892283136
 51
327.6243106473
  0
ARC
  5
4B3
330
1F
100
AcDbEntity
  8
0
  6
Continuous
 62
     7
370
    25
100
AcDbCircle
 10
2376.2428449185
 20
1632.9743858218
 30
0.0
 40
1.104249091950115
100
AcDbArc
 50
218.9803668018
 51
230.4712529789
  0
LINE
  5
4B4
330
1F
100
AcDbEntity
  8
0
  6
Continuous
 62
     7
370
    25
100
AcDbLine
 10
2375.3605663828
 20
1632.7141095548
 30
0.0
 11
2375.2136487479
 21
1632.7266440958
 31
0.0
  0
ARC
  5
4B5
330
1F
100
AcDbEntity
  8
0
  6
Continuous
 62
     7
370
    25
100
AcDbCircle
 10
2381.7175960624
 20
1632.8457378365
 30
0.0
 40
6.358392237215354
100
AcDbArc
 50
181.1861930229
 51
185.106871815
  0
LINE
  5
4B6
330
1F
100
AcDbEntity
  8
0
  6
Continuous
 62
     7
370
    25
100
AcDbLine
 10
2375.5139540147
 20
1632.7266440958
 30
0.0
 11
2375.3605663828
 21
1632.7141095548
 31
0.0
  0
LWPOLYLINE
  5
4B7
330
1F
100
AcDbEntity
  8
0
  6
Continuous
 62
     7
370
    25
100
AcDbPolyline
 90
        3
 70
   128
 43
0.0
 10
2369.3889087433
 20
1632.1226725952
 10
2369.2473257872
 20
1631.9448872249
 10
2369.0941014982
 20
1631.8830785608
  0
LWPOLYLINE
  5
4B8
330
1F
100
AcDbEntity
  8
0
  6
Continuous
 62
     7
370
    25
100
AcDbPolyline
 90
        9
 70
   128
 43
0.0
 10
2365.9081762239
 20
1631.8830785608
 10
2365.9560072874
 20
1631.8986519927
 10
2366.0023485633
 20
1631.9448872249
 10
2366.0457566662
 20
1632.0203441748
 10
2366.0848795698
 20
1632.1226725952
 10
2366.1184987184
 20
1632.2486852767
 10
2366.1455669808
 20
1632.3944573193
 10
2366.1652412657
 20
1632.5554483813
 10
2366.1769087807
 20
1632.7266440958
  0
LINE
  5
4B9
330
1F
100
AcDbEntity
  8
0
  6
Continuous
 62
     7
370
    25
100
AcDbLine
 10
2366.1769087807
 20
1632.7266440958
 30
0.0
 11
2369.5990418533
 21
1632.7266440958
 31
0.0
  0
LWPOLYLINE
  5
4BA
330
1F
100
AcDbEntity
  8
0
  6
Continuous
 62
     7
370
    25
100
AcDbPolyline
 90
        3
 70
   128
 43
0.0
 10
2369.5990418533
 20
1632.7266440958
 10
2369.5086481039
 20
1632.3944573193
 10
2369.3889087433
 20
1632.1226725952
  0
ARC
  5
4BB
330
1F
100
AcDbEntity
  8
0
  6
Continuous
 62
     7
370
    25
100
AcDbCircle
 10
2368.9108323144
 20
1633.0220173366
 30
0.0
 40
1.018517567720649
100
AcDbArc
 50
297.9943549489
 51
313.2167180071
  0
ARC
  5
4BC
330
1F
100
AcDbEntity
  8
0
  6
Continuous
 62
     7
370
    25
100
AcDbCircle
 10
2369.1424641207
 20
1632.2224497258
 30
0.0
 40
0.469319575344853
100
AcDbArc
 50
347.7252635693
 51
7.0132914383
  0
ARC
  5
4BD
330
1F
100
AcDbEntity
  8
0
  6
Continuous
 62
     7
370
    25
100
AcDbCircle
 10
2368.3907484905
 20
1632.8708254031
 30
0.0
 40
1.353414193789702
100
AcDbArc
 50
334.1047902994
 51
353.3506380244
  0
LINE
  5
4BE
330
1F
100
AcDbEntity
  8
0
  6
Continuous
 62
     7
370
    25
100
AcDbLine
 10
2369.8363791653
 20
1632.7266440958
 30
0.0
 11
2369.7350589813
 21
1632.7141095548
 31
0.0
  0
LINE
  5
4BF
330
1F
100
AcDbEntity
  8
0
  6
Continuous
 62
     7
370
    25
100
AcDbLine
 10
2369.7350589813
 20
1632.7141095548
 30
0.0
 11
2369.5990418533
 21
1632.7266440958
 31
0.0
  0
LINE
  5
4C0
330
1F
100
AcDbEntity
  8
0
  6
Continuous
 62
     7
370
    25
100
AcDbLine
 10
2365.0944848065
 20
1631.893822902
 30
0.0
 11
2364.953804296
 21
1631.8830785608
 31
0.0
  0
LWPOLYLINE
  5
4C1
330
1F
100
AcDbEntity
  8
0
  6
Continuous
 62
     7
370
    25
100
AcDbPolyline
 90
        8
 70
   128
 43
0.0
 10
2365.9042310787
 20
1632.7266440895
 10
2365.8822987889
 20
1632.6817734216
 10
2365.8959821245
 20
1632.6689146381
 10
2365.9271743535
 20
1632.6645924638
 10
2365.9742599067
 20
1632.6689891802
 10
2366.0300413523
 20
1632.6807504489
 10
2366.0980047174
 20
1632.6999579546
 10
2366.1769087807
 20
1632.7266440958
  0
LWPOLYLINE
  5
4C2
330
1F
100
AcDbEntity
  8
0
  6
Continuous
 62
     7
370
    25
100
AcDbPolyline
 90
        3
 70
   128
 43
0.0
 10
2380.8509147684
 20
1632.1226725932
 10
2380.6884960985
 20
1632.3944573179
 10
2380.5787152001
 20
1632.7266440958
  0
LINE
  5
4C3
330
1F
100
AcDbEntity
  8
0
  6
Continuous
 62
     7
370
    25
100
AcDbLine
 10
2380.5787152001
 20
1632.7266440958
 30
0.0
 11
2383.6827294337
 21
1632.7266440958
 31
0.0
  0
LWPOLYLINE
  5
4C4
330
1F
100
AcDbEntity
  8
0
  6
Continuous
 62
     7
370
    25
100
AcDbPolyline
 90
        9
 70
   128
 43
0.0
 10
2383.6827294337
 20
1632.7266440958
 10
2383.7036576735
 20
1632.5554483812
 10
2383.738947806
 20
1632.3944573193
 10
2383.7875006543
 20
1632.2486852766
 10
2383.8478039495
 20
1632.1226725952
 10
2383.917979433
 20
1632.0203441748
 10
2383.9958413585
 20
1631.9448872249
 10
2384.0789645714
 20
1631.8986519927
 10
2384.1647600442
 20
1631.8830785608
  0
LWPOLYLINE
  5
4C5
330
1F
100
AcDbEntity
  8
0
  6
Continuous
 62
     7
370
    25
100
AcDbPolyline
 90
        3
 70
   128
 43
0.0
 10
2381.2749959128
 20
1631.8830785608
 10
2381.0525147025
 20
1631.9448872244
 10
2380.8509147684
 20
1632.1226725932
  0
ARC
  5
4C6
330
1F
100
AcDbEntity
  8
0
  6
Continuous
 62
     7
370
    25
100
AcDbCircle
 10
2380.9763645808
 20
1632.3240542517
 30
0.0
 40
0.3554683736708916
100
AcDbArc
 50
187.1591901875
 51
214.5082446733
  0
ARC
  5
4C7
330
1F
100
AcDbEntity
  8
0
  6
Continuous
 62
     7
370
    25
100
AcDbCircle
 10
2381.2653815022
 20
1632.9651957824
 30
0.0
 40
0.9389504768018663
100
AcDbArc
 50
226.8871512525
 51
243.8058075802
  0
LINE
  5
4C8
330
1F
100
AcDbEntity
  8
0
  6
Continuous
 62
     7
370
    25
100
AcDbLine
 10
2380.4631125148
 20
1632.7141095548
 30
0.0
 11
2380.391356731
 21
1632.7266440958
 31
0.0
  0
ARC
  5
4C9
330
1F
100
AcDbEntity
  8
0
  6
Continuous
 62
     7
370
    25
100
AcDbCircle
 10
2381.5965083288
 20
1632.8862045615
 30
0.0
 40
1.146386562292736
100
AcDbArc
 50
188.633850404
 51
211.938656767
  0
LINE
  5
4CA
330
1F
100
AcDbEntity
  8
0
  6
Continuous
 62
     7
370
    25
100
AcDbLine
 10
2380.5787152001
 20
1632.7266440958
 30
0.0
 11
2380.4631125148
 21
1632.7141095548
 31
0.0
  0
LWPOLYLINE
  5
4CB
330
1F
100
AcDbEntity
  8
0
  6
Continuous
 62
     7
370
    25
100
AcDbPolyline
 90
        9
 70
   128
 43
0.0
 10
2383.6827294342
 20
1632.7266440895
 10
2383.7549605796
 20
1632.6995162244
 10
2383.8132926355
 20
1632.6801389808
 10
2383.8565591295
 20
1632.6684437273
 10
2383.8842705723
 20
1632.6645050907
 10
2383.8967320436
 20
1632.6684374056
 10
2383.893296678
 20
1632.6801312361
 10
2383.8728290292
 20
1632.6995109053
 10
2383.8347474913
 20
1632.7266440958
  0
ARC
  5
4CC
330
1F
100
AcDbEntity
  8
0
  6
Continuous
 62
     7
370
    25
100
AcDbCircle
 10
2365.9955898245
 20
1618.8068926885
 30
0.0
 40
6.752098515269503
100
AcDbArc
 50
162.0921195466
 51
171.7423680327
  0
LWPOLYLINE
  5
4CD
330
1F
100
AcDbEntity
  8
0
  6
Continuous
 62
     7
370
    25
100
AcDbPolyline
 90
       11
 70
   128
 43
0.0
 10
2359.5706161605
 20
1620.8830785608
 10
2359.5705928905
 20
1620.882982499
 10
2359.5704133089
 20
1620.8821900283
 10
2359.5699177328
 20
1620.8799567352
 10
2359.5680484069
 20
1620.8714558672
 10
2359.5607970607
 20
1620.8383170038
 10
2359.3485869229
 20
1619.8781199843
 10
2359.1416027065
 20
1618.9962238743
 10
2358.9433775607
 20
1618.244832288
 10
2358.6065041291
 20
1617.286430489
 10
2358.2483264796
 20
1616.8830785608
  0
LINE
  5
4CE
330
1F
100
AcDbEntity
  8
0
  6
Continuous
 62
     7
370
    25
100
AcDbLine
 10
2359.5706161605
 20
1611.8830785608
 30
0.0
 11
2334.9717848397
 21
1611.8830785607
 31
0.0
  0
LINE
  5
4CF
330
1F
100
AcDbEntity
  8
0
  6
Continuous
 62
     7
370
    25
100
AcDbLine
 10
2334.9717848397
 20
1616.8830785607
 30
0.0
 11
2334.9717848397
 21
1611.8830785607
 31
0.0
  0
LINE
  5
4D0
330
1F
100
AcDbEntity
  8
0
  6
Continuous
 62
     7
370
    25
100
AcDbLine
 10
2358.2483264796
 20
1616.8830785608
 30
0.0
 11
2334.9717848397
 21
1616.8830785607
 31
0.0
  0
LINE
  5
4D1
330
1F
100
AcDbEntity
  8
0
  6
Continuous
 62
     7
370
    25
100
AcDbLine
 10
2335.9649314726
 20
1610.8830785608
 30
0.0
 11
2334.9717848397
 21
1611.8830785607
 31
0.0
  0
LINE
  5
4D2
330
1F
100
AcDbEntity
  8
0
  6
Continuous
 62
     7
370
    25
100
AcDbLine
 10
2360.5637627933
 20
1610.8830785608
 30
0.0
 11
2335.9649314726
 21
1610.8830785608
 31
0.0
  0
ARC
  5
4D3
330
1F
100
AcDbEntity
  8
0
  6
Continuous
 62
     7
370
    25
100
AcDbCircle
 10
2364.1847169505
 20
1632.8006354269
 30
0.0
 40
0.9191498472659559
100
AcDbArc
 50
273.3737472448
 51
355.3827081649
  0
LINE
  5
4D4
330
1F
100
AcDbEntity
  8
0
  6
Continuous
 62
     7
370
    25
100
AcDbLine
 10
2335.9649314726
 20
1617.8830785607
 30
0.0
 11
2334.9717848397
 21
1616.8830785607
 31
0.0
  0
LINE
  5
4D5
330
1F
100
AcDbEntity
  8
0
  6
Continuous
 62
     7
370
    25
100
AcDbLine
 10
2335.9649314726
 20
1617.8830785607
 30
0.0
 11
2358.8162229376
 21
1617.8830785608
 31
0.0
  0
LINE
  5
4D6
330
1F
100
AcDbEntity
  8
0
  6
Continuous
 62
     7
370
    25
100
AcDbLine
 10
2334.8593150478
 20
1611.8830785607
 30
0.0
 11
2334.9717848397
 21
1611.8830785607
 31
0.0
  0
LINE
  5
4D7
330
1F
100
AcDbEntity
  8
0
  6
Continuous
 62
     7
370
    25
100
AcDbLine
 10
2334.8593150478
 20
1611.8830785607
 30
0.0
 11
2334.8593150478
 21
1616.8830785607
 31
0.0
  0
LINE
  5
4D8
330
1F
100
AcDbEntity
  8
0
  6
Continuous
 62
     7
370
    25
100
AcDbLine
 10
2334.9717848397
 20
1616.8830785607
 30
0.0
 11
2334.8593150478
 21
1616.8830785607
 31
0.0
  0
LINE
  5
4D9
330
1F
100
AcDbEntity
  8
0
  6
Continuous
 62
     7
370
    25
100
AcDbLine
 10
2335.8547110765
 20
1610.8830785607
 30
0.0
 11
2334.8593150478
 21
1611.8830785607
 31
0.0
  0
LINE
  5
4DA
330
1F
100
AcDbEntity
  8
0
  6
Continuous
 62
     7
370
    25
100
AcDbLine
 10
2335.9649314726
 20
1610.8830785608
 30
0.0
 11
2335.8547110765
 21
1610.8830785607
 31
0.0
  0
LINE
  5
4DB
330
1F
100
AcDbEntity
  8
0
  6
Continuous
 62
     7
370
    25
100
AcDbLine
 10
2334.8593150478
 20
1616.8830785607
 30
0.0
 11
2335.8547110765
 21
1617.8830785607
 31
0.0
  0
LINE
  5
4DC
330
1F
100
AcDbEntity
  8
0
  6
Continuous
 62
     7
370
    25
100
AcDbLine
 10
2335.8547110765
 20
1617.8830785607
 30
0.0
 11
2335.9649314726
 21
1617.8830785607
 31
0.0
  0
LINE
  5
4DD
330
1F
100
AcDbEntity
  8
0
  6
Continuous
 62
     7
370
    25
100
AcDbLine
 10
2317.7638553656
 20
1610.8830785607
 30
0.0
 11
2316.7684593369
 21
1611.8830785607
 31
0.0
  0
LINE
  5
4DE
330
1F
100
AcDbEntity
  8
0
  6
Continuous
 62
     7
370
    25
100
AcDbLine
 10
2334.8593150478
 20
1611.8830785607
 30
0.0
 11
2316.7684593369
 21
1611.8830785607
 31
0.0
  0
LINE
  5
4DF
330
1F
100
AcDbEntity
  8
0
  6
Continuous
 62
     7
370
    25
100
AcDbLine
 10
2335.8547110765
 20
1610.8830785607
 30
0.0
 11
2317.7638553656
 21
1610.8830785607
 31
0.0
  0
LINE
  5
4E0
330
1F
100
AcDbEntity
  8
0
  6
Continuous
 62
     7
370
    25
100
AcDbLine
 10
2316.7684593369
 20
1616.8830785607
 30
0.0
 11
2317.7638553656
 21
1617.8830785607
 31
0.0
  0
LINE
  5
4E1
330
1F
100
AcDbEntity
  8
0
  6
Continuous
 62
     7
370
    25
100
AcDbLine
 10
2334.8593150478
 20
1616.8830785607
 30
0.0
 11
2316.7684593369
 21
1616.8830785607
 31
0.0
  0
LINE
  5
4E2
330
1F
100
AcDbEntity
  8
0
  6
Continuous
 62
     7
370
    25
100
AcDbLine
 10
2317.7638553656
 20
1617.8830785607
 30
0.0
 11
2335.8547110765
 21
1617.8830785607
 31
0.0
  0
LINE
  5
4E3
330
1F
100
AcDbEntity
  8
0
  6
Continuous
 62
     7
370
    25
100
AcDbLine
 10
2316.7684593369
 20
1611.8830785607
 30
0.0
 11
2316.7684593369
 21
1616.8830785607
 31
0.0
  0
LINE
  5
4E4
330
1F
100
AcDbEntity
  8
0
  6
Continuous
 62
     7
370
    25
100
AcDbLine
 10
2316.7684593369
 20
1611.8830785607
 30
0.0
 11
2316.7178156526
 21
1611.8830785607
 31
0.0
  0
LINE
  5
4E5
330
1F
100
AcDbEntity
  8
0
  6
Continuous
 62
     7
370
    25
100
AcDbLine
 10
2317.7638553656
 20
1610.8830785607
 30
0.0
 11
2317.7178156526
 21
1610.8830785607
 31
0.0
  0
LINE
  5
4E6
330
1F
100
AcDbEntity
  8
0
  6
Continuous
 62
     7
370
    25
100
AcDbLine
 10
2316.7684593369
 20
1616.8830785607
 30
0.0
 11
2316.7178156526
 21
1616.8830785607
 31
0.0
  0
LINE
  5
4E7
330
1F
100
AcDbEntity
  8
0
  6
Continuous
 62
     7
370
    25
100
AcDbLine
 10
2317.7178156526
 20
1617.8830785607
 30
0.0
 11
2317.7638553656
 21
1617.8830785607
 31
0.0
  0
LINE
  5
4E8
330
1F
100
AcDbEntity
  8
0
  6
Continuous
 62
     7
370
    25
100
AcDbLine
 10
2314.4678156514
 20
1563.8830785669
 30
0.0
 11
2314.9678156514
 21
1563.8830785669
 31
0.0
  0
LINE
  5
4E9
330
1F
100
AcDbEntity
  8
0
  6
Continuous
 62
     7
370
    25
100
AcDbLine
 10
2314.9678156514
 20
1563.8830785669
 30
0.0
 11
2314.9678156514
 21
1563.3830785669
 31
0.0
  0
ARC
  5
4EA
330
1F
100
AcDbEntity
  8
0
  6
Continuous
 62
     7
370
    25
100
AcDbCircle
 10
2314.9678156514
 20
1563.8830785669
 30
0.0
 40
0.5
100
AcDbArc
 50
180.0
 51
270.0
  0
LINE
  5
4EB
330
1F
100
AcDbEntity
  8
0
  6
Continuous
 62
     7
370
    25
100
AcDbLine
 10
2314.9678156514
 20
1563.8830785669
 30
0.0
 11
2341.9678156514
 21
1563.8830785669
 31
0.0
  0
LINE
  5
4EC
330
1F
100
AcDbEntity
  8
0
  6
Continuous
 62
     7
370
    25
100
AcDbLine
 10
2314.9678156514
 20
1579.8830785669
 30
0.0
 11
2314.9678156514
 21
1563.8830785669
 31
0.0
  0
LINE
  5
4ED
330
1F
100
AcDbEntity
  8
0
  6
Continuous
 62
     7
370
    25
100
AcDbLine
 10
2341.9678156514
 20
1579.8830785669
 30
0.0
 11
2314.9678156514
 21
1579.8830785669
 31
0.0
  0
LINE
  5
4EE
330
1F
100
AcDbEntity
  8
0
  6
Continuous
 62
     7
370
    25
100
AcDbLine
 10
2341.9678156514
 20
1563.8830785669
 30
0.0
 11
2341.9678156514
 21
1579.8830785669
 31
0.0
  0
LINE
  5
4EF
330
1F
100
AcDbEntity
  8
0
  6
Continuous
 62
     7
370
    25
100
AcDbLine
 10
2314.9678156514
 20
1579.8830785669
 30
0.0
 11
2314.4678156514
 21
1579.8830785669
 31
0.0
  0
LINE
  5
4F0
330
1F
100
AcDbEntity
  8
0
  6
Continuous
 62
     7
370
    25
100
AcDbLine
 10
2314.4678156514
 20
1579.8830785669
 30
0.0
 11
2314.4678156514
 21
1563.8830785669
 31
0.0
  0
LINE
  5
4F1
330
1F
100
AcDbEntity
  8
0
  6
Continuous
 62
     7
370
    25
100
AcDbLine
 10
2341.9678156514
 20
1563.3830785669
 30
0.0
 11
2341.9678156514
 21
1563.8830785669
 31
0.0
  0
LINE
  5
4F2
330
1F
100
AcDbEntity
  8
0
  6
Continuous
 62
     7
370
    25
100
AcDbLine
 10
2314.9678156514
 20
1563.3830785669
 30
0.0
 11
2341.9678156514
 21
1563.3830785669
 31
0.0
  0
LINE
  5
4F3
330
1F
100
AcDbEntity
  8
0
  6
Continuous
 62
     7
370
    25
100
AcDbLine
 10
2341.9678156514
 20
1579.8830785669
 30
0.0
 11
2341.9678156514
 21
1580.3830785669
 31
0.0
  0
LINE
  5
4F4
330
1F
100
AcDbEntity
  8
0
  6
Continuous
 62
     7
370
    25
100
AcDbLine
 10
2314.9678156514
 20
1580.3830785669
 30
0.0
 11
2314.9678156514
 21
1579.8830785669
 31
0.0
  0
LINE
  5
4F5
330
1F
100
AcDbEntity
  8
0
  6
Continuous
 62
     7
370
    25
100
AcDbLine
 10
2341.9678156514
 20
1580.3830785669
 30
0.0
 11
2314.9678156514
 21
1580.3830785669
 31
0.0
  0
ARC
  5
4F6
330
1F
100
AcDbEntity
  8
0
  6
Continuous
 62
     7
370
    25
100
AcDbCircle
 10
2314.9678156514
 20
1579.8830785669
 30
0.0
 40
0.5000000000002274
100
AcDbArc
 50
89.9999999999
 51
180.0
  0
LINE
  5
4F7
330
1F
100
AcDbEntity
  8
0
  6
Continuous
 62
     7
370
    25
100
AcDbLine
 10
2342.4678156514
 20
1579.8830785669
 30
0.0
 11
2341.9678156514
 21
1579.8830785669
 31
0.0
  0
LINE
  5
4F8
330
1F
100
AcDbEntity
  8
0
  6
Continuous
 62
     7
370
    25
100
AcDbLine
 10
2342.4678156514
 20
1563.8830785669
 30
0.0
 11
2342.4678156514
 21
1579.8830785669
 31
0.0
  0
LINE
  5
4F9
330
1F
100
AcDbEntity
  8
0
  6
Continuous
 62
     7
370
    25
100
AcDbLine
 10
2341.9678156514
 20
1563.8830785669
 30
0.0
 11
2342.4678156514
 21
1563.8830785669
 31
0.0
  0
ARC
  5
4FA
330
1F
100
AcDbEntity
  8
0
  6
Continuous
 62
     7
370
    25
100
AcDbCircle
 10
2341.9678156514
 20
1563.8830785669
 30
0.0
 40
0.5000000000011369
100
AcDbArc
 50
270.0
 51
0.0
  0
ARC
  5
4FB
330
1F
100
AcDbEntity
  8
0
  6
Continuous
 62
     7
370
    25
100
AcDbCircle
 10
2341.9678156514
 20
1579.8830785669
 30
0.0
 40
0.5000000000002274
100
AcDbArc
 50
0.0
 51
90.0
  0
LINE
  5
4FC
330
1F
100
AcDbEntity
  8
0
  6
Continuous
 62
     7
370
    25
100
AcDbLine
 10
2315.4678156534
 20
1739.3830785607
 30
0.0
 11
2374.4678156534
 21
1739.3830785607
 31
0.0
  0
LINE
  5
4FD
330
1F
100
AcDbEntity
  8
0
  6
Continuous
 62
     7
370
    25
100
AcDbLine
 10
2374.4678156534
 20
1739.3830785607
 30
0.0
 11
2374.4678156534
 21
1738.3830785607
 31
0.0
  0
LINE
  5
4FE
330
1F
100
AcDbEntity
  8
0
  6
Continuous
 62
     7
370
    25
100
AcDbLine
 10
2315.4678156534
 20
1738.3830785607
 30
0.0
 11
2315.4678156534
 21
1739.3830785607
 31
0.0
  0
LINE
  5
4FF
330
1F
100
AcDbEntity
  8
0
  6
Continuous
 62
     7
370
    25
100
AcDbLine
 10
2374.4678156534
 20
1739.3830785607
 30
0.0
 11
2397.4678156534
 21
1739.3830785607
 31
0.0
  0
LINE
  5
500
330
1F
100
AcDbEntity
  8
0
  6
Continuous
 62
     7
370
    25
100
AcDbLine
 10
2371.4678156534
 20
1643.3830785607
 30
0.0
 11
2371.4678156534
 21
1642.3830785607
 31
0.0
  0
LINE
  5
501
330
1F
100
AcDbEntity
  8
0
  6
Continuous
 62
     7
370
    25
100
AcDbLine
 10
2315.4678156534
 20
1642.3830785607
 30
0.0
 11
2315.4678156534
 21
1643.3830785607
 31
0.0
  0
LINE
  5
502
330
1F
100
AcDbEntity
  8
0
  6
Continuous
 62
     7
370
    25
100
AcDbLine
 10
2371.4678156534
 20
1642.3830785607
 30
0.0
 11
2315.4678156534
 21
1642.3830785607
 31
0.0
  0
LINE
  5
503
330
1F
100
AcDbEntity
  8
0
  6
Continuous
 62
     7
370
    25
100
AcDbLine
 10
2429.4678156534
 20
1736.3830785607
 30
0.0
 11
2322.9678156534
 21
1736.3830785607
 31
0.0
  0
LINE
  5
504
330
1F
100
AcDbEntity
  8
0
  6
Continuous
 62
     7
370
    25
100
AcDbLine
 10
2429.4678156534
 20
1733.3830785607
 30
0.0
 11
2429.4678156534
 21
1736.3830785607
 31
0.0
  0
LINE
  5
505
330
1F
100
AcDbEntity
  8
0
  6
Continuous
 62
     7
370
    25
100
AcDbLine
 10
2429.4678156534
 20
1733.3830785607
 30
0.0
 11
2314.4678156534
 21
1733.3830785607
 31
0.0
  0
LINE
  5
506
330
1F
100
AcDbEntity
  8
0
  6
Continuous
 62
     7
370
    25
100
AcDbLine
 10
2314.4678156534
 20
1733.3830785607
 30
0.0
 11
2314.4678156534
 21
1736.3830785607
 31
0.0
  0
LINE
  5
507
330
1F
100
AcDbEntity
  8
0
  6
Continuous
 62
     7
370
    25
100
AcDbLine
 10
2317.9678156534
 20
1736.3830785607
 30
0.0
 11
2314.4678156534
 21
1736.3830785607
 31
0.0
  0
ARC
  5
508
330
1F
100
AcDbEntity
  8
0
  6
Continuous
 62
     7
370
    25
100
AcDbCircle
 10
2320.4678156534
 20
1737.716411894
 30
0.0
 40
2.83333333333394
100
AcDbArc
 50
208.0724869359
 51
331.9275130641
  0
LINE
  5
509
330
1F
100
AcDbEntity
  8
0
  6
Continuous
 62
     7
370
    25
100
AcDbLine
 10
2429.4678156534
 20
1648.3830785607
 30
0.0
 11
2429.4678156534
 21
1733.3830785607
 31
0.0
  0
LINE
  5
50A
330
1F
100
AcDbEntity
  8
0
  6
Continuous
 62
     7
370
    25
100
AcDbLine
 10
2314.4678156534
 20
1648.3830785607
 30
0.0
 11
2429.4678156534
 21
1648.3830785607
 31
0.0
  0
LINE
  5
50B
330
1F
100
AcDbEntity
  8
0
  6
Continuous
 62
     7
370
    25
100
AcDbLine
 10
2314.4678156534
 20
1733.3830785607
 30
0.0
 11
2314.4678156534
 21
1648.3830785607
 31
0.0
  0
LINE
  5
50C
330
1F
100
AcDbEntity
  8
0
  6
Continuous
 62
     7
370
    25
100
AcDbLine
 10
2326.4678156534
 20
1720.3830785607
 30
0.0
 11
2326.4678156534
 21
1661.3830785607
 31
0.0
  0
ARC
  5
50D
330
1F
100
AcDbEntity
  8
0
  6
Continuous
 62
     7
370
    25
100
AcDbCircle
 10
2329.4678156534
 20
1661.3830785607
 30
0.0
 40
3.000000000000455
100
AcDbArc
 50
180.0
 51
270.0
  0
LINE
  5
50E
330
1F
100
AcDbEntity
  8
0
  6
Continuous
 62
     7
370
    25
100
AcDbLine
 10
2329.4678156534
 20
1658.3830785607
 30
0.0
 11
2415.4678156534
 21
1658.3830785607
 31
0.0
  0
ARC
  5
50F
330
1F
100
AcDbEntity
  8
0
  6
Continuous
 62
     7
370
    25
100
AcDbCircle
 10
2415.4678156534
 20
1661.3830785607
 30
0.0
 40
3.000000000000227
100
AcDbArc
 50
270.0
 51
0.0
  0
LINE
  5
510
330
1F
100
AcDbEntity
  8
0
  6
Continuous
 62
     7
370
    25
100
AcDbLine
 10
2418.4678156534
 20
1661.3830785607
 30
0.0
 11
2418.4678156534
 21
1720.3830785607
 31
0.0
  0
ARC
  5
511
330
1F
100
AcDbEntity
  8
0
  6
Continuous
 62
     7
370
    25
100
AcDbCircle
 10
2415.4678156534
 20
1720.3830785607
 30
0.0
 40
2.999999999999773
100
AcDbArc
 50
0.0
 51
90.0
  0
LINE
  5
512
330
1F
100
AcDbEntity
  8
0
  6
Continuous
 62
     7
370
    25
100
AcDbLine
 10
2415.4678156534
 20
1723.3830785607
 30
0.0
 11
2329.4678156534
 21
1723.3830785607
 31
0.0
  0
ARC
  5
513
330
1F
100
AcDbEntity
  8
0
  6
Continuous
 62
     7
370
    25
100
AcDbCircle
 10
2329.4678156534
 20
1720.3830785607
 30
0.0
 40
3.000000000000455
100
AcDbArc
 50
90.0
 51
180.0
  0
LINE
  5
514
330
1F
100
AcDbEntity
  8
0
  6
Continuous
 62
     7
370
    25
100
AcDbLine
 10
2314.4678156534
 20
1645.3830785607
 30
0.0
 11
2317.9678156534
 21
1645.3830785607
 31
0.0
  0
LINE
  5
515
330
1F
100
AcDbEntity
  8
0
  6
Continuous
 62
     7
370
    25
100
AcDbLine
 10
2314.4678156534
 20
1645.3830785607
 30
0.0
 11
2314.4678156534
 21
1648.3830785607
 31
0.0
  0
LINE
  5
516
330
1F
100
AcDbEntity
  8
0
  6
Continuous
 62
     7
370
    25
100
AcDbLine
 10
2429.4678156534
 20
1645.3830785607
 30
0.0
 11
2429.4678156534
 21
1648.3830785607
 31
0.0
  0
LINE
  5
517
330
1F
100
AcDbEntity
  8
0
  6
Continuous
 62
     7
370
    25
100
AcDbLine
 10
2322.9678156534
 20
1645.3830785607
 30
0.0
 11
2429.4678156534
 21
1645.3830785607
 31
0.0
  0
ARC
  5
518
330
1F
100
AcDbEntity
  8
0
  6
Continuous
 62
     7
370
    25
100
AcDbCircle
 10
2320.4678156534
 20
1644.0497452274
 30
0.0
 40
2.833333333333298
100
AcDbArc
 50
28.0724869359
 51
151.9275130641
  0
LINE
  5
519
330
1F
100
AcDbEntity
  8
0
  6
Continuous
 62
     7
370
    25
100
AcDbLine
 10
2432.4678156534
 20
1648.3830785607
 30
0.0
 11
2432.4678156534
 21
1733.3830785654
 31
0.0
  0
LINE
  5
51A
330
1F
100
AcDbEntity
  8
0
  6
Continuous
 62
     7
370
    25
100
AcDbLine
 10
2429.4678156534
 20
1648.3830785607
 30
0.0
 11
2432.4678156534
 21
1648.3830785607
 31
0.0
  0
LINE
  5
51B
330
1F
100
AcDbEntity
  8
0
  6
Continuous
 62
     7
370
    25
100
AcDbLine
 10
2432.4678156534
 20
1733.3830785607
 30
0.0
 11
2429.4678156534
 21
1733.3830785607
 31
0.0
  0
ARC
  5
51C
330
1F
100
AcDbEntity
  8
0
  6
Continuous
 62
     7
370
    25
100
AcDbCircle
 10
2429.4678156534
 20
1648.3830785607
 30
0.0
 40
3.0
100
AcDbArc
 50
269.9999996402
 51
0.0
  0
ARC
  5
51D
330
1F
100
AcDbEntity
  8
0
  6
Continuous
 62
     7
370
    25
100
AcDbCircle
 10
2429.4678156534
 20
1733.3830785607
 30
0.0
 40
3.0
100
AcDbArc
 50
0.0000001799
 51
90.0
  0
LINE
  5
51E
330
1F
100
AcDbEntity
  8
0
  6
Continuous
 62
     7
370
    25
100
AcDbLine
 10
2314.4678156534
 20
1738.3830785607
 30
0.0
 11
2429.4678156534
 21
1738.3830785607
 31
0.0
  0
ARC
  5
51F
330
1F
100
AcDbEntity
  8
0
  6
Continuous
 62
     7
370
    25
100
AcDbCircle
 10
2429.4678156534
 20
1733.3830785607
 30
0.0
 40
5.0
100
AcDbArc
 50
0.0
 51
90.0
  0
LINE
  5
520
330
1F
100
AcDbEntity
  8
0
  6
Continuous
 62
     7
370
    25
100
AcDbLine
 10
2434.4678156534
 20
1733.3830785607
 30
0.0
 11
2434.4678156534
 21
1648.3830785607
 31
0.0
  0
ARC
  5
521
330
1F
100
AcDbEntity
  8
0
  6
Continuous
 62
     7
370
    25
100
AcDbCircle
 10
2429.4678156534
 20
1648.3830785607
 30
0.0
 40
5.0
100
AcDbArc
 50
270.0
 51
0.0
  0
LINE
  5
522
330
1F
100
AcDbEntity
  8
0
  6
Continuous
 62
     7
370
    25
100
AcDbLine
 10
2429.4678156534
 20
1643.3830785607
 30
0.0
 11
2314.4678156534
 21
1643.3830785607
 31
0.0
  0
LINE
  5
523
330
1F
100
AcDbEntity
  8
0
  6
Continuous
 62
     7
370
    25
100
AcDbLine
 10
2314.4678156534
 20
1736.3830785607
 30
0.0
 11
2314.4678156534
 21
1738.3830785607
 31
0.0
  0
LINE
  5
524
330
1F
100
AcDbEntity
  8
0
  6
Continuous
 62
     7
370
    25
100
AcDbLine
 10
2314.4678156534
 20
1643.3830785607
 30
0.0
 11
2314.4678156534
 21
1645.3830785607
 31
0.0
  0
LINE
  5
525
330
1F
100
AcDbEntity
  8
0
  6
Continuous
 62
     7
370
    25
100
AcDbLine
 10
2359.4678156535
 20
1620.8830785608
 30
0.0
 11
2359.5706161605
 21
1620.8830785608
 31
0.0
  0
LINE
  5
526
330
1F
100
AcDbEntity
  8
0
  6
Continuous
 62
     7
370
    25
100
AcDbLine
 10
2372.1645092624
 20
1633.6270625917
 30
0.0
 11
2372.1096345475
 21
1632.7266440958
 31
0.0
  0
LINE
  5
527
330
1F
100
AcDbEntity
  8
0
  6
Continuous
 62
     7
370
    25
100
AcDbLine
 10
2371.5719919865
 20
1632.7266440958
 30
0.0
 11
2371.6268666996
 21
1633.6270625917
 31
0.0
  0
LINE
  5
528
330
1F
100
AcDbEntity
  8
0
  6
Continuous
 62
     7
370
    25
100
AcDbLine
 10
2369.932024839
 20
1633.6270625917
 30
0.0
 11
2369.8363791653
 21
1632.7266440958
 31
0.0
  0
LINE
  5
529
330
1F
100
AcDbEntity
  8
0
  6
Continuous
 62
     7
370
    25
100
AcDbLine
 10
2375.2136487479
 20
1632.7266440958
 30
0.0
 11
2375.1956076402
 21
1633.6270625917
 31
0.0
  0
LINE
  5
52A
330
1F
100
AcDbEntity
  8
0
  6
Continuous
 62
     7
370
    25
100
AcDbLine
 10
2378.9360871229
 20
1632.7266440958
 30
0.0
 11
2378.8376573175
 21
1633.6270625917
 31
0.0
  0
LINE
  5
52B
330
1F
100
AcDbEntity
  8
0
  6
Continuous
 62
     7
370
    25
100
AcDbLine
 10
2375.495912907
 20
1633.6270625917
 30
0.0
 11
2375.5139540147
 21
1632.7266440958
 31
0.0
  0
LINE
  5
52C
330
1F
100
AcDbEntity
  8
0
  6
Continuous
 62
     7
370
    25
100
AcDbLine
 10
2379.3253210218
 20
1633.6270625917
 30
0.0
 11
2379.4237508236
 21
1632.7266440958
 31
0.0
  0
LINE
  5
52D
330
1F
100
AcDbEntity
  8
0
  6
Continuous
 62
     7
370
    25
100
AcDbLine
 10
2380.391356731
 20
1632.7266440958
 30
0.0
 11
2380.270197078
 21
1633.6270625917
 31
0.0
  0
LINE
  5
52E
330
1F
100
AcDbEntity
  8
0
  6
Continuous
 62
     7
370
    25
100
AcDbLine
 10
2369.5990418533
 20
1632.7266440958
 30
0.0
 11
2369.694687527
 21
1633.6270625917
 31
0.0
  0
LINE
  5
52F
330
1F
100
AcDbEntity
  8
0
  6
Continuous
 62
     7
370
    25
100
AcDbLine
 10
2366.3529431485
 20
1633.6270625917
 30
0.0
 11
2366.1769087807
 21
1632.7266440958
 31
0.0
  0
LINE
  5
530
330
1F
100
AcDbEntity
  8
0
  6
Continuous
 62
     7
370
    25
100
AcDbLine
 10
2380.4575555472
 20
1633.6270625917
 30
0.0
 11
2380.5787152001
 21
1632.7266440958
 31
0.0
  0
LINE
  5
531
330
1F
100
AcDbEntity
  8
0
  6
Continuous
 62
     7
370
    25
100
AcDbLine
 10
2383.6827294328
 20
1632.7266440958
 30
0.0
 11
2383.488653954
 21
1633.6270625917
 31
0.0
  0
LINE
  5
532
330
1F
100
AcDbEntity
  8
0
  6
Continuous
 62
     7
370
    25
100
AcDbLine
 10
2365.1008838155
 20
1632.7266440958
 30
0.0
 11
2365.8890625645
 21
1632.7266440958
 31
0.0
  0
LINE
  5
533
330
1F
100
AcDbEntity
  8
0
  6
Continuous
 62
     7
370
    25
100
AcDbLine
 10
2365.2949592911
 20
1633.6270625917
 30
0.0
 11
2365.1008838155
 21
1632.7266440958
 31
0.0
  0
LWPOLYLINE
  5
534
330
1F
100
AcDbEntity
  8
0
  6
Continuous
 62
     7
370
    25
100
AcDbPolyline
 90
        3
 70
   128
 43
0.0
 10
2365.0403810874
 20
1632.6733368918
 10
2365.0438353154
 20
1632.68175944
 10
2365.1008838155
 20
1632.7266440958
  0
LINE
  5
535
330
1F
100
AcDbEntity
  8
FORMAT
370
    25
100
AcDbLine
 10
2284.4678156537
 20
1798.8181569754
 30
0.0
 11
2284.4678156537
 21
1907.4168334926
 31
0.0
  0
LINE
  5
536
330
1F
100
AcDbEntity
  8
FORMAT
370
    25
100
AcDbLine
 10
2434.4678156537
 20
1798.8181569754
 30
0.0
 11
2434.4678156537
 21
1907.4168334926
 31
0.0
  0
DIMENSION
  5
537
330
1F
100
AcDbEntity
  8
FORMAT
100
AcDbDimension
  2
_D_20
 10
2434.4678156537
 20
1862.954331875
 30
0.0
 11
2500.9648313472
 21
1862.954331875
 31
0.0
 70
   160
  1
max. +<>
 71
     2
 42
-1.0
  3
SLDDIMSTYLE4
100
AcDbAlignedDimension
 13
2314.4678156537
 23
1786.8830785607
 33
0.0
 14
2434.4678156537
 24
1907.4168334925
 34
0.0
 50
0.0
100
AcDbRotatedDimension
  0
DIMENSION
  5
548
330
1F
100
AcDbEntity
  8
FORMAT
100
AcDbDimension
  2
_D_21
 10
2284.4678156537
 20
1862.954331875
 30
0.0
 11
2228.201110067
 21
1862.954331875
 31
0.0
 70
   160
  1
max. -<>
 71
     2
 42
-1.0
  3
SLDDIMSTYLE4
100
AcDbAlignedDimension
 13
2314.4678156537
 23
1786.8830785607
 33
0.0
 14
2284.4678156537
 24
1907.4168334925
 34
0.0
100
AcDbRotatedDimension
  0
DIMENSION
  5
553
330
1F
100
AcDbEntity
  8
FORMAT
100
AcDbDimension
  2
_D_22
 10
2342.4678156514
 20
1495.4285427411
 30
0.0
 11
2396.337940505
 21
1495.4285427411
 31
0.0
 70
   160
  1
<>
 71
     2
 42
-1.0
  3
SLDDIMSTYLE1
100
AcDbAlignedDimension
 13
2314.4678156537
 23
1606.8830785607
 33
0.0
 14
2342.4678156514
 24
1563.8830785669
 34
0.0
100
AcDbRotatedDimension
  0
DIMENSION
  5
55E
330
1F
100
AcDbEntity
  8
FORMAT
100
AcDbDimension
  2
_D_23
 10
2434.4678156534
 20
1434.5208658335
 30
0.0
 11
2374.4678156534
 21
1434.5208658335
 31
0.0
 70
   160
  1
<>
 71
     2
 42
-1.0
  3
SLDDIMSTYLE0
100
AcDbAlignedDimension
 13
2314.4678156534
 23
1645.3830785607
 33
0.0
 14
2434.4678156534
 24
1648.3830785607
 34
0.0
 50
0.0
100
AcDbRotatedDimension
  0
DIMENSION
  5
568
330
1F
100
AcDbEntity
  8
FORMAT
100
AcDbDimension
  2
_D_24
 10
2511.6881724612
 20
1738.3830785607
 30
0.0
 11
2511.6881724612
 21
1650.8830785638
 31
0.0
 70
   160
  1
<>
 71
     2
 42
-1.0
  3
SLDDIMSTYLE0
100
AcDbAlignedDimension
 13
2341.9678156514
 23
1563.3830785669
 33
0.0
 14
2429.4678156534
 24
1738.3830785607
 34
0.0
 50
90.0
100
AcDbRotatedDimension
  0
DIMENSION
  5
572
330
1F
100
AcDbEntity
  8
FORMAT
100
AcDbDimension
  2
_D_25
 10
2201.0534659638
 20
1739.3830785607
 30
0.0
 11
2201.0534659638
 21
1675.6330785607
 31
0.0
 70
   160
  1
<>
 71
     2
 42
-1.0
  3
SLDDIMSTYLE0
100
AcDbAlignedDimension
 13
2274.4678156537
 23
1611.8830785607
 33
0.0
 14
2315.4678156534
 24
1739.3830785607
 34
0.0
 50
90.0
100
AcDbRotatedDimension
  0
MTEXT
  5
57C
330
1F
100
AcDbEntity
  8
FORMAT
100
AcDbMText
 10
2319.4827586144
 20
1969.8480024152
 30
0.0
 40
35.0
 41
0.0
 71
     2
 72
     1
  1
A-A
  7
SLDTEXTSTYLE0
 73
     1
 44
1.0
  0
MTEXT
  5
57D
330
1F
100
AcDbEntity
  8
FORMAT
100
AcDbMText
 10
2304.7144217815
 20
1900.7859415714
 30
0.0
 40
18.5208333333
 41
0.0
 71
     1
 72
     1
  1
**
  7
SLDTEXTSTYLE0
 73
     1
 44
1.0
  0
MTEXT
  5
57E
330
1F
100
AcDbEntity
  8
FORMAT
100
AcDbMText
 10
2244.1360218534
 20
1267.5327377829
 30
0.0
 40
18.5208333333
 41
0.0
 71
     1
 72
     1
  1
** Sturztiefe
  7
SLDTEXTSTYLE0
 73
     1
 44
1.0
  0
CIRCLE
  5
57F
330
1F
100
AcDbEntity
  8
0
  6
Continuous
 62
     7
370
    18
100
AcDbCircle
 10
2294.7581128203
 20
1693.4730021551
 30
0.0
 40
159.0557387783124
  0
MTEXT
  5
580
330
1F
100
AcDbEntity
  8
0
  6
Continuous
 62
     7
370
    18
100
AcDbMText
 10
2448.3046378799
 20
1823.3137588271
 30
0.0
 40
35.0
 41
0.0
 71
     1
 72
     1
  1
B
  7
SLDTEXTSTYLE0
 73
     1
 44
1.0
  0
LINE
  5
581
330
1F
100
AcDbEntity
  8
0
  6
Continuous
 62
     7
370
    25
100
AcDbLine
 10
2473.8121524829
 20
771.4294781118
 30
0.0
 11
2473.8121524829
 21
785.0878973632
 31
0.0
  0
LINE
  5
582
330
1F
100
AcDbEntity
  8
0
  6
Continuous
 62
     7
370
    25
100
AcDbLine
 10
2431.8121508139
 20
783.6878945261
 30
0.0
 11
2431.8121508139
 21
771.4294781118
 31
0.0
  0
LINE
  5
583
330
1F
100
AcDbEntity
  8
0
  6
Continuous
 62
     7
370
    25
100
AcDbLine
 10
2377.5621503967
 20
738.8878976136
 30
0.0
 11
2377.5621503967
 21
696.8878959446
 31
0.0
  0
LINE
  5
584
330
1F
100
AcDbEntity
  8
0
  6
Continuous
 62
     7
370
    25
100
AcDbLine
 10
2397.1621516536
 20
696.8878959446
 30
0.0
 11
2397.1621516536
 21
738.8878976136
 31
0.0
  0
LINE
  5
585
330
1F
100
AcDbEntity
  8
0
  6
Continuous
 62
     7
370
    25
100
AcDbLine
 10
2394.3621511947
 20
738.8878976136
 30
0.0
 11
2394.3621511947
 21
739.5878990322
 31
0.0
  0
LINE
  5
586
330
1F
100
AcDbEntity
  8
0
  6
Continuous
 62
     7
370
    25
100
AcDbLine
 10
2380.3621508557
 20
739.5878990322
 30
0.0
 11
2380.3621508557
 21
738.8878976136
 31
0.0
  0
LINE
  5
587
330
1F
100
AcDbEntity
  8
0
  6
Continuous
 62
     7
370
    25
100
AcDbLine
 10
2431.8121508139
 20
768.7079017191
 30
0.0
 11
2431.8121508139
 21
753.5878961115
 31
0.0
  0
LINE
  5
588
330
1F
100
AcDbEntity
  8
0
  6
Continuous
 62
     7
370
    25
100
AcDbLine
 10
2473.8121524829
 20
740.9879018693
 30
0.0
 11
2473.8121524829
 21
768.7079017191
 31
0.0
  0
LINE
  5
589
330
1F
100
AcDbEntity
  8
0
  6
Continuous
 62
     7
370
    25
100
AcDbLine
 10
2472.4121496457
 20
739.5878990322
 30
0.0
 11
2473.8121524829
 21
740.9879018693
 31
0.0
  0
LINE
  5
58A
330
1F
100
AcDbEntity
  8
0
  6
Continuous
 62
     7
370
    25
100
AcDbLine
 10
2473.8121524829
 20
768.7079017191
 30
0.0
 11
2473.5321529585
 21
768.9878960281
 31
0.0
  0
LINE
  5
58B
330
1F
100
AcDbEntity
  8
0
  6
Continuous
 62
     7
370
    25
100
AcDbLine
 10
2432.0921503383
 20
768.9878960281
 30
0.0
 11
2431.8121508139
 21
768.7079017191
 31
0.0
  0
LWPOLYLINE
  5
58C
330
1F
100
AcDbEntity
  8
0
  6
Continuous
 62
     7
370
    25
100
AcDbPolyline
 90
       12
 70
   128
 43
0.0
 10
2440.7921575385
 20
770.1190759569
 10
2440.638190918
 20
769.7004039913
 10
2440.3797205913
 20
769.3697055011
 10
2440.224371888
 20
769.2432110339
 10
2440.0649890679
 20
769.1460584431
 10
2439.9161413687
 20
769.0776740342
 10
2439.7921137887
 20
769.0336664348
 10
2439.7065159309
 20
769.0080587893
 10
2439.6723237264
 20
768.9949889808
 10
2439.7014856714
 20
768.9895232349
 10
2439.8035224903
 20
768.9880003362
 10
2439.9233308065
 20
768.9879273205
  0
LINE
  5
58D
330
1F
100
AcDbEntity
  8
0
  6
Continuous
 62
     7
370
    25
100
AcDbLine
 10
2441.0483461249
 20
771.4294781118
 30
0.0
 11
2440.7737732309
 21
770.0250317483
 31
0.0
  0
LWPOLYLINE
  5
58E
330
1F
100
AcDbEntity
  8
0
  6
Continuous
 62
     7
370
    25
100
AcDbPolyline
 90
        4
 70
   128
 43
0.0
 10
2467.1345651525
 20
768.9879273205
 10
2467.1900153536
 20
768.987958613
 10
2467.2258973497
 20
768.9894293576
 10
2467.2248751301
 20
768.9896588355
  0
ARC
  5
58F
330
1F
100
AcDbEntity
  8
0
  6
Continuous
 62
     7
370
    25
100
AcDbCircle
 10
2467.4019632984
 20
770.4035231316
 30
0.0
 40
1.422836952144567
100
AcDbArc
 50
192.6136044467
 51
261.8336052733
  0
LWPOLYLINE
  5
590
330
1F
100
AcDbEntity
  8
0
  6
Continuous
 62
     7
370
    25
100
AcDbPolyline
 90
        3
 70
   128
 43
0.0
 10
2431.5990936387
 20
752.1073673993
 10
2431.5092321861
 20
751.6263191729
 10
2431.3889883834
 20
751.0826339155
  0
LINE
  5
591
330
1F
100
AcDbEntity
  8
0
  6
Continuous
 62
     7
370
    25
100
AcDbLine
 10
2466.0134718198
 20
770.0928111701
 30
0.0
 11
2465.7253675538
 21
771.4294781118
 31
0.0
  0
ARC
  5
592
330
1F
100
AcDbEntity
  8
0
  6
Continuous
 62
     7
370
    25
100
AcDbCircle
 10
2427.6120704223
 20
753.5879049512
 30
0.0
 40
4.200080391684631
100
AcDbArc
 50
347.4492632116
 51
359.9998794123
  0
LINE
  5
593
330
1F
100
AcDbEntity
  8
0
  6
Continuous
 62
     7
370
    25
100
AcDbLine
 10
2439.898935743
 20
771.4294781118
 30
0.0
 11
2439.6108340847
 21
770.0928111701
 31
0.0
  0
ARC
  5
594
330
1F
100
AcDbEntity
  8
0
  6
Continuous
 62
     7
370
    25
100
AcDbCircle
 10
2438.169007262
 20
770.4340137098
 30
0.0
 40
1.481649000181787
100
AcDbArc
 50
282.573099882
 51
346.6861088127
  0
LINE
  5
595
330
1F
100
AcDbEntity
  8
0
  6
Continuous
 62
     7
370
    25
100
AcDbLine
 10
2371.9621520865
 20
740.9879018693
 30
0.0
 11
2373.362152316
 21
739.5878990322
 31
0.0
  0
LINE
  5
596
330
1F
100
AcDbEntity
  8
0
  6
Continuous
 62
     7
370
    25
100
AcDbLine
 10
2373.362152316
 20
749.3878980308
 30
0.0
 11
2371.9621520865
 21
747.9878951936
 31
0.0
  0
LINE
  5
597
330
1F
100
AcDbEntity
  8
0
  6
Continuous
 62
     7
370
    25
100
AcDbLine
 10
2371.9621520865
 20
747.9878951936
 30
0.0
 11
2371.9621520865
 21
740.9879018693
 31
0.0
  0
LINE
  5
598
330
1F
100
AcDbEntity
  8
0
  6
Continuous
 62
     7
370
    25
100
AcDbLine
 10
2485.0121491033
 20
918.0878956943
 30
0.0
 11
2485.0121491033
 21
919.4878985315
 31
0.0
  0
ARC
  5
599
330
1F
100
AcDbEntity
  8
0
  6
Continuous
 62
     7
370
    18
100
AcDbCircle
 10
2341.2185687511
 20
855.2138025472
 30
0.0
 40
222.678045921406
100
AcDbArc
 50
251.5679167052
 51
277.1182147722
  0
LINE
  5
59A
330
1F
100
AcDbEntity
  8
0
  6
Continuous
 62
     7
370
    25
100
AcDbLine
 10
2368.8121509182
 20
634.2520267611
 30
0.0
 11
2368.8121509182
 21
673.7878986775
 31
0.0
  0
LINE
  5
59B
330
1F
100
AcDbEntity
  8
0
  6
Continuous
 62
     7
370
    25
100
AcDbLine
 10
2368.8121509182
 20
696.1878997415
 30
0.0
 11
2368.8121509182
 21
733.9878981143
 31
0.0
  0
LINE
  5
59C
330
1F
100
AcDbEntity
  8
0
  6
Continuous
 62
     7
370
    25
100
AcDbLine
 10
2270.8121531087
 20
643.9593380458
 30
0.0
 11
2270.8121531087
 21
698.9879002004
 31
0.0
  0
LINE
  5
59D
330
1F
100
AcDbEntity
  8
0
  6
Continuous
 62
     7
370
    25
100
AcDbLine
 10
2270.8121531087
 20
698.9879002004
 30
0.0
 11
2312.8121547776
 21
698.9879002004
 31
0.0
  0
LINE
  5
59E
330
1F
100
AcDbEntity
  8
0
  6
Continuous
 62
     7
370
    25
100
AcDbLine
 10
2312.8121547776
 20
698.9879002004
 30
0.0
 11
2312.8121547776
 21
733.9878981143
 31
0.0
  0
LINE
  5
59F
330
1F
100
AcDbEntity
  8
0
  6
Continuous
 62
     7
370
    25
100
AcDbLine
 10
2312.8121547776
 20
733.9878981143
 30
0.0
 11
2368.8121509182
 21
733.9878981143
 31
0.0
  0
LINE
  5
5A0
330
1F
100
AcDbEntity
  8
0
  6
Continuous
 62
     7
370
    25
100
AcDbLine
 10
2368.8121509182
 20
985.987897697
 30
0.0
 11
2368.8121509182
 21
918.0878956943
 31
0.0
  0
LINE
  5
5A1
330
1F
100
AcDbEntity
  8
0
  6
Continuous
 62
     7
370
    25
100
AcDbLine
 10
2368.8121509182
 20
785.0878973632
 30
0.0
 11
2368.8121509182
 21
740.9879018693
 31
0.0
  0
LINE
  5
5A2
330
1F
100
AcDbEntity
  8
0
  6
Continuous
 62
     7
370
    25
100
AcDbLine
 10
2368.8121509182
 20
740.9879018693
 30
0.0
 11
2312.8121547776
 21
740.9879018693
 31
0.0
  0
LINE
  5
5A3
330
1F
100
AcDbEntity
  8
0
  6
Continuous
 62
     7
370
    25
100
AcDbLine
 10
2312.8121547776
 20
740.9879018693
 30
0.0
 11
2312.8121547776
 21
705.9878987401
 31
0.0
  0
LINE
  5
5A4
330
1F
100
AcDbEntity
  8
0
  6
Continuous
 62
     7
370
    25
100
AcDbLine
 10
2270.8121531087
 20
985.987897697
 30
0.0
 11
2368.8121509182
 21
985.987897697
 31
0.0
  0
LINE
  5
5A5
330
1F
100
AcDbEntity
  8
0
  6
Continuous
 62
     7
370
    25
100
AcDbLine
 10
2270.8121531087
 20
985.987897697
 30
0.0
 11
2270.8121531087
 21
705.9878987401
 31
0.0
  0
LINE
  5
5A6
330
1F
100
AcDbEntity
  8
0
  6
Continuous
 62
     7
370
    25
100
AcDbLine
 10
2312.8121547776
 20
705.9878987401
 30
0.0
 11
2270.8121531087
 21
705.9878987401
 31
0.0
  0
LINE
  5
5A7
330
1F
100
AcDbEntity
  8
0
  6
Continuous
 62
     7
370
    25
100
AcDbLine
 10
2270.8121531087
 20
698.9879002004
 30
0.0
 11
2270.8121531087
 21
705.9878987401
 31
0.0
  0
LINE
  5
5A8
330
1F
100
AcDbEntity
  8
0
  6
Continuous
 62
     7
370
    25
100
AcDbLine
 10
2368.8121509182
 20
733.9878981143
 30
0.0
 11
2368.8121509182
 21
740.9879018693
 31
0.0
  0
LINE
  5
5A9
330
1F
100
AcDbEntity
  8
0
  6
Continuous
 62
     7
370
    25
100
AcDbLine
 10
2473.1127404052
 20
771.4294781118
 30
0.0
 11
2473.8121524829
 21
771.4294781118
 31
0.0
  0
LINE
  5
5AA
330
1F
100
AcDbEntity
  8
0
  6
Continuous
 62
     7
370
    25
100
AcDbLine
 10
2431.8121508139
 20
771.4294781118
 30
0.0
 11
2473.1127404052
 21
771.4294781118
 31
0.0
  0
LINE
  5
5AB
330
1F
100
AcDbEntity
  8
0
  6
Continuous
 62
     7
370
    25
100
AcDbLine
 10
2397.1621516536
 20
738.8878976136
 30
0.0
 11
2377.5621503967
 21
738.8878976136
 31
0.0
  0
LINE
  5
5AC
330
1F
100
AcDbEntity
  8
0
  6
Continuous
 62
     7
370
    25
100
AcDbLine
 10
2473.8121524829
 20
740.9879018693
 30
0.0
 11
2431.9560725617
 21
740.9879018693
 31
0.0
  0
LINE
  5
5AD
330
1F
100
AcDbEntity
  8
0
  6
Continuous
 62
     7
370
    25
100
AcDbLine
 10
2431.9560725617
 20
740.9879018693
 30
0.0
 11
2431.9560725617
 21
753.5878961115
 31
0.0
  0
LINE
  5
5AE
330
1F
100
AcDbEntity
  8
0
  6
Continuous
 62
     7
370
    25
100
AcDbLine
 10
2473.8121524829
 20
768.7079017191
 30
0.0
 11
2431.8121508139
 21
768.7079017191
 31
0.0
  0
LINE
  5
5AF
330
1F
100
AcDbEntity
  8
0
  6
Continuous
 62
     7
370
    25
100
AcDbLine
 10
2472.4121496457
 20
739.5878990322
 30
0.0
 11
2433.3464764434
 21
739.5878990322
 31
0.0
  0
LINE
  5
5B0
330
1F
100
AcDbEntity
  8
0
  6
Continuous
 62
     7
370
    25
100
AcDbLine
 10
2433.3464764434
 20
739.5878990322
 30
0.0
 11
2431.9560725617
 21
740.9879018693
 31
0.0
  0
LINE
  5
5B1
330
1F
100
AcDbEntity
  8
0
  6
Continuous
 62
     7
370
    25
100
AcDbLine
 10
2473.5321529585
 20
768.9878960281
 30
0.0
 11
2432.0921503383
 21
768.9878960281
 31
0.0
  0
LWPOLYLINE
  5
5B2
330
1F
100
AcDbEntity
  8
0
  6
Continuous
 62
     7
370
    25
100
AcDbPolyline
 90
        9
 70
   128
 43
0.0
 10
2450.1855425912
 20
768.9878960281
 10
2450.065426566
 20
769.0096964269
 10
2449.9490552026
 20
769.0744300514
 10
2449.8400479931
 20
769.1800733238
 10
2449.741800167
 20
769.3233301073
 10
2449.6573783833
 20
769.4997464447
 10
2449.5894059914
 20
769.7038252979
 10
2449.539995231
 20
769.9292143016
 10
2449.5107002932
 20
770.168893519
  0
ARC
  5
5B3
330
1F
100
AcDbEntity
  8
0
  6
Continuous
 62
     7
370
    25
100
AcDbCircle
 10
2447.4753626404
 20
770.2724760251
 30
0.0
 40
1.286810293103952
100
AcDbArc
 50
273.3738391676
 51
355.3829493041
  0
ARC
  5
5B4
330
1F
100
AcDbEntity
  8
0
  6
Continuous
 62
     7
370
    25
100
AcDbCircle
 10
2449.134348743
 20
770.9156687801
 30
0.0
 40
0.8362498310884411
100
AcDbArc
 50
243.253314158
 51
296.746685842
  0
LWPOLYLINE
  5
5B5
330
1F
100
AcDbEntity
  8
0
  6
Continuous
 62
     7
370
    25
100
AcDbPolyline
 90
        3
 70
   128
 43
0.0
 10
2453.9374485987
 20
769.3233301073
 10
2454.0697113055
 20
769.0744300514
 10
2454.2312115806
 20
768.9878960281
  0
LINE
  5
5B6
330
1F
100
AcDbEntity
  8
0
  6
Continuous
 62
     7
370
    25
100
AcDbLine
 10
2449.5107002932
 20
770.168893519
 30
0.0
 11
2453.8563177365
 21
770.168893519
 31
0.0
  0
LWPOLYLINE
  5
5B7
330
1F
100
AcDbEntity
  8
0
  6
Continuous
 62
     7
370
    25
100
AcDbPolyline
 90
        3
 70
   128
 43
0.0
 10
2453.8563177365
 20
770.168893519
 10
2453.8600363213
 20
769.7038252979
 10
2453.9374485987
 20
769.3233301073
  0
LWPOLYLINE
  5
5B8
330
1F
100
AcDbEntity
  8
0
  6
Continuous
 62
     7
370
    25
100
AcDbPolyline
 90
        3
 70
   128
 43
0.0
 10
2454.3132499236
 20
769.3233301073
 10
2454.315539487
 20
769.7038252979
 10
2454.2767472941
 20
770.168893519
  0
LINE
  5
5B9
330
1F
100
AcDbEntity
  8
0
  6
Continuous
 62
     7
370
    25
100
AcDbLine
 10
2454.2767472941
 20
770.168893519
 30
0.0
 11
2459.067729153
 21
770.168893519
 31
0.0
  0
LWPOLYLINE
  5
5BA
330
1F
100
AcDbEntity
  8
0
  6
Continuous
 62
     7
370
    25
100
AcDbPolyline
 90
        9
 70
   128
 43
0.0
 10
2459.067729153
 20
770.168893519
 10
2459.0513945001
 20
769.9292143016
 10
2459.0238519388
 20
769.7038252979
 10
2458.9859567958
 20
769.4997464447
 10
2458.9388929683
 20
769.3233301073
 10
2458.8841207701
 20
769.1800733238
 10
2458.8233456391
 20
769.0744300514
 10
2458.7584711987
 20
769.0096964269
 10
2458.6915053803
 20
768.9878960281
  0
LWPOLYLINE
  5
5BB
330
1F
100
AcDbEntity
  8
0
  6
Continuous
 62
     7
370
    25
100
AcDbPolyline
 90
        3
 70
   128
 43
0.0
 10
2454.2312115806
 20
768.9878960281
 10
2454.2803772169
 20
769.0744300514
 10
2454.3132499236
 20
769.3233301073
  0
LWPOLYLINE
  5
5BC
330
1F
100
AcDbEntity
  8
0
  6
Continuous
 62
     7
370
    25
100
AcDbPolyline
 90
        3
 70
   128
 43
0.0
 10
2445.9986873347
 20
769.3233301073
 10
2446.2293099987
 20
769.7038252979
 10
2446.3281393427
 20
770.168893519
  0
LINE
  5
5BD
330
1F
100
AcDbEntity
  8
0
  6
Continuous
 62
     7
370
    25
100
AcDbLine
 10
2446.3281393427
 20
770.168893519
 30
0.0
 11
2448.7579971927
 21
770.168893519
 31
0.0
  0
LWPOLYLINE
  5
5BE
330
1F
100
AcDbEntity
  8
0
  6
Continuous
 62
     7
370
    25
100
AcDbPolyline
 90
        3
 70
   128
 43
0.0
 10
2445.28895136
 20
768.9878960281
 10
2445.6699602681
 20
769.0744300514
 10
2445.9986873347
 20
769.3233301073
  0
ARC
  5
5BF
330
1F
100
AcDbEntity
  8
0
  6
Continuous
 62
     7
370
    25
100
AcDbCircle
 10
2461.1024084208
 20
770.3520214521
 30
0.0
 40
1.364292486410031
100
AcDbArc
 50
187.7140525004
 51
269.1033401462
  0
LWPOLYLINE
  5
5C0
330
1F
100
AcDbEntity
  8
0
  6
Continuous
 62
     7
370
    25
100
AcDbPolyline
 90
        8
 70
   128
 43
0.0
 10
2459.067729153
 20
770.168893519
 10
2459.283047207
 20
770.1060687333
 10
2459.3951523679
 20
770.0880651503
 10
2459.499340542
 20
770.0820152789
 10
2459.5902920145
 20
770.0881694584
 10
2459.6595265347
 20
770.1046397119
 10
2459.7140588242
 20
770.1315303474
 10
2459.750462361
 20
770.168893519
  0
LWPOLYLINE
  5
5C1
330
1F
100
AcDbEntity
  8
0
  6
Continuous
 62
     7
370
    25
100
AcDbPolyline
 90
        3
 70
   128
 43
0.0
 10
2461.5140311795
 20
769.3233301073
 10
2461.899298467
 20
769.0744300514
 10
2462.3422012109
 20
768.9878960281
  0
LINE
  5
5C2
330
1F
100
AcDbEntity
  8
0
  6
Continuous
 62
     7
370
    25
100
AcDbLine
 10
2459.750462361
 20
770.168893519
 30
0.0
 11
2461.1051068085
 21
770.168893519
 31
0.0
  0
LWPOLYLINE
  5
5C3
330
1F
100
AcDbEntity
  8
0
  6
Continuous
 62
     7
370
    25
100
AcDbPolyline
 90
        3
 70
   128
 43
0.0
 10
2461.1051068085
 20
770.168893519
 10
2461.2369209903
 20
769.7038252979
 10
2461.5140311795
 20
769.3233301073
  0
ARC
  5
5C4
330
1F
100
AcDbEntity
  8
0
  6
Continuous
 62
     7
370
    25
100
AcDbCircle
 10
2452.1187151057
 20
770.7966104586
 30
0.0
 40
2.34058678806801
100
AcDbArc
 50
320.9905069007
 51
327.6226575387
  0
ARC
  5
5C5
330
1F
100
AcDbEntity
  8
0
  6
Continuous
 62
     7
370
    25
100
AcDbCircle
 10
2455.2969014165
 20
770.515429943
 30
0.0
 40
1.545533007718042
100
AcDbArc
 50
218.978612062
 51
230.4725322909
  0
LINE
  5
5C6
330
1F
100
AcDbEntity
  8
0
  6
Continuous
 62
     7
370
    25
100
AcDbLine
 10
2454.0620029348
 20
770.151338461
 30
0.0
 11
2453.8563177365
 21
770.168893519
 31
0.0
  0
ARC
  5
5C7
330
1F
100
AcDbEntity
  8
0
  6
Continuous
 62
     7
370
    25
100
AcDbCircle
 10
2462.9595615604
 20
770.3355253302
 30
0.0
 40
8.89946483213497
100
AcDbArc
 50
181.1859009482
 51
185.1075672792
  0
LINE
  5
5C8
330
1F
100
AcDbEntity
  8
0
  6
Continuous
 62
     7
370
    25
100
AcDbLine
 10
2454.2767472941
 20
770.168893519
 30
0.0
 11
2454.0620029348
 21
770.151338461
 31
0.0
  0
LWPOLYLINE
  5
5C9
330
1F
100
AcDbEntity
  8
0
  6
Continuous
 62
     7
370
    25
100
AcDbPolyline
 90
        3
 70
   128
 43
0.0
 10
2445.7016829777
 20
769.3233301073
 10
2445.5034662414
 20
769.0744300514
 10
2445.28895136
 20
768.9878960281
  0
LWPOLYLINE
  5
5CA
330
1F
100
AcDbEntity
  8
0
  6
Continuous
 62
     7
370
    25
100
AcDbPolyline
 90
        9
 70
   128
 43
0.0
 10
2440.8286549526
 20
768.9878960281
 10
2440.895620771
 20
769.0096964269
 10
2440.9604978192
 20
769.0744300514
 10
2441.0212677348
 20
769.1800733238
 10
2441.076039933
 20
769.3233301073
 10
2441.1231089759
 20
769.4997464447
 10
2441.1610041189
 20
769.7038252979
 10
2441.1885466802
 20
769.9292143016
 10
2441.2048813331
 20
770.168893519
  0
LINE
  5
5CB
330
1F
100
AcDbEntity
  8
0
  6
Continuous
 62
     7
370
    25
100
AcDbLine
 10
2441.2048813331
 20
770.168893519
 30
0.0
 11
2445.9958684075
 21
770.168893519
 31
0.0
  0
LWPOLYLINE
  5
5CC
330
1F
100
AcDbEntity
  8
0
  6
Continuous
 62
     7
370
    25
100
AcDbPolyline
 90
        3
 70
   128
 43
0.0
 10
2445.9958684075
 20
770.168893519
 10
2445.8693165708
 20
769.7038252979
 10
2445.7016829777
 20
769.3233301073
  0
ARC
  5
5CD
330
1F
100
AcDbEntity
  8
0
  6
Continuous
 62
     7
370
    25
100
AcDbCircle
 10
2445.0324226684
 20
770.5823395007
 30
0.0
 40
1.425838004294357
100
AcDbArc
 50
297.9940797642
 51
313.2172910585
  0
ARC
  5
5CE
330
1F
100
AcDbEntity
  8
0
  6
Continuous
 62
     7
370
    25
100
AcDbCircle
 10
2445.3565975118
 20
769.4630145483
 30
0.0
 40
0.6571081217453792
100
AcDbArc
 50
347.7267317187
 51
7.0129183792
  0
ARC
  5
5CF
330
1F
100
AcDbEntity
  8
0
  6
Continuous
 62
     7
370
    25
100
AcDbCircle
 10
2444.3043514607
 20
770.3707167481
 30
0.0
 40
1.894682613127997
100
AcDbArc
 50
334.1042672462
 51
353.3510203758
  0
LINE
  5
5D0
330
1F
100
AcDbEntity
  8
0
  6
Continuous
 62
     7
370
    25
100
AcDbLine
 10
2446.3281393427
 20
770.168893519
 30
0.0
 11
2446.1862933266
 21
770.151338461
 31
0.0
  0
LINE
  5
5D1
330
1F
100
AcDbEntity
  8
0
  6
Continuous
 62
     7
370
    25
100
AcDbLine
 10
2446.1862933266
 20
770.151338461
 30
0.0
 11
2445.9958684075
 21
770.168893519
 31
0.0
  0
LINE
  5
5D2
330
1F
100
AcDbEntity
  8
0
  6
Continuous
 62
     7
370
    25
100
AcDbLine
 10
2439.6894876289
 20
769.0029372602
 30
0.0
 11
2439.4925356287
 21
768.9878960281
 31
0.0
  0
LWPOLYLINE
  5
5D3
330
1F
100
AcDbEntity
  8
0
  6
Continuous
 62
     7
370
    25
100
AcDbPolyline
 90
        8
 70
   128
 43
0.0
 10
2440.8231318372
 20
770.168893519
 10
2440.7924287397
 20
770.1060687333
 10
2440.8115849274
 20
770.0880651503
 10
2440.8552535254
 20
770.0820152789
 10
2440.9211736548
 20
770.0881694584
 10
2440.9992665428
 20
770.1046397119
 10
2441.0944164175
 20
770.1315303474
 10
2441.2048813331
 20
770.168893519
  0
LWPOLYLINE
  5
5D4
330
1F
100
AcDbEntity
  8
0
  6
Continuous
 62
     7
370
    25
100
AcDbPolyline
 90
        3
 70
   128
 43
0.0
 10
2461.7484897751
 20
769.3233301073
 10
2461.5211032706
 20
769.7038252979
 10
2461.3674104589
 20
770.168893519
  0
LINE
  5
5D5
330
1F
100
AcDbEntity
  8
0
  6
Continuous
 62
     7
370
    25
100
AcDbLine
 10
2461.3674104589
 20
770.168893519
 30
0.0
 11
2465.7130331176
 21
770.168893519
 31
0.0
  0
LWPOLYLINE
  5
5D6
330
1F
100
AcDbEntity
  8
0
  6
Continuous
 62
     7
370
    25
100
AcDbPolyline
 90
        9
 70
   128
 43
0.0
 10
2465.7130331176
 20
770.168893519
 10
2465.7423280555
 20
769.9292143016
 10
2465.7917388159
 20
769.7038252979
 10
2465.8597112077
 20
769.4997464447
 10
2465.9441329914
 20
769.3233301073
 10
2466.0423808175
 20
769.1800733238
 10
2466.1513880271
 20
769.0744300514
 10
2466.2677593905
 20
769.0096964269
 10
2466.3878754157
 20
768.9878960281
  0
LWPOLYLINE
  5
5D7
330
1F
100
AcDbEntity
  8
0
  6
Continuous
 62
     7
370
    25
100
AcDbPolyline
 90
        3
 70
   128
 43
0.0
 10
2462.3422012109
 20
768.9878960281
 10
2462.0307319242
 20
769.0744300514
 10
2461.7484897751
 20
769.3233301073
  0
ARC
  5
5D8
330
1F
100
AcDbEntity
  8
0
  6
Continuous
 62
     7
370
    25
100
AcDbCircle
 10
2461.9240137074
 20
769.6052258966
 30
0.0
 40
0.4975448815691196
100
AcDbArc
 50
187.156365125
 51
214.5116356525
  0
ARC
  5
5D9
330
1F
100
AcDbEntity
  8
0
  6
Continuous
 62
     7
370
    25
100
AcDbCircle
 10
2462.3287465538
 20
770.5028645112
 30
0.0
 40
1.314533886747828
100
AcDbArc
 50
226.8871491224
 51
243.8057138088
  0
LINE
  5
5DA
330
1F
100
AcDbEntity
  8
0
  6
Continuous
 62
     7
370
    25
100
AcDbLine
 10
2461.205565967
 20
770.151338461
 30
0.0
 11
2461.1051068085
 21
770.168893519
 31
0.0
  0
ARC
  5
5DB
330
1F
100
AcDbEntity
  8
0
  6
Continuous
 62
     7
370
    25
100
AcDbCircle
 10
2462.792293587
 20
770.3922708249
 30
0.0
 40
1.604915245175628
100
AcDbArc
 50
188.6339706114
 51
211.9390801209
  0
LINE
  5
5DC
330
1F
100
AcDbEntity
  8
0
  6
Continuous
 62
     7
370
    25
100
AcDbLine
 10
2461.3674104589
 20
770.168893519
 30
0.0
 11
2461.205565967
 21
770.151338461
 31
0.0
  0
LWPOLYLINE
  5
5DD
330
1F
100
AcDbEntity
  8
0
  6
Continuous
 62
     7
370
    25
100
AcDbPolyline
 90
        9
 70
   128
 43
0.0
 10
2465.7130331176
 20
770.168893519
 10
2465.8141546327
 20
770.1309149294
 10
2465.8958174664
 20
770.1037843852
 10
2465.9563944119
 20
770.0874080091
 10
2465.9951866049
 20
770.0818901091
 10
2466.0126321393
 20
770.0873975783
 10
2466.0078235346
 20
770.1037739544
 10
2465.9791700917
 20
770.1309044986
 10
2465.9258582073
 20
770.168893519
  0
ARC
  5
5DE
330
1F
100
AcDbEntity
  8
0
  6
Continuous
 62
     7
370
    25
100
AcDbCircle
 10
2440.9598781499
 20
750.6791756074
 30
0.0
 40
9.46198552313707
100
AcDbArc
 50
162.096712413
 51
171.7377058078
  0
LWPOLYLINE
  5
5DF
330
1F
100
AcDbEntity
  8
0
  6
Continuous
 62
     7
370
    25
100
AcDbPolyline
 90
       11
 70
   128
 43
0.0
 10
2431.9560725617
 20
753.5878961115
 10
2431.9560386616
 20
753.587760511
 10
2431.9557883221
 20
753.5866548448
 10
2431.955094673
 20
753.583525601
 10
2431.952476539
 20
753.5716240435
 10
2431.9423247504
 20
753.525227788
 10
2431.6452317315
 20
752.1809567838
 10
2431.3554533201
 20
750.9463031917
 10
2431.0779389369
 20
749.8943557172
 10
2430.60631495
 20
748.5525881081
 10
2430.1048666614
 20
747.9878951936
  0
LINE
  5
5E0
330
1F
100
AcDbEntity
  8
0
  6
Continuous
 62
     7
370
    25
100
AcDbLine
 10
2431.9560725617
 20
740.9879018693
 30
0.0
 11
2397.5177080746
 21
740.9879018693
 31
0.0
  0
LINE
  5
5E1
330
1F
100
AcDbEntity
  8
0
  6
Continuous
 62
     7
370
    25
100
AcDbLine
 10
2397.5177080746
 20
747.9878951936
 30
0.0
 11
2397.5177080746
 21
740.9879018693
 31
0.0
  0
LINE
  5
5E2
330
1F
100
AcDbEntity
  8
0
  6
Continuous
 62
     7
370
    25
100
AcDbLine
 10
2430.1048666614
 20
747.9878951936
 30
0.0
 11
2397.5177080746
 21
747.9878951936
 31
0.0
  0
LINE
  5
5E3
330
1F
100
AcDbEntity
  8
0
  6
Continuous
 62
     7
370
    25
100
AcDbLine
 10
2398.9081135861
 20
739.5878990322
 30
0.0
 11
2397.5177080746
 21
740.9879018693
 31
0.0
  0
LINE
  5
5E4
330
1F
100
AcDbEntity
  8
0
  6
Continuous
 62
     7
370
    25
100
AcDbLine
 10
2433.3464764434
 20
739.5878990322
 30
0.0
 11
2398.9081135861
 21
739.5878990322
 31
0.0
  0
ARC
  5
5E5
330
1F
100
AcDbEntity
  8
0
  6
Continuous
 62
     7
370
    25
100
AcDbCircle
 10
2438.4158086977
 20
770.272480737
 30
0.0
 40
1.286815105127105
100
AcDbArc
 50
273.3739085809
 51
355.3827561237
  0
LINE
  5
5E6
330
1F
100
AcDbEntity
  8
0
  6
Continuous
 62
     7
370
    25
100
AcDbLine
 10
2398.9081135861
 20
749.3878980308
 30
0.0
 11
2397.5177080746
 21
747.9878951936
 31
0.0
  0
LINE
  5
5E7
330
1F
100
AcDbEntity
  8
0
  6
Continuous
 62
     7
370
    25
100
AcDbLine
 10
2398.9081135861
 20
749.3878980308
 30
0.0
 11
2430.8999214697
 21
749.3878980308
 31
0.0
  0
LINE
  5
5E8
330
1F
100
AcDbEntity
  8
0
  6
Continuous
 62
     7
370
    25
100
AcDbLine
 10
2397.3602503914
 20
740.9879018693
 30
0.0
 11
2397.5177080746
 21
740.9879018693
 31
0.0
  0
LINE
  5
5E9
330
1F
100
AcDbEntity
  8
0
  6
Continuous
 62
     7
370
    25
100
AcDbLine
 10
2397.3602503914
 20
740.9879018693
 30
0.0
 11
2397.3602503914
 21
747.9878951936
 31
0.0
  0
LINE
  5
5EA
330
1F
100
AcDbEntity
  8
0
  6
Continuous
 62
     7
370
    25
100
AcDbLine
 10
2397.5177080746
 20
747.9878951936
 30
0.0
 11
2397.3602503914
 21
747.9878951936
 31
0.0
  0
LINE
  5
5EB
330
1F
100
AcDbEntity
  8
0
  6
Continuous
 62
     7
370
    25
100
AcDbLine
 10
2398.7538050304
 20
739.5878990322
 30
0.0
 11
2397.3602503914
 21
740.9879018693
 31
0.0
  0
LINE
  5
5EC
330
1F
100
AcDbEntity
  8
0
  6
Continuous
 62
     7
370
    25
100
AcDbLine
 10
2398.9081135861
 20
739.5878990322
 30
0.0
 11
2398.7538050304
 21
739.5878990322
 31
0.0
  0
LINE
  5
5ED
330
1F
100
AcDbEntity
  8
0
  6
Continuous
 62
     7
370
    25
100
AcDbLine
 10
2397.3602503914
 20
747.9878951936
 30
0.0
 11
2398.7538050304
 21
749.3878980308
 31
0.0
  0
LINE
  5
5EE
330
1F
100
AcDbEntity
  8
0
  6
Continuous
 62
     7
370
    25
100
AcDbLine
 10
2398.7538050304
 20
749.3878980308
 30
0.0
 11
2398.9081135861
 21
749.3878980308
 31
0.0
  0
LINE
  5
5EF
330
1F
100
AcDbEntity
  8
0
  6
Continuous
 62
     7
370
    25
100
AcDbLine
 10
2373.4266069162
 20
739.5878990322
 30
0.0
 11
2372.033052929
 21
740.9879018693
 31
0.0
  0
LINE
  5
5F0
330
1F
100
AcDbEntity
  8
0
  6
Continuous
 62
     7
370
    25
100
AcDbLine
 10
2397.3602503914
 20
740.9879018693
 30
0.0
 11
2372.033052929
 21
740.9879018693
 31
0.0
  0
LINE
  5
5F1
330
1F
100
AcDbEntity
  8
0
  6
Continuous
 62
     7
370
    25
100
AcDbLine
 10
2398.7538050304
 20
739.5878990322
 30
0.0
 11
2373.4266069162
 21
739.5878990322
 31
0.0
  0
LINE
  5
5F2
330
1F
100
AcDbEntity
  8
0
  6
Continuous
 62
     7
370
    25
100
AcDbLine
 10
2372.033052929
 20
747.9878951936
 30
0.0
 11
2373.4266069162
 21
749.3878980308
 31
0.0
  0
LINE
  5
5F3
330
1F
100
AcDbEntity
  8
0
  6
Continuous
 62
     7
370
    25
100
AcDbLine
 10
2397.3602503914
 20
747.9878951936
 30
0.0
 11
2372.033052929
 21
747.9878951936
 31
0.0
  0
LINE
  5
5F4
330
1F
100
AcDbEntity
  8
0
  6
Continuous
 62
     7
370
    25
100
AcDbLine
 10
2373.4266069162
 20
749.3878980308
 30
0.0
 11
2398.7538050304
 21
749.3878980308
 31
0.0
  0
LINE
  5
5F5
330
1F
100
AcDbEntity
  8
0
  6
Continuous
 62
     7
370
    25
100
AcDbLine
 10
2372.033052929
 20
740.9879018693
 30
0.0
 11
2372.033052929
 21
747.9878951936
 31
0.0
  0
LINE
  5
5F6
330
1F
100
AcDbEntity
  8
0
  6
Continuous
 62
     7
370
    25
100
AcDbLine
 10
2372.033052929
 20
740.9879018693
 30
0.0
 11
2371.9621520865
 21
740.9879018693
 31
0.0
  0
LINE
  5
5F7
330
1F
100
AcDbEntity
  8
0
  6
Continuous
 62
     7
370
    25
100
AcDbLine
 10
2373.4266069162
 20
739.5878990322
 30
0.0
 11
2373.362152316
 21
739.5878990322
 31
0.0
  0
LINE
  5
5F8
330
1F
100
AcDbEntity
  8
0
  6
Continuous
 62
     7
370
    25
100
AcDbLine
 10
2372.033052929
 20
747.9878951936
 30
0.0
 11
2371.9621520865
 21
747.9878951936
 31
0.0
  0
LINE
  5
5F9
330
1F
100
AcDbEntity
  8
0
  6
Continuous
 62
     7
370
    25
100
AcDbLine
 10
2373.362152316
 20
749.3878980308
 30
0.0
 11
2373.4266069162
 21
749.3878980308
 31
0.0
  0
LINE
  5
5FA
330
1F
100
AcDbEntity
  8
0
  6
Continuous
 62
     7
370
    25
100
AcDbLine
 10
2368.8121509182
 20
673.7878986775
 30
0.0
 11
2369.5121523368
 21
673.7878986775
 31
0.0
  0
LINE
  5
5FB
330
1F
100
AcDbEntity
  8
0
  6
Continuous
 62
     7
370
    25
100
AcDbLine
 10
2369.5121523368
 20
673.7878986775
 30
0.0
 11
2369.5121523368
 21
673.0878972589
 31
0.0
  0
ARC
  5
5FC
330
1F
100
AcDbEntity
  8
0
  6
Continuous
 62
     7
370
    25
100
AcDbCircle
 10
2369.5121515882
 20
673.7878979289
 30
0.0
 40
0.70000066995789
100
AcDbArc
 50
179.9999387236
 51
270.0000612764
  0
LINE
  5
5FD
330
1F
100
AcDbEntity
  8
0
  6
Continuous
 62
     7
370
    25
100
AcDbLine
 10
2369.5121523368
 20
673.7878986775
 30
0.0
 11
2407.3121513616
 21
673.7878986775
 31
0.0
  0
LINE
  5
5FE
330
1F
100
AcDbEntity
  8
0
  6
Continuous
 62
     7
370
    25
100
AcDbLine
 10
2369.5121523368
 20
696.1878997415
 30
0.0
 11
2369.5121523368
 21
673.7878986775
 31
0.0
  0
LINE
  5
5FF
330
1F
100
AcDbEntity
  8
0
  6
Continuous
 62
     7
370
    25
100
AcDbLine
 10
2407.3121513616
 20
696.1878997415
 30
0.0
 11
2369.5121523368
 21
696.1878997415
 31
0.0
  0
LINE
  5
600
330
1F
100
AcDbEntity
  8
0
  6
Continuous
 62
     7
370
    25
100
AcDbLine
 10
2407.3121513616
 20
673.7878986775
 30
0.0
 11
2407.3121513616
 21
696.1878997415
 31
0.0
  0
LINE
  5
601
330
1F
100
AcDbEntity
  8
0
  6
Continuous
 62
     7
370
    25
100
AcDbLine
 10
2369.5121523368
 20
696.1878997415
 30
0.0
 11
2368.8121509182
 21
696.1878997415
 31
0.0
  0
LINE
  5
602
330
1F
100
AcDbEntity
  8
0
  6
Continuous
 62
     7
370
    25
100
AcDbLine
 10
2368.8121509182
 20
696.1878997415
 30
0.0
 11
2368.8121509182
 21
673.7878986775
 31
0.0
  0
LINE
  5
603
330
1F
100
AcDbEntity
  8
0
  6
Continuous
 62
     7
370
    25
100
AcDbLine
 10
2407.3121513616
 20
673.0878972589
 30
0.0
 11
2407.3121513616
 21
673.7878986775
 31
0.0
  0
LINE
  5
604
330
1F
100
AcDbEntity
  8
0
  6
Continuous
 62
     7
370
    25
100
AcDbLine
 10
2369.5121523368
 20
673.0878972589
 30
0.0
 11
2407.3121513616
 21
673.0878972589
 31
0.0
  0
LINE
  5
605
330
1F
100
AcDbEntity
  8
0
  6
Continuous
 62
     7
370
    25
100
AcDbLine
 10
2407.3121513616
 20
696.1878997415
 30
0.0
 11
2407.3121513616
 21
696.8878959446
 31
0.0
  0
LINE
  5
606
330
1F
100
AcDbEntity
  8
0
  6
Continuous
 62
     7
370
    25
100
AcDbLine
 10
2369.5121523368
 20
696.8878959446
 30
0.0
 11
2369.5121523368
 21
696.1878997415
 31
0.0
  0
LINE
  5
607
330
1F
100
AcDbEntity
  8
0
  6
Continuous
 62
     7
370
    25
100
AcDbLine
 10
2407.3121513616
 20
696.8878959446
 30
0.0
 11
2369.5121523368
 21
696.8878959446
 31
0.0
  0
ARC
  5
608
330
1F
100
AcDbEntity
  8
0
  6
Continuous
 62
     7
370
    25
100
AcDbCircle
 10
2369.5121471366
 20
696.1878997263
 30
0.0
 40
0.6999962183559667
100
AcDbArc
 50
89.9995743527
 51
179.9999987597
  0
LINE
  5
609
330
1F
100
AcDbEntity
  8
0
  6
Continuous
 62
     7
370
    25
100
AcDbLine
 10
2408.0121514763
 20
696.1878997415
 30
0.0
 11
2407.3121513616
 21
696.1878997415
 31
0.0
  0
LINE
  5
60A
330
1F
100
AcDbEntity
  8
0
  6
Continuous
 62
     7
370
    25
100
AcDbLine
 10
2408.0121514763
 20
673.7878986775
 30
0.0
 11
2408.0121514763
 21
696.1878997415
 31
0.0
  0
LINE
  5
60B
330
1F
100
AcDbEntity
  8
0
  6
Continuous
 62
     7
370
    25
100
AcDbLine
 10
2407.3121513616
 20
673.7878986775
 30
0.0
 11
2408.0121514763
 21
673.7878986775
 31
0.0
  0
ARC
  5
60C
330
1F
100
AcDbEntity
  8
0
  6
Continuous
 62
     7
370
    25
100
AcDbCircle
 10
2407.3121508063
 20
673.7878979289
 30
0.0
 40
0.7000006699581174
100
AcDbArc
 50
270.0000454452
 51
0.0000612764
  0
ARC
  5
60D
330
1F
100
AcDbEntity
  8
0
  6
Continuous
 62
     7
370
    25
100
AcDbCircle
 10
2407.3121552579
 20
696.1878997263
 30
0.0
 40
0.6999962183417666
100
AcDbArc
 50
0.0000012398
 51
90.0003189262
  0
LINE
  5
60E
330
1F
100
AcDbEntity
  8
0
  6
Continuous
 62
     7
370
    25
100
AcDbLine
 10
2370.2121511477
 20
919.4878985315
 30
0.0
 11
2452.8121516484
 21
919.4878985315
 31
0.0
  0
LINE
  5
60F
330
1F
100
AcDbEntity
  8
0
  6
Continuous
 62
     7
370
    25
100
AcDbLine
 10
2452.8121516484
 20
919.4878985315
 30
0.0
 11
2452.8121516484
 21
918.0878956943
 31
0.0
  0
LINE
  5
610
330
1F
100
AcDbEntity
  8
0
  6
Continuous
 62
     7
370
    25
100
AcDbLine
 10
2370.2121511477
 20
918.0878956943
 30
0.0
 11
2370.2121511477
 21
919.4878985315
 31
0.0
  0
LINE
  5
611
330
1F
100
AcDbEntity
  8
0
  6
Continuous
 62
     7
370
    25
100
AcDbLine
 10
2452.8121516484
 20
919.4878985315
 30
0.0
 11
2485.0121491033
 21
919.4878985315
 31
0.0
  0
LINE
  5
612
330
1F
100
AcDbEntity
  8
0
  6
Continuous
 62
     7
370
    25
100
AcDbLine
 10
2448.6121535677
 20
785.0878973632
 30
0.0
 11
2448.6121535677
 21
783.6878945261
 31
0.0
  0
LINE
  5
613
330
1F
100
AcDbEntity
  8
0
  6
Continuous
 62
     7
370
    25
100
AcDbLine
 10
2370.2121511477
 20
783.6878945261
 30
0.0
 11
2370.2121511477
 21
785.0878973632
 31
0.0
  0
LINE
  5
614
330
1F
100
AcDbEntity
  8
0
  6
Continuous
 62
     7
370
    25
100
AcDbLine
 10
2448.6121535677
 20
783.6878945261
 30
0.0
 11
2370.2121511477
 21
783.6878945261
 31
0.0
  0
LINE
  5
615
330
1F
100
AcDbEntity
  8
0
  6
Continuous
 62
     7
370
    25
100
AcDbLine
 10
2529.8121564466
 20
915.2878900199
 30
0.0
 11
2380.712151565
 21
915.2878900199
 31
0.0
  0
LINE
  5
616
330
1F
100
AcDbEntity
  8
0
  6
Continuous
 62
     7
370
    25
100
AcDbLine
 10
2529.8121564466
 20
911.08790237
 30
0.0
 11
2529.8121564466
 21
915.2878900199
 31
0.0
  0
LINE
  5
617
330
1F
100
AcDbEntity
  8
0
  6
Continuous
 62
     7
370
    25
100
AcDbLine
 10
2529.8121564466
 20
911.08790237
 30
0.0
 11
2368.8121509182
 21
911.08790237
 31
0.0
  0
LINE
  5
618
330
1F
100
AcDbEntity
  8
0
  6
Continuous
 62
     7
370
    25
100
AcDbLine
 10
2368.8121509182
 20
911.08790237
 30
0.0
 11
2368.8121509182
 21
915.2878900199
 31
0.0
  0
LINE
  5
619
330
1F
100
AcDbEntity
  8
0
  6
Continuous
 62
     7
370
    25
100
AcDbLine
 10
2373.7121504176
 20
915.2878900199
 30
0.0
 11
2368.8121509182
 21
915.2878900199
 31
0.0
  0
ARC
  5
61A
330
1F
100
AcDbEntity
  8
0
  6
Continuous
 62
     7
370
    25
100
AcDbCircle
 10
2377.2121509913
 20
917.1545734893
 30
0.0
 40
3.966675080062016
100
AcDbArc
 50
208.0726971863
 51
331.9273028137
  0
LINE
  5
61B
330
1F
100
AcDbEntity
  8
0
  6
Continuous
 62
     7
370
    25
100
AcDbLine
 10
2529.8121564466
 20
792.0879011183
 30
0.0
 11
2529.8121564466
 21
911.08790237
 31
0.0
  0
LINE
  5
61C
330
1F
100
AcDbEntity
  8
0
  6
Continuous
 62
     7
370
    25
100
AcDbLine
 10
2368.8121509182
 20
792.0879011183
 30
0.0
 11
2529.8121564466
 21
792.0879011183
 31
0.0
  0
LINE
  5
61D
330
1F
100
AcDbEntity
  8
0
  6
Continuous
 62
     7
370
    25
100
AcDbLine
 10
2368.8121509182
 20
911.08790237
 30
0.0
 11
2368.8121509182
 21
792.0879011183
 31
0.0
  0
LINE
  5
61E
330
1F
100
AcDbEntity
  8
0
  6
Continuous
 62
     7
370
    25
100
AcDbLine
 10
2385.6121510643
 20
892.8879072099
 30
0.0
 11
2385.6121510643
 21
810.2878962784
 31
0.0
  0
ARC
  5
61F
330
1F
100
AcDbEntity
  8
0
  6
Continuous
 62
     7
370
    25
100
AcDbCircle
 10
2389.812143955
 20
810.2878910884
 30
0.0
 40
4.199992890686214
100
AcDbArc
 50
179.999929198
 51
270.0001063759
  0
LINE
  5
620
330
1F
100
AcDbEntity
  8
0
  6
Continuous
 62
     7
370
    25
100
AcDbLine
 10
2389.8121517527
 20
806.0878981977
 30
0.0
 11
2510.2121480185
 21
806.0878981977
 31
0.0
  0
ARC
  5
621
330
1F
100
AcDbEntity
  8
0
  6
Continuous
 62
     7
370
    25
100
AcDbCircle
 10
2510.2121525103
 20
810.2879022174
 30
0.0
 40
4.20000401973595
100
AcDbArc
 50
269.9999387234
 51
359.9999189811
  0
LINE
  5
622
330
1F
100
AcDbEntity
  8
0
  6
Continuous
 62
     7
370
    25
100
AcDbLine
 10
2514.41215653
 20
810.2878962784
 30
0.0
 11
2514.41215653
 21
892.8879072099
 31
0.0
  0
ARC
  5
623
330
1F
100
AcDbEntity
  8
0
  6
Continuous
 62
     7
370
    25
100
AcDbCircle
 10
2510.2121525103
 20
892.8878908401
 30
0.0
 40
4.200004019782924
100
AcDbArc
 50
0.000223315
 51
90.0000612763
  0
LINE
  5
624
330
1F
100
AcDbEntity
  8
0
  6
Continuous
 62
     7
370
    25
100
AcDbLine
 10
2510.2121480185
 20
897.0878948598
 30
0.0
 11
2389.8121517527
 21
897.0878948598
 31
0.0
  0
ARC
  5
625
330
1F
100
AcDbEntity
  8
0
  6
Continuous
 62
     7
370
    25
100
AcDbCircle
 10
2389.812143955
 20
892.8879019692
 30
0.0
 40
4.199992890686277
100
AcDbArc
 50
89.9998936241
 51
179.9999285062
  0
LINE
  5
626
330
1F
100
AcDbEntity
  8
0
  6
Continuous
 62
     7
370
    25
100
AcDbLine
 10
2368.8121509182
 20
787.8878926068
 30
0.0
 11
2373.7121504176
 21
787.8878926068
 31
0.0
  0
LINE
  5
627
330
1F
100
AcDbEntity
  8
0
  6
Continuous
 62
     7
370
    25
100
AcDbLine
 10
2368.8121509182
 20
787.8878926068
 30
0.0
 11
2368.8121509182
 21
792.0879011183
 31
0.0
  0
LINE
  5
628
330
1F
100
AcDbEntity
  8
0
  6
Continuous
 62
     7
370
    25
100
AcDbLine
 10
2529.8121564466
 20
787.8878926068
 30
0.0
 11
2529.8121564466
 21
792.0879011183
 31
0.0
  0
LINE
  5
629
330
1F
100
AcDbEntity
  8
0
  6
Continuous
 62
     7
370
    25
100
AcDbLine
 10
2380.712151565
 20
787.8878926068
 30
0.0
 11
2529.8121564466
 21
787.8878926068
 31
0.0
  0
ARC
  5
62A
330
1F
100
AcDbEntity
  8
0
  6
Continuous
 62
     7
370
    25
100
AcDbCircle
 10
2377.2121509913
 20
786.0212331627
 30
0.0
 40
3.966663773987954
100
AcDbArc
 50
28.0723909839
 51
151.9276090161
  0
LINE
  5
62B
330
1F
100
AcDbEntity
  8
0
  6
Continuous
 62
     7
370
    25
100
AcDbLine
 10
2534.0121545273
 20
792.0879011183
 30
0.0
 11
2534.0121545273
 21
911.08790237
 31
0.0
  0
LINE
  5
62C
330
1F
100
AcDbEntity
  8
0
  6
Continuous
 62
     7
370
    25
100
AcDbLine
 10
2529.8121564466
 20
792.0879011183
 30
0.0
 11
2534.0121545273
 21
792.0879011183
 31
0.0
  0
LINE
  5
62D
330
1F
100
AcDbEntity
  8
0
  6
Continuous
 62
     7
370
    25
100
AcDbLine
 10
2534.0121545273
 20
911.08790237
 30
0.0
 11
2529.8121564466
 21
911.08790237
 31
0.0
  0
ARC
  5
62E
330
1F
100
AcDbEntity
  8
0
  6
Continuous
 62
     7
370
    25
100
AcDbCircle
 10
2529.8121327009
 20
792.0879144331
 30
0.0
 40
4.200021826401944
100
AcDbArc
 50
270.000323933
 51
359.9998183625
  0
ARC
  5
62F
330
1F
100
AcDbEntity
  8
0
  6
Continuous
 62
     7
370
    25
100
AcDbCircle
 10
2529.8121505075
 20
911.0878860002
 30
0.0
 40
4.200004019786086
100
AcDbArc
 50
0.0002233151
 51
89.9999189808
  0
LINE
  5
630
330
1F
100
AcDbEntity
  8
0
  6
Continuous
 62
     7
370
    25
100
AcDbLine
 10
2368.8121509182
 20
918.0878956943
 30
0.0
 11
2529.8121564466
 21
918.0878956943
 31
0.0
  0
ARC
  5
631
330
1F
100
AcDbEntity
  8
0
  6
Continuous
 62
     7
370
    25
100
AcDbCircle
 10
2529.8121430713
 20
911.0878889947
 30
0.0
 40
7.000006699600863
100
AcDbArc
 50
0.0001094783
 51
89.9998905217
  0
LINE
  5
632
330
1F
100
AcDbEntity
  8
0
  6
Continuous
 62
     7
370
    25
100
AcDbLine
 10
2536.8121497709
 20
911.08790237
 30
0.0
 11
2536.8121497709
 21
792.0879011183
 31
0.0
  0
ARC
  5
633
330
1F
100
AcDbEntity
  8
0
  6
Continuous
 62
     7
370
    25
100
AcDbCircle
 10
2529.8121608778
 20
792.0878862563
 30
0.0
 40
6.999988893084757
100
AcDbArc
 50
269.99996373
 51
0.0001216474
  0
LINE
  5
634
330
1F
100
AcDbEntity
  8
0
  6
Continuous
 62
     7
370
    25
100
AcDbLine
 10
2529.8121564466
 20
785.0878973632
 30
0.0
 11
2368.8121509182
 21
785.0878973632
 31
0.0
  0
LINE
  5
635
330
1F
100
AcDbEntity
  8
0
  6
Continuous
 62
     7
370
    25
100
AcDbLine
 10
2368.8121509182
 20
915.2878900199
 30
0.0
 11
2368.8121509182
 21
918.0878956943
 31
0.0
  0
LINE
  5
636
330
1F
100
AcDbEntity
  8
0
  6
Continuous
 62
     7
370
    25
100
AcDbLine
 10
2368.8121509182
 20
785.0878973632
 30
0.0
 11
2368.8121509182
 21
787.8878926068
 31
0.0
  0
LINE
  5
637
330
1F
100
AcDbEntity
  8
0
  6
Continuous
 62
     7
370
    25
100
AcDbLine
 10
2431.8121508139
 20
753.5878961115
 30
0.0
 11
2431.9560725617
 21
753.5878961115
 31
0.0
  0
LINE
  5
638
330
1F
100
AcDbEntity
  8
0
  6
Continuous
 62
     7
370
    25
100
AcDbLine
 10
2449.5875232297
 20
771.4294781118
 30
0.0
 11
2449.5107002932
 21
770.168893519
 31
0.0
  0
LINE
  5
639
330
1F
100
AcDbEntity
  8
0
  6
Continuous
 62
     7
370
    25
100
AcDbLine
 10
2448.7579971927
 20
770.168893519
 30
0.0
 11
2448.8348253447
 21
771.4294781118
 31
0.0
  0
LINE
  5
63A
330
1F
100
AcDbEntity
  8
0
  6
Continuous
 62
     7
370
    25
100
AcDbLine
 10
2446.4620449024
 20
771.4294781118
 30
0.0
 11
2446.3281393427
 21
770.168893519
 31
0.0
  0
LINE
  5
63B
330
1F
100
AcDbEntity
  8
0
  6
Continuous
 62
     7
370
    25
100
AcDbLine
 10
2453.8563177365
 20
770.168893519
 30
0.0
 11
2453.8310595232
 21
771.4294781118
 31
0.0
  0
LINE
  5
63C
330
1F
100
AcDbEntity
  8
0
  6
Continuous
 62
     7
370
    25
100
AcDbLine
 10
2459.067729153
 20
770.168893519
 30
0.0
 11
2458.9299276847
 21
771.4294781118
 31
0.0
  0
LINE
  5
63D
330
1F
100
AcDbEntity
  8
0
  6
Continuous
 62
     7
370
    25
100
AcDbLine
 10
2454.2514890808
 20
771.4294781118
 30
0.0
 11
2454.2767472941
 21
770.168893519
 31
0.0
  0
LINE
  5
63E
330
1F
100
AcDbEntity
  8
0
  6
Continuous
 62
     7
370
    25
100
AcDbLine
 10
2459.6126608926
 20
771.4294781118
 30
0.0
 11
2459.750462361
 21
770.168893519
 31
0.0
  0
LINE
  5
63F
330
1F
100
AcDbEntity
  8
0
  6
Continuous
 62
     7
370
    25
100
AcDbLine
 10
2461.1051068085
 20
770.168893519
 30
0.0
 11
2460.9354861456
 21
771.4294781118
 31
0.0
  0
LINE
  5
640
330
1F
100
AcDbEntity
  8
0
  6
Continuous
 62
     7
370
    25
100
AcDbLine
 10
2445.9958684075
 20
770.168893519
 30
0.0
 11
2446.1297713596
 21
771.4294781118
 31
0.0
  0
LINE
  5
641
330
1F
100
AcDbEntity
  8
0
  6
Continuous
 62
     7
370
    25
100
AcDbLine
 10
2441.451330148
 20
771.4294781118
 30
0.0
 11
2441.2048813331
 21
770.168893519
 31
0.0
  0
LINE
  5
642
330
1F
100
AcDbEntity
  8
0
  6
Continuous
 62
     7
370
    25
100
AcDbLine
 10
2461.197789796
 20
771.4294781118
 30
0.0
 11
2461.3674104589
 21
770.168893519
 31
0.0
  0
LINE
  5
643
330
1F
100
AcDbEntity
  8
0
  6
Continuous
 62
     7
370
    25
100
AcDbLine
 10
2465.7130331176
 20
770.168893519
 30
0.0
 11
2465.4413260895
 21
771.4294781118
 31
0.0
  0
LINE
  5
644
330
1F
100
AcDbEntity
  8
0
  6
Continuous
 62
     7
370
    25
100
AcDbLine
 10
2439.6984476972
 20
770.168893519
 30
0.0
 11
2440.80189731
 21
770.168893519
 31
0.0
  0
LINE
  5
645
330
1F
100
AcDbEntity
  8
0
  6
Continuous
 62
     7
370
    25
100
AcDbLine
 10
2439.9701521176
 20
771.4294781118
 30
0.0
 11
2439.6984476972
 21
770.168893519
 31
0.0
  0
LWPOLYLINE
  5
646
330
1F
100
AcDbEntity
  8
0
  6
Continuous
 62
     7
370
    25
100
AcDbPolyline
 90
        3
 70
   128
 43
0.0
 10
2439.6137442815
 20
770.0942610531
 10
2439.6185789633
 20
770.1060478716
 10
2439.6984476972
 20
770.168893519
  0
LINE
  5
647
330
1F
100
AcDbEntity
  8
FORMAT
370
    25
100
AcDbLine
 10
2368.8121514395
 20
811.687897697
 30
0.0
 11
2373.0121514395
 21
811.687897697
 31
0.0
  0
LINE
  5
648
330
1F
100
AcDbEntity
  8
FORMAT
370
    25
100
AcDbLine
 10
2373.0121514395
 20
821.487897697
 30
0.0
 11
2368.8121514395
 21
821.487897697
 31
0.0
  0
LINE
  5
649
330
1F
100
AcDbEntity
  8
FORMAT
370
    25
100
AcDbLine
 10
2368.8121514395
 20
823.587897697
 30
0.0
 11
2373.0121514395
 21
823.587897697
 31
0.0
  0
LINE
  5
64A
330
1F
100
AcDbEntity
  8
FORMAT
370
    25
100
AcDbLine
 10
2373.0121514395
 20
837.587897697
 30
0.0
 11
2368.8121514395
 21
837.587897697
 31
0.0
  0
LINE
  5
64B
330
1F
100
AcDbEntity
  8
FORMAT
370
    25
100
AcDbLine
 10
2368.8121514395
 20
839.687897697
 30
0.0
 11
2373.0121514395
 21
839.687897697
 31
0.0
  0
LINE
  5
64C
330
1F
100
AcDbEntity
  8
FORMAT
370
    25
100
AcDbLine
 10
2373.0121514395
 20
849.487897697
 30
0.0
 11
2368.8121514395
 21
849.487897697
 31
0.0
  0
LINE
  5
64D
330
1F
100
AcDbEntity
  8
FORMAT
370
    25
100
AcDbLine
 10
2368.8121514395
 20
853.687897697
 30
0.0
 11
2373.0121514395
 21
853.687897697
 31
0.0
  0
LINE
  5
64E
330
1F
100
AcDbEntity
  8
FORMAT
370
    25
100
AcDbLine
 10
2373.0121514395
 20
863.487897697
 30
0.0
 11
2368.8121514395
 21
863.487897697
 31
0.0
  0
LINE
  5
64F
330
1F
100
AcDbEntity
  8
FORMAT
370
    25
100
AcDbLine
 10
2368.8121514395
 20
865.587897697
 30
0.0
 11
2373.0121514395
 21
865.587897697
 31
0.0
  0
LINE
  5
650
330
1F
100
AcDbEntity
  8
FORMAT
370
    25
100
AcDbLine
 10
2373.0121514395
 20
879.587897697
 30
0.0
 11
2368.8121514395
 21
879.587897697
 31
0.0
  0
LINE
  5
651
330
1F
100
AcDbEntity
  8
FORMAT
370
    25
100
AcDbLine
 10
2368.8121514395
 20
881.687897697
 30
0.0
 11
2373.0121514395
 21
881.687897697
 31
0.0
  0
LINE
  5
652
330
1F
100
AcDbEntity
  8
FORMAT
370
    25
100
AcDbLine
 10
2373.0121514395
 20
891.487897697
 30
0.0
 11
2368.8121514395
 21
891.487897697
 31
0.0
  0
LINE
  5
653
330
1F
100
AcDbEntity
  8
FORMAT
  6
CENTERX2
370
    25
100
AcDbLine
 10
2360.1694423993
 20
899.096856483
 30
0.0
 11
2382.6298832417
 21
899.096856483
 31
0.0
  0
LINE
  5
654
330
1F
100
AcDbEntity
  8
FORMAT
  6
CENTERX2
370
    25
100
AcDbLine
 10
2360.1694423993
 20
899.096856483
 30
0.0
 11
2360.1694423993
 21
804.5490959846
 31
0.0
  0
LINE
  5
655
330
1F
100
AcDbEntity
  8
FORMAT
  6
CENTERX2
370
    25
100
AcDbLine
 10
2360.1694423993
 20
804.5490959846
 30
0.0
 11
2382.6298832417
 21
804.5490959846
 31
0.0
  0
LINE
  5
656
330
1F
100
AcDbEntity
  8
FORMAT
  6
CENTERX2
370
    25
100
AcDbLine
 10
2382.6298832417
 20
899.096856483
 30
0.0
 11
2382.6298832417
 21
804.5490959846
 31
0.0
  0
ARC
  5
657
330
1F
100
AcDbEntity
  8
FORMAT
370
    25
100
AcDbCircle
 10
2373.0121514395
 20
816.587897697
 30
0.0
 40
4.899999999999977
100
AcDbArc
 50
270.0
 51
90.0
  0
ARC
  5
658
330
1F
100
AcDbEntity
  8
FORMAT
370
    25
100
AcDbCircle
 10
2373.0121514395
 20
830.587897697
 30
0.0
 40
7.0
100
AcDbArc
 50
270.0
 51
90.0
  0
ARC
  5
659
330
1F
100
AcDbEntity
  8
FORMAT
370
    25
100
AcDbCircle
 10
2373.0121514395
 20
844.587897697
 30
0.0
 40
4.900000000000205
100
AcDbArc
 50
270.0
 51
90.0
  0
ARC
  5
65A
330
1F
100
AcDbEntity
  8
FORMAT
370
    25
100
AcDbCircle
 10
2373.0121514395
 20
858.587897697
 30
0.0
 40
4.899999999999977
100
AcDbArc
 50
270.0
 51
90.0
  0
ARC
  5
65B
330
1F
100
AcDbEntity
  8
FORMAT
370
    25
100
AcDbCircle
 10
2373.0121514395
 20
872.587897697
 30
0.0
 40
7.0
100
AcDbArc
 50
270.0
 51
90.0
  0
ARC
  5
65C
330
1F
100
AcDbEntity
  8
FORMAT
370
    25
100
AcDbCircle
 10
2373.0121514395
 20
886.587897697
 30
0.0
 40
4.899999999999977
100
AcDbArc
 50
270.0
 51
90.0
  0
DIMENSION
  5
65D
330
1F
100
AcDbEntity
  8
FORMAT
100
AcDbDimension
  2
_D_26
 10
2408.0121514368
 20
574.1343369458
 30
0.0
 11
2475.1327706111
 21
574.1343369458
 31
0.0
 70
   160
  1
(<>)
 71
     2
 42
-1.0
  3
SLDDIMSTYLE5
100
AcDbAlignedDimension
 13
2368.81215144
 23
634.252026924
 33
0.0
 14
2408.0121514368
 24
673.7878977118
 34
0.0
100
AcDbRotatedDimension
  0
DIMENSION
  5
66C
330
1F
100
AcDbEntity
  8
FORMAT
100
AcDbDimension
  2
_D_27
 10
2566.8533196243
 20
696.8878977118
 30
0.0
 11
2566.8533196243
 21
599.0806383312
 31
0.0
 70
   160
  1
(<>)
 71
     2
 42
-1.0
  3
SLDDIMSTYLE5
100
AcDbAlignedDimension
 13
2407.3121514368
 23
673.0878977118
 33
0.0
 14
2407.3121514368
 24
696.8878977118
 34
0.0
 50
90.0
100
AcDbRotatedDimension
  0
DIMENSION
  5
67A
330
1F
100
AcDbEntity
  8
FORMAT
100
AcDbDimension
  2
_D_28
 10
2621.674677243
 20
739.587897698
 30
0.0
 11
2621.674677243
 21
691.2527332157
 31
0.0
 70
   160
  1
<>*
 71
     2
 42
-1.0
  3
SLDDIMSTYLE6
100
AcDbAlignedDimension
 13
2368.81215144
 23
733.987897697
 33
0.0
 14
2452.9875062498
 24
739.587897698
 34
0.0
 50
90.0
100
AcDbRotatedDimension
  0
DIMENSION
  5
688
330
1F
100
AcDbEntity
  8
FORMAT
100
AcDbDimension
  2
_D_29
 10
2671.2244998962
 20
785.087897697
 30
0.0
 11
2671.2244998962
 21
846.9139685369
 31
0.0
 70
   160
  1
<>
 71
     2
 42
-1.0
  3
SLDDIMSTYLE5
100
AcDbAlignedDimension
 13
2433.3464774354
 23
739.5878976972
 33
0.0
 14
2529.8121514395
 24
785.087897697
 34
0.0
 50
90.0
100
AcDbRotatedDimension
  0
DIMENSION
  5
694
330
1F
100
AcDbEntity
  8
FORMAT
100
AcDbDimension
  2
_D_30
 10
2186.7356570524
 20
733.987897697
 30
0.0
 11
2186.7356570524
 21
637.9734731739
 31
0.0
 70
   160
  1
<>
 71
     2
 42
-1.0
  3
SLDDIMSTYLE7
100
AcDbAlignedDimension
 13
2369.5121514368
 23
696.8878977118
 33
0.0
 14
2312.81215144
 24
733.987897697
 34
0.0
 50
90.0
100
AcDbRotatedDimension
  0
DIMENSION
  5
6A2
330
1F
100
AcDbEntity
  8
FORMAT
100
AcDbDimension
  2
_D_31
 10
2186.7356570524
 20
785.087897697
 30
0.0
 11
2186.7356570524
 21
846.9139685353
 31
0.0
 70
   160
  1
<>
 71
     2
 42
-1.0
  3
SLDDIMSTYLE8
100
AcDbAlignedDimension
 13
2312.81215144
 23
733.987897697
 33
0.0
 14
2368.8121514395
 24
785.087897697
 34
0.0
 50
90.0
100
AcDbRotatedDimension
  0
DIMENSION
  5
6B0
330
1F
100
AcDbEntity
  8
FORMAT
100
AcDbDimension
  2
_D_32
 10
2241.158259732
 20
785.087897697
 30
0.0
 11
2241.158259732
 21
838.8005421813
 31
0.0
 70
   160
  1
<>
 71
     2
 42
-1.0
  3
SLDDIMSTYLE5
100
AcDbAlignedDimension
 13
2398.9081135864
 23
749.3878976971
 33
0.0
 14
2368.8121514395
 24
785.087897697
 34
0.0
 50
90.0
100
AcDbRotatedDimension
  0
MTEXT
  5
6BC
330
1F
100
AcDbEntity
  8
FORMAT
100
AcDbMText
 10
2394.5848578622
 20
1096.3757569658
 30
0.0
 40
35.0
 41
0.0
 71
     2
 72
     1
  1
B (1 : 5)
  7
SLDTEXTSTYLE0
 73
     1
 44
1.0
  0
MTEXT
  5
6BD
330
1F
100
AcDbEntity
  8
FORMAT
100
AcDbMText
 10
2627.1481447502
 20
965.0663573656
 30
0.0
 40
18.5208333333
 41
0.0
 71
     1
 72
     1
  1
AV 20
  7
SLDTEXTSTYLE0
 73
     1
 44
1.0
  0
LEADER
  5
6BF
330
1F
100
AcDbEntity
  8
FORMAT
100
AcDbLeader
  3
SLDDIMSTYLE9
 76
     3
 10
2454.1035547487
 20
778.7039731541
 30
0.0
 10
2578.6635792121
 20
956.0770654494
 30
0.0
 10
2623.1135792121
 20
956.0770654494
 30
0.0
  0
MTEXT
  5
6C0
330
1F
100
AcDbEntity
  8
FORMAT
100
AcDbMText
 10
2137.1143686469
 20
555.9976383594
 30
0.0
 40
18.5208333333
 41
0.0
 71
     1
 72
     1
  1
GB 46
  7
SLDTEXTSTYLE0
 73
     1
 44
1.0
  0
LEADER
  5
6C1
330
1F
100
AcDbEntity
  8
FORMAT
100
AcDbLeader
  3
SLDDIMSTYLE9
 76
     3
 10
2386.509579284
 20
714.0666630877
 30
0.0
 10
2254.5898525428
 20
547.1080796992
 30
0.0
 10
2210.1398525428
 20
547.1080796992
 30
0.0
  0
MTEXT
  5
6C2
330
1F
100
AcDbEntity
  8
FORMAT
100
AcDbMText
 10
1832.9283343777
 20
937.3769296065
 30
0.0
 40
18.5208333333
 41
0.0
 71
     1
 72
     1
  1
aufliegende Kabelzuführung (optional)
  7
SLDTEXTSTYLE0
 73
     1
 44
1.0
  0
LEADER
  5
6C3
330
1F
100
AcDbEntity
  8
FORMAT
100
AcDbLeader
  3
SLDDIMSTYLE3
 76
     3
 10
2360.1694423993
 20
880.0589589093
 30
0.0
 10
2297.7442375099
 20
927.9127737478
 30
0.0
 10
2253.2942375099
 20
927.9127737478
 30
0.0
  0
CIRCLE
  5
6C4
330
1F
100
AcDbEntity
  8
0
  6
Continuous
 62
     7
370
    18
100
AcDbCircle
 10
1869.6229336712
 20
278.3268417279
 30
0.0
 40
76.8283491178275
  0
ARC
  5
6C5
330
1F
100
AcDbEntity
  8
0
  6
Continuous
 62
     7
370
    25
100
AcDbCircle
 10
1893.3848328304
 20
332.4861323728
 30
0.0
 40
4.200008151989297
100
AcDbArc
 50
9.5942083945
 51
170.4057916055
  0
ARC
  5
6C6
330
1F
100
AcDbEntity
  8
0
  6
Continuous
 62
     7
370
    25
100
AcDbCircle
 10
1870.9848291588
 20
332.4861651314
 30
0.0
 40
4.549991748950099
100
AcDbArc
 50
8.8496282222
 51
171.1503717778
  0
ARC
  5
6C7
330
1F
100
AcDbEntity
  8
0
  6
Continuous
 62
     7
370
    25
100
AcDbCircle
 10
1870.9848291588
 20
226.0861562254
 30
0.0
 40
4.549993645416754
100
AcDbArc
 50
8.8497816055
 51
171.1502183945
  0
ARC
  5
6C8
330
1F
100
AcDbEntity
  8
0
  6
Continuous
 62
     7
370
    25
100
AcDbCircle
 10
1893.3848328304
 20
226.0861483111
 30
0.0
 40
4.200006065812249
100
AcDbArc
 50
9.5940400282
 51
170.4059599718
  0
ARC
  5
6C9
330
1F
100
AcDbEntity
  8
0
  6
Continuous
 62
     7
370
    25
100
AcDbCircle
 10
1870.9848291588
 20
332.4861444113
 30
0.0
 40
4.549995541921946
100
AcDbArc
 50
188.8499349891
 51
351.1500650109
  0
ARC
  5
6CA
330
1F
100
AcDbEntity
  8
0
  6
Continuous
 62
     7
370
    25
100
AcDbCircle
 10
1893.3848328304
 20
332.4861525152
 30
0.0
 40
4.200008151989278
100
AcDbArc
 50
189.5942083945
 51
350.4057916055
  0
ARC
  5
6CB
330
1F
100
AcDbEntity
  8
0
  6
Continuous
 62
     7
370
    25
100
AcDbCircle
 10
1870.9848291588
 20
226.0861459361
 30
0.0
 40
4.549993645416767
100
AcDbArc
 50
188.8497816055
 51
351.1502183945
  0
ARC
  5
6CC
330
1F
100
AcDbEntity
  8
0
  6
Continuous
 62
     7
370
    25
100
AcDbCircle
 10
1893.3848328304
 20
226.0861538504
 30
0.0
 40
4.200006065812269
100
AcDbArc
 50
189.5940400282
 51
350.4059599718
  0
LINE
  5
6CD
330
1F
100
AcDbEntity
  8
0
  6
Continuous
 62
     7
370
    25
100
AcDbLine
 10
1911.1202395868
 20
342.9861428613
 30
0.0
 11
1828.1256414366
 21
342.9861428613
 31
0.0
  0
LINE
  5
6CE
330
1F
100
AcDbEntity
  8
0
  6
Continuous
 62
     7
370
    25
100
AcDbLine
 10
1825.2838707876
 20
215.5861454481
 30
0.0
 11
1913.9620102358
 21
215.5861454481
 31
0.0
  0
ARC
  5
6CF
330
1F
100
AcDbEntity
  8
0
  6
Continuous
 62
     7
370
    25
100
AcDbCircle
 10
1870.9778620113
 20
332.4867600983
 30
0.0
 40
4.543016036886948
100
AcDbArc
 50
171.1442682278
 51
180.0076582037
  0
ARC
  5
6D0
330
1F
100
AcDbEntity
  8
0
  6
Continuous
 62
     7
370
    25
100
AcDbCircle
 10
1893.3809593027
 20
332.4858051316
 30
0.0
 40
4.20388205366027
100
AcDbArc
 50
0.0047394813
 51
9.5898070552
  0
ARC
  5
6D1
330
1F
100
AcDbEntity
  8
0
  6
Continuous
 62
     7
370
    25
100
AcDbCircle
 10
1893.3887063581
 20
332.4858051316
 30
0.0
 40
4.20388205366027
100
AcDbArc
 50
170.4101929448
 51
179.9952605187
  0
ARC
  5
6D2
330
1F
100
AcDbEntity
  8
0
  6
Continuous
 62
     7
370
    25
100
AcDbCircle
 10
1870.9839746925
 20
332.4858837013
 30
0.0
 40
4.550879341280411
100
AcDbArc
 50
0.0033889076
 51
8.8514742656
  0
ARC
  5
6D3
330
1F
100
AcDbEntity
  8
0
  6
Continuous
 62
     7
370
    25
100
AcDbCircle
 10
1870.9778622689
 20
226.0867634906
 30
0.0
 40
4.54301629592218
100
AcDbArc
 50
171.1442683659
 51
180.0077893885
  0
ARC
  5
6D4
330
1F
100
AcDbEntity
  8
0
  6
Continuous
 62
     7
370
    25
100
AcDbCircle
 10
1870.9839748408
 20
226.085887138
 30
0.0
 40
4.550879192321629
100
AcDbArc
 50
0.0032573891
 51
8.8514743612
  0
ARC
  5
6D5
330
1F
100
AcDbEntity
  8
0
  6
Continuous
 62
     7
370
    25
100
AcDbCircle
 10
1893.3888925937
 20
226.0857929285
 30
0.0
 40
4.204068289653821
100
AcDbArc
 50
170.4104058184
 51
179.9951899474
  0
ARC
  5
6D6
330
1F
100
AcDbEntity
  8
0
  6
Continuous
 62
     7
370
    25
100
AcDbCircle
 10
1893.3807730671
 20
226.0857929285
 30
0.0
 40
4.204068289653363
100
AcDbArc
 50
0.0048100526
 51
9.5895941816
  0
ARC
  5
6D7
330
1F
100
AcDbEntity
  8
0
  6
Continuous
 62
     7
370
    25
100
AcDbCircle
 10
1893.3890788459
 20
332.4865110063
 30
0.0
 40
4.204254542280307
100
AcDbArc
 50
180.0048806324
 51
189.5893813036
  0
ARC
  5
6D8
330
1F
100
AcDbEntity
  8
0
  6
Continuous
 62
     7
370
    25
100
AcDbCircle
 10
1870.9835716391
 20
332.4864323855
 30
0.0
 40
4.551282395317446
100
AcDbArc
 50
351.1489184094
 51
359.9964812592
  0
ARC
  5
6D9
330
1F
100
AcDbEntity
  8
0
  6
Continuous
 62
     7
370
    25
100
AcDbCircle
 10
1893.3805868149
 20
332.4865110063
 30
0.0
 40
4.20425454228008
100
AcDbArc
 50
350.4106186964
 51
359.9951193676
  0
ARC
  5
6DA
330
1F
100
AcDbEntity
  8
0
  6
Continuous
 62
     7
370
    25
100
AcDbCircle
 10
1870.9782648354
 20
332.4855559728
 30
0.0
 40
4.543418859658456
100
AcDbArc
 50
179.9924726366
 51
188.85533829
  0
ARC
  5
6DB
330
1F
100
AcDbEntity
  8
0
  6
Continuous
 62
     7
370
    25
100
AcDbCircle
 10
1870.9778620113
 20
226.0855386419
 30
0.0
 40
4.543016036886494
100
AcDbArc
 50
179.9923417963
 51
188.8557317722
  0
ARC
  5
6DC
330
1F
100
AcDbEntity
  8
0
  6
Continuous
 62
     7
370
    25
100
AcDbCircle
 10
1893.3807729379
 20
226.0865092491
 30
0.0
 40
4.204068419710273
100
AcDbArc
 50
350.4104058943
 51
359.9950475692
  0
ARC
  5
6DD
330
1F
100
AcDbEntity
  8
0
  6
Continuous
 62
     7
370
    25
100
AcDbCircle
 10
1870.9839746925
 20
226.0864150389
 30
0.0
 40
4.550879341279956
100
AcDbArc
 50
351.1485257344
 51
359.9966110924
  0
ARC
  5
6DE
330
1F
100
AcDbEntity
  8
0
  6
Continuous
 62
     7
370
    25
100
AcDbCircle
 10
1893.3888927229
 20
226.0865092491
 30
0.0
 40
4.204068419710273
100
AcDbArc
 50
180.0049524308
 51
189.5895941057
  0
DIMENSION
  5
6DF
330
1F
100
AcDbEntity
  8
FORMAT
100
AcDbDimension
  2
_D_33
 10
1769.9162053903
 20
226.0861505377
 30
0.0
 11
1769.9162053903
 21
163.5709338619
 31
0.0
 70
   160
  1
<>
 71
     2
 42
-1.0
  3
SLDDIMSTYLE5
100
AcDbAlignedDimension
 13
1825.2838707876
 23
215.5861505377
 33
0.0
 14
1862.9348393392
 24
226.0861505377
 34
0.0
 50
90.0
100
AcDbRotatedDimension
  0
DIMENSION
  5
6EB
330
1F
100
AcDbEntity
  8
FORMAT
100
AcDbDimension
  2
_D_34
 10
1728.2326775621
 20
332.4861505377
 30
0.0
 11
1728.2326775621
 21
279.2861505377
 31
0.0
 70
   160
  1
<>
 71
     2
 42
-1.0
  3
SLDDIMSTYLE10
100
AcDbAlignedDimension
 13
1862.9348393392
 23
226.0861505377
 33
0.0
 14
1862.9348393392
 24
332.4861505377
 34
0.0
 50
90.0
100
AcDbRotatedDimension
  0
MTEXT
  5
6F6
330
1F
100
AcDbEntity
  8
FORMAT
100
AcDbMText
 10
1864.2601173783
 20
451.2355557717
 30
0.0
 40
35.0
 41
0.0
 71
     2
 72
     1
  1
C (1 : 5)
  7
SLDTEXTSTYLE0
 73
     1
 44
1.0
  0
INSERT
  5
702
330
1F
100
AcDbEntity
  8
FORMAT
100
AcDbBlockReference
  2
SW_CENTERMARKSYMBOL_12
 10
1870.9848500204
 20
226.0861458653
 30
0.0
  0
INSERT
  5
70E
330
1F
100
AcDbEntity
  8
FORMAT
100
AcDbBlockReference
  2
SW_CENTERMARKSYMBOL_13
 10
1870.9848500204
 20
332.4861528748
 30
0.0
  0
ENDSEC
  0
SECTION
  2
OBJECTS
  0
DICTIONARY
  5
C
330
0
100
AcDbDictionary
281
     1
  3
ACAD_GROUP
350
D
  3
ACAD_LAYOUT
350
1A
  3
ACAD_MLINESTYLE
350
17
  3
ACAD_PLOTSETTINGS
350
19
  3
ACAD_PLOTSTYLENAME
350
E
  3
ACAD_SCALELIST
350
47
  3
DWGPROPS
350
70F
  0
DICTIONARY
  5
D
102
{ACAD_REACTORS
330
C
102
}
330
C
100
AcDbDictionary
281
     1
  0
DICTIONARY
  5
1A
102
{ACAD_REACTORS
330
C
102
}
330
C
100
AcDbDictionary
281
     1
  3
Layout1
350
1E
  3
Layout2
350
26
  3
Model
350
22
  0
DICTIONARY
  5
17
102
{ACAD_REACTORS
330
C
102
}
330
C
100
AcDbDictionary
281
     1
  3
Standard
350
18
  0
DICTIONARY
  5
19
102
{ACAD_REACTORS
330
C
102
}
330
C
100
AcDbDictionary
281
     1
  0
ACDBDICTIONARYWDFLT
  5
E
102
{ACAD_REACTORS
330
C
102
}
330
C
100
AcDbDictionary
281
     1
  3
Normal
350
F
100
AcDbDictionaryWithDefault
340
F
  0
DICTIONARY
  5
47
102
{ACAD_REACTORS
330
C
102
}
330
C
100
AcDbDictionary
281
     1
  3
A0
350
48
  3
A1
350
49
  3
A2
350
4A
  3
A3
350
4B
  3
A4
350
4C
  3
A5
350
4D
  3
A6
350
4E
  3
A7
350
4F
  3
A8
350
50
  3
A9
350
51
  3
B0
350
52
  3
B1
350
53
  3
B2
350
54
  3
B3
350
55
  3
B4
350
56
  3
B5
350
57
  3
B6
350
58
  3
B7
350
59
  3
B8
350
5A
  3
B9
350
5B
  3
C0
350
5C
  3
C1
350
5D
  3
C2
350
5E
  3
C3
350
5F
  3
C4
350
60
  3
C5
350
61
  3
C6
350
62
  3
C7
350
63
  3
C8
350
64
  3
C9
350
65
  3
D0
350
66
  3
D1
350
67
  3
D2
350
68
  0
XRECORD
  5
70F
102
{ACAD_REACTORS
330
C
102
}
330
C
100
AcDbXrecord
280
     1
  1
DWGPROPS COOKIE
  2

  3

  4

  6

  7

  8
l.eckardt
  9

300
=
301
=
302
=
303
=
304
=
305
=
306
=
307
=
308
=
309
=
 40
0.0
 41
2460077.37488088
 42
2460077.374886806
  1

 90
        0
  0
LAYOUT
  5
1E
102
{ACAD_REACTORS
330
1A
102
}
330
1A
100
AcDbPlotSettings
  1

  2
none_device
  4

  6

 40
0.0
 41
0.0
 42
0.0
 43
0.0
 44
0.0
 45
0.0
 46
0.0
 47
0.0
 48
0.0
 49
0.0
140
0.0
141
0.0
142
1.0
143
1.0
 70
   688
 72
     1
 73
     0
 74
     5
  7

 75
    16
147
1.0
148
0.0
149
0.0
100
AcDbLayout
  1
Layout1
 70
     1
 71
     1
 10
0.0
 20
0.0
 11
420.0
 21
297.0
 12
0.0
 22
0.0
 32
0.0
 14
1.0000000000E+20
 24
1.0000000000E+20
 34
1.0000000000E+20
 15
-1.0000000000E+20
 25
-1.0000000000E+20
 35
-1.0000000000E+20
146
0.0
 13
0.0
 23
0.0
 33
0.0
 16
1.0
 26
0.0
 36
0.0
 17
0.0
 27
1.0
 37
0.0
 76
     0
330
1B
  0
LAYOUT
  5
26
102
{ACAD_REACTORS
330
1A
102
}
330
1A
100
AcDbPlotSettings
  1

  2
none_device
  4

  6

 40
0.0
 41
0.0
 42
0.0
 43
0.0
 44
0.0
 45
0.0
 46
0.0
 47
0.0
 48
0.0
 49
0.0
140
0.0
141
0.0
142
1.0
143
1.0
 70
   688
 72
     1
 73
     0
 74
     5
  7

 75
    16
147
1.0
148
0.0
149
0.0
100
AcDbLayout
  1
Layout2
 70
     1
 71
     2
 10
0.0
 20
0.0
 11
0.0
 21
0.0
 12
0.0
 22
0.0
 32
0.0
 14
0.0
 24
0.0
 34
0.0
 15
0.0
 25
0.0
 35
0.0
146
0.0
 13
0.0
 23
0.0
 33
0.0
 16
1.0
 26
0.0
 36
0.0
 17
0.0
 27
1.0
 37
0.0
 76
     0
330
23
  0
LAYOUT
  5
22
102
{ACAD_REACTORS
330
1A
102
}
330
1A
100
AcDbPlotSettings
  1

  2
none_device
  4
Letter_(8.50_x_11.00_Inches)
  6

 40
6.35
 41
6.35
 42
6.35000508
 43
6.35000508
 44
215.9
 45
279.4
 46
0.0
 47
0.0
 48
0.0
 49
0.0
140
0.0
141
0.0
142
1.0
143
1.0
 70
  1712
 72
     1
 73
     0
 74
     0
  7

 75
     0
147
1.0
148
0.0
149
0.0
100
AcDbLayout
  1
Model
 70
     1
 71
     0
 10
0.0
 20
0.0
 11
2940.0
 21
2079.0
 12
0.0
 22
0.0
 32
0.0
 14
0.0
 24
0.0
 34
0.0
 15
2940.0
 25
2079.0
 35
0.0
146
0.0
 13
0.0
 23
0.0
 33
0.0
 16
1.0
 26
0.0
 36
0.0
 17
0.0
 27
1.0
 37
0.0
 76
     0
330
1F
331
29
  0
MLINESTYLE
  5
18
102
{ACAD_REACTORS
330
17
102
}
330
17
100
AcDbMlineStyle
  2
Standard
 70
     0
  3

 62
   256
 51
90.0
 52
90.0
 71
     2
 49
0.5
 62
   256
  6
BYLAYER
 49
-0.5
 62
   256
  6
BYLAYER
  0
ACDBPLACEHOLDER
  5
F
102
{ACAD_REACTORS
330
E
102
}
330
E
  0
SCALE
  5
48
102
{ACAD_REACTORS
330
47
102
}
330
47
100
AcDbScale
 70
     0
300
1:1
140
1.0
141
1.0
290
     1
  0
SCALE
  5
49
102
{ACAD_REACTORS
330
47
102
}
330
47
100
AcDbScale
 70
     0
300
1:2
140
1.0
141
2.0
290
     0
  0
SCALE
  5
4A
102
{ACAD_REACTORS
330
47
102
}
330
47
100
AcDbScale
 70
     0
300
1:4
140
1.0
141
4.0
290
     0
  0
SCALE
  5
4B
102
{ACAD_REACTORS
330
47
102
}
330
47
100
AcDbScale
 70
     0
300
1:5
140
1.0
141
5.0
290
     0
  0
SCALE
  5
4C
102
{ACAD_REACTORS
330
47
102
}
330
47
100
AcDbScale
 70
     0
300
1:8
140
1.0
141
8.0
290
     0
  0
SCALE
  5
4D
102
{ACAD_REACTORS
330
47
102
}
330
47
100
AcDbScale
 70
     0
300
1:10
140
1.0
141
10.0
290
     0
  0
SCALE
  5
4E
102
{ACAD_REACTORS
330
47
102
}
330
47
100
AcDbScale
 70
     0
300
1:16
140
1.0
141
16.0
290
     0
  0
SCALE
  5
4F
102
{ACAD_REACTORS
330
47
102
}
330
47
100
AcDbScale
 70
     0
300
1:20
140
1.0
141
20.0
290
     0
  0
SCALE
  5
50
102
{ACAD_REACTORS
330
47
102
}
330
47
100
AcDbScale
 70
     0
300
1:30
140
1.0
141
30.0
290
     0
  0
SCALE
  5
51
102
{ACAD_REACTORS
330
47
102
}
330
47
100
AcDbScale
 70
     0
300
1:40
140
1.0
141
40.0
290
     0
  0
SCALE
  5
52
102
{ACAD_REACTORS
330
47
102
}
330
47
100
AcDbScale
 70
     0
300
1:50
140
1.0
141
50.0
290
     0
  0
SCALE
  5
53
102
{ACAD_REACTORS
330
47
102
}
330
47
100
AcDbScale
 70
     0
300
1:100
140
1.0
141
100.0
290
     0
  0
SCALE
  5
54
102
{ACAD_REACTORS
330
47
102
}
330
47
100
AcDbScale
 70
     0
300
2:1
140
2.0
141
1.0
290
     0
  0
SCALE
  5
55
102
{ACAD_REACTORS
330
47
102
}
330
47
100
AcDbScale
 70
     0
300
4:1
140
4.0
141
1.0
290
     0
  0
SCALE
  5
56
102
{ACAD_REACTORS
330
47
102
}
330
47
100
AcDbScale
 70
     0
300
8:1
140
8.0
141
1.0
290
     0
  0
SCALE
  5
57
102
{ACAD_REACTORS
330
47
102
}
330
47
100
AcDbScale
 70
     0
300
10:1
140
10.0
141
1.0
290
     0
  0
SCALE
  5
58
102
{ACAD_REACTORS
330
47
102
}
330
47
100
AcDbScale
 70
     0
300
100:1
140
100.0
141
1.0
290
     0
  0
SCALE
  5
59
102
{ACAD_REACTORS
330
47
102
}
330
47
100
AcDbScale
 70
     0
300
1/128" = 1'-0"
140
0.0078125
141
12.0
290
     0
  0
SCALE
  5
5A
102
{ACAD_REACTORS
330
47
102
}
330
47
100
AcDbScale
 70
     0
300
1/64" = 1'-0"
140
0.015625
141
12.0
290
     0
  0
SCALE
  5
5B
102
{ACAD_REACTORS
330
47
102
}
330
47
100
AcDbScale
 70
     0
300
1/32" = 1'-0"
140
0.03125
141
12.0
290
     0
  0
SCALE
  5
5C
102
{ACAD_REACTORS
330
47
102
}
330
47
100
AcDbScale
 70
     0
300
1/16" = 1'-0"
140
0.0625
141
12.0
290
     0
  0
SCALE
  5
5D
102
{ACAD_REACTORS
330
47
102
}
330
47
100
AcDbScale
 70
     0
300
3/32" = 1'-0"
140
0.09375
141
12.0
290
     0
  0
SCALE
  5
5E
102
{ACAD_REACTORS
330
47
102
}
330
47
100
AcDbScale
 70
     0
300
1/8" = 1'-0"
140
0.125
141
12.0
290
     0
  0
SCALE
  5
5F
102
{ACAD_REACTORS
330
47
102
}
330
47
100
AcDbScale
 70
     0
300
3/16" = 1'-0"
140
0.1875
141
12.0
290
     0
  0
SCALE
  5
60
102
{ACAD_REACTORS
330
47
102
}
330
47
100
AcDbScale
 70
     0
300
1/4" = 1'-0"
140
0.25
141
12.0
290
     0
  0
SCALE
  5
61
102
{ACAD_REACTORS
330
47
102
}
330
47
100
AcDbScale
 70
     0
300
3/8" = 1'-0"
140
0.375
141
12.0
290
     0
  0
SCALE
  5
62
102
{ACAD_REACTORS
330
47
102
}
330
47
100
AcDbScale
 70
     0
300
1/2" = 1'-0"
140
0.5
141
12.0
290
     0
  0
SCALE
  5
63
102
{ACAD_REACTORS
330
47
102
}
330
47
100
AcDbScale
 70
     0
300
3/4" = 1'-0"
140
0.75
141
12.0
290
     0
  0
SCALE
  5
64
102
{ACAD_REACTORS
330
47
102
}
330
47
100
AcDbScale
 70
     0
300
1" = 1'-0"
140
1.0
141
12.0
290
     0
  0
SCALE
  5
65
102
{ACAD_REACTORS
330
47
102
}
330
47
100
AcDbScale
 70
     0
300
1-1/2" = 1'-0"
140
1.5
141
12.0
290
     0
  0
SCALE
  5
66
102
{ACAD_REACTORS
330
47
102
}
330
47
100
AcDbScale
 70
     0
300
3" = 1'-0"
140
3.0
141
12.0
290
     0
  0
SCALE
  5
67
102
{ACAD_REACTORS
330
47
102
}
330
47
100
AcDbScale
 70
     0
300
6" = 1'-0"
140
6.0
141
12.0
290
     0
  0
SCALE
  5
68
102
{ACAD_REACTORS
330
47
102
}
330
47
100
AcDbScale
 70
     0
300
1'-0" = 1'-0"
140
12.0
141
12.0
290
     0
  0
ENDSEC
  0
EOF
