  0
SECTION
  2
HEADER
  9
$ACADVER
  1
AC1015
  9
$ACADMAINTVER
 70
     6
  9
$DWGCODEPAGE
  3
ANSI_1252
  9
$INSBASE
 10
0.0
 20
0.0
 30
0.0
  9
$EXTMIN
 10
0.0
 20
0.0
 30
0.0
  9
$EXTMAX
 10
297.0
 20
210.0
 30
0.0
  9
$LIMMIN
 10
0.0
 20
0.0
  9
$LIMMAX
 10
297.0
 20
210.0
  9
$ORTHOMODE
 70
     0
  9
$REGENMODE
 70
     1
  9
$FILLMODE
 70
     1
  9
$QTEXTMODE
 70
     0
  9
$MIRRTEXT
 70
     1
  9
$LTSCALE
 40
1.0
  9
$ATTMODE
 70
     1
  9
$TEXTSIZE
 40
3.5
  9
$TRACEWID
 40
1.0
  9
$TEXTSTYLE
  7
STANDARD
  9
$CLAYER
  8
0
  9
$CELTYPE
  6
ByLayer
  9
$CECOLOR
 62
   256
  9
$CELTSCALE
 40
1.0
  9
$DISPSILH
 70
     0
  9
$DIMSCALE
 40
1.0
  9
$DIMASZ
 40
3.302
  9
$DIMEXO
 40
1.0
  9
$DIMDLI
 40
3.75
  9
$DIMRND
 40
0.0
  9
$DIMDLE
 40
0.0
  9
$DIMEXE
 40
1.0
  9
$DIMTP
 40
0.0
  9
$DIMTM
 40
0.0
  9
$DIMTXT
 40
3.5
  9
$DIMCEN
 40
2.5
  9
$DIMTSZ
 40
0.0
  9
$DIMTOL
 70
     0
  9
$DIMLIM
 70
     0
  9
$DIMTIH
 70
     1
  9
$DIMTOH
 70
     1
  9
$DIMSE1
 70
     0
  9
$DIMSE2
 70
     0
  9
$DIMTAD
 70
     1
  9
$DIMZIN
 70
     0
  9
$DIMBLK
  1

  9
$DIMASO
 70
     1
  9
$DIMSHO
 70
     1
  9
$DIMPOST
  1

  9
$DIMAPOST
  1

  9
$DIMALT
 70
     0
  9
$DIMALTD
 70
     3
  9
$DIMALTF
 40
0.0393700787
  9
$DIMLFAC
 40
1.0
  9
$DIMTOFL
 70
     1
  9
$DIMTVP
 40
0.0
  9
$DIMTIX
 70
     0
  9
$DIMSOXD
 70
     0
  9
$DIMSAH
 70
     0
  9
$DIMBLK1
  1

  9
$DIMBLK2
  1

  9
$DIMSTYLE
  2
ISO-25
  9
$DIMCLRD
 70
     0
  9
$DIMCLRE
 70
     0
  9
$DIMCLRT
 70
     0
  9
$DIMTFAC
 40
1.0
  9
$DIMGAP
 40
3.0
  9
$DIMJUST
 70
     0
  9
$DIMSD1
 70
     0
  9
$DIMSD2
 70
     0
  9
$DIMTOLJ
 70
     0
  9
$DIMTZIN
 70
     0
  9
$DIMALTZ
 70
     0
  9
$DIMALTTZ
 70
     0
  9
$DIMUPT
 70
     0
  9
$DIMDEC
 70
     2
  9
$DIMTDEC
 70
     2
  9
$DIMALTU
 70
     2
  9
$DIMALTTD
 70
     3
  9
$DIMTXSTY
  7
STANDARD
  9
$DIMAUNIT
 70
     0
  9
$DIMADEC
 70
     2
  9
$DIMALTRND
 40
0.0
  9
$DIMAZIN
 70
     0
  9
$DIMDSEP
 70
    44
  9
$DIMATFIT
 70
     3
  9
$DIMFRAC
 70
     0
  9
$DIMLDRBLK
  1

  9
$DIMLUNIT
 70
     2
  9
$DIMLWD
 70
    -2
  9
$DIMLWE
 70
    -2
  9
$DIMTMOVE
 70
     0
  9
$LUNITS
 70
     2
  9
$LUPREC
 70
     2
  9
$SKETCHINC
 40
1.0
  9
$FILLETRAD
 40
10.0
  9
$AUNITS
 70
     0
  9
$AUPREC
 70
     2
  9
$MENU
  1
.
  9
$ELEVATION
 40
0.0
  9
$PELEVATION
 40
0.0
  9
$THICKNESS
 40
0.0
  9
$LIMCHECK
 70
     0
  9
$CHAMFERA
 40
0.0
  9
$CHAMFERB
 40
0.0
  9
$CHAMFERC
 40
0.0
  9
$CHAMFERD
 40
0.0
  9
$SKPOLY
 70
     0
  9
$TDCREATE
 40
2460031.373852813
  9
$TDUCREATE
 40
2460031.290519479
  9
$TDUPDATE
 40
2460031.373854618
  9
$TDUUPDATE
 40
2460031.290521285
  9
$TDINDWG
 40
0.0000000116
  9
$TDUSRTIMER
 40
0.0000000116
  9
$USRTIMER
 70
     1
  9
$ANGBASE
 50
0.0
  9
$ANGDIR
 70
     0
  9
$PDMODE
 70
     0
  9
$PDSIZE
 40
-1.0
  9
$PLINEWID
 40
0.0
  9
$SPLFRAME
 70
     0
  9
$SPLINETYPE
 70
     6
  9
$SPLINESEGS
 70
     8
  9
$HANDSEED
  5
270
  9
$SURFTAB1
 70
     6
  9
$SURFTAB2
 70
     6
  9
$SURFTYPE
 70
     6
  9
$SURFU
 70
     6
  9
$SURFV
 70
     6
  9
$UCSBASE
  2

  9
$UCSNAME
  2

  9
$UCSORG
 10
0.0
 20
0.0
 30
0.0
  9
$UCSXDIR
 10
1.0
 20
0.0
 30
0.0
  9
$UCSYDIR
 10
0.0
 20
1.0
 30
0.0
  9
$UCSORTHOREF
  2

  9
$UCSORTHOVIEW
 70
     0
  9
$UCSORGTOP
 10
0.0
 20
0.0
 30
0.0
  9
$UCSORGBOTTOM
 10
0.0
 20
0.0
 30
0.0
  9
$UCSORGLEFT
 10
0.0
 20
0.0
 30
0.0
  9
$UCSORGRIGHT
 10
0.0
 20
0.0
 30
0.0
  9
$UCSORGFRONT
 10
0.0
 20
0.0
 30
0.0
  9
$UCSORGBACK
 10
0.0
 20
0.0
 30
0.0
  9
$PUCSBASE
  2

  9
$PUCSNAME
  2

  9
$PUCSORG
 10
0.0
 20
0.0
 30
0.0
  9
$PUCSXDIR
 10
1.0
 20
0.0
 30
0.0
  9
$PUCSYDIR
 10
0.0
 20
1.0
 30
0.0
  9
$PUCSORTHOREF
  2

  9
$PUCSORTHOVIEW
 70
     0
  9
$PUCSORGTOP
 10
0.0
 20
0.0
 30
0.0
  9
$PUCSORGBOTTOM
 10
0.0
 20
0.0
 30
0.0
  9
$PUCSORGLEFT
 10
0.0
 20
0.0
 30
0.0
  9
$PUCSORGRIGHT
 10
0.0
 20
0.0
 30
0.0
  9
$PUCSORGFRONT
 10
0.0
 20
0.0
 30
0.0
  9
$PUCSORGBACK
 10
0.0
 20
0.0
 30
0.0
  9
$USERI1
 70
     0
  9
$USERI2
 70
     0
  9
$USERI3
 70
     0
  9
$USERI4
 70
     0
  9
$USERI5
 70
     0
  9
$USERR1
 40
0.0
  9
$USERR2
 40
0.0
  9
$USERR3
 40
0.0
  9
$USERR4
 40
0.0
  9
$USERR5
 40
0.0
  9
$WORLDVIEW
 70
     1
  9
$SHADEDGE
 70
     3
  9
$SHADEDIF
 70
    70
  9
$TILEMODE
 70
     1
  9
$MAXACTVP
 70
    64
  9
$PINSBASE
 10
0.0
 20
0.0
 30
0.0
  9
$PLIMCHECK
 70
     0
  9
$PEXTMIN
 10
1.0000000000E+20
 20
1.0000000000E+20
 30
1.0000000000E+20
  9
$PEXTMAX
 10
-1.0000000000E+20
 20
-1.0000000000E+20
 30
-1.0000000000E+20
  9
$PLIMMIN
 10
0.0
 20
0.0
  9
$PLIMMAX
 10
420.0
 20
297.0
  9
$UNITMODE
 70
     0
  9
$VISRETAIN
 70
     1
  9
$PLINEGEN
 70
     0
  9
$PSLTSCALE
 70
     1
  9
$TREEDEPTH
 70
  3020
  9
$CMLSTYLE
  2
Standard
  9
$CMLJUST
 70
     0
  9
$CMLSCALE
 40
20.0
  9
$PROXYGRAPHICS
 70
     1
  9
$MEASUREMENT
 70
     1
  9
$CELWEIGHT
370
    -1
  9
$ENDCAPS
280
     0
  9
$JOINSTYLE
280
     0
  9
$LWDISPLAY
290
     1
  9
$INSUNITS
 70
     4
  9
$HYPERLINKBASE
  1

  9
$STYLESHEET
  1

  9
$XEDIT
290
     1
  9
$CEPSNTYPE
380
     0
  9
$PSTYLEMODE
290
     1
  9
$FINGERPRINTGUID
  2
{08e0cc6d-f8c5-4d24-9399-73b66f3f6b81}
  9
$VERSIONGUID
  2
{FAEB1C32-E019-11D5-929B-00C0DF256EC4}
  9
$EXTNAMES
290
     1
  9
$PSVPSCALE
 40
0.0
  9
$OLESTARTUP
290
     0
  0
ENDSEC
  0
SECTION
  2
CLASSES
  0
CLASS
  1
ACDBDICTIONARYWDFLT
  2
AcDbDictionaryWithDefault
  3
ObjectDBX Classes
 90
        0
280
     0
281
     0
  0
CLASS
  1
VISUALSTYLE
  2
AcDbVisualStyle
  3
ObjectDBX Classes
 90
     4095
280
     0
281
     0
  0
CLASS
  1
MATERIAL
  2
AcDbMaterial
  3
ObjectDBX Classes
 90
     1153
280
     0
281
     0
  0
CLASS
  1
SCALE
  2
AcDbScale
  3
ObjectDBX Classes
 90
     1153
280
     0
281
     0
  0
CLASS
  1
TABLESTYLE
  2
AcDbTableStyle
  3
ObjectDBX Classes
 90
     4095
280
     0
281
     0
  0
CLASS
  1
MLEADERSTYLE
  2
AcDbMLeaderStyle
  3
ACDB_MLEADERSTYLE_CLASS
 90
     4095
280
     0
281
     0
  0
CLASS
  1
SUN
  2
AcDbSun
  3
SCENEOE
 90
     1153
280
     0
281
     0
  0
CLASS
  1
ACDBPLACEHOLDER
  2
AcDbPlaceHolder
  3
ObjectDBX Classes
 90
        0
280
     0
281
     0
  0
CLASS
  1
LAYOUT
  2
AcDbLayout
  3
ObjectDBX Classes
 90
        0
280
     0
281
     0
  0
ENDSEC
  0
SECTION
  2
TABLES
  0
TABLE
  2
VPORT
  5
8
330
0
100
AcDbSymbolTable
 70
     1
  0
VPORT
  5
29
330
8
100
AcDbSymbolTableRecord
100
AcDbViewportTableRecord
  2
*Active
 70
     0
 10
0.0
 20
0.0
 11
1.0
 21
1.0
 12
148.5
 22
105.0
 13
0.0
 23
0.0
 14
10.0
 24
10.0
 15
10.0
 25
10.0
 16
0.0
 26
0.0
 36
1.0
 17
0.0
 27
0.0
 37
0.0
 40
210.0
 41
1.4142857143
 42
50.0
 43
0.0
 44
0.0
 50
0.0
 51
0.0
 71
     0
 72
  2000
 73
     1
 74
     3
 75
     0
 76
     0
 77
     0
 78
     0
281
     0
 65
     1
110
0.0
120
0.0
130
0.0
111
1.0
121
0.0
131
0.0
112
0.0
122
1.0
132
0.0
 79
     0
146
0.0
  0
ENDTAB
  0
TABLE
  2
LTYPE
  5
5
330
0
100
AcDbSymbolTable
 70
     6
  0
LTYPE
  5
14
330
5
100
AcDbSymbolTableRecord
100
AcDbLinetypeTableRecord
  2
ByBlock
 70
     0
  3

 72
    65
 73
     0
 40
0.0
  0
LTYPE
  5
15
330
5
100
AcDbSymbolTableRecord
100
AcDbLinetypeTableRecord
  2
ByLayer
 70
     0
  3

 72
    65
 73
     0
 40
0.0
  0
LTYPE
  5
16
330
5
100
AcDbSymbolTableRecord
100
AcDbLinetypeTableRecord
  2
Continuous
 70
     0
  3
Solid line
 72
    65
 73
     0
 40
0.0
  0
LTYPE
  5
6E
330
5
100
AcDbSymbolTableRecord
100
AcDbLinetypeTableRecord
  2
HIDDEN
 70
     0
  3
Hidden __ __ __ __ __ __ __ __ __ __ __ __ __ __
 72
    65
 73
     2
 40
1.905
 49
1.27
 74
     0
 49
-0.635
 74
     0
  0
LTYPE
  5
6F
330
5
100
AcDbSymbolTableRecord
100
AcDbLinetypeTableRecord
  2
PHANTOM
 70
     0
  3
Phantom ______  __  __  ______  __  __  ______
 72
    65
 73
     6
 40
12.7
 49
6.35
 74
     0
 49
-1.27
 74
     0
 49
1.27
 74
     0
 49
-1.27
 74
     0
 49
1.27
 74
     0
 49
-1.27
 74
     0
  0
LTYPE
  5
70
330
5
100
AcDbSymbolTableRecord
100
AcDbLinetypeTableRecord
  2
CENTER
 70
     0
  3
Center ____ _ ____ _ ____ _ ____ _ ____ _ ____
 72
    65
 73
     4
 40
10.16
 49
6.35
 74
     0
 49
-1.27
 74
     0
 49
1.27
 74
     0
 49
-1.27
 74
     0
  0
LTYPE
  5
71
330
5
100
AcDbSymbolTableRecord
100
AcDbLinetypeTableRecord
  2
CENTERX2
 70
     0
  3
Center (2x) ________  __  ________  __  _____
 72
    65
 73
     4
 40
20.32
 49
12.7
 74
     0
 49
-2.54
 74
     0
 49
2.54
 74
     0
 49
-2.54
 74
     0
  0
LTYPE
  5
72
330
5
100
AcDbSymbolTableRecord
100
AcDbLinetypeTableRecord
  2
DOT2
 70
     0
  3
Dot (.5x) ........................................
 72
    65
 73
     2
 40
0.635
 49
0.0
 74
     0
 49
-0.635
 74
     0
  0
ENDTAB
  0
TABLE
  2
LAYER
  5
2
330
0
100
AcDbSymbolTable
 70
     8
  0
LAYER
  5
10
330
2
100
AcDbSymbolTableRecord
100
AcDbLayerTableRecord
  2
0
 70
     0
 62
     7
  6
Continuous
370
    -3
390
F
  0
LAYER
  5
73
330
2
100
AcDbSymbolTableRecord
100
AcDbLayerTableRecord
  2
FORMAT
 70
     0
 62
     7
  6
Continuous
370
    -3
390
F
  0
LAYER
  5
74
330
2
100
AcDbSymbolTableRecord
100
AcDbLayerTableRecord
  2
VORLAGE
 70
     0
 62
     7
  6
Continuous
370
    -3
390
F
  0
LAYER
  5
75
330
2
100
AcDbSymbolTableRecord
100
AcDbLayerTableRecord
  2
1
 70
     0
 62
   179
  6
Continuous
370
    -3
390
F
  0
LAYER
  5
76
330
2
100
AcDbSymbolTableRecord
100
AcDbLayerTableRecord
  2
LAYER0
 70
     0
 62
     7
  6
Continuous
370
    -3
390
F
  0
LAYER
  5
77
330
2
100
AcDbSymbolTableRecord
100
AcDbLayerTableRecord
  2
BEMASSUNG
 70
     0
 62
     1
  6
Continuous
370
    -3
390
F
  0
LAYER
  5
78
330
2
100
AcDbSymbolTableRecord
100
AcDbLayerTableRecord
  2
ÄNDERUNG
 70
     0
 62
     1
  6
Continuous
370
    -3
390
F
  0
LAYER
  5
79
330
2
100
AcDbSymbolTableRecord
100
AcDbLayerTableRecord
  2
KENNZEICHNUNG
 70
     0
 62
     7
  6
Continuous
370
    -3
390
F
  0
ENDTAB
  0
TABLE
  2
STYLE
  5
3
330
0
100
AcDbSymbolTable
 70
     5
  0
STYLE
  5
11
330
3
100
AcDbSymbolTableRecord
100
AcDbTextStyleTableRecord
  2
STANDARD
 70
     0
 40
0.0
 41
1.0
 50
0.0
 71
     0
 42
3.5
  3
ARIAL.TTF
  4

1001
ACAD
1000
ARIAL
1071
       34
  0
STYLE
  5
8B
330
3
100
AcDbSymbolTableRecord
100
AcDbTextStyleTableRecord
  2
SLDTEXTSTYLE0
 70
     0
 40
0.0
 41
0.948
 50
0.0
 71
     0
 42
3.5
  3
ARIAL.TTF
  4

1001
ACAD
1000
Arial
1071
      290
  0
STYLE
  5
B2
330
3
100
AcDbSymbolTableRecord
100
AcDbTextStyleTableRecord
  2
SLDTEXTSTYLE1
 70
     0
 40
0.0
 41
1.0
 50
0.0
 71
     0
 42
3.5
  3
Arial Unicode MS
  4

1001
ACAD
1000
Arial Unicode MS
1071
 33554688
  0
STYLE
  5
B8
330
3
100
AcDbSymbolTableRecord
100
AcDbTextStyleTableRecord
  2
SLDTEXTSTYLE2
 70
     0
 40
0.0
 41
0.87
 50
0.0
 71
     0
 42
3.5
  3
ARIALN.TTF
  4

1001
ACAD
1000
Arial Narrow
1071
      290
  0
STYLE
  5
CF
330
3
100
AcDbSymbolTableRecord
100
AcDbTextStyleTableRecord
  2
SLDTEXTSTYLE3
 70
     0
 40
0.0
 41
0.948
 50
0.0
 71
     0
 42
3.5
  3
ARIALBD.TTF
  4

1001
ACAD
1000
Arial
1071
 33554722
  0
ENDTAB
  0
TABLE
  2
VIEW
  5
6
330
0
100
AcDbSymbolTable
 70
     0
  0
ENDTAB
  0
TABLE
  2
UCS
  5
7
330
0
100
AcDbSymbolTable
 70
     0
  0
ENDTAB
  0
TABLE
  2
APPID
  5
9
330
0
100
AcDbSymbolTable
 70
     1
  0
APPID
  5
12
330
9
100
AcDbSymbolTableRecord
100
AcDbRegAppTableRecord
  2
ACAD
 70
     0
  0
ENDTAB
  0
TABLE
  2
DIMSTYLE
  5
A
330
0
100
AcDbSymbolTable
 70
     4
100
AcDbDimStyleTable
  0
DIMSTYLE
105
27
330
A
100
AcDbSymbolTableRecord
100
AcDbDimStyleTableRecord
  2
ISO-25
 70
     0
 41
2.5
 42
0.625
 43
3.75
 44
1.25
 73
     0
 74
     0
 77
     1
 78
     8
140
2.5
141
2.5
143
0.0393700787
147
0.625
171
     3
172
     1
178
     0
271
     2
272
     2
274
     3
278
    44
283
     0
284
     8
340
11
  0
DIMSTYLE
105
124
102
{ACAD_REACTORS
330
123
330
12E
330
16B
330
21D
330
228
102
}
330
A
100
AcDbSymbolTableRecord
100
AcDbDimStyleTableRecord
  2
SLDDIMSTYLE0
 70
     0
 41
3.302
 44
0.0
 45
0.000000001
 73
     0
 74
     0
 77
     1
 78
    12
 79
     3
140
3.5
147
0.875
173
     1
178
     0
271
     2
272
     2
276
     2
284
    12
340
8B
  0
DIMSTYLE
105
139
102
{ACAD_REACTORS
330
138
102
}
330
A
100
AcDbSymbolTableRecord
100
AcDbDimStyleTableRecord
  2
SLDDIMSTYLE1
 70
     0
 41
3.302
 44
0.0
 45
0.000000001
 73
     0
 74
     0
 77
     1
 78
    12
 79
     3
140
3.5
141
0.0
147
0.875
173
     1
178
     0
271
     2
272
     2
276
     2
284
    12
340
8B
  0
DIMSTYLE
105
233
102
{ACAD_REACTORS
330
232
102
}
330
A
100
AcDbSymbolTableRecord
100
AcDbDimStyleTableRecord
  2
SLDDIMSTYLE2
 70
     0
 41
3.302
 44
0.0
 45
0.000000001
 73
     0
 74
     0
 77
     1
 78
    12
 79
     3
140
3.5
147
0.875
173
     1
178
     0
271
     1
272
     2
276
     2
284
    12
340
8B
  0
ENDTAB
  0
TABLE
  2
BLOCK_RECORD
  5
1
330
0
100
AcDbSymbolTable
 70
    18
  0
BLOCK_RECORD
  5
1F
330
1
100
AcDbSymbolTableRecord
100
AcDbBlockTableRecord
  2
*Model_Space
340
22
  0
BLOCK_RECORD
  5
1B
330
1
100
AcDbSymbolTableRecord
100
AcDbBlockTableRecord
  2
*Paper_Space
340
1E
  0
BLOCK_RECORD
  5
23
330
1
100
AcDbSymbolTableRecord
100
AcDbBlockTableRecord
  2
*Paper_Space0
340
26
  0
BLOCK_RECORD
  5
7A
330
1
100
AcDbSymbolTableRecord
100
AcDbBlockTableRecord
  2
Block1_2
340
0
102
{BLKREFS
331
CC
102
}
  0
BLOCK_RECORD
  5
88
330
1
100
AcDbSymbolTableRecord
100
AcDbBlockTableRecord
  2
SW_NOTE_0
340
0
102
{BLKREFS
331
8E
102
}
  0
BLOCK_RECORD
  5
8F
330
1
100
AcDbSymbolTableRecord
100
AcDbBlockTableRecord
  2
Block2_2
340
0
102
{BLKREFS
331
CB
102
}
  0
BLOCK_RECORD
  5
AF
330
1
100
AcDbSymbolTableRecord
100
AcDbBlockTableRecord
  2
SW_NOTE_0_1
340
0
102
{BLKREFS
331
B4
102
}
  0
BLOCK_RECORD
  5
B5
330
1
100
AcDbSymbolTableRecord
100
AcDbBlockTableRecord
  2
SW_NOTE_0_2
340
0
102
{BLKREFS
331
BC
102
}
  0
BLOCK_RECORD
  5
DF
330
1
100
AcDbSymbolTableRecord
100
AcDbBlockTableRecord
  2
SW_NOTE_0_3
340
0
102
{BLKREFS
331
E9
102
}
  0
BLOCK_RECORD
  5
125
330
1
100
AcDbSymbolTableRecord
100
AcDbBlockTableRecord
  2
_D
340
0
  0
BLOCK_RECORD
  5
12F
330
1
100
AcDbSymbolTableRecord
100
AcDbBlockTableRecord
  2
_D_1
340
0
  0
BLOCK_RECORD
  5
13A
330
1
100
AcDbSymbolTableRecord
100
AcDbBlockTableRecord
  2
_D_2
340
0
  0
BLOCK_RECORD
  5
16C
330
1
100
AcDbSymbolTableRecord
100
AcDbBlockTableRecord
  2
_D_3
340
0
  0
BLOCK_RECORD
  5
21E
330
1
100
AcDbSymbolTableRecord
100
AcDbBlockTableRecord
  2
_D_4
340
0
  0
BLOCK_RECORD
  5
229
330
1
100
AcDbSymbolTableRecord
100
AcDbBlockTableRecord
  2
_D_5
340
0
  0
BLOCK_RECORD
  5
234
330
1
100
AcDbSymbolTableRecord
100
AcDbBlockTableRecord
  2
_D_6
340
0
  0
BLOCK_RECORD
  5
23D
330
1
100
AcDbSymbolTableRecord
100
AcDbBlockTableRecord
  2
SW_CENTERMARKSYMBOL_0
340
0
102
{BLKREFS
331
248
102
}
  0
BLOCK_RECORD
  5
249
330
1
100
AcDbSymbolTableRecord
100
AcDbBlockTableRecord
  2
SW_CENTERMARKSYMBOL_1
340
0
102
{BLKREFS
331
254
102
}
  0
BLOCK_RECORD
  5
255
330
1
100
AcDbSymbolTableRecord
100
AcDbBlockTableRecord
  2
SW_CENTERMARKSYMBOL_2
340
0
102
{BLKREFS
331
260
102
}
  0
BLOCK_RECORD
  5
261
330
1
100
AcDbSymbolTableRecord
100
AcDbBlockTableRecord
  2
SW_CENTERMARKSYMBOL_3
340
0
102
{BLKREFS
331
26C
102
}
  0
ENDTAB
  0
ENDSEC
  0
SECTION
  2
BLOCKS
  0
BLOCK
  5
20
330
1F
100
AcDbEntity
  8
0
100
AcDbBlockBegin
  2
*Model_Space
 70
     0
 10
0.0
 20
0.0
 30
0.0
  3
*Model_Space
  1

  0
ENDBLK
  5
21
330
1F
100
AcDbEntity
  8
0
100
AcDbBlockEnd
  0
BLOCK
  5
1C
330
1B
100
AcDbEntity
 67
     1
  8
0
100
AcDbBlockBegin
  2
*Paper_Space
 70
     0
 10
0.0
 20
0.0
 30
0.0
  3
*Paper_Space
  1

  0
ENDBLK
  5
1D
330
1B
100
AcDbEntity
 67
     1
  8
0
100
AcDbBlockEnd
  0
BLOCK
  5
24
330
23
100
AcDbEntity
  8
0
100
AcDbBlockBegin
  2
*Paper_Space0
 70
     0
 10
0.0
 20
0.0
 30
0.0
  3
*Paper_Space0
  1

  0
ENDBLK
  5
25
330
23
100
AcDbEntity
  8
0
100
AcDbBlockEnd
  0
BLOCK
  5
7B
330
7A
100
AcDbEntity
  8
0
100
AcDbBlockBegin
  2
Block1_2
 70
     0
 10
0.0
 20
0.0
 30
0.0
  3
Block1_2
  1

  0
CIRCLE
  5
7D
330
7A
100
AcDbEntity
  8
0
  6
Continuous
 62
     7
370
    18
100
AcDbCircle
 10
11.6137544821
 20
9.0896586992
 30
0.0
 40
1.255909011058753
  0
CIRCLE
  5
7E
330
7A
100
AcDbEntity
  8
0
  6
Continuous
 62
     7
370
    18
100
AcDbCircle
 10
11.6137544821
 20
9.0896586992
 30
0.0
 40
2.216014863655655
  0
LINE
  5
7F
330
7A
100
AcDbEntity
  8
0
  6
CENTERX2
 62
     7
370
    18
100
AcDbLine
 10
11.6137544821
 20
9.0896586992
 30
0.0
 11
7.8977396184
 21
9.0896586992
 31
0.0
  0
LINE
  5
80
330
7A
100
AcDbEntity
  8
0
  6
Continuous
 62
     7
370
    18
100
AcDbLine
 10
8.165753588
 20
6.8736438356
 30
0.0
 11
8.165753588
 21
11.3071584591
 31
0.0
  0
LINE
  5
81
330
7A
100
AcDbEntity
  8
0
  6
Continuous
 62
     7
370
    18
100
AcDbLine
 10
2.6797147895
 20
10.3455677103
 30
0.0
 11
2.6797147895
 21
7.8337496881
 31
0.0
  0
LINE
  5
82
330
7A
100
AcDbEntity
  8
0
  6
Continuous
 62
     7
370
    18
100
AcDbLine
 10
2.6797147895
 20
7.8337496881
 30
0.0
 11
8.165753588
 21
6.8736438356
 31
0.0
  0
LINE
  5
83
330
7A
100
AcDbEntity
  8
0
  6
CENTERX2
 62
     7
370
    18
100
AcDbLine
 10
9.665753588
 20
9.0896586992
 30
0.0
 11
1.1797147895
 21
9.0896586992
 31
0.0
  0
LINE
  5
84
330
7A
100
AcDbEntity
  8
0
  6
Continuous
 62
     7
370
    18
100
AcDbLine
 10
8.165753588
 20
11.3071584591
 30
0.0
 11
2.6797147895
 21
10.3455677103
 31
0.0
  0
LINE
  5
85
330
7A
100
AcDbEntity
  8
0
  6
CENTERX2
 62
     7
370
    18
100
AcDbLine
 10
11.6137544821
 20
9.0896586992
 30
0.0
 11
11.6137544821
 21
5.3736438356
 31
0.0
  0
LINE
  5
86
330
7A
100
AcDbEntity
  8
0
  6
CENTERX2
 62
     7
370
    18
100
AcDbLine
 10
11.6137544821
 20
9.0896586992
 30
0.0
 11
11.6137544821
 21
12.8056735629
 31
0.0
  0
LINE
  5
87
330
7A
100
AcDbEntity
  8
0
  6
CENTERX2
 62
     7
370
    18
100
AcDbLine
 10
11.6137544821
 20
9.0896586992
 30
0.0
 11
15.3297693458
 21
9.0896586992
 31
0.0
  0
INSERT
  5
8E
330
7A
100
AcDbEntity
  8
0
  6
Continuous
 62
     7
370
     0
100
AcDbBlockReference
  2
SW_NOTE_0
 10
2.1031832889
 20
2.3754472768
 30
0.0
  0
ENDBLK
  5
7C
330
7A
100
AcDbEntity
  8
0
100
AcDbBlockEnd
  0
BLOCK
  5
89
330
88
100
AcDbEntity
  8
0
100
AcDbBlockBegin
  2
SW_NOTE_0
 70
     0
 10
0.0
 20
0.0
 30
0.0
  3
SW_NOTE_0
  1

  0
MTEXT
  5
8C
330
88
100
AcDbEntity
  8
0
  6
Continuous
 62
     0
370
     0
100
AcDbMText
 10
6.590625
 20
2.4492287056
 30
0.0
 40
1.9
 41
0.0
 71
     2
 72
     1
  1
DIN 6  T1 - 
  7
SLDTEXTSTYLE0
 73
     1
 44
1.0
  0
MTEXT
  5
8D
330
88
100
AcDbEntity
  8
0
  6
Continuous
 62
     0
370
     0
100
AcDbMText
 10
6.6569262624
 20
0.0003397443
 30
0.0
 40
1.9
 41
0.0
 71
     2
 72
     1
  1
Proj.methode 1
  7
SLDTEXTSTYLE0
 73
     1
 44
1.0
  0
ENDBLK
  5
8A
330
88
100
AcDbEntity
  8
0
100
AcDbBlockEnd
  0
BLOCK
  5
90
330
8F
100
AcDbEntity
  8
0
100
AcDbBlockBegin
  2
Block2_2
 70
     0
 10
0.0
 20
0.0
 30
0.0
  3
Block2_2
  1

  0
ARC
  5
92
330
8F
100
AcDbEntity
  8
FORMAT
100
AcDbCircle
 10
236.7496365382
 20
57.0990600997
 30
0.0
 40
3.75000000000001
100
AcDbArc
 50
93.8225537293
 51
266.1774462707
  0
ARC
  5
93
330
8F
100
AcDbEntity
  8
FORMAT
100
AcDbCircle
 10
236.7496365382
 20
57.0990600997
 30
0.0
 40
3.000000000000012
100
AcDbArc
 50
94.7801918472
 51
265.2198081528
  0
ARC
  5
94
330
8F
100
AcDbEntity
  8
FORMAT
100
AcDbCircle
 10
236.7496365382
 20
57.0990600997
 30
0.0
 40
3.75000000000001
100
AcDbArc
 50
273.8225537293
 51
86.1774462707
  0
ARC
  5
95
330
8F
100
AcDbEntity
  8
FORMAT
100
AcDbCircle
 10
236.7496365382
 20
57.0990600997
 30
0.0
 40
3.000000000000012
100
AcDbArc
 50
274.7801918472
 51
85.2198081528
  0
ARC
  5
96
330
8F
100
AcDbEntity
  8
FORMAT
100
AcDbCircle
 10
236.7496365382
 20
58.2320416436
 30
0.0
 40
0.8604027828068846
100
AcDbArc
 50
304.8395134495
 51
73.1084194601
  0
ARC
  5
97
330
8F
100
AcDbEntity
  8
FORMAT
100
AcDbCircle
 10
236.7496365382
 20
58.2320416436
 30
0.0
 40
1.402314431660661
100
AcDbArc
 50
313.8988153445
 51
79.7306010333
  0
ARC
  5
98
330
8F
100
AcDbEntity
  8
FORMAT
100
AcDbCircle
 10
236.7496365382
 20
55.4979572256
 30
0.0
 40
0.4915306686725103
100
AcDbArc
 50
300.5716370086
 51
0.0
  0
ARC
  5
99
330
8F
100
AcDbEntity
  8
FORMAT
100
AcDbCircle
 10
236.7496365382
 20
58.2320416436
 30
0.0
 40
1.402314431660661
100
AcDbArc
 50
100.2693989667
 51
226.1011846555
  0
ARC
  5
9A
330
8F
100
AcDbEntity
  8
FORMAT
100
AcDbCircle
 10
236.7496365382
 20
55.4979572256
 30
0.0
 40
0.9723464985416115
100
AcDbArc
 50
180.0
 51
255.1013518888
  0
ARC
  5
9B
330
8F
100
AcDbEntity
  8
FORMAT
100
AcDbCircle
 10
236.7496365382
 20
55.4979572256
 30
0.0
 40
0.9723464985416115
100
AcDbArc
 50
284.8986481112
 51
0.0
  0
ARC
  5
9C
330
8F
100
AcDbEntity
  8
FORMAT
100
AcDbCircle
 10
236.7496365382
 20
55.4979572256
 30
0.0
 40
0.4915306686725099
100
AcDbArc
 50
180.0
 51
239.4283629914
  0
ARC
  5
9D
330
8F
100
AcDbEntity
  8
FORMAT
100
AcDbCircle
 10
236.7496365382
 20
58.2320416436
 30
0.0
 40
0.8604027828068846
100
AcDbArc
 50
106.8915805399
 51
235.1604865505
  0
LINE
  5
9E
330
8F
100
AcDbEntity
  8
FORMAT
100
AcDbLine
 10
232.5312401271
 20
52.8806636887
 30
0.0
 11
240.9680329492
 21
52.8806636887
 31
0.0
  0
LINE
  5
9F
330
8F
100
AcDbEntity
  8
FORMAT
100
AcDbLine
 10
232.5312401271
 20
61.3174565107
 30
0.0
 11
240.9680329492
 21
61.3174565107
 31
0.0
  0
LINE
  5
A0
330
8F
100
AcDbEntity
  8
FORMAT
100
AcDbLine
 10
232.5312401271
 20
61.3174565107
 30
0.0
 11
232.5312401271
 21
52.8806636887
 31
0.0
  0
LINE
  5
A1
330
8F
100
AcDbEntity
  8
FORMAT
100
AcDbLine
 10
240.9680329492
 20
61.3174565107
 30
0.0
 11
240.9680329492
 21
52.8806636887
 31
0.0
  0
LINE
  5
A2
330
8F
100
AcDbEntity
  8
FORMAT
100
AcDbLine
 10
236.4996365382
 20
60.8407174865
 30
0.0
 11
236.4996365382
 21
60.0886252855
 31
0.0
  0
LINE
  5
A3
330
8F
100
AcDbEntity
  8
FORMAT
100
AcDbLine
 10
236.9996365382
 20
60.8407174865
 30
0.0
 11
236.9996365382
 21
60.0886252855
 31
0.0
  0
LINE
  5
A4
330
8F
100
AcDbEntity
  8
FORMAT
100
AcDbLine
 10
236.4996365382
 20
54.1094949139
 30
0.0
 11
236.4996365382
 21
53.3574027129
 31
0.0
  0
LINE
  5
A5
330
8F
100
AcDbEntity
  8
FORMAT
100
AcDbLine
 10
236.9996365382
 20
54.1094949139
 30
0.0
 11
236.9996365382
 21
53.3574027129
 31
0.0
  0
LINE
  5
A6
330
8F
100
AcDbEntity
  8
FORMAT
100
AcDbLine
 10
236.9996365382
 20
59.6118915504
 30
0.0
 11
236.9996365382
 21
59.0553234597
 31
0.0
  0
LINE
  5
A7
330
8F
100
AcDbEntity
  8
FORMAT
100
AcDbLine
 10
236.4996365382
 20
59.6118915504
 30
0.0
 11
236.4996365382
 21
59.0553234597
 31
0.0
  0
LINE
  5
A8
330
8F
100
AcDbEntity
  8
FORMAT
100
AcDbLine
 10
235.7772900396
 20
55.4979572256
 30
0.0
 11
235.7772900396
 21
57.2215823164
 31
0.0
  0
LINE
  5
A9
330
8F
100
AcDbEntity
  8
FORMAT
100
AcDbLine
 10
237.7219830367
 20
55.4979572256
 30
0.0
 11
237.7219830367
 21
57.2215823164
 31
0.0
  0
LINE
  5
AA
330
8F
100
AcDbEntity
  8
FORMAT
100
AcDbLine
 10
237.2411672068
 20
55.4979572256
 30
0.0
 11
237.2411672068
 21
57.5258613901
 31
0.0
  0
LINE
  5
AB
330
8F
100
AcDbEntity
  8
FORMAT
100
AcDbLine
 10
236.2581058695
 20
55.4979572256
 30
0.0
 11
236.2581058695
 21
57.5258613901
 31
0.0
  0
LINE
  5
AC
330
8F
100
AcDbEntity
  8
FORMAT
100
AcDbLine
 10
236.4996365382
 20
55.0747523127
 30
0.0
 11
236.4996365382
 21
54.5582989296
 31
0.0
  0
LINE
  5
AD
330
8F
100
AcDbEntity
  8
FORMAT
100
AcDbLine
 10
236.9996365382
 20
55.0747523127
 30
0.0
 11
236.9996365382
 21
54.5582989296
 31
0.0
  0
HATCH
  5
AE
330
8F
100
AcDbEntity
  8
FORMAT
100
AcDbHatch
 10
0.0
 20
0.0
 30
0.0
210
0.0
220
0.0
230
1.0
  2
SOLID
 70
     1
 71
     0
 91
        5
 92
        0
 93
        4
 72
     1
 10
240.9680329492058
 20
61.31745651073599
 11
240.9680329492058
 21
52.88066368865002
 72
     1
 10
240.9680329492058
 20
52.88066368865002
 11
232.5312401271199
 21
52.88066368865002
 72
     1
 10
232.5312401271199
 20
52.88066368865002
 11
232.5312401271199
 21
61.31745651073599
 72
     1
 10
232.5312401271199
 20
61.31745651073599
 11
240.9680329492058
 21
61.31745651073599
 97
        0
 92
        0
 93
        4
 72
     2
 10
236.7496365381628
 20
57.09906009969301
 40
3.000000000000011
 50
94.78019184719915
 51
265.2198081528016
 73
     0
 72
     1
 10
236.4996365381628
 20
60.08862528546836
 11
236.4996365381628
 21
60.84071748646695
 72
     2
 10
236.7496365381628
 20
57.09906009969301
 40
3.750000000000007
 50
93.82255372927435
 51
266.1774462707265
 73
     1
 72
     1
 10
236.4996365381628
 20
53.35740271291905
 11
236.4996365381628
 21
54.10949491391764
 97
        0
 92
        0
 93
        8
 72
     1
 10
237.7219830367044
 20
55.49795722557887
 11
237.7219830367044
 21
57.22158231636488
 72
     2
 10
236.7496365381628
 20
58.23204164361047
 40
1.402314431660656
 50
313.8988153445118
 51
439.730601033339
 73
     1
 72
     1
 10
236.9996365381628
 20
59.61189155039155
 11
236.9996365381628
 21
59.05532345967459
 72
     2
 10
236.7496365381628
 20
58.23204164361047
 40
0.8604027828068782
 50
286.8915805399266
 51
415.1604865505413
 73
     0
 72
     1
 10
237.2411672068353
 20
57.52586139012261
 11
237.2411672068353
 21
55.49795722557887
 72
     2
 10
236.7496365381628
 20
55.49795722557887
 40
0.4915306686725041
 50
0.0
 51
59.42836299135124
 73
     0
 72
     1
 10
236.9996365381628
 20
55.07475231274628
 11
236.9996365381628
 21
54.55829892958712
 72
     2
 10
236.7496365381628
 20
55.49795722557887
 40
0.9723464985416097
 50
284.8986481111874
 51
360.0000000000008
 73
     1
 97
        0
 92
        0
 93
        8
 72
     2
 10
236.7496365381628
 20
55.49795722557887
 40
0.4915306686725041
 50
120.5716370086484
 51
180.0
 73
     0
 72
     1
 10
236.2581058694904
 20
55.49795722557887
 11
236.2581058694904
 21
57.52586139012261
 72
     2
 10
236.7496365381628
 20
58.23204164361047
 40
0.8604027828068782
 50
124.839513449458
 51
253.108419460075
 73
     0
 72
     1
 10
236.4996365381628
 20
59.05532345967459
 11
236.4996365381628
 21
59.61189155039155
 72
     2
 10
236.7496365381628
 20
58.23204164361047
 40
1.402314431660656
 50
100.2693989666618
 51
226.1011846554898
 73
     1
 72
     1
 10
235.7772900396212
 20
57.22158231636488
 11
235.7772900396212
 21
55.49795722557887
 72
     2
 10
236.7496365381628
 20
55.49795722557887
 40
0.9723464985416097
 50
180.0
 51
255.1013518888143
 73
     1
 72
     1
 10
236.4996365381628
 20
54.55829892958712
 11
236.4996365381628
 21
55.07475231274628
 97
        0
 92
        0
 93
        4
 72
     2
 10
236.7496365381628
 20
57.09906009969301
 40
3.000000000000011
 50
274.7801918471999
 51
445.2198081528016
 73
     0
 72
     1
 10
236.9996365381628
 20
54.10949491391764
 11
236.9996365381628
 21
53.35740271291905
 72
     2
 10
236.7496365381628
 20
57.09906009969301
 40
3.750000000000007
 50
273.8225537292751
 51
446.1774462707265
 73
     1
 72
     1
 10
236.9996365381628
 20
60.84071748646695
 11
236.9996365381628
 21
60.08862528546836
 97
        0
 75
     0
 76
     1
 98
        1
 10
0.0
 20
0.0
  0
INSERT
  5
B4
330
8F
100
AcDbEntity
  8
FORMAT
 62
     7
100
AcDbBlockReference
  2
SW_NOTE_0_1
 10
232.2514665163
 20
47.7232938825
 30
0.0
  0
INSERT
  5
BC
330
8F
100
AcDbEntity
  8
0
  6
Continuous
 62
     7
370
     0
100
AcDbBlockReference
  2
SW_NOTE_0_2
 10
244.0723034979
 20
57.1176018272
 30
0.0
  0
ENDBLK
  5
91
330
8F
100
AcDbEntity
  8
0
100
AcDbBlockEnd
  0
BLOCK
  5
B0
330
AF
100
AcDbEntity
  8
0
100
AcDbBlockBegin
  2
SW_NOTE_0_1
 70
     0
 10
0.0
 20
0.0
 30
0.0
  3
SW_NOTE_0_1
  1

  0
MTEXT
  5
B3
330
AF
100
AcDbEntity
  8
FORMAT
 62
     0
100
AcDbMText
 10
0.0
 20
3.8651911469
 30
0.0
 40
3.0
 41
0.0
 71
     1
 72
     1
  1
ECO
  7
SLDTEXTSTYLE1
 73
     1
 44
1.0
  0
ENDBLK
  5
B1
330
AF
100
AcDbEntity
  8
0
100
AcDbBlockEnd
  0
BLOCK
  5
B6
330
B5
100
AcDbEntity
  8
0
100
AcDbBlockBegin
  2
SW_NOTE_0_2
 70
     0
 10
0.0
 20
0.0
 30
0.0
  3
SW_NOTE_0_2
  1

  0
MTEXT
  5
B9
330
B5
100
AcDbEntity
  8
0
  6
Continuous
 62
     0
370
     0
100
AcDbMText
 10
0.0
 20
3.2226693494
 30
0.0
 40
2.5
 41
0.0
 71
     1
 72
     1
  1
ECO Schulte GmbH & Co. KG
  7
SLDTEXTSTYLE2
 73
     1
 44
1.0
  0
MTEXT
  5
BA
330
B5
100
AcDbEntity
  8
0
  6
Continuous
 62
     0
370
     0
100
AcDbMText
 10
0.0
 20
-0.2773307586
 30
0.0
 40
2.5
 41
0.0
 71
     1
 72
     1
  1
Postfach 206
  7
SLDTEXTSTYLE2
 73
     1
 44
1.0
  0
MTEXT
  5
BB
330
B5
100
AcDbEntity
  8
0
  6
Continuous
 62
     0
370
     0
100
AcDbMText
 10
0.0
 20
-3.7773308666
 30
0.0
 40
2.5
 41
0.0
 71
     1
 72
     1
  1
58682 Menden
  7
SLDTEXTSTYLE2
 73
     1
 44
1.0
  0
ENDBLK
  5
B7
330
B5
100
AcDbEntity
  8
0
100
AcDbBlockEnd
  0
BLOCK
  5
E0
330
DF
100
AcDbEntity
  8
0
100
AcDbBlockBegin
  2
SW_NOTE_0_3
 70
     0
 10
0.0
 20
0.0
 30
0.0
  3
SW_NOTE_0_3
  1

  0
MTEXT
  5
E2
330
DF
100
AcDbEntity
  8
FORMAT
 62
     0
100
AcDbMText
 10
0.0
 20
2.5781354795
 30
0.0
 40
2.0
 41
0.0
 71
     1
 72
     1
  1
Technische Änderungen und Irrtümer vorbehalten. Aus dem Gebrauch der Zeichnung 
  7
SLDTEXTSTYLE0
 73
     1
 44
1.0
  0
MTEXT
  5
E3
330
DF
100
AcDbEntity
  8
FORMAT
 62
     0
100
AcDbMText
 10
0.0
 20
-0.4218645465
 30
0.0
 40
2.0
 41
0.0
 71
     1
 72
     1
  1
können keinerlei Ansprüche (inkl. Schadenersatzansprüche) erhoben und gegen ECO 
  7
SLDTEXTSTYLE0
 73
     1
 44
1.0
  0
MTEXT
  5
E4
330
DF
100
AcDbEntity
  8
FORMAT
 62
     0
100
AcDbMText
 10
0.0
 20
-3.4218645726
 30
0.0
 40
2.0
 41
0.0
 71
     1
 72
     1
  1
Schulte geltend gemacht werden. Die Zeichnung bleibt unser Eigentum. Sämtliche sich 
  7
SLDTEXTSTYLE0
 73
     1
 44
1.0
  0
MTEXT
  5
E5
330
DF
100
AcDbEntity
  8
FORMAT
 62
     0
100
AcDbMText
 10
0.0
 20
-6.4218645987
 30
0.0
 40
2.0
 41
0.0
 71
     1
 72
     1
  1
aus der Zeichnung ergebenden Ansprüche stehen ausschließlich ECO Schulte zu. 
  7
SLDTEXTSTYLE0
 73
     1
 44
1.0
  0
MTEXT
  5
E6
330
DF
100
AcDbEntity
  8
FORMAT
 62
     0
100
AcDbMText
 10
0.0
 20
-12.4218646508
 30
0.0
 40
2.0
 41
0.0
 71
     1
 72
     1
  1
Technical changes and errors excepted. No claims (including compensation claims) may 
  7
SLDTEXTSTYLE0
 73
     1
 44
1.0
  0
MTEXT
  5
E7
330
DF
100
AcDbEntity
  8
FORMAT
 62
     0
100
AcDbMText
 10
0.0
 20
-15.4218646769
 30
0.0
 40
2.0
 41
0.0
 71
     1
 72
     1
  1
be raised against ECO Schulte by using of this drawing. The drawing remains the property 
  7
SLDTEXTSTYLE0
 73
     1
 44
1.0
  0
MTEXT
  5
E8
330
DF
100
AcDbEntity
  8
FORMAT
 62
     0
100
AcDbMText
 10
0.0
 20
-18.421864703
 30
0.0
 40
2.0
 41
0.0
 71
     1
 72
     1
  1
of ECO Schulte. All claims resulting from this drawing are solely entitled to ECO Schulte.
  7
SLDTEXTSTYLE0
 73
     1
 44
1.0
  0
ENDBLK
  5
E1
330
DF
100
AcDbEntity
  8
0
100
AcDbBlockEnd
  0
BLOCK
  5
126
330
125
100
AcDbEntity
  8
0
100
AcDbBlockBegin
  2
_D
 70
     0
 10
0.0
 20
0.0
 30
0.0
  3
_D
  1

  0
SOLID
  5
128
330
125
100
AcDbEntity
  8
FORMAT
 62
     7
100
AcDbTrace
 10
101.5865021714
 20
77.9040993303
 30
0.0
 11
98.2845021714
 21
78.4120993303
 31
0.0
 12
98.2845021714
 22
77.3960993303
 32
0.0
 13
98.2845021714
 23
77.3960993303
 33
0.0
  0
SOLID
  5
129
330
125
100
AcDbEntity
  8
FORMAT
 62
     7
100
AcDbTrace
 10
21.5865021714
 20
77.9040993303
 30
0.0
 11
24.8885021714
 21
77.3960993303
 31
0.0
 12
24.8885021714
 22
78.4120993303
 32
0.0
 13
24.8885021714
 23
78.4120993303
 33
0.0
  0
LINE
  5
12A
330
125
100
AcDbEntity
  8
FORMAT
 62
     7
100
AcDbLine
 10
101.5865021714
 20
93.6814629608
 30
0.0
 11
101.5865021714
 21
76.9040993303
 31
0.0
  0
LINE
  5
12B
330
125
100
AcDbEntity
  8
FORMAT
 62
     7
100
AcDbLine
 10
21.5865021714
 20
93.6814629608
 30
0.0
 11
21.5865021714
 21
76.9040993303
 31
0.0
  0
LINE
  5
12C
330
125
100
AcDbEntity
  8
FORMAT
 62
     7
100
AcDbLine
 10
101.5865021714
 20
77.9040993303
 30
0.0
 11
21.5865021714
 21
77.9040993303
 31
0.0
  0
MTEXT
  5
12D
330
125
100
AcDbEntity
  8
FORMAT
 62
     7
100
AcDbMText
 10
58.9128911265
 20
82.4158366524
 30
0.0
 40
3.5
 41
0.0
 71
     1
 72
     1
  1
80
  7
SLDTEXTSTYLE0
 73
     1
 44
1.0
  0
ENDBLK
  5
127
330
125
100
AcDbEntity
  8
0
100
AcDbBlockEnd
  0
BLOCK
  5
130
330
12F
100
AcDbEntity
  8
0
100
AcDbBlockBegin
  2
_D_1
 70
     0
 10
0.0
 20
0.0
 30
0.0
  3
_D_1
  1

  0
SOLID
  5
132
330
12F
100
AcDbEntity
  8
FORMAT
 62
     7
100
AcDbTrace
 10
16.0551181636
 20
84.6814629608
 30
0.0
 11
16.5631181636
 21
87.9834629608
 31
0.0
 12
15.5471181636
 22
87.9834629608
 32
0.0
 13
15.5471181636
 23
87.9834629608
 33
0.0
  0
SOLID
  5
133
330
12F
100
AcDbEntity
  8
FORMAT
 62
     7
100
AcDbTrace
 10
16.0551181636
 20
164.6814629608
 30
0.0
 11
15.5471181636
 21
161.3794629608
 31
0.0
 12
16.5631181636
 22
161.3794629608
 32
0.0
 13
16.5631181636
 23
161.3794629608
 33
0.0
  0
LINE
  5
134
330
12F
100
AcDbEntity
  8
FORMAT
 62
     7
100
AcDbLine
 10
30.5865021714
 20
84.6814629608
 30
0.0
 11
15.0551181636
 21
84.6814629608
 31
0.0
  0
LINE
  5
135
330
12F
100
AcDbEntity
  8
FORMAT
 62
     7
100
AcDbLine
 10
30.5865021714
 20
164.6814629608
 30
0.0
 11
15.0551181636
 21
164.6814629608
 31
0.0
  0
LINE
  5
136
330
12F
100
AcDbEntity
  8
FORMAT
 62
     7
100
AcDbLine
 10
16.0551181636
 20
84.6814629608
 30
0.0
 11
16.0551181636
 21
164.6814629608
 31
0.0
  0
MTEXT
  5
137
330
12F
100
AcDbEntity
  8
FORMAT
 62
     7
100
AcDbMText
 10
11.5433808415
 20
122.007851916
 30
0.0
 40
3.5
 41
0.0
 71
     1
 72
     1
  1
80
  7
SLDTEXTSTYLE0
 11
6.123233995736766E-17
 21
1.0
 31
0.0
 73
     1
 44
1.0
  0
ENDBLK
  5
131
330
12F
100
AcDbEntity
  8
0
100
AcDbBlockEnd
  0
BLOCK
  5
13B
330
13A
100
AcDbEntity
  8
0
100
AcDbBlockBegin
  2
_D_2
 70
     0
 10
0.0
 20
0.0
 30
0.0
  3
_D_2
  1

  0
SOLID
  5
13D
330
13A
100
AcDbEntity
  8
FORMAT
 62
     7
100
AcDbTrace
 10
98.6575699832
 20
161.7525307727
 30
0.0
 11
101.3516468196
 21
163.7281871193
 31
0.0
 12
100.6332263299
 22
164.446607609
 32
0.0
 13
100.6332263299
 23
164.446607609
 33
0.0
  0
LINE
  5
13E
330
13A
100
AcDbEntity
  8
FORMAT
 62
     7
100
AcDbLine
 10
98.6575699832
 20
161.7525307727
 30
0.0
 11
108.9702870436
 21
172.0652478331
 31
0.0
  0
MTEXT
  5
13F
330
13A
100
AcDbEntity
  8
FORMAT
 62
     7
100
AcDbMText
 10
99.5610264597
 20
169.0038947309
 30
0.0
 40
3.5
 41
0.0
 71
     1
 72
     1
  1
R10
  7
SLDTEXTSTYLE0
 11
0.7071067811865471
 21
0.7071067811865479
 31
0.0
 73
     1
 44
1.0
  0
ENDBLK
  5
13C
330
13A
100
AcDbEntity
  8
0
100
AcDbBlockEnd
  0
BLOCK
  5
16D
330
16C
100
AcDbEntity
  8
0
100
AcDbBlockBegin
  2
_D_3
 70
     0
 10
0.0
 20
0.0
 30
0.0
  3
_D_3
  1

  0
SOLID
  5
16F
330
16C
100
AcDbEntity
  8
FORMAT
 62
     7
100
AcDbTrace
 10
135.394238216
 20
77.6562157333
 30
0.0
 11
132.092238216
 21
78.1642157333
 31
0.0
 12
132.092238216
 22
77.1482157333
 32
0.0
 13
132.092238216
 23
77.1482157333
 33
0.0
  0
SOLID
  5
170
330
16C
100
AcDbEntity
  8
FORMAT
 62
     7
100
AcDbTrace
 10
114.394238216
 20
77.6562157333
 30
0.0
 11
117.696238216
 21
77.1482157333
 31
0.0
 12
117.696238216
 22
78.1642157333
 32
0.0
 13
117.696238216
 23
78.1642157333
 33
0.0
  0
LINE
  5
171
330
16C
100
AcDbEntity
  8
FORMAT
 62
     7
100
AcDbLine
 10
135.394238216
 20
83.8314629608
 30
0.0
 11
135.394238216
 21
76.6562157333
 31
0.0
  0
LINE
  5
172
330
16C
100
AcDbEntity
  8
FORMAT
 62
     7
100
AcDbLine
 10
114.394238216
 20
101.8922461206
 30
0.0
 11
114.394238216
 21
76.6562157333
 31
0.0
  0
LINE
  5
173
330
16C
100
AcDbEntity
  8
FORMAT
 62
     7
100
AcDbLine
 10
135.394238216
 20
77.6562157333
 30
0.0
 11
114.394238216
 21
77.6562157333
 31
0.0
  0
MTEXT
  5
174
330
16C
100
AcDbEntity
  8
FORMAT
 62
     7
100
AcDbMText
 10
122.2206271711
 20
82.1679530553
 30
0.0
 40
3.5
 41
0.0
 71
     1
 72
     1
  1
21
  7
SLDTEXTSTYLE0
 73
     1
 44
1.0
  0
ENDBLK
  5
16E
330
16C
100
AcDbEntity
  8
0
100
AcDbBlockEnd
  0
BLOCK
  5
21F
330
21E
100
AcDbEntity
  8
0
100
AcDbBlockBegin
  2
_D_4
 70
     0
 10
0.0
 20
0.0
 30
0.0
  3
_D_4
  1

  0
SOLID
  5
221
330
21E
100
AcDbEntity
  8
FORMAT
 62
     7
100
AcDbTrace
 10
161.6579838322
 20
75.554314287
 30
0.0
 11
164.9599838322
 21
75.046314287
 31
0.0
 12
164.9599838322
 22
76.062314287
 32
0.0
 13
164.9599838322
 23
76.062314287
 33
0.0
  0
SOLID
  5
222
330
21E
100
AcDbEntity
  8
FORMAT
 62
     7
100
AcDbTrace
 10
233.6579838322
 20
75.554314287
 30
0.0
 11
230.3559838322
 21
76.062314287
 31
0.0
 12
230.3559838322
 22
75.046314287
 32
0.0
 13
230.3559838322
 23
75.046314287
 33
0.0
  0
LINE
  5
223
330
21E
100
AcDbEntity
  8
FORMAT
 62
     7
100
AcDbLine
 10
161.6579838322
 20
123.6814629608
 30
0.0
 11
161.6579838322
 21
74.554314287
 31
0.0
  0
LINE
  5
224
330
21E
100
AcDbEntity
  8
FORMAT
 62
     7
100
AcDbLine
 10
233.6579838322
 20
123.6814629608
 30
0.0
 11
233.6579838322
 21
74.554314287
 31
0.0
  0
LINE
  5
225
330
21E
100
AcDbEntity
  8
FORMAT
 62
     7
100
AcDbLine
 10
161.6579838322
 20
75.554314287
 30
0.0
 11
233.6579838322
 21
75.554314287
 31
0.0
  0
MTEXT
  5
226
330
21E
100
AcDbEntity
  8
FORMAT
 62
     7
100
AcDbMText
 10
192.4328972475
 20
80.0660513762
 30
0.0
 40
3.5
 41
0.0
 71
     1
 72
     1
  1
%%c
  7
SLDTEXTSTYLE0
 73
     1
 44
1.0
  0
MTEXT
  5
227
330
21E
100
AcDbEntity
  8
FORMAT
 62
     7
100
AcDbMText
 10
197.5358487927
 20
80.0757736854
 30
0.0
 40
3.5
 41
0.0
 71
     1
 72
     1
  1
72
  7
SLDTEXTSTYLE0
 73
     1
 44
1.0
  0
ENDBLK
  5
220
330
21E
100
AcDbEntity
  8
0
100
AcDbBlockEnd
  0
BLOCK
  5
22A
330
229
100
AcDbEntity
  8
0
100
AcDbBlockBegin
  2
_D_5
 70
     0
 10
0.0
 20
0.0
 30
0.0
  3
_D_5
  1

  0
SOLID
  5
22C
330
229
100
AcDbEntity
  8
FORMAT
 62
     7
100
AcDbTrace
 10
223.1079838322
 20
170.9060560215
 30
0.0
 11
219.8059838322
 21
171.4140560215
 31
0.0
 12
219.8059838322
 22
170.3980560215
 32
0.0
 13
219.8059838322
 23
170.3980560215
 33
0.0
  0
SOLID
  5
22D
330
229
100
AcDbEntity
  8
FORMAT
 62
     7
100
AcDbTrace
 10
172.2079838322
 20
170.9060560215
 30
0.0
 11
175.5099838322
 21
170.3980560215
 31
0.0
 12
175.5099838322
 22
171.4140560215
 32
0.0
 13
175.5099838322
 23
171.4140560215
 33
0.0
  0
LINE
  5
22E
330
229
100
AcDbEntity
  8
FORMAT
 62
     7
100
AcDbLine
 10
223.1079838322
 20
155.3714620995
 30
0.0
 11
223.1079838322
 21
171.9060560215
 31
0.0
  0
LINE
  5
22F
330
229
100
AcDbEntity
  8
FORMAT
 62
     7
100
AcDbLine
 10
172.2079838322
 20
155.3714620995
 30
0.0
 11
172.2079838322
 21
171.9060560215
 31
0.0
  0
LINE
  5
230
330
229
100
AcDbEntity
  8
FORMAT
 62
     7
100
AcDbLine
 10
223.1079838322
 20
170.9060560215
 30
0.0
 11
172.2079838322
 21
170.9060560215
 31
0.0
  0
MTEXT
  5
231
330
229
100
AcDbEntity
  8
FORMAT
 62
     7
100
AcDbMText
 10
192.9791645036
 20
175.4177933435
 30
0.0
 40
3.5
 41
0.0
 71
     1
 72
     1
  1
50,9
  7
SLDTEXTSTYLE0
 73
     1
 44
1.0
  0
ENDBLK
  5
22B
330
229
100
AcDbEntity
  8
0
100
AcDbBlockEnd
  0
BLOCK
  5
235
330
234
100
AcDbEntity
  8
0
100
AcDbBlockBegin
  2
_D_6
 70
     0
 10
0.0
 20
0.0
 30
0.0
  3
_D_6
  1

  0
SOLID
  5
237
330
234
100
AcDbEntity
  8
FORMAT
 62
     7
100
AcDbTrace
 10
151.239375712
 20
150.1431498649
 30
0.0
 11
150.731375712
 21
146.8411498649
 31
0.0
 12
151.747375712
 22
146.8411498649
 32
0.0
 13
151.747375712
 23
146.8411498649
 33
0.0
  0
SOLID
  5
238
330
234
100
AcDbEntity
  8
FORMAT
 62
     7
100
AcDbTrace
 10
151.239375712
 20
99.2197760568
 30
0.0
 11
151.747375712
 21
102.5217760568
 31
0.0
 12
150.731375712
 22
102.5217760568
 32
0.0
 13
150.731375712
 23
102.5217760568
 33
0.0
  0
LINE
  5
239
330
234
100
AcDbEntity
  8
FORMAT
 62
     7
100
AcDbLine
 10
166.9796715976
 20
150.1431498649
 30
0.0
 11
150.239375712
 21
150.1431498649
 31
0.0
  0
LINE
  5
23A
330
234
100
AcDbEntity
  8
FORMAT
 62
     7
100
AcDbLine
 10
166.9796715976
 20
99.2197760568
 30
0.0
 11
150.239375712
 21
99.2197760568
 31
0.0
  0
LINE
  5
23B
330
234
100
AcDbEntity
  8
FORMAT
 62
     7
100
AcDbLine
 10
151.239375712
 20
150.1431498649
 30
0.0
 11
151.239375712
 21
99.2197760568
 31
0.0
  0
MTEXT
  5
23C
330
234
100
AcDbEntity
  8
FORMAT
 62
     7
100
AcDbMText
 10
146.72763839
 20
120.0026436323
 30
0.0
 40
3.5
 41
0.0
 71
     1
 72
     1
  1
50,9
  7
SLDTEXTSTYLE0
 11
-7.044195017643634E-15
 21
1.0
 31
0.0
 73
     1
 44
1.0
  0
ENDBLK
  5
236
330
234
100
AcDbEntity
  8
0
100
AcDbBlockEnd
  0
BLOCK
  5
23E
330
23D
100
AcDbEntity
  8
0
100
AcDbBlockBegin
  2
SW_CENTERMARKSYMBOL_0
 70
     0
 10
0.0
 20
0.0
 30
0.0
  3
SW_CENTERMARKSYMBOL_0
  1

  0
LINE
  5
240
330
23D
100
AcDbEntity
  8
FORMAT
 62
     0
100
AcDbLine
 10
0.0
 20
0.0
 30
0.0
 11
0.0
 21
2.5
 31
0.0
  0
LINE
  5
241
330
23D
100
AcDbEntity
  8
FORMAT
 62
     0
100
AcDbLine
 10
0.0
 20
0.0
 30
0.0
 11
-2.5
 21
0.0
 31
0.0
  0
LINE
  5
242
330
23D
100
AcDbEntity
  8
FORMAT
 62
     0
100
AcDbLine
 10
0.0
 20
0.0
 30
0.0
 11
0.0
 21
-2.5
 31
0.0
  0
LINE
  5
243
330
23D
100
AcDbEntity
  8
FORMAT
 62
     0
100
AcDbLine
 10
0.0
 20
0.0
 30
0.0
 11
2.5
 21
0.0
 31
0.0
  0
LINE
  5
244
330
23D
100
AcDbEntity
  8
FORMAT
 62
     0
100
AcDbLine
 10
0.0
 20
2.5
 30
0.0
 11
0.0
 21
4.2283122346
 31
0.0
  0
LINE
  5
245
330
23D
100
AcDbEntity
  8
FORMAT
 62
     0
100
AcDbLine
 10
-2.5
 20
0.0
 30
0.0
 11
-4.2283122346
 21
0.0
 31
0.0
  0
LINE
  5
246
330
23D
100
AcDbEntity
  8
FORMAT
 62
     0
100
AcDbLine
 10
0.0
 20
-2.5
 30
0.0
 11
0.0
 21
-4.2283122346
 31
0.0
  0
LINE
  5
247
330
23D
100
AcDbEntity
  8
FORMAT
 62
     0
100
AcDbLine
 10
2.5
 20
0.0
 30
0.0
 11
4.2283122346
 21
0.0
 31
0.0
  0
ENDBLK
  5
23F
330
23D
100
AcDbEntity
  8
0
100
AcDbBlockEnd
  0
BLOCK
  5
24A
330
249
100
AcDbEntity
  8
0
100
AcDbBlockBegin
  2
SW_CENTERMARKSYMBOL_1
 70
     0
 10
0.0
 20
0.0
 30
0.0
  3
SW_CENTERMARKSYMBOL_1
  1

  0
LINE
  5
24C
330
249
100
AcDbEntity
  8
FORMAT
 62
     0
100
AcDbLine
 10
0.0
 20
0.0
 30
0.0
 11
0.0
 21
2.5
 31
0.0
  0
LINE
  5
24D
330
249
100
AcDbEntity
  8
FORMAT
 62
     0
100
AcDbLine
 10
0.0
 20
0.0
 30
0.0
 11
-2.5
 21
0.0
 31
0.0
  0
LINE
  5
24E
330
249
100
AcDbEntity
  8
FORMAT
 62
     0
100
AcDbLine
 10
0.0
 20
0.0
 30
0.0
 11
0.0
 21
-2.5
 31
0.0
  0
LINE
  5
24F
330
249
100
AcDbEntity
  8
FORMAT
 62
     0
100
AcDbLine
 10
0.0
 20
0.0
 30
0.0
 11
2.5
 21
0.0
 31
0.0
  0
LINE
  5
250
330
249
100
AcDbEntity
  8
FORMAT
 62
     0
100
AcDbLine
 10
0.0
 20
2.5
 30
0.0
 11
0.0
 21
4.2283122346
 31
0.0
  0
LINE
  5
251
330
249
100
AcDbEntity
  8
FORMAT
 62
     0
100
AcDbLine
 10
-2.5
 20
0.0
 30
0.0
 11
-4.2283122346
 21
0.0
 31
0.0
  0
LINE
  5
252
330
249
100
AcDbEntity
  8
FORMAT
 62
     0
100
AcDbLine
 10
0.0
 20
-2.5
 30
0.0
 11
0.0
 21
-4.2283122346
 31
0.0
  0
LINE
  5
253
330
249
100
AcDbEntity
  8
FORMAT
 62
     0
100
AcDbLine
 10
2.5
 20
0.0
 30
0.0
 11
4.2283122346
 21
0.0
 31
0.0
  0
ENDBLK
  5
24B
330
249
100
AcDbEntity
  8
0
100
AcDbBlockEnd
  0
BLOCK
  5
256
330
255
100
AcDbEntity
  8
0
100
AcDbBlockBegin
  2
SW_CENTERMARKSYMBOL_2
 70
     0
 10
0.0
 20
0.0
 30
0.0
  3
SW_CENTERMARKSYMBOL_2
  1

  0
LINE
  5
258
330
255
100
AcDbEntity
  8
FORMAT
 62
     0
100
AcDbLine
 10
0.0
 20
0.0
 30
0.0
 11
0.0
 21
2.5
 31
0.0
  0
LINE
  5
259
330
255
100
AcDbEntity
  8
FORMAT
 62
     0
100
AcDbLine
 10
0.0
 20
0.0
 30
0.0
 11
-2.5
 21
0.0
 31
0.0
  0
LINE
  5
25A
330
255
100
AcDbEntity
  8
FORMAT
 62
     0
100
AcDbLine
 10
0.0
 20
0.0
 30
0.0
 11
0.0
 21
-2.5
 31
0.0
  0
LINE
  5
25B
330
255
100
AcDbEntity
  8
FORMAT
 62
     0
100
AcDbLine
 10
0.0
 20
0.0
 30
0.0
 11
2.5
 21
0.0
 31
0.0
  0
LINE
  5
25C
330
255
100
AcDbEntity
  8
FORMAT
 62
     0
100
AcDbLine
 10
0.0
 20
2.5
 30
0.0
 11
0.0
 21
4.2283122346
 31
0.0
  0
LINE
  5
25D
330
255
100
AcDbEntity
  8
FORMAT
 62
     0
100
AcDbLine
 10
-2.5
 20
0.0
 30
0.0
 11
-4.2283122346
 21
0.0
 31
0.0
  0
LINE
  5
25E
330
255
100
AcDbEntity
  8
FORMAT
 62
     0
100
AcDbLine
 10
0.0
 20
-2.5
 30
0.0
 11
0.0
 21
-4.2283122346
 31
0.0
  0
LINE
  5
25F
330
255
100
AcDbEntity
  8
FORMAT
 62
     0
100
AcDbLine
 10
2.5
 20
0.0
 30
0.0
 11
4.2283122346
 21
0.0
 31
0.0
  0
ENDBLK
  5
257
330
255
100
AcDbEntity
  8
0
100
AcDbBlockEnd
  0
BLOCK
  5
262
330
261
100
AcDbEntity
  8
0
100
AcDbBlockBegin
  2
SW_CENTERMARKSYMBOL_3
 70
     0
 10
0.0
 20
0.0
 30
0.0
  3
SW_CENTERMARKSYMBOL_3
  1

  0
LINE
  5
264
330
261
100
AcDbEntity
  8
FORMAT
 62
     0
100
AcDbLine
 10
0.0
 20
0.0
 30
0.0
 11
0.0
 21
2.5
 31
0.0
  0
LINE
  5
265
330
261
100
AcDbEntity
  8
FORMAT
 62
     0
100
AcDbLine
 10
0.0
 20
0.0
 30
0.0
 11
-2.5
 21
0.0
 31
0.0
  0
LINE
  5
266
330
261
100
AcDbEntity
  8
FORMAT
 62
     0
100
AcDbLine
 10
0.0
 20
0.0
 30
0.0
 11
0.0
 21
-2.5
 31
0.0
  0
LINE
  5
267
330
261
100
AcDbEntity
  8
FORMAT
 62
     0
100
AcDbLine
 10
0.0
 20
0.0
 30
0.0
 11
2.5
 21
0.0
 31
0.0
  0
LINE
  5
268
330
261
100
AcDbEntity
  8
FORMAT
 62
     0
100
AcDbLine
 10
0.0
 20
2.5
 30
0.0
 11
0.0
 21
4.2283122346
 31
0.0
  0
LINE
  5
269
330
261
100
AcDbEntity
  8
FORMAT
 62
     0
100
AcDbLine
 10
-2.5
 20
0.0
 30
0.0
 11
-4.2283122346
 21
0.0
 31
0.0
  0
LINE
  5
26A
330
261
100
AcDbEntity
  8
FORMAT
 62
     0
100
AcDbLine
 10
0.0
 20
-2.5
 30
0.0
 11
0.0
 21
-4.2283122346
 31
0.0
  0
LINE
  5
26B
330
261
100
AcDbEntity
  8
FORMAT
 62
     0
100
AcDbLine
 10
2.5
 20
0.0
 30
0.0
 11
4.2283122346
 21
0.0
 31
0.0
  0
ENDBLK
  5
263
330
261
100
AcDbEntity
  8
0
100
AcDbBlockEnd
  0
ENDSEC
  0
SECTION
  2
ENTITIES
  0
LINE
  5
BD
330
1F
100
AcDbEntity
  8
FORMAT
  6
Continuous
 62
     7
370
    18
100
AcDbLine
 10
255.3923879518
 20
35.6464717326
 30
0.0
 11
180.9851741751
 21
35.6464717326
 31
0.0
  0
LINE
  5
BE
330
1F
100
AcDbEntity
  8
FORMAT
  6
Continuous
 62
     7
370
    18
100
AcDbLine
 10
255.3923879518
 20
48.7420674192
 30
0.0
 11
286.9438597858
 21
48.7420674192
 31
0.0
  0
LINE
  5
BF
330
1F
100
AcDbEntity
  8
FORMAT
  6
Continuous
 62
     7
370
    18
100
AcDbLine
 10
241.7100609089
 20
35.6464717326
 30
0.0
 11
241.7100609089
 21
25.9765524102
 31
0.0
  0
LINE
  5
C0
330
1F
100
AcDbEntity
  8
FORMAT
100
AcDbLine
 10
286.9438597858
 20
200.0
 30
0.0
 11
9.9438597858
 21
200.0
 31
0.0
  0
LINE
  5
C1
330
1F
100
AcDbEntity
  8
FORMAT
100
AcDbLine
 10
9.9438597858
 20
200.0
 30
0.0
 11
9.9438597858
 21
10.0
 31
0.0
  0
LINE
  5
C2
330
1F
100
AcDbEntity
  8
BEMASSUNG
  6
Continuous
 62
     7
370
    18
100
AcDbLine
 10
255.3923879518
 20
40.5638075942
 30
0.0
 11
286.9438597858
 21
40.5638075942
 31
0.0
  0
LINE
  5
C3
330
1F
100
AcDbEntity
  8
FORMAT
 62
     7
370
    18
100
AcDbLine
 10
180.9851741751
 20
52.6404959572
 30
0.0
 11
180.9851741751
 21
10.0
 31
0.0
  0
LINE
  5
C4
330
1F
100
AcDbEntity
  8
FORMAT
 62
     7
100
AcDbLine
 10
272.1993193029
 20
10.0
 30
0.0
 11
272.1993193029
 21
19.3470401503
 31
0.0
  0
LINE
  5
C5
330
1F
100
AcDbEntity
  8
FORMAT
 62
     7
100
AcDbLine
 10
180.9851741751
 20
25.9765524102
 30
0.0
 11
286.9438597858
 21
25.9765524102
 31
0.0
  0
LINE
  5
C6
330
1F
100
AcDbEntity
  8
FORMAT
100
AcDbLine
 10
9.9438597858
 20
10.0
 30
0.0
 11
286.9438597858
 21
10.0
 31
0.0
  0
LINE
  5
C7
330
1F
100
AcDbEntity
  8
FORMAT
 62
     7
100
AcDbLine
 10
255.3923879518
 20
19.3470401503
 30
0.0
 11
286.9438597858
 21
19.3470401503
 31
0.0
  0
LINE
  5
C8
330
1F
100
AcDbEntity
  8
FORMAT
 62
     7
100
AcDbLine
 10
180.9851741751
 20
52.6404959572
 30
0.0
 11
286.9572416722
 21
52.6404959572
 31
0.0
  0
LINE
  5
C9
330
1F
100
AcDbEntity
  8
FORMAT
 62
     7
100
AcDbLine
 10
255.3923879518
 20
10.0
 30
0.0
 11
255.3923879518
 21
52.6404959572
 31
0.0
  0
LINE
  5
CA
330
1F
100
AcDbEntity
  8
FORMAT
100
AcDbLine
 10
286.9438597858
 20
10.0
 30
0.0
 11
286.9438597858
 21
200.0
 31
0.0
  0
INSERT
  5
CB
330
1F
100
AcDbEntity
  8
FORMAT
100
AcDbBlockReference
  2
Block2_2
 10
-49.4796720125
 20
-37.2714257085
 30
0.0
  0
INSERT
  5
CC
330
1F
100
AcDbEntity
  8
FORMAT
100
AcDbBlockReference
  2
Block1_2
 10
262.8019335354
 20
27.0956685316
 30
0.0
  0
MTEXT
  5
CD
330
1F
100
AcDbEntity
  8
BEMASSUNG
 62
     7
100
AcDbMText
 10
256.196469587
 20
47.9363931555
 30
0.0
 40
2.0
 41
0.0
 71
     1
 72
     1
  1
Ausführung:
  7
SLDTEXTSTYLE0
 73
     1
 44
1.0
  0
MTEXT
  5
CE
330
1F
100
AcDbEntity
  8
FORMAT
100
AcDbMText
 10
244.8335352583
 20
34.4345411691
 30
0.0
 40
2.0
 41
0.0
 71
     1
 72
     1
  1
Index:
  7
SLDTEXTSTYLE0
 73
     1
 44
1.0
  0
MTEXT
  5
D0
330
1F
100
AcDbEntity
  8
FORMAT
100
AcDbMText
 10
257.9461905645
 20
51.6009600552
 30
0.0
 40
1.8
 41
0.0
 71
     1
 72
     1
  1
KATALOGZEICHNUNG
  7
SLDTEXTSTYLE3
 73
     1
 44
1.0
  0
MTEXT
  5
D1
330
1F
100
AcDbEntity
  8
FORMAT
100
AcDbMText
 10
182.9061937187
 20
34.8216251945
 30
0.0
 40
2.0
 41
0.0
 71
     1
 72
     1
  1
Zeichnungsnummer:
  7
SLDTEXTSTYLE0
 73
     1
 44
1.0
  0
MTEXT
  5
D2
330
1F
100
AcDbEntity
  8
FORMAT
100
AcDbMText
 10
265.9344367942
 20
14.2806067945
 30
0.0
 40
2.1166666667
 41
0.0
 71
     1
 72
     1
  1
1
  7
SLDTEXTSTYLE0
 73
     1
 44
1.0
  0
MTEXT
  5
D3
330
1F
100
AcDbEntity
  8
FORMAT
100
AcDbMText
 10
259.8619150727
 20
14.2806067945
 30
0.0
 40
2.1166666667
 41
0.0
 71
     1
 72
     1
  1
1
  7
SLDTEXTSTYLE0
 73
     1
 44
1.0
  0
MTEXT
  5
D4
330
1F
100
AcDbEntity
  8
FORMAT
100
AcDbMText
 10
277.535567047
 20
14.1724992936
 30
0.0
 40
2.1166666667
 41
0.0
 71
     1
 72
     1
  1
A4
  7
SLDTEXTSTYLE0
 73
     1
 44
1.0
  0
MTEXT
  5
D5
330
1F
100
AcDbEntity
  8
FORMAT
100
AcDbMText
 10
270.2136096579
 20
23.7012230636
 30
0.0
 40
2.1166666667
 41
0.0
 71
     1
 72
     1
  1
1:1
  7
SLDTEXTSTYLE0
 73
     1
 44
1.0
  0
MTEXT
  5
D6
330
1F
100
AcDbEntity
  8
FORMAT
100
AcDbMText
 10
182.9061937187
 20
31.4443175788
 30
0.0
 40
3.175
 41
0.0
 71
     1
 72
     1
  1
D007-53262
  7
SLDTEXTSTYLE3
 73
     1
 44
1.0
  0
MTEXT
  5
D7
330
1F
100
AcDbEntity
  8
FORMAT
100
AcDbMText
 10
263.6389415355
 20
14.3853488894
 30
0.0
 40
2.5
 41
0.0
 71
     2
 72
     1
  1
/
  7
SLDTEXTSTYLE0
 73
     1
 44
1.0
  0
MTEXT
  5
D8
330
1F
100
AcDbEntity
  8
FORMAT
100
AcDbMText
 10
257.6429342273
 20
17.8898077508
 30
0.0
 40
2.0
 41
0.0
 71
     1
 72
     1
  1
Blatt / von
  7
SLDTEXTSTYLE0
 73
     1
 44
1.0
  0
MTEXT
  5
D9
330
1F
100
AcDbEntity
  8
FORMAT
100
AcDbMText
 10
182.596993557
 20
51.3045969115
 30
0.0
 40
2.0
 41
0.0
 71
     1
 72
     1
  1
Benennung:
  7
SLDTEXTSTYLE0
 73
     1
 44
1.0
  0
MTEXT
  5
DA
330
1F
100
AcDbEntity
  8
FORMAT
100
AcDbMText
 10
274.992897395
 20
17.8898077508
 30
0.0
 40
2.0
 41
0.0
 71
     1
 72
     1
  1
Format
  7
SLDTEXTSTYLE0
 73
     1
 44
1.0
  0
MTEXT
  5
DB
330
1F
100
AcDbEntity
  8
FORMAT
100
AcDbMText
 10
256.3213642251
 20
23.5727761737
 30
0.0
 40
2.0
 41
0.0
 71
     1
 72
     1
  1
Maßstab:
  7
SLDTEXTSTYLE0
 73
     1
 44
1.0
  0
MTEXT
  5
DC
330
1F
100
AcDbEntity
  8
FORMAT
100
AcDbMText
 10
182.8009845203
 20
40.0864163817
 30
0.0
 40
2.5
 41
0.0
 71
     1
 72
     1
  1
Aufputz Montage
  7
SLDTEXTSTYLE3
 73
     1
 44
1.0
  0
MTEXT
  5
DD
330
1F
100
AcDbEntity
  8
FORMAT
100
AcDbMText
 10
182.8290795751
 20
43.5216266319
 30
0.0
 40
2.5
 41
0.0
 71
     1
 72
     1
  1
berührungsloser Taster
  7
SLDTEXTSTYLE3
 73
     1
 44
1.0
  0
MTEXT
  5
DE
330
1F
100
AcDbEntity
  8
FORMAT
100
AcDbMText
 10
182.8205662367
 20
47.7853851366
 30
0.0
 40
3.5
 41
0.0
 71
     1
 72
     1
  1
Magic Switch Chroma
  7
SLDTEXTSTYLE3
 73
     1
 44
1.0
  0
INSERT
  5
E9
330
1F
100
AcDbEntity
  8
FORMAT
100
AcDbBlockReference
  2
SW_NOTE_0_3
 10
13.3538297872
 20
34.2427660478
 30
0.0
  0
LINE
  5
EA
330
1F
100
AcDbEntity
  8
0
  6
Continuous
 62
     7
370
    25
100
AcDbLine
 10
56.6162090001
 20
84.8314629608
 30
0.0
 11
66.5567953426
 21
84.8314629608
 31
0.0
  0
LINE
  5
EB
330
1F
100
AcDbEntity
  8
0
  6
Continuous
 62
     7
370
    25
100
AcDbLine
 10
83.3757190116
 20
102.8922461206
 30
0.0
 11
83.3757190116
 21
146.4706798011
 31
0.0
  0
LWPOLYLINE
  5
EC
330
1F
100
AcDbEntity
  8
0
  6
Continuous
 62
     7
370
    25
100
AcDbPolyline
 90
       15
 70
   128
 43
0.0
 10
83.3757190116
 20
146.4706798011
 10
85.1816016495
 20
147.7578846658
 10
87.0515477719
 20
148.9914851152
 10
88.8500114111
 20
150.0649723482
 10
90.2577810462
 20
150.8155576735
 10
91.7126719998
 20
151.5036759634
 10
93.1900900011
 20
152.118090101
 10
94.5746597486
 20
152.6316652944
 10
95.8000807277
 20
153.0586658742
 10
96.8672021818
 20
153.4299102762
 10
97.7844265457
 20
153.7602652693
 10
98.5904537558
 20
154.062550658
 10
99.5032955837
 20
154.4038764049
 10
100.175758987
 20
154.6166197078
 10
100.6098546893
 20
154.6814629608
  0
LINE
  5
ED
330
1F
100
AcDbEntity
  8
0
  6
Continuous
 62
     7
370
    25
100
AcDbLine
 10
100.6098546893
 20
154.6814629608
 30
0.0
 11
100.6098546893
 21
94.6814629608
 31
0.0
  0
LWPOLYLINE
  5
EE
330
1F
100
AcDbEntity
  8
0
  6
Continuous
 62
     7
370
    25
100
AcDbPolyline
 90
       15
 70
   128
 43
0.0
 10
83.3757190116
 20
102.8922461206
 10
85.1816016413
 20
101.6050412448
 10
87.0515477715
 20
100.371440806
 10
88.8500114111
 20
99.2979535735
 10
90.2577810462
 20
98.5473682482
 10
91.7126719998
 20
97.8592499583
 10
93.1900900011
 20
97.2448358207
 10
94.5746597486
 20
96.7312606273
 10
95.8000807277
 20
96.3042600474
 10
96.8672021818
 20
95.9330156454
 10
97.7844265457
 20
95.6026606524
 10
98.5904537558
 20
95.3003752637
 10
99.5032955837
 20
94.9590495168
 10
100.175758987
 20
94.7463062139
 10
100.6098546893
 20
94.6814629608
  0
LINE
  5
EF
330
1F
100
AcDbEntity
  8
0
  6
Continuous
 62
     7
370
    25
100
AcDbLine
 10
39.7972853311
 20
102.8922461206
 30
0.0
 11
83.3757190116
 21
102.8922461206
 31
0.0
  0
LINE
  5
F0
330
1F
100
AcDbEntity
  8
0
  6
Continuous
 62
     7
370
    25
100
AcDbLine
 10
39.7972853311
 20
146.4706798011
 30
0.0
 11
39.7972853311
 21
102.8922461206
 31
0.0
  0
LINE
  5
F1
330
1F
100
AcDbEntity
  8
0
  6
Continuous
 62
     7
370
    25
100
AcDbLine
 10
83.3757190116
 20
146.4706798011
 30
0.0
 11
39.7972853311
 21
146.4706798011
 31
0.0
  0
LINE
  5
F2
330
1F
100
AcDbEntity
  8
0
  6
Continuous
 62
     7
370
    25
100
AcDbLine
 10
83.0865021714
 20
113.1814629608
 30
0.0
 11
83.0865021714
 21
136.1814629608
 31
0.0
  0
ARC
  5
F3
330
1F
100
AcDbEntity
  8
0
  6
Continuous
 62
     7
370
    25
100
AcDbCircle
 10
73.0865021714
 20
136.1814629608
 30
0.0
 40
10.0
100
AcDbArc
 50
0.0
 51
90.0
  0
LINE
  5
F4
330
1F
100
AcDbEntity
  8
0
  6
Continuous
 62
     7
370
    25
100
AcDbLine
 10
73.0865021714
 20
146.1814629608
 30
0.0
 11
50.0865021714
 21
146.1814629608
 31
0.0
  0
ARC
  5
F5
330
1F
100
AcDbEntity
  8
0
  6
Continuous
 62
     7
370
    25
100
AcDbCircle
 10
50.0865021714
 20
136.1814629608
 30
0.0
 40
10.0
100
AcDbArc
 50
90.0
 51
180.0
  0
LINE
  5
F6
330
1F
100
AcDbEntity
  8
0
  6
Continuous
 62
     7
370
    25
100
AcDbLine
 10
40.0865021714
 20
136.1814629608
 30
0.0
 11
40.0865021714
 21
113.1814629608
 31
0.0
  0
ARC
  5
F7
330
1F
100
AcDbEntity
  8
0
  6
Continuous
 62
     7
370
    25
100
AcDbCircle
 10
50.0865021714
 20
113.1814629608
 30
0.0
 40
9.999999999999993
100
AcDbArc
 50
180.0
 51
270.0
  0
LINE
  5
F8
330
1F
100
AcDbEntity
  8
0
  6
Continuous
 62
     7
370
    25
100
AcDbLine
 10
50.0865021714
 20
103.1814629608
 30
0.0
 11
73.0865021714
 21
103.1814629608
 31
0.0
  0
ARC
  5
F9
330
1F
100
AcDbEntity
  8
0
  6
Continuous
 62
     7
370
    25
100
AcDbCircle
 10
73.0865021714
 20
113.1814629608
 30
0.0
 40
9.999999999999986
100
AcDbArc
 50
270.0
 51
0.0
  0
LWPOLYLINE
  5
FA
330
1F
100
AcDbEntity
  8
0
  6
Continuous
 62
     7
370
    25
100
AcDbPolyline
 90
       15
 70
   128
 43
0.0
 10
83.3757190116
 20
102.8922461206
 10
84.6629237621
 20
101.0863633987
 10
85.8965243201
 20
99.2164173562
 10
86.9700115587
 20
97.4179537211
 10
87.720596884
 20
96.0101840861
 10
88.4087151739
 20
94.5552931324
 10
89.0231293115
 20
93.0778751311
 10
89.5367045049
 20
91.6933053836
 10
89.9637050848
 20
90.4678844046
 10
90.3349494868
 20
89.4007629504
 10
90.6653044799
 20
88.4835385865
 10
90.9675898685
 20
87.6775113764
 10
91.3089156154
 20
86.7646695486
 10
91.5216589183
 20
86.0922061452
 10
91.5865021714
 20
85.6581104429
  0
LINE
  5
FB
330
1F
100
AcDbEntity
  8
0
  6
Continuous
 62
     7
370
    25
100
AcDbLine
 10
91.5865021714
 20
85.6581104429
 30
0.0
 11
31.5865021714
 21
85.6581104429
 31
0.0
  0
LWPOLYLINE
  5
FC
330
1F
100
AcDbEntity
  8
0
  6
Continuous
 62
     7
370
    25
100
AcDbPolyline
 90
       15
 70
   128
 43
0.0
 10
39.7972853311
 20
102.8922461206
 10
38.5100804072
 20
101.0863635263
 10
37.2764800142
 20
99.2164173624
 10
36.202992784
 20
97.4179537211
 10
35.4524074587
 20
96.0101840861
 10
34.7642891689
 20
94.5552931324
 10
34.1498750313
 20
93.0778751311
 10
33.6362998378
 20
91.6933053836
 10
33.209299258
 20
90.4678844046
 10
32.838054856
 20
89.4007629504
 10
32.5076998629
 20
88.4835385865
 10
32.2054144742
 20
87.6775113764
 10
31.8640887274
 20
86.7646695486
 10
31.6513454244
 20
86.0922061452
 10
31.5865021714
 20
85.6581104429
  0
LINE
  5
FD
330
1F
100
AcDbEntity
  8
0
  6
Continuous
 62
     7
370
    25
100
AcDbLine
 10
31.5865021714
 20
163.7048154788
 30
0.0
 11
91.5865021714
 21
163.7048154788
 31
0.0
  0
LWPOLYLINE
  5
FE
330
1F
100
AcDbEntity
  8
0
  6
Continuous
 62
     7
370
    25
100
AcDbPolyline
 90
       15
 70
   128
 43
0.0
 10
91.5865021714
 20
163.7048154788
 10
91.5216589183
 20
163.2707197765
 10
91.3089156154
 20
162.5982563731
 10
90.9675898685
 20
161.6854145453
 10
90.6653044799
 20
160.8793873352
 10
90.3349494868
 20
159.9621629713
 10
89.9637050848
 20
158.8950415171
 10
89.5367045049
 20
157.6696205381
 10
89.0231293115
 20
156.2850507906
 10
88.4087151739
 20
154.8076327893
 10
87.720596884
 20
153.3527418356
 10
86.9700115587
 20
151.9449722006
 10
85.8965243206
 20
150.1465085651
 10
84.6629237732
 20
148.2765625149
 10
83.3757190116
 20
146.4706798011
  0
LWPOLYLINE
  5
FF
330
1F
100
AcDbEntity
  8
0
  6
Continuous
 62
     7
370
    25
100
AcDbPolyline
 90
       15
 70
   128
 43
0.0
 10
31.5865021714
 20
163.7048154788
 10
31.6513454244
 20
163.2707197765
 10
31.8640887274
 20
162.5982563731
 10
32.2054144742
 20
161.6854145453
 10
32.5076998629
 20
160.8793873351
 10
32.838054856
 20
159.9621629713
 10
33.209299258
 20
158.8950415171
 10
33.6362998378
 20
157.6696205381
 10
34.1498750313
 20
156.2850507906
 10
34.7642891689
 20
154.8076327893
 10
35.4524074587
 20
153.3527418356
 10
36.202992784
 20
151.9449722006
 10
37.2764800213
 20
150.1465085645
 10
38.5100805524
 20
148.2765625022
 10
39.7972853311
 20
146.4706798011
  0
LINE
  5
100
330
1F
100
AcDbEntity
  8
0
  6
Continuous
 62
     7
370
    25
100
AcDbLine
 10
22.5631496534
 20
94.6814629608
 30
0.0
 11
22.5631496534
 21
154.6814629608
 31
0.0
  0
LWPOLYLINE
  5
101
330
1F
100
AcDbEntity
  8
0
  6
Continuous
 62
     7
370
    25
100
AcDbPolyline
 90
       15
 70
   128
 43
0.0
 10
22.5631496534
 20
154.6814629608
 10
22.9972453557
 20
154.6166197078
 10
23.6697087591
 20
154.4038764048
 10
24.5825505869
 20
154.062550658
 10
25.3885777971
 20
153.7602652693
 10
26.3058021609
 20
153.4299102762
 10
27.3729236151
 20
153.0586658742
 10
28.5983445941
 20
152.6316652944
 10
29.9829143416
 20
152.118090101
 10
31.460332343
 20
151.5036759633
 10
32.9152232966
 20
150.8155576735
 10
34.3229929316
 20
150.0649723482
 10
36.1214565702
 20
148.9914851143
 10
37.9914026807
 20
147.7578846487
 10
39.7972853311
 20
146.4706798011
  0
LWPOLYLINE
  5
102
330
1F
100
AcDbEntity
  8
0
  6
Continuous
 62
     7
370
    25
100
AcDbPolyline
 90
       15
 70
   128
 43
0.0
 10
22.5631496534
 20
94.6814629608
 10
22.9972453557
 20
94.7463062139
 10
23.6697087591
 20
94.9590495168
 10
24.5825505869
 20
95.3003752637
 10
25.3885777971
 20
95.6026606524
 10
26.3058021609
 20
95.9330156454
 10
27.3729236151
 20
96.3042600474
 10
28.5983445941
 20
96.7312606273
 10
29.9829143416
 20
97.2448358207
 10
31.460332343
 20
97.8592499583
 10
32.9152232966
 20
98.5473682482
 10
34.3229929316
 20
99.2979535735
 10
36.121456565
 20
100.3714408145
 10
37.9914025738
 20
101.6050414182
 10
39.7972853311
 20
102.8922461206
  0
ARC
  5
103
330
1F
100
AcDbEntity
  8
0
  6
Continuous
 62
     7
370
    25
100
AcDbCircle
 10
31.8648263291
 20
154.4031388031
 30
0.0
 40
9.305839742591692
100
AcDbArc
 50
91.7138891738
 51
178.2861108262
  0
ARC
  5
104
330
1F
100
AcDbEntity
  8
0
  6
Continuous
 62
     7
370
    25
100
AcDbCircle
 10
31.8648263291
 20
94.9597871185
 30
0.0
 40
9.305839742591997
100
AcDbArc
 50
181.7138891739
 51
268.2861108262
  0
ARC
  5
105
330
1F
100
AcDbEntity
  8
0
  6
Continuous
 62
     7
370
    25
100
AcDbCircle
 10
91.3081780137
 20
94.9597871185
 30
0.0
 40
9.305839742591877
100
AcDbArc
 50
271.7138891738
 51
358.2861108262
  0
ARC
  5
106
330
1F
100
AcDbEntity
  8
0
  6
Continuous
 62
     7
370
    25
100
AcDbCircle
 10
91.3081780137
 20
154.4031388031
 30
0.0
 40
9.305839742591846
100
AcDbArc
 50
1.7138891738
 51
88.2861108262
  0
ARC
  5
107
330
1F
100
AcDbEntity
  8
0
  6
Continuous
 62
     7
370
    25
100
AcDbCircle
 10
91.5865021714
 20
94.6814629608
 30
0.0
 40
10.0
100
AcDbArc
 50
270.0
 51
0.0
  0
LINE
  5
108
330
1F
100
AcDbEntity
  8
0
  6
Continuous
 62
     7
370
    25
100
AcDbLine
 10
91.5865021714
 20
85.6581104429
 30
0.0
 11
91.5865021714
 21
84.6814629608
 31
0.0
  0
LINE
  5
109
330
1F
100
AcDbEntity
  8
0
  6
Continuous
 62
     7
370
    25
100
AcDbLine
 10
100.6098546893
 20
94.6814629608
 30
0.0
 11
101.5865021714
 21
94.6814629608
 31
0.0
  0
ARC
  5
10A
330
1F
100
AcDbEntity
  8
0
  6
Continuous
 62
     7
370
    25
100
AcDbCircle
 10
31.5865021714
 20
154.6814629608
 30
0.0
 40
10.0
100
AcDbArc
 50
90.0
 51
180.0
  0
LINE
  5
10B
330
1F
100
AcDbEntity
  8
0
  6
Continuous
 62
     7
370
    25
100
AcDbLine
 10
31.5865021714
 20
163.7048154788
 30
0.0
 11
31.5865021714
 21
164.6814629608
 31
0.0
  0
LINE
  5
10C
330
1F
100
AcDbEntity
  8
0
  6
Continuous
 62
     7
370
    25
100
AcDbLine
 10
22.5631496534
 20
154.6814629608
 30
0.0
 11
21.5865021714
 21
154.6814629608
 31
0.0
  0
ARC
  5
10D
330
1F
100
AcDbEntity
  8
0
  6
Continuous
 62
     7
370
    25
100
AcDbCircle
 10
91.5865021714
 20
154.6814629608
 30
0.0
 40
10.0
100
AcDbArc
 50
0.0
 51
90.0
  0
LINE
  5
10E
330
1F
100
AcDbEntity
  8
0
  6
Continuous
 62
     7
370
    25
100
AcDbLine
 10
100.6098546893
 20
154.6814629608
 30
0.0
 11
101.5865021714
 21
154.6814629608
 31
0.0
  0
LINE
  5
10F
330
1F
100
AcDbEntity
  8
0
  6
Continuous
 62
     7
370
    25
100
AcDbLine
 10
91.5865021714
 20
163.7048154788
 30
0.0
 11
91.5865021714
 21
164.6814629608
 31
0.0
  0
ARC
  5
110
330
1F
100
AcDbEntity
  8
0
  6
Continuous
 62
     7
370
    25
100
AcDbCircle
 10
31.5865021714
 20
94.6814629608
 30
0.0
 40
10.0
100
AcDbArc
 50
180.0
 51
270.0
  0
LINE
  5
111
330
1F
100
AcDbEntity
  8
0
  6
Continuous
 62
     7
370
    25
100
AcDbLine
 10
22.5631496534
 20
94.6814629608
 30
0.0
 11
21.5865021714
 21
94.6814629608
 31
0.0
  0
LINE
  5
112
330
1F
100
AcDbEntity
  8
0
  6
Continuous
 62
     7
370
    25
100
AcDbLine
 10
31.5865021714
 20
85.6581104429
 30
0.0
 11
31.5865021714
 21
84.6814629608
 31
0.0
  0
LINE
  5
113
330
1F
100
AcDbEntity
  8
0
  6
Continuous
 62
     7
370
    25
100
AcDbLine
 10
91.5865021714
 20
164.6814629608
 30
0.0
 11
31.5865021714
 21
164.6814629608
 31
0.0
  0
LINE
  5
114
330
1F
100
AcDbEntity
  8
0
  6
Continuous
 62
     7
370
    25
100
AcDbLine
 10
101.5865021714
 20
94.6814629608
 30
0.0
 11
101.5865021714
 21
154.6814629608
 31
0.0
  0
LINE
  5
115
330
1F
100
AcDbEntity
  8
0
  6
Continuous
 62
     7
370
    25
100
AcDbLine
 10
56.5865021714
 20
84.6814629608
 30
0.0
 11
56.6214229409
 21
84.8577899416
 31
0.0
  0
LINE
  5
116
330
1F
100
AcDbEntity
  8
0
  6
Continuous
 62
     7
370
    25
100
AcDbLine
 10
31.5865021714
 20
84.6814629608
 30
0.0
 11
56.5865021714
 21
84.6814629608
 31
0.0
  0
LINE
  5
117
330
1F
100
AcDbEntity
  8
0
  6
Continuous
 62
     7
370
    25
100
AcDbLine
 10
66.5865021714
 20
84.6814629608
 30
0.0
 11
91.5865021714
 21
84.6814629608
 31
0.0
  0
LINE
  5
118
330
1F
100
AcDbEntity
  8
0
  6
Continuous
 62
     7
370
    25
100
AcDbLine
 10
66.5515814019
 20
84.8577899416
 30
0.0
 11
66.5865021714
 21
84.6814629608
 31
0.0
  0
LINE
  5
119
330
1F
100
AcDbEntity
  8
0
  6
Continuous
 62
     7
370
    25
100
AcDbLine
 10
66.5515814019
 20
84.8577899416
 30
0.0
 11
56.6214229409
 21
84.8577899416
 31
0.0
  0
LINE
  5
11A
330
1F
100
AcDbEntity
  8
0
  6
Continuous
 62
     7
370
    25
100
AcDbLine
 10
21.5865021714
 20
154.6814629608
 30
0.0
 11
21.5865021714
 21
94.6814629608
 31
0.0
  0
LINE
  5
11B
330
1F
100
AcDbEntity
  8
0
  6
Continuous
 62
     7
370
    25
100
AcDbLine
 10
80.0865021714
 20
113.1814629608
 30
0.0
 11
80.0865021714
 21
136.1814629608
 31
0.0
  0
ARC
  5
11C
330
1F
100
AcDbEntity
  8
0
  6
Continuous
 62
     7
370
    25
100
AcDbCircle
 10
73.0865021714
 20
136.1814629608
 30
0.0
 40
7.0
100
AcDbArc
 50
0.0
 51
90.0
  0
LINE
  5
11D
330
1F
100
AcDbEntity
  8
0
  6
Continuous
 62
     7
370
    25
100
AcDbLine
 10
73.0865021714
 20
143.1814629608
 30
0.0
 11
50.0865021714
 21
143.1814629608
 31
0.0
  0
ARC
  5
11E
330
1F
100
AcDbEntity
  8
0
  6
Continuous
 62
     7
370
    25
100
AcDbCircle
 10
50.0865021714
 20
136.1814629608
 30
0.0
 40
7.000000000000007
100
AcDbArc
 50
90.0
 51
180.0
  0
LINE
  5
11F
330
1F
100
AcDbEntity
  8
0
  6
Continuous
 62
     7
370
    25
100
AcDbLine
 10
43.0865021714
 20
136.1814629608
 30
0.0
 11
43.0865021714
 21
113.1814629608
 31
0.0
  0
ARC
  5
120
330
1F
100
AcDbEntity
  8
0
  6
Continuous
 62
     7
370
    25
100
AcDbCircle
 10
50.0865021714
 20
113.1814629608
 30
0.0
 40
7.000000000000007
100
AcDbArc
 50
180.0
 51
270.0
  0
LINE
  5
121
330
1F
100
AcDbEntity
  8
0
  6
Continuous
 62
     7
370
    25
100
AcDbLine
 10
50.0865021714
 20
106.1814629608
 30
0.0
 11
73.0865021714
 21
106.1814629608
 31
0.0
  0
ARC
  5
122
330
1F
100
AcDbEntity
  8
0
  6
Continuous
 62
     7
370
    25
100
AcDbCircle
 10
73.0865021714
 20
113.1814629608
 30
0.0
 40
7.0
100
AcDbArc
 50
270.0
 51
0.0
  0
DIMENSION
  5
123
330
1F
100
AcDbEntity
  8
FORMAT
 62
     7
100
AcDbDimension
  2
_D
 10
21.5865021714
 20
77.9040993303
 30
0.0
 11
61.5865021714
 21
77.9040993303
 31
0.0
 70
   160
  1
<>
 71
     2
 42
-1.0
  3
SLDDIMSTYLE0
100
AcDbAlignedDimension
 13
101.5865021714
 23
94.6814629608
 33
0.0
 14
21.5865021714
 24
94.6814629608
 34
0.0
100
AcDbRotatedDimension
  0
DIMENSION
  5
12E
330
1F
100
AcDbEntity
  8
FORMAT
 62
     7
100
AcDbDimension
  2
_D_1
 10
16.0551181636
 20
164.6814629608
 30
0.0
 11
16.0551181636
 21
124.6814629608
 31
0.0
 70
   160
  1
<>
 71
     2
 42
-1.0
  3
SLDDIMSTYLE0
100
AcDbAlignedDimension
 13
31.5865021714
 23
84.6814629608
 33
0.0
 14
31.5865021714
 24
164.6814629608
 34
0.0
 50
90.0
100
AcDbRotatedDimension
  0
DIMENSION
  5
138
330
1F
100
AcDbEntity
  8
FORMAT
 62
     7
100
AcDbDimension
  2
_D_2
 10
91.5865021714
 20
154.6814629608
 30
0.0
 11
105.9763497517
 21
169.0713105411
 31
0.0
 70
   164
  1
<>
 71
     1
 42
-1.0
  3
SLDDIMSTYLE1
100
AcDbRadialDimension
 15
98.6575699832
 25
161.7525307727
 35
0.0
 40
0.0
  0
LINE
  5
140
330
1F
100
AcDbEntity
  8
0
  6
Continuous
 62
     7
370
    25
100
AcDbLine
 10
135.394238216
 20
148.3931498649
 30
0.0
 11
142.4017144492
 21
148.3931498649
 31
0.0
  0
ARC
  5
141
330
1F
100
AcDbEntity
  8
0
  6
Continuous
 62
     7
370
    25
100
AcDbCircle
 10
142.4017144492
 20
148.8931498649
 30
0.0
 40
0.5
100
AcDbArc
 50
270.0
 51
286.9372336711
  0
ARC
  5
142
330
1F
100
AcDbEntity
  8
0
  6
Continuous
 62
     7
370
    25
100
AcDbCircle
 10
141.0332632721
 20
153.3867523523
 30
0.0
 40
5.197352652182015
100
AcDbArc
 50
286.9372336711
 51
321.3847610614
  0
ARC
  5
143
330
1F
100
AcDbEntity
  8
0
  6
Continuous
 62
     7
370
    25
100
AcDbCircle
 10
142.4017144492
 20
151.3931498649
 30
0.0
 40
0.5000000000000299
100
AcDbArc
 50
73.0627663289
 51
90.0
  0
LINE
  5
144
330
1F
100
AcDbEntity
  8
0
  6
Continuous
 62
     7
370
    25
100
AcDbLine
 10
142.4017144492
 20
151.8931498649
 30
0.0
 11
135.394238216
 21
151.8931498649
 31
0.0
  0
ARC
  5
145
330
1F
100
AcDbEntity
  8
0
  6
Continuous
 62
     7
370
    25
100
AcDbCircle
 10
141.0332632721
 20
146.8995473775
 30
0.0
 40
5.197352652182004
100
AcDbArc
 50
38.6152389386
 51
73.0627663289
  0
ARC
  5
146
330
1F
100
AcDbEntity
  8
0
  6
Continuous
 62
     7
370
    25
100
AcDbCircle
 10
142.4017144527
 20
100.4697730123
 30
0.0
 40
0.5000006352170914
100
AcDbArc
 50
73.0627889115
 51
90.0000003975
  0
LINE
  5
147
330
1F
100
AcDbEntity
  8
0
  6
Continuous
 62
     7
370
    25
100
AcDbLine
 10
142.547376408
 20
100.9480859119
 30
0.0
 11
142.547376408
 21
97.4914662016
 31
0.0
  0
ARC
  5
148
330
1F
100
AcDbEntity
  8
0
  6
Continuous
 62
     7
370
    25
100
AcDbCircle
 10
142.4017144527
 20
97.9697791013
 30
0.0
 40
0.5000006352190579
100
AcDbArc
 50
269.9999996026
 51
286.9372110885
  0
LINE
  5
149
330
1F
100
AcDbEntity
  8
0
  6
Continuous
 62
     7
370
    25
100
AcDbLine
 10
142.4017144492
 20
100.9697736475
 30
0.0
 11
142.4017144492
 21
97.4697784661
 31
0.0
  0
LINE
  5
14A
330
1F
100
AcDbEntity
  8
0
  6
Continuous
 62
     7
370
    25
100
AcDbLine
 10
135.394238216
 20
100.9697736475
 30
0.0
 11
142.4017144492
 21
100.9697736475
 31
0.0
  0
LINE
  5
14B
330
1F
100
AcDbEntity
  8
0
  6
Continuous
 62
     7
370
    25
100
AcDbLine
 10
135.394238216
 20
97.4697784661
 30
0.0
 11
142.4017144492
 21
97.4697784661
 31
0.0
  0
ARC
  5
14C
330
1F
100
AcDbEntity
  8
0
  6
Continuous
 62
     7
370
    25
100
AcDbCircle
 10
141.0332656368
 20
95.976170209
 30
0.0
 40
5.19735290168297
100
AcDbArc
 50
38.6152841529
 51
73.0627944171
  0
ARC
  5
14D
330
1F
100
AcDbEntity
  8
0
  6
Continuous
 62
     7
370
    25
100
AcDbCircle
 10
141.0332656368
 20
102.4633819046
 30
0.0
 40
5.197352901682956
100
AcDbArc
 50
286.9372055829
 51
321.3847158471
  0
ARC
  5
14E
330
1F
100
AcDbEntity
  8
0
  6
Continuous
 62
     7
370
    25
100
AcDbCircle
 10
142.402026406
 20
151.0901166061
 30
0.0
 40
0.5709400500555011
100
AcDbArc
 50
75.2512916654
 51
90.0313059301
  0
ARC
  5
14F
330
1F
100
AcDbEntity
  8
0
  6
Continuous
 62
     7
370
    25
100
AcDbCircle
 10
141.245955324
 20
146.5181975626
 30
0.0
 40
5.286734380564669
100
AcDbArc
 50
43.2882790687
 51
75.749172476
  0
LINE
  5
150
330
1F
100
AcDbEntity
  8
0
  6
Continuous
 62
     7
370
    25
100
AcDbLine
 10
135.394238216
 20
94.6814629608
 30
0.0
 11
134.394238216
 21
94.6814629608
 31
0.0
  0
LINE
  5
151
330
1F
100
AcDbEntity
  8
0
  6
Continuous
 62
     7
370
    25
100
AcDbLine
 10
135.394238216
 20
84.8314629608
 30
0.0
 11
135.394238216
 21
94.6814629608
 31
0.0
  0
LINE
  5
152
330
1F
100
AcDbEntity
  8
0
  6
Continuous
 62
     7
370
    25
100
AcDbLine
 10
135.394238216
 20
84.8314629608
 30
0.0
 11
134.394238216
 21
84.8314629608
 31
0.0
  0
LINE
  5
153
330
1F
100
AcDbEntity
  8
0
  6
Continuous
 62
     7
370
    25
100
AcDbLine
 10
135.394238216
 20
164.5314629608
 30
0.0
 11
134.394238216
 21
164.5314629608
 31
0.0
  0
LINE
  5
154
330
1F
100
AcDbEntity
  8
0
  6
Continuous
 62
     7
370
    25
100
AcDbLine
 10
135.394238216
 20
154.6814629608
 30
0.0
 11
134.394238216
 21
154.6814629608
 31
0.0
  0
LINE
  5
155
330
1F
100
AcDbEntity
  8
0
  6
Continuous
 62
     7
370
    25
100
AcDbLine
 10
135.394238216
 20
154.6814629608
 30
0.0
 11
135.394238216
 21
164.5314629608
 31
0.0
  0
LINE
  5
156
330
1F
100
AcDbEntity
  8
0
  6
Continuous
 62
     7
370
    25
100
AcDbLine
 10
135.394238216
 20
94.6814629608
 30
0.0
 11
135.394238216
 21
154.6814629608
 31
0.0
  0
LINE
  5
157
330
1F
100
AcDbEntity
  8
0
  6
Continuous
 62
     7
370
    25
100
AcDbLine
 10
134.394238216
 20
94.6814629608
 30
0.0
 11
134.394238216
 21
154.6814629608
 31
0.0
  0
LINE
  5
158
330
1F
100
AcDbEntity
  8
0
  6
Continuous
 62
     7
370
    25
100
AcDbLine
 10
128.8553951068
 20
94.6814629608
 30
0.0
 11
134.394238216
 21
94.6814629608
 31
0.0
  0
LINE
  5
159
330
1F
100
AcDbEntity
  8
0
  6
Continuous
 62
     7
370
    25
100
AcDbLine
 10
128.8553951068
 20
154.6814629608
 30
0.0
 11
128.8553951068
 21
94.6814629608
 31
0.0
  0
LINE
  5
15A
330
1F
100
AcDbEntity
  8
0
  6
Continuous
 62
     7
370
    25
100
AcDbLine
 10
128.8553951068
 20
154.6814629608
 30
0.0
 11
134.394238216
 21
154.6814629608
 31
0.0
  0
LINE
  5
15B
330
1F
100
AcDbEntity
  8
0
  6
Continuous
 62
     7
370
    25
100
AcDbLine
 10
134.394238216
 20
154.6814629608
 30
0.0
 11
134.394238216
 21
164.6814629608
 31
0.0
  0
LWPOLYLINE
  5
15C
330
1F
100
AcDbEntity
  8
0
  6
Continuous
 62
     7
370
    25
100
AcDbPolyline
 90
        9
 70
   128
 43
0.0
 10
128.8553951068
 20
163.7048154788
 10
128.5792330934
 20
163.4727654098
 10
128.3819654827
 20
162.9125621138
 10
128.2635922748
 20
162.0667956592
 10
128.2241134696
 20
160.9832272627
 10
128.2635448742
 20
159.6822303609
 10
128.381902282
 20
158.1703994255
 10
128.5791856928
 20
156.4865809525
 10
128.8553951068
 20
154.6814629608
  0
LINE
  5
15D
330
1F
100
AcDbEntity
  8
0
  6
Continuous
 62
     7
370
    25
100
AcDbLine
 10
128.8553951068
 20
163.7048154788
 30
0.0
 11
134.394238216
 21
164.6814629608
 31
0.0
  0
LINE
  5
15E
330
1F
100
AcDbEntity
  8
0
  6
Continuous
 62
     7
370
    25
100
AcDbLine
 10
134.394238216
 20
84.6814629608
 30
0.0
 11
134.394238216
 21
94.6814629608
 31
0.0
  0
LINE
  5
15F
330
1F
100
AcDbEntity
  8
0
  6
Continuous
 62
     7
370
    25
100
AcDbLine
 10
128.8553951068
 20
85.6581104429
 30
0.0
 11
134.394238216
 21
84.6814629608
 31
0.0
  0
LWPOLYLINE
  5
160
330
1F
100
AcDbEntity
  8
0
  6
Continuous
 62
     7
370
    25
100
AcDbPolyline
 90
        9
 70
   128
 43
0.0
 10
128.8553951068
 20
94.6814629608
 10
128.5792330934
 20
92.8766133403
 10
128.3819654827
 20
91.1928592732
 10
128.2635922748
 20
89.6809177444
 10
128.2241134696
 20
88.3796986727
 10
128.2635448742
 20
87.2962907998
 10
128.381902282
 20
86.4505169612
 10
128.5791856928
 20
85.8902241449
 10
128.8553951068
 20
85.6581104429
  0
LINE
  5
161
330
1F
100
AcDbEntity
  8
0
  6
Continuous
 62
     7
370
    25
100
AcDbLine
 10
114.394238216
 20
102.8922461206
 30
0.0
 11
114.394238216
 21
146.4706798011
 31
0.0
  0
LWPOLYLINE
  5
162
330
1F
100
AcDbEntity
  8
0
  6
Continuous
 62
     7
370
    25
100
AcDbPolyline
 90
       15
 70
   128
 43
0.0
 10
114.394238216
 20
146.4706798011
 10
114.4498360893
 20
147.7578846658
 10
114.6477203664
 20
148.9914851152
 10
114.992898567
 20
150.0649723482
 10
115.3935298029
 20
150.8155576735
 10
115.9538352808
 20
151.5036759634
 10
116.7131214282
 20
152.118090101
 10
117.64683506
 20
152.6316652944
 10
118.7119682094
 20
153.0586658742
 10
119.8873517175
 20
153.4299102762
 10
121.1564546622
 20
153.7602652693
 10
122.5557341132
 20
154.062550658
 10
124.6554553506
 20
154.4038764049
 10
126.8336968089
 20
154.6166197078
 10
128.8553951068
 20
154.6814629608
  0
LWPOLYLINE
  5
163
330
1F
100
AcDbEntity
  8
0
  6
Continuous
 62
     7
370
    25
100
AcDbPolyline
 90
       15
 70
   128
 43
0.0
 10
114.394238216
 20
102.8922461206
 10
114.4498360893
 20
101.6050412448
 10
114.6477203664
 20
100.371440806
 10
114.992898567
 20
99.2979535735
 10
115.3935298029
 20
98.5473682482
 10
115.9538352808
 20
97.8592499583
 10
116.7131214282
 20
97.2448358207
 10
117.64683506
 20
96.7312606273
 10
118.7119682094
 20
96.3042600474
 10
119.8873517175
 20
95.9330156454
 10
121.1564546622
 20
95.6026606524
 10
122.5557341132
 20
95.3003752637
 10
124.6554553506
 20
94.9590495168
 10
126.8336968089
 20
94.7463062139
 10
128.8553951068
 20
94.6814629608
  0
LWPOLYLINE
  5
164
330
1F
100
AcDbEntity
  8
0
  6
Continuous
 62
     7
370
    25
100
AcDbPolyline
 90
       15
 70
   128
 43
0.0
 10
114.394238216
 20
102.8922461206
 10
114.4498360893
 20
101.0863633987
 10
114.6477203664
 20
99.2164173562
 10
114.992898567
 20
97.4179537211
 10
115.3935298029
 20
96.0101840861
 10
115.9538352809
 20
94.5552931324
 10
116.7131214282
 20
93.0778751311
 10
117.64683506
 20
91.6933053836
 10
118.7119682094
 20
90.4678844046
 10
119.8873517175
 20
89.4007629504
 10
121.1564546622
 20
88.4835385865
 10
122.5557341132
 20
87.6775113764
 10
124.6554553506
 20
86.7646695486
 10
126.8336968089
 20
86.0922061452
 10
128.8553951068
 20
85.6581104429
  0
LWPOLYLINE
  5
165
330
1F
100
AcDbEntity
  8
0
  6
Continuous
 62
     7
370
    25
100
AcDbPolyline
 90
       15
 70
   128
 43
0.0
 10
128.8553951068
 20
163.7048154788
 10
126.8336968089
 20
163.2707197765
 10
124.6554553506
 20
162.5982563731
 10
122.5557341132
 20
161.6854145453
 10
121.1564546622
 20
160.8793873352
 10
119.8873517175
 20
159.9621629713
 10
118.7119682094
 20
158.8950415171
 10
117.64683506
 20
157.6696205381
 10
116.7131214282
 20
156.2850507906
 10
115.9538352809
 20
154.8076327893
 10
115.3935298029
 20
153.3527418356
 10
114.992898567
 20
151.9449722006
 10
114.6477203664
 20
150.1465085651
 10
114.4498360893
 20
148.2765625149
 10
114.394238216
 20
146.4706798011
  0
LINE
  5
166
330
1F
100
AcDbEntity
  8
0
  6
Continuous
 62
     1
370
    25
100
AcDbLine
 10
135.394238216
 20
151.6610565709
 30
0.0
 11
142.4017144492
 21
151.6610565709
 31
0.0
  0
LINE
  5
167
330
1F
100
AcDbEntity
  8
0
  6
Continuous
 62
     1
370
    25
100
AcDbLine
 10
142.4017144492
 20
151.6610565709
 30
0.0
 11
142.4017144492
 21
148.3931498649
 31
0.0
  0
LINE
  5
168
330
1F
100
AcDbEntity
  8
0
  6
Continuous
 62
     1
370
    25
100
AcDbLine
 10
142.547376408
 20
151.6422451397
 30
0.0
 11
142.547376408
 21
148.4148376303
 31
0.0
  0
LINE
  5
169
330
1F
100
AcDbEntity
  8
0
  6
Continuous
 62
     1
370
    25
100
AcDbLine
 10
142.547376408
 20
151.8714620995
 30
0.0
 11
142.547376408
 21
151.6422451397
 31
0.0
  0
LINE
  5
16A
330
1F
100
AcDbEntity
  8
0
  6
Continuous
 62
     1
370
    25
100
AcDbLine
 10
142.4017144492
 20
151.8931498649
 30
0.0
 11
142.4017144492
 21
151.6610565709
 31
0.0
  0
DIMENSION
  5
16B
330
1F
100
AcDbEntity
  8
FORMAT
 62
     7
100
AcDbDimension
  2
_D_3
 10
114.394238216
 20
77.6562157333
 30
0.0
 11
124.894238216
 21
77.6562157333
 31
0.0
 70
   160
  1
<>
 71
     2
 42
-1.0
  3
SLDDIMSTYLE0
100
AcDbAlignedDimension
 13
135.394238216
 23
84.8314629608
 33
0.0
 14
114.394238216
 24
102.8922461206
 34
0.0
100
AcDbRotatedDimension
  0
ARC
  5
175
330
1F
100
AcDbEntity
  8
0
  6
Continuous
 62
     7
370
    25
100
AcDbCircle
 10
275.4007723032
 20
63.3113162437
 30
0.0
 40
7.550660166491793
100
AcDbArc
 50
240.9814652254
 51
286.6776273366
  0
ARC
  5
176
330
1F
100
AcDbEntity
  8
0
  6
Continuous
 62
     7
370
    25
100
AcDbCircle
 10
257.1088751063
 20
94.9886275015
 30
0.0
 40
7.546819146996648
100
AcDbArc
 50
133.3059880619
 51
179.0320706413
  0
LINE
  5
177
330
1F
100
AcDbEntity
  8
0
  6
Continuous
 62
     7
370
    25
100
AcDbLine
 10
251.651436585
 20
68.3042371957
 30
0.0
 11
271.741495578
 21
56.706493004
 31
0.0
  0
LINE
  5
178
330
1F
100
AcDbEntity
  8
0
  6
Continuous
 62
     7
370
    25
100
AcDbLine
 10
249.5631018482
 20
95.1201754077
 30
0.0
 11
249.5631018482
 21
71.9211259106
 31
0.0
  0
LINE
  5
179
330
1F
100
AcDbEntity
  8
0
  6
Continuous
 62
     7
370
    25
100
AcDbLine
 10
277.5505751825
 20
56.0725558361
 30
0.0
 11
279.9794351071
 21
56.8485368391
 31
0.0
  0
LINE
  5
17A
330
1F
100
AcDbEntity
  8
0
  6
Continuous
 62
     7
370
    25
100
AcDbLine
 10
253.805657435
 20
102.1837805436
 30
0.0
 11
251.9190472435
 21
100.4684936768
 31
0.0
  0
ARC
  5
17B
330
1F
100
AcDbEntity
  8
0
  6
Continuous
 62
     7
370
    25
100
AcDbCircle
 10
253.7750844872
 20
71.9417280711
 30
0.0
 40
4.211980068937522
100
AcDbArc
 50
180.2559752179
 51
239.7467824178
  0
ARC
  5
17C
330
1F
100
AcDbEntity
  8
0
  6
Continuous
 62
     7
370
    25
100
AcDbCircle
 10
274.1071886266
 20
83.6830375968
 30
0.0
 40
7.547068348277079
100
AcDbArc
 50
2.520089748
 51
57.4799103976
  0
LINE
  5
17D
330
1F
100
AcDbEntity
  8
0
  6
Continuous
 62
     7
370
    25
100
AcDbLine
 10
281.646957947
 20
59.5186554446
 30
0.0
 11
281.646957947
 21
84.0148798012
 31
0.0
  0
LINE
  5
17E
330
1F
100
AcDbEntity
  8
0
  6
Continuous
 62
     7
370
    25
100
AcDbLine
 10
278.1644570497
 20
90.0467482751
 30
0.0
 11
256.9512536141
 21
102.2928699524
 31
0.0
  0
ARC
  5
17F
330
1F
100
AcDbEntity
  8
0
  6
Continuous
 62
     7
370
    25
100
AcDbCircle
 10
279.0948159904
 20
59.3027058233
 30
0.0
 40
2.561261955710988
100
AcDbArc
 50
309.1444073114
 51
4.836564455
  0
ARC
  5
180
330
1F
100
AcDbEntity
  8
0
  6
Continuous
 62
     7
370
    25
100
AcDbCircle
 10
255.5074868099
 20
100.3455109442
 30
0.0
 40
2.424184335318894
100
AcDbArc
 50
53.4468603405
 51
112.5736508611
  0
LWPOLYLINE
  5
181
330
1F
100
AcDbEntity
  8
0
  6
Continuous
 62
     7
370
    25
100
AcDbPolyline
 90
       15
 70
   128
 43
0.0
 10
275.8526268979
 20
88.3746614329
 10
275.1149230579
 20
87.7980349213
 10
274.2695822887
 20
87.1223258551
 10
273.4065418508
 20
86.390747466
 10
272.8049478325
 20
85.8377716969
 10
272.2394540554
 20
85.2716957729
 10
271.6926385138
 20
84.6718952413
 10
271.1650895746
 20
84.0413479692
 10
270.6533957033
 20
83.390318009
 10
270.1677193099
 20
82.7575632909
 10
269.7263348539
 20
82.1896612247
 10
269.3193183354
 20
81.6863368837
 10
268.8177443594
 20
81.1007267567
 10
268.3116380461
 20
80.5486749148
 10
267.8368856216
 20
80.0627599097
  0
ARC
  5
182
330
1F
100
AcDbEntity
  8
0
  6
Continuous
 62
     7
370
    25
100
AcDbCircle
 10
268.5601588151
 20
80.4805847757
 30
0.0
 40
10.74693151595321
100
AcDbArc
 50
12.7314381683
 51
47.2685619773
  0
LWPOLYLINE
  5
183
330
1F
100
AcDbEntity
  8
0
  6
Continuous
 62
     7
370
    25
100
AcDbPolyline
 90
       15
 70
   128
 43
0.0
 10
267.8368856216
 20
80.0627599097
 10
268.4950183679
 20
80.2310508924
 10
269.2261068169
 20
80.3934222352
 10
269.9839986575
 20
80.5350767983
 10
270.623364917
 20
80.6359595841
 10
271.3358444481
 20
80.7343112079
 10
272.1266387836
 20
80.8385861495
 10
272.9462757327
 20
80.9562430547
 10
273.7561089111
 20
81.0978596837
 10
274.548954144
 20
81.2715242912
 10
275.3219375769
 20
81.4782175902
 10
276.1016312242
 20
81.722715754
 10
277.1667331103
 20
82.1043134497
 10
278.1746094797
 20
82.498502599
 10
279.0428637751
 20
82.8490090896
  0
LINE
  5
184
330
1F
100
AcDbEntity
  8
0
  6
Continuous
 62
     7
370
    25
100
AcDbLine
 10
267.8368856216
 20
62.2709751007
 30
0.0
 11
267.8368856216
 21
80.0627599097
 31
0.0
  0
LINE
  5
185
330
1F
100
AcDbEntity
  8
0
  6
Continuous
 62
     7
370
    25
100
AcDbLine
 10
279.0428637751
 20
82.8490090896
 30
0.0
 11
279.0428637751
 21
58.352784733
 31
0.0
  0
LWPOLYLINE
  5
186
330
1F
100
AcDbEntity
  8
0
  6
Continuous
 62
     7
370
    25
100
AcDbPolyline
 90
       15
 70
   128
 43
0.0
 10
267.8368856216
 20
62.2709751007
 10
268.495018365
 20
61.3882107752
 10
269.2261068167
 20
60.5432970082
 10
269.9839986575
 20
59.8084054347
 10
270.623364917
 20
59.2964046695
 10
271.3358444481
 20
58.8328796263
 10
272.1266387836
 20
58.4354603491
 10
272.9462757327
 20
58.1337621489
 10
273.7561089112
 20
57.9267153777
 10
274.548954144
 20
57.7972437798
 10
275.3219375769
 20
57.7341887446
 10
276.1016312242
 20
57.7318585517
 10
277.1667331103
 20
57.8347498449
 10
278.1746094797
 20
58.0552254049
 10
279.0428637751
 20
58.352784733
  0
LINE
  5
187
330
1F
100
AcDbEntity
  8
0
  6
Continuous
 62
     7
370
    25
100
AcDbLine
 10
254.6394234623
 20
100.6207831103
 30
0.0
 11
275.8526268979
 21
88.3746614329
 31
0.0
  0
LINE
  5
188
330
1F
100
AcDbEntity
  8
0
  6
Continuous
 62
     7
370
    25
100
AcDbLine
 10
267.8368856216
 20
80.0627599097
 30
0.0
 11
252.4295826372
 21
88.957206599
 31
0.0
  0
LWPOLYLINE
  5
189
330
1F
100
AcDbEntity
  8
0
  6
Continuous
 62
     7
370
    25
100
AcDbPolyline
 90
       15
 70
   128
 43
0.0
 10
254.6394234623
 20
100.6207831103
 10
253.9475707263
 20
100.0176873197
 10
253.2526621892
 20
99.2551355745
 10
252.6309755015
 20
98.384226631
 10
252.2431295313
 20
97.7078567403
 10
251.9112320101
 20
97.0069285682
 10
251.6269259027
 20
96.2555845659
 10
251.4013119691
 20
95.4507339253
 10
251.2527705996
 20
94.5900604881
 10
251.2015506094
 20
93.706499427
 10
251.2467392624
 20
92.857704684
 10
251.3704667173
 20
92.0479883689
 10
251.6279628466
 20
91.0241763973
 10
251.9941438399
 20
89.968563807
 10
252.4295826372
 20
88.957206599
  0
ARC
  5
18A
330
1F
100
AcDbEntity
  8
0
  6
Continuous
 62
     7
370
    25
100
AcDbCircle
 10
273.6918494225
 20
83.4432668301
 30
0.0
 40
7.6619983231243
100
AcDbArc
 50
2.520089748
 51
57.4799103976
  0
LINE
  5
18B
330
1F
100
AcDbEntity
  8
0
  6
Continuous
 62
     7
370
    25
100
AcDbLine
 10
279.0428637751
 20
82.8490090896
 30
0.0
 11
281.346437565
 21
83.780162469
 31
0.0
  0
LINE
  5
18C
330
1F
100
AcDbEntity
  8
0
  6
Continuous
 62
     7
370
    25
100
AcDbLine
 10
275.8526268979
 20
88.3746614329
 30
0.0
 11
277.8109036591
 21
89.903886808
 31
0.0
  0
LINE
  5
18D
330
1F
100
AcDbEntity
  8
0
  6
Continuous
 62
     7
370
    25
100
AcDbLine
 10
279.0428637751
 20
58.352784733
 30
0.0
 11
281.346437565
 21
59.2839381125
 31
0.0
  0
LINE
  5
18E
330
1F
100
AcDbEntity
  8
0
  6
Continuous
 62
     7
370
    25
100
AcDbLine
 10
281.346437565
 20
59.2839381125
 30
0.0
 11
281.346437565
 21
83.780162469
 31
0.0
  0
LINE
  5
18F
330
1F
100
AcDbEntity
  8
0
  6
Continuous
 62
     7
370
    25
100
AcDbLine
 10
254.6394234623
 20
100.6207831103
 30
0.0
 11
256.5977002235
 21
102.1500084853
 31
0.0
  0
LINE
  5
190
330
1F
100
AcDbEntity
  8
0
  6
Continuous
 62
     7
370
    25
100
AcDbLine
 10
277.8109036591
 20
89.903886808
 30
0.0
 11
256.5977002235
 21
102.1500084853
 31
0.0
  0
LINE
  5
191
330
1F
100
AcDbEntity
  8
0
  6
Continuous
 62
     7
370
    25
100
AcDbLine
 10
252.4295826372
 20
71.16542179
 30
0.0
 11
267.8368856216
 21
62.2709751007
 31
0.0
  0
LINE
  5
192
330
1F
100
AcDbEntity
  8
0
  6
Continuous
 62
     7
370
    25
100
AcDbLine
 10
252.4295826372
 20
88.957206599
 30
0.0
 11
252.4295826372
 21
71.16542179
 31
0.0
  0
LINE
  5
193
330
1F
100
AcDbEntity
  8
0
  6
Continuous
 62
     7
370
    25
100
AcDbLine
 10
267.7346320272
 20
66.5307875805
 30
0.0
 11
267.7346320272
 21
75.9210069171
 31
0.0
  0
ARC
  5
194
330
1F
100
AcDbEntity
  8
0
  6
Continuous
 62
     7
370
    25
100
AcDbCircle
 10
260.0800438846
 20
75.5841112782
 30
0.0
 40
7.661998323124206
100
AcDbArc
 50
2.520089748
 51
57.4799103976
  0
LINE
  5
195
330
1F
100
AcDbEntity
  8
0
  6
Continuous
 62
     7
370
    25
100
AcDbLine
 10
264.1990981212
 20
82.0447312561
 30
0.0
 11
256.0673701376
 21
86.7390778991
 31
0.0
  0
LWPOLYLINE
  5
196
330
1F
100
AcDbEntity
  8
0
  6
Continuous
 62
     7
370
    25
100
AcDbPolyline
 90
       14
 70
   128
 43
0.0
 10
256.0673701376
 20
86.7390778991
 10
255.6412086176
 20
86.9553281986
 10
255.2212614923
 20
87.1088900632
 10
254.8136525362
 20
87.197524215
 10
254.424325606
 20
87.2199381686
 10
254.0589579648
 20
87.175805078
 10
253.7228774956
 20
87.0657685031
 10
253.4209850085
 20
86.8914330249
 10
253.1576827757
 20
86.6553408472
 10
252.9368103367
 20
86.3609347257
 10
252.761588509
 20
86.0125077645
 10
252.6345724214
 20
85.6151408134
 10
252.5576142545
 20
85.1746283772
 10
252.5318362317
 20
84.6973941192
  0
LINE
  5
197
330
1F
100
AcDbEntity
  8
0
  6
Continuous
 62
     7
370
    25
100
AcDbLine
 10
252.5318362317
 20
84.6973941192
 30
0.0
 11
252.5318362317
 21
75.3071747826
 31
0.0
  0
ARC
  5
198
330
1F
100
AcDbEntity
  8
0
  6
Continuous
 62
     7
370
    25
100
AcDbCircle
 10
260.1864243742
 20
75.6440704215
 30
0.0
 40
7.661998323124095
100
AcDbArc
 50
182.520089748
 51
237.4799103976
  0
LINE
  5
199
330
1F
100
AcDbEntity
  8
0
  6
Continuous
 62
     7
370
    25
100
AcDbLine
 10
256.0673701376
 20
69.1834504436
 30
0.0
 11
264.1990981212
 21
64.4891038006
 31
0.0
  0
LWPOLYLINE
  5
19A
330
1F
100
AcDbEntity
  8
0
  6
Continuous
 62
     7
370
    25
100
AcDbPolyline
 90
       14
 70
   128
 43
0.0
 10
264.1990981212
 20
64.4891038006
 10
264.6252596412
 20
64.2728535011
 10
265.0452067665
 20
64.1192916365
 10
265.4528157226
 20
64.0306574847
 10
265.8421426529
 20
64.0082435311
 10
266.2075102941
 20
64.0523766217
 10
266.5435907632
 20
64.1624131966
 10
266.8454832503
 20
64.3367486748
 10
267.1087854831
 20
64.5728408525
 10
267.3296579221
 20
64.867246974
 10
267.5048797498
 20
65.2156739352
 10
267.6318958374
 20
65.6130408863
 10
267.7088540043
 20
66.0535533225
 10
267.7346320272
 20
66.5307875805
  0
LINE
  5
19B
330
1F
100
AcDbEntity
  8
0
  6
Continuous
 62
     7
370
    25
100
AcDbLine
 10
271.7433528053
 20
56.7099273967
 30
0.0
 11
271.7730412831
 21
56.6951841482
 31
0.0
  0
LINE
  5
19C
330
1F
100
AcDbEntity
  8
0
  6
Continuous
 62
     7
370
    25
100
AcDbLine
 10
249.5669790393
 20
95.1200673509
 30
0.0
 11
249.5634555053
 21
95.0639812176
 31
0.0
  0
ARC
  5
19D
330
1F
100
AcDbEntity
  8
0
  6
Continuous
 62
     7
370
    25
100
AcDbCircle
 10
279.0554237485
 20
58.9685420292
 30
0.0
 40
2.312621671759205
100
AcDbArc
 50
293.5501408888
 51
7.8384446711
  0
ARC
  5
19E
330
1F
100
AcDbEntity
  8
0
  6
Continuous
 62
     7
370
    25
100
AcDbCircle
 10
255.1793850691
 20
100.3237989116
 30
0.0
 40
2.312284429837198
100
AcDbArc
 50
52.1655053644
 51
126.4484828933
  0
LWPOLYLINE
  5
19F
330
1F
100
AcDbEntity
  8
0
  6
Continuous
 62
     7
370
    25
100
AcDbPolyline
 90
       14
 70
   128
 43
0.0
 10
256.0673701376
 20
86.7390778991
 10
255.6412086176
 20
86.9553281986
 10
255.2212614923
 20
87.1088900632
 10
254.8136525362
 20
87.197524215
 10
254.424325606
 20
87.2199381686
 10
254.0589579648
 20
87.175805078
 10
253.7228774956
 20
87.0657685031
 10
253.4209850085
 20
86.8914330249
 10
253.1576827757
 20
86.6553408472
 10
252.9368103367
 20
86.3609347257
 10
252.761588509
 20
86.0125077645
 10
252.6345724214
 20
85.6151408134
 10
252.5576142545
 20
85.1746283772
 10
252.5318362317
 20
84.6973941192
  0
LWPOLYLINE
  5
1A0
330
1F
100
AcDbEntity
  8
0
  6
Continuous
 62
     7
370
    25
100
AcDbPolyline
 90
       14
 70
   128
 43
0.0
 10
264.1990981212
 20
64.4891038006
 10
264.6252596412
 20
64.2728535011
 10
265.0452067665
 20
64.1192916365
 10
265.4528157226
 20
64.0306574847
 10
265.8421426529
 20
64.0082435311
 10
266.2075102941
 20
64.0523766217
 10
266.5435907632
 20
64.1624131966
 10
266.8454832503
 20
64.3367486748
 10
267.1087854831
 20
64.5728408525
 10
267.3296579221
 20
64.867246974
 10
267.5048797498
 20
65.2156739352
 10
267.6318958374
 20
65.6130408863
 10
267.7088540043
 20
66.0535533225
 10
267.7346320272
 20
66.5307875805
  0
LINE
  5
1A1
330
1F
100
AcDbEntity
  8
0
  6
Continuous
 62
     7
370
    25
100
AcDbLine
 10
266.6739718554
 20
67.1430936643
 30
0.0
 11
266.6739718554
 21
76.533313001
 31
0.0
  0
ARC
  5
1A2
330
1F
100
AcDbEntity
  8
0
  6
Continuous
 62
     7
370
    25
100
AcDbCircle
 10
261.3215446158
 20
76.3008257134
 30
0.0
 40
5.357474003068452
100
AcDbArc
 50
2.487128189
 51
57.5128719567
  0
LINE
  5
1A3
330
1F
100
AcDbEntity
  8
0
  6
Continuous
 62
     7
370
    25
100
AcDbLine
 10
264.1990981212
 20
80.8199200383
 30
0.0
 11
256.0673701376
 21
85.5142666813
 31
0.0
  0
ARC
  5
1A4
330
1F
100
AcDbEntity
  8
0
  6
Continuous
 62
     7
370
    25
100
AcDbCircle
 10
255.1082012324
 20
84.3178075292
 30
0.0
 40
1.53346649500739
100
AcDbArc
 50
51.2817934449
 51
188.7289583099
  0
LINE
  5
1A5
330
1F
100
AcDbEntity
  8
0
  6
Continuous
 62
     7
370
    25
100
AcDbLine
 10
253.5924964034
 20
84.0850880354
 30
0.0
 11
253.5924964034
 21
74.6948686987
 31
0.0
  0
ARC
  5
1A6
330
1F
100
AcDbEntity
  8
0
  6
Continuous
 62
     7
370
    25
100
AcDbCircle
 10
258.944923643
 20
74.9273559863
 30
0.0
 40
5.357474003068489
100
AcDbArc
 50
182.487128189
 51
237.5128719567
  0
LINE
  5
1A7
330
1F
100
AcDbEntity
  8
0
  6
Continuous
 62
     7
370
    25
100
AcDbLine
 10
256.0673701376
 20
70.4082616614
 30
0.0
 11
264.1990981212
 21
65.7139150184
 31
0.0
  0
ARC
  5
1A8
330
1F
100
AcDbEntity
  8
0
  6
Continuous
 62
     7
370
    25
100
AcDbCircle
 10
265.1582670264
 20
66.9103741705
 30
0.0
 40
1.533466495007438
100
AcDbArc
 50
231.2817934449
 51
8.7289583099
  0
LINE
  5
1A9
330
1F
100
AcDbEntity
  8
0
  6
Continuous
 62
     1
370
    25
100
AcDbLine
 10
278.1644570497
 20
90.0467482751
 30
0.0
 11
277.8635531861
 21
89.8730401721
 31
0.0
  0
LINE
  5
1AA
330
1F
100
AcDbEntity
  8
0
  6
Continuous
 62
     1
370
    25
100
AcDbLine
 10
281.646957947
 20
84.0148798012
 30
0.0
 11
281.3460457782
 21
83.8411669037
 31
0.0
  0
LINE
  5
1AB
330
1F
100
AcDbEntity
  8
0
  6
Continuous
 62
     1
370
    25
100
AcDbLine
 10
281.646957947
 20
59.5186554446
 30
0.0
 11
281.346437565
 21
59.3451687208
 31
0.0
  0
LINE
  5
1AC
330
1F
100
AcDbEntity
  8
0
  6
Continuous
 62
     1
370
    25
100
AcDbLine
 10
256.9512536141
 20
102.2928699524
 30
0.0
 11
256.6507418521
 21
102.1193882049
 31
0.0
  0
LWPOLYLINE
  5
1AD
330
1F
100
AcDbEntity
  8
0
  6
Continuous
 62
     1
370
    25
100
AcDbPolyline
 90
        6
 70
   128
 43
0.0
 10
279.0428637751
 20
58.352784733
 10
278.8631836702
 20
57.6069147085
 10
278.5953772629
 20
56.9935636614
 10
278.2545024162
 20
56.5247451164
 10
277.8574452703
 20
56.2065966808
 10
277.5561492149
 20
56.0926124649
  0
LWPOLYLINE
  5
1AE
330
1F
100
AcDbEntity
  8
0
  6
Continuous
 62
     1
370
    25
100
AcDbPolyline
 90
       10
 70
   128
 43
0.0
 10
267.8368856216
 20
62.2709751007
 10
268.3116380422
 20
61.2823131674
 10
268.8177443592
 20
60.3074777442
 10
269.3193183354
 20
59.4245689142
 10
269.7263348539
 20
58.7783918945
 10
270.1677193099
 20
58.1583161202
 10
270.6533957033
 20
57.584698744
 10
271.1650895746
 20
57.1051709984
 10
271.6926385138
 20
56.7351120294
 10
271.7433528053
 20
56.7099273967
  0
LWPOLYLINE
  5
1AF
330
1F
100
AcDbEntity
  8
0
  6
Continuous
 62
     1
370
    25
100
AcDbPolyline
 90
        9
 70
   128
 43
0.0
 10
249.5634555053
 20
95.0639812176
 10
249.620125811
 20
94.4221427748
 10
249.7795275194
 20
93.739298883
 10
250.0334254712
 20
93.0319359209
 10
250.3497091993
 20
92.339691909
 10
250.7057863951
 20
91.6641518484
 10
251.2196003893
 20
90.7883571331
 10
251.8107635197
 20
89.8626661946
 10
252.4295826372
 20
88.957206599
  0
ARC
  5
1B0
330
1F
100
AcDbEntity
  8
0
  6
Continuous
 62
     1
370
    25
100
AcDbCircle
 10
253.4151263096
 20
98.3856880714
 30
0.0
 40
2.548441357101462
100
AcDbArc
 50
61.2878055313
 51
125.3938197934
  0
LWPOLYLINE
  5
1B1
330
1F
100
AcDbEntity
  8
0
  6
Continuous
 62
     1
370
    25
100
AcDbPolyline
 90
       10
 70
   128
 43
0.0
 10
252.4295826372
 20
71.16542179
 10
251.9941437886
 20
70.7022021442
 10
251.6279628441
 20
70.2309273889
 10
251.3704667173
 20
69.7862203994
 10
251.2467392624
 20
69.4464353538
 10
251.2015506094
 20
69.1072522563
 10
251.2527705996
 20
68.7844412231
 10
251.4013119691
 20
68.5145569545
 10
251.6269259027
 20
68.3188013541
 10
251.6532938124
 20
68.3076715885
  0
LWPOLYLINE
  5
1B2
330
1F
100
AcDbEntity
  8
0
  6
Continuous
 62
     1
370
    25
100
AcDbPolyline
 90
       10
 70
   128
 43
0.0
 10
249.5669790393
 20
71.9210178537
 10
249.5634555053
 20
71.8928369117
 10
249.620125811
 20
71.599661869
 10
249.7795275194
 20
71.3361730826
 10
250.0334254712
 20
71.1305043393
 10
250.3497091993
 20
71.0001369944
 10
250.7057863951
 20
70.9374804848
 10
251.2196003874
 20
70.9382319109
 10
251.8107634819
 20
71.0198261753
 10
252.4295826372
 20
71.16542179
  0
LINE
  5
1B3
330
1F
100
AcDbEntity
  8
0
  6
Continuous
 62
     7
370
    25
100
AcDbLine
 10
224.5380812199
 20
100.1902834714
 30
0.0
 11
223.1079838322
 21
99.2197760568
 31
0.0
  0
ARC
  5
1B4
330
1F
100
AcDbEntity
  8
0
  6
Continuous
 62
     7
370
    25
100
AcDbCircle
 10
223.1079838322
 20
99.2197760568
 30
0.0
 40
1.728312234586156
100
AcDbArc
 50
214.1620039605
 51
34.1620039605
  0
LINE
  5
1B5
330
1F
100
AcDbEntity
  8
0
  6
Continuous
 62
     7
370
    25
100
AcDbLine
 10
221.6778864444
 20
98.2492686422
 30
0.0
 11
223.1079838322
 21
99.2197760568
 31
0.0
  0
ARC
  5
1B6
330
1F
100
AcDbEntity
  8
0
  6
Continuous
 62
     7
370
    25
100
AcDbCircle
 10
223.1079838322
 20
99.2197760568
 30
0.0
 40
1.728312234586156
100
AcDbArc
 50
34.1620039605
 51
214.1620039605
  0
LINE
  5
1B7
330
1F
100
AcDbEntity
  8
0
  6
Continuous
 62
     7
370
    25
100
AcDbLine
 10
224.5560268295
 20
100.2024619058
 30
0.0
 11
224.5380812199
 21
100.1902834714
 31
0.0
  0
LINE
  5
1B8
330
1F
100
AcDbEntity
  8
0
  6
Continuous
 62
     7
370
    25
100
AcDbLine
 10
221.6599408348
 20
98.2370902078
 30
0.0
 11
221.6778864444
 21
98.2492686422
 31
0.0
  0
ARC
  5
1B9
330
1F
100
AcDbEntity
  8
0
  6
Continuous
 62
     7
370
    25
100
AcDbCircle
 10
223.1079838322
 20
99.2197760568
 30
0.0
 40
1.750000000000017
100
AcDbArc
 50
34.1620039605
 51
214.1620039605
  0
ARC
  5
1BA
330
1F
100
AcDbEntity
  8
0
  6
Continuous
 62
     7
370
    25
100
AcDbCircle
 10
223.1079838322
 20
99.2197760568
 30
0.0
 40
1.750000000000017
100
AcDbArc
 50
214.1620039605
 51
34.1620039605
  0
ARC
  5
1BB
330
1F
100
AcDbEntity
  8
0
  6
Continuous
 62
     7
370
    25
100
AcDbCircle
 10
223.1079838322
 20
99.2197760568
 30
0.0
 40
3.449999999999997
100
AcDbArc
 50
214.1620039605
 51
256.7593322773
  0
LWPOLYLINE
  5
1BC
330
1F
100
AcDbEntity
  8
0
  6
Continuous
 62
     7
370
    25
100
AcDbPolyline
 90
        3
 70
   128
 43
0.0
 10
226.4666334527
 20
100.0084285321
 10
226.3031011048
 20
100.5212081965
 10
225.9626971698
 20
101.1570710163
  0
ARC
  5
1BD
330
1F
100
AcDbEntity
  8
0
  6
Continuous
 62
     7
370
    25
100
AcDbCircle
 10
223.1079838322
 20
99.2197760568
 30
0.0
 40
3.450000000000013
100
AcDbArc
 50
34.1620039605
 51
81.3132754938
  0
ARC
  5
1BE
330
1F
100
AcDbEntity
  8
0
  6
Continuous
 62
     7
370
    25
100
AcDbCircle
 10
223.1079838322
 20
99.2197760568
 30
0.0
 40
3.450000000000014
100
AcDbArc
 50
188.6604197299
 51
214.1620039605
  0
LINE
  5
1BF
330
1F
100
AcDbEntity
  8
0
  6
Continuous
 62
     7
370
    25
100
AcDbLine
 10
172.2051159375
 20
100.9480859119
 30
0.0
 11
172.2079838322
 21
99.2197760568
 31
0.0
  0
ARC
  5
1C0
330
1F
100
AcDbEntity
  8
0
  6
Continuous
 62
     7
370
    25
100
AcDbCircle
 10
172.2079838322
 20
99.2197760568
 30
0.0
 40
1.728312234586158
100
AcDbArc
 50
270.0950744502
 51
90.0950744502
  0
LINE
  5
1C1
330
1F
100
AcDbEntity
  8
0
  6
Continuous
 62
     7
370
    25
100
AcDbLine
 10
172.2108517268
 20
97.4914662016
 30
0.0
 11
172.2079838322
 21
99.2197760568
 31
0.0
  0
ARC
  5
1C2
330
1F
100
AcDbEntity
  8
0
  6
Continuous
 62
     7
370
    25
100
AcDbCircle
 10
172.2079838322
 20
99.2197760568
 30
0.0
 40
1.728312234586158
100
AcDbArc
 50
90.0950744502
 51
270.0950744502
  0
LINE
  5
1C3
330
1F
100
AcDbEntity
  8
0
  6
Continuous
 62
     7
370
    25
100
AcDbLine
 10
172.2050799497
 20
100.9697736475
 30
0.0
 11
172.2051159375
 21
100.9480859119
 31
0.0
  0
ARC
  5
1C4
330
1F
100
AcDbEntity
  8
0
  6
Continuous
 62
     7
370
    25
100
AcDbCircle
 10
172.2079838322
 20
99.2197760568
 30
0.0
 40
1.750000000000014
100
AcDbArc
 50
270.0950744502
 51
90.0950744502
  0
LINE
  5
1C5
330
1F
100
AcDbEntity
  8
0
  6
Continuous
 62
     7
370
    25
100
AcDbLine
 10
172.2108877147
 20
97.4697784661
 30
0.0
 11
172.2108517268
 21
97.4914662016
 31
0.0
  0
ARC
  5
1C6
330
1F
100
AcDbEntity
  8
0
  6
Continuous
 62
     7
370
    25
100
AcDbCircle
 10
172.2079838322
 20
99.2197760568
 30
0.0
 40
1.750000000000014
100
AcDbArc
 50
90.0950744502
 51
270.0950744502
  0
ARC
  5
1C7
330
1F
100
AcDbEntity
  8
0
  6
Continuous
 62
     7
370
    25
100
AcDbCircle
 10
172.2079838322
 20
99.2197760568
 30
0.0
 40
3.449999999999992
100
AcDbArc
 50
98.6867245062
 51
166.7856370536
  0
ARC
  5
1C8
330
1F
100
AcDbEntity
  8
0
  6
Continuous
 62
     7
370
    25
100
AcDbCircle
 10
172.2079838322
 20
99.2197760568
 30
0.0
 40
3.450000000000029
100
AcDbArc
 50
283.2406677227
 51
351.3395802701
  0
LINE
  5
1C9
330
1F
100
AcDbEntity
  8
0
  6
Continuous
 62
     7
370
    25
100
AcDbLine
 10
171.3478812004
 20
151.6422451397
 30
0.0
 11
172.2079838322
 21
150.1431498649
 31
0.0
  0
ARC
  5
1CA
330
1F
100
AcDbEntity
  8
0
  6
Continuous
 62
     7
370
    25
100
AcDbCircle
 10
172.2079838322
 20
150.1431498649
 30
0.0
 40
1.728312234586173
100
AcDbArc
 50
299.8449542657
 51
119.8449542657
  0
LINE
  5
1CB
330
1F
100
AcDbEntity
  8
0
  6
Continuous
 62
     7
370
    25
100
AcDbLine
 10
173.068086464
 20
148.6440545901
 30
0.0
 11
172.2079838322
 21
150.1431498649
 31
0.0
  0
ARC
  5
1CC
330
1F
100
AcDbEntity
  8
0
  6
Continuous
 62
     7
370
    25
100
AcDbCircle
 10
172.2079838322
 20
150.1431498649
 30
0.0
 40
1.728312234586173
100
AcDbArc
 50
119.8449542657
 51
299.8449542657
  0
LINE
  5
1CD
330
1F
100
AcDbEntity
  8
0
  6
Continuous
 62
     7
370
    25
100
AcDbLine
 10
171.3370881829
 20
151.6610565709
 30
0.0
 11
171.3478812004
 21
151.6422451397
 31
0.0
  0
ARC
  5
1CE
330
1F
100
AcDbEntity
  8
0
  6
Continuous
 62
     7
370
    25
100
AcDbCircle
 10
172.2079838322
 20
150.1431498649
 30
0.0
 40
1.75000000000002
100
AcDbArc
 50
299.8449542657
 51
119.8449542657
  0
LINE
  5
1CF
330
1F
100
AcDbEntity
  8
0
  6
Continuous
 62
     7
370
    25
100
AcDbLine
 10
173.0788794814
 20
148.6252431589
 30
0.0
 11
173.068086464
 21
148.6440545901
 31
0.0
  0
ARC
  5
1D0
330
1F
100
AcDbEntity
  8
0
  6
Continuous
 62
     7
370
    25
100
AcDbCircle
 10
172.2079838322
 20
150.1431498649
 30
0.0
 40
1.75000000000002
100
AcDbArc
 50
119.8449542657
 51
299.8449542657
  0
ARC
  5
1D1
330
1F
100
AcDbEntity
  8
0
  6
Continuous
 62
     7
370
    25
100
AcDbCircle
 10
172.2079838322
 20
150.1431498649
 30
0.0
 40
3.450000000000016
100
AcDbArc
 50
8.6604197299
 51
76.7593322773
  0
ARC
  5
1D2
330
1F
100
AcDbEntity
  8
0
  6
Continuous
 62
     7
370
    25
100
AcDbCircle
 10
172.2079838322
 20
150.1431498649
 30
0.0
 40
3.450000000000001
100
AcDbArc
 50
193.2143629465
 51
261.3132754938
  0
LINE
  5
1D3
330
1F
100
AcDbEntity
  8
0
  6
Continuous
 62
     7
370
    25
100
AcDbLine
 10
224.6922188561
 20
150.8339917927
 30
0.0
 11
223.1079838322
 21
150.1431498649
 31
0.0
  0
LINE
  5
1D4
330
1F
100
AcDbEntity
  8
0
  6
Continuous
 62
     7
370
    25
100
AcDbLine
 10
221.5237488082
 20
149.4523079371
 30
0.0
 11
223.1079838322
 21
150.1431498649
 31
0.0
  0
ARC
  5
1D5
330
1F
100
AcDbEntity
  8
0
  6
Continuous
 62
     7
370
    25
100
AcDbCircle
 10
223.1079838322
 20
150.1431498649
 30
0.0
 40
1.728312234586158
100
AcDbArc
 50
23.5607102644
 51
203.5607102644
  0
ARC
  5
1D6
330
1F
100
AcDbEntity
  8
0
  6
Continuous
 62
     7
370
    25
100
AcDbCircle
 10
223.1079838322
 20
150.1431498649
 30
0.0
 40
1.728312234586158
100
AcDbArc
 50
203.5607102644
 51
23.5607102644
  0
LINE
  5
1D7
330
1F
100
AcDbEntity
  8
0
  6
Continuous
 62
     7
370
    25
100
AcDbLine
 10
224.7120986653
 20
150.8426608383
 30
0.0
 11
224.6922188561
 21
150.8339917927
 31
0.0
  0
ARC
  5
1D8
330
1F
100
AcDbEntity
  8
0
  6
Continuous
 62
     7
370
    25
100
AcDbCircle
 10
223.1079838322
 20
150.1431498649
 30
0.0
 40
1.750000000000014
100
AcDbArc
 50
203.5607102644
 51
23.5607102644
  0
LINE
  5
1D9
330
1F
100
AcDbEntity
  8
0
  6
Continuous
 62
     7
370
    25
100
AcDbLine
 10
221.503868999
 20
149.4436388915
 30
0.0
 11
221.5237488082
 21
149.4523079371
 31
0.0
  0
ARC
  5
1DA
330
1F
100
AcDbEntity
  8
0
  6
Continuous
 62
     7
370
    25
100
AcDbCircle
 10
223.1079838322
 20
150.1431498649
 30
0.0
 40
1.750000000000014
100
AcDbArc
 50
23.5607102644
 51
203.5607102644
  0
ARC
  5
1DB
330
1F
100
AcDbEntity
  8
0
  6
Continuous
 62
     7
370
    25
100
AcDbCircle
 10
223.1079838322
 20
150.1431498649
 30
0.0
 40
3.450000000000029
100
AcDbArc
 50
103.2406677227
 51
171.3395802701
  0
ARC
  5
1DC
330
1F
100
AcDbEntity
  8
0
  6
Continuous
 62
     7
370
    25
100
AcDbCircle
 10
223.1079838322
 20
150.1431498649
 30
0.0
 40
3.450000000000004
100
AcDbArc
 50
278.6867245062
 51
346.7856370536
  0
ARC
  5
1DD
330
1F
100
AcDbEntity
  8
0
  6
Continuous
 62
     7
370
    25
100
AcDbCircle
 10
225.2355837845
 20
101.5411090121
 30
0.0
 40
1.930158461016506
100
AcDbArc
 50
320.0
 51
140.0
  0
ARC
  5
1DE
330
1F
100
AcDbEntity
  8
0
  6
Continuous
 62
     7
370
    25
100
AcDbCircle
 10
197.6579838322
 20
124.6814629608
 30
0.0
 40
34.06984153898349
100
AcDbArc
 50
310.0
 51
320.0
  0
ARC
  5
1DF
330
1F
100
AcDbEntity
  8
0
  6
Continuous
 62
     7
370
    25
100
AcDbCircle
 10
220.7983377809
 20
97.1038630086
 30
0.0
 40
1.930158461016504
100
AcDbArc
 50
130.0
 51
180.0
  0
ARC
  5
1E0
330
1F
100
AcDbEntity
  8
0
  6
Continuous
 62
     7
370
    25
100
AcDbCircle
 10
220.7983377809
 20
97.1038630086
 30
0.0
 40
1.930158461016518
100
AcDbArc
 50
180.0
 51
310.0
  0
ARC
  5
1E1
330
1F
100
AcDbEntity
  8
0
  6
Continuous
 62
     7
370
    25
100
AcDbCircle
 10
197.6579838322
 20
124.6814629608
 30
0.0
 40
37.9301584610165
100
AcDbArc
 50
310.0
 51
320.0
  0
ARC
  5
1E2
330
1F
100
AcDbEntity
  8
0
  6
Continuous
 62
     7
370
    25
100
AcDbCircle
 10
170.0803838799
 20
147.8218169096
 30
0.0
 40
1.930158461016475
100
AcDbArc
 50
140.0
 51
180.0
  0
ARC
  5
1E3
330
1F
100
AcDbEntity
  8
0
  6
Continuous
 62
     7
370
    25
100
AcDbCircle
 10
170.0803838799
 20
147.8218169096
 30
0.0
 40
1.930158461016558
100
AcDbArc
 50
180.0
 51
320.0
  0
ARC
  5
1E4
330
1F
100
AcDbEntity
  8
0
  6
Continuous
 62
     7
370
    25
100
AcDbCircle
 10
197.6579838322
 20
124.6814629608
 30
0.0
 40
34.06984153898348
100
AcDbArc
 50
130.0
 51
140.0
  0
ARC
  5
1E5
330
1F
100
AcDbEntity
  8
0
  6
Continuous
 62
     7
370
    25
100
AcDbCircle
 10
174.5176298835
 20
152.2590629131
 30
0.0
 40
1.930158461016518
100
AcDbArc
 50
310.0
 51
130.0
  0
ARC
  5
1E6
330
1F
100
AcDbEntity
  8
0
  6
Continuous
 62
     7
370
    25
100
AcDbCircle
 10
197.6579838322
 20
124.6814629608
 30
0.0
 40
37.93015846101652
100
AcDbArc
 50
130.0
 51
140.0
  0
ARC
  5
1E7
330
1F
100
AcDbEntity
  8
0
  6
Continuous
 62
     7
370
    25
100
AcDbCircle
 10
170.0803838799
 20
101.5411090121
 30
0.0
 40
1.930158461016506
100
AcDbArc
 50
40.0
 51
220.0
  0
ARC
  5
1E8
330
1F
100
AcDbEntity
  8
0
  6
Continuous
 62
     7
370
    25
100
AcDbCircle
 10
197.6579838322
 20
124.6814629608
 30
0.0
 40
37.93015846101652
100
AcDbArc
 50
220.0
 51
230.0
  0
ARC
  5
1E9
330
1F
100
AcDbEntity
  8
0
  6
Continuous
 62
     7
370
    25
100
AcDbCircle
 10
174.5176298835
 20
97.1038630086
 30
0.0
 40
1.930158461016518
100
AcDbArc
 50
230.0
 51
0.0
  0
ARC
  5
1EA
330
1F
100
AcDbEntity
  8
0
  6
Continuous
 62
     7
370
    25
100
AcDbCircle
 10
174.5176298835
 20
97.1038630086
 30
0.0
 40
1.930158461016515
100
AcDbArc
 50
0.0
 51
50.0
  0
ARC
  5
1EB
330
1F
100
AcDbEntity
  8
0
  6
Continuous
 62
     7
370
    25
100
AcDbCircle
 10
197.6579838322
 20
124.6814629608
 30
0.0
 40
34.06984153898351
100
AcDbArc
 50
220.0
 51
230.0
  0
ARC
  5
1EC
330
1F
100
AcDbEntity
  8
0
  6
Continuous
 62
     7
370
    25
100
AcDbCircle
 10
225.2355837845
 20
147.8218169096
 30
0.0
 40
1.930158461016558
100
AcDbArc
 50
220.0
 51
0.0
  0
ARC
  5
1ED
330
1F
100
AcDbEntity
  8
0
  6
Continuous
 62
     7
370
    25
100
AcDbCircle
 10
225.2355837845
 20
147.8218169096
 30
0.0
 40
1.930158461016533
100
AcDbArc
 50
0.0
 51
40.0
  0
ARC
  5
1EE
330
1F
100
AcDbEntity
  8
0
  6
Continuous
 62
     7
370
    25
100
AcDbCircle
 10
197.6579838322
 20
124.6814629608
 30
0.0
 40
37.93015846101652
100
AcDbArc
 50
40.0
 51
50.0
  0
ARC
  5
1EF
330
1F
100
AcDbEntity
  8
0
  6
Continuous
 62
     7
370
    25
100
AcDbCircle
 10
220.7983377809
 20
152.2590629131
 30
0.0
 40
1.930158461016518
100
AcDbArc
 50
50.0
 51
230.0
  0
ARC
  5
1F0
330
1F
100
AcDbEntity
  8
0
  6
Continuous
 62
     7
370
    25
100
AcDbCircle
 10
197.6579838322
 20
124.6814629608
 30
0.0
 40
34.06984153898348
100
AcDbArc
 50
40.0
 51
50.0
  0
ARC
  5
1F1
330
1F
100
AcDbEntity
  8
0
  6
Continuous
 62
     7
370
    25
100
AcDbCircle
 10
167.6579838322
 20
94.6814629608
 30
0.0
 40
9.849999999999994
100
AcDbArc
 50
180.0
 51
270.0
  0
LINE
  5
1F2
330
1F
100
AcDbEntity
  8
0
  6
Continuous
 62
     7
370
    25
100
AcDbLine
 10
157.8079838322
 20
94.6814629608
 30
0.0
 11
157.8079838322
 21
154.6814629608
 31
0.0
  0
ARC
  5
1F3
330
1F
100
AcDbEntity
  8
0
  6
Continuous
 62
     7
370
    25
100
AcDbCircle
 10
167.6579838322
 20
154.6814629608
 30
0.0
 40
9.849999999999994
100
AcDbArc
 50
90.0
 51
180.0
  0
LINE
  5
1F4
330
1F
100
AcDbEntity
  8
0
  6
Continuous
 62
     7
370
    25
100
AcDbLine
 10
167.6579838322
 20
164.5314629608
 30
0.0
 11
227.6579838322
 21
164.5314629608
 31
0.0
  0
ARC
  5
1F5
330
1F
100
AcDbEntity
  8
0
  6
Continuous
 62
     7
370
    25
100
AcDbCircle
 10
227.6579838322
 20
154.6814629608
 30
0.0
 40
9.850000000000023
100
AcDbArc
 50
0.0
 51
90.0
  0
LINE
  5
1F6
330
1F
100
AcDbEntity
  8
0
  6
Continuous
 62
     7
370
    25
100
AcDbLine
 10
237.5079838322
 20
154.6814629608
 30
0.0
 11
237.5079838322
 21
94.6814629608
 31
0.0
  0
LINE
  5
1F7
330
1F
100
AcDbEntity
  8
0
  6
Continuous
 62
     7
370
    25
100
AcDbLine
 10
227.6579838322
 20
84.8314629608
 30
0.0
 11
167.6579838322
 21
84.8314629608
 31
0.0
  0
ARC
  5
1F8
330
1F
100
AcDbEntity
  8
0
  6
Continuous
 62
     7
370
    25
100
AcDbCircle
 10
197.6579838322
 20
124.6814629608
 30
0.0
 40
38.50000000000005
100
AcDbArc
 50
130.0
 51
140.0
  0
ARC
  5
1F9
330
1F
100
AcDbEntity
  8
0
  6
Continuous
 62
     7
370
    25
100
AcDbCircle
 10
170.0803838799
 20
147.8218169096
 30
0.0
 40
2.5
100
AcDbArc
 50
140.0
 51
180.0
  0
ARC
  5
1FA
330
1F
100
AcDbEntity
  8
0
  6
Continuous
 62
     7
370
    25
100
AcDbCircle
 10
170.0803838799
 20
147.8218169096
 30
0.0
 40
2.500000000000019
100
AcDbArc
 50
180.0
 51
320.0
  0
ARC
  5
1FB
330
1F
100
AcDbEntity
  8
0
  6
Continuous
 62
     7
370
    25
100
AcDbCircle
 10
197.6579838322
 20
124.6814629608
 30
0.0
 40
33.50000000000009
100
AcDbArc
 50
130.0
 51
140.0
  0
ARC
  5
1FC
330
1F
100
AcDbEntity
  8
0
  6
Continuous
 62
     7
370
    25
100
AcDbCircle
 10
174.5176298835
 20
152.2590629131
 30
0.0
 40
2.500000000000041
100
AcDbArc
 50
310.0
 51
130.0
  0
ARC
  5
1FD
330
1F
100
AcDbEntity
  8
0
  6
Continuous
 62
     7
370
    25
100
AcDbCircle
 10
197.6579838322
 20
124.6814629608
 30
0.0
 40
38.49999999999995
100
AcDbArc
 50
310.0
 51
320.0
  0
ARC
  5
1FE
330
1F
100
AcDbEntity
  8
0
  6
Continuous
 62
     7
370
    25
100
AcDbCircle
 10
225.2355837845
 20
101.5411090121
 30
0.0
 40
2.500000000000094
100
AcDbArc
 50
320.0
 51
140.0
  0
ARC
  5
1FF
330
1F
100
AcDbEntity
  8
0
  6
Continuous
 62
     7
370
    25
100
AcDbCircle
 10
197.6579838322
 20
124.6814629608
 30
0.0
 40
33.49999999999994
100
AcDbArc
 50
310.0
 51
320.0
  0
ARC
  5
200
330
1F
100
AcDbEntity
  8
0
  6
Continuous
 62
     7
370
    25
100
AcDbCircle
 10
220.7983377809
 20
97.1038630086
 30
0.0
 40
2.500000000000081
100
AcDbArc
 50
130.0
 51
180.0
  0
ARC
  5
201
330
1F
100
AcDbEntity
  8
0
  6
Continuous
 62
     7
370
    25
100
AcDbCircle
 10
220.7983377809
 20
97.1038630086
 30
0.0
 40
2.5
100
AcDbArc
 50
180.0
 51
310.0
  0
ARC
  5
202
330
1F
100
AcDbEntity
  8
0
  6
Continuous
 62
     7
370
    25
100
AcDbCircle
 10
197.6579838322
 20
124.6814629608
 30
0.0
 40
33.49999999999925
100
AcDbArc
 50
40.0
 51
50.0
  0
ARC
  5
203
330
1F
100
AcDbEntity
  8
0
  6
Continuous
 62
     7
370
    25
100
AcDbCircle
 10
225.2355837845
 20
147.8218169096
 30
0.0
 40
2.500000000000044
100
AcDbArc
 50
220.0
 51
40.0
  0
ARC
  5
204
330
1F
100
AcDbEntity
  8
0
  6
Continuous
 62
     7
370
    25
100
AcDbCircle
 10
197.6579838322
 20
124.6814629608
 30
0.0
 40
38.49999999999926
100
AcDbArc
 50
40.0
 51
50.0
  0
ARC
  5
205
330
1F
100
AcDbEntity
  8
0
  6
Continuous
 62
     7
370
    25
100
AcDbCircle
 10
220.7983377809
 20
152.2590629131
 30
0.0
 40
2.5
100
AcDbArc
 50
50.0
 51
180.0
  0
ARC
  5
206
330
1F
100
AcDbEntity
  8
0
  6
Continuous
 62
     7
370
    25
100
AcDbCircle
 10
220.7983377809
 20
152.2590629131
 30
0.0
 40
2.500000000000001
100
AcDbArc
 50
180.0
 51
230.0
  0
ARC
  5
207
330
1F
100
AcDbEntity
  8
0
  6
Continuous
 62
     7
370
    25
100
AcDbCircle
 10
197.6579838322
 20
124.6814629608
 30
0.0
 40
33.50000000000081
100
AcDbArc
 50
220.0
 51
230.0
  0
ARC
  5
208
330
1F
100
AcDbEntity
  8
0
  6
Continuous
 62
     7
370
    25
100
AcDbCircle
 10
170.0803838799
 20
101.5411090121
 30
0.0
 40
2.5
100
AcDbArc
 50
40.0
 51
180.0
  0
ARC
  5
209
330
1F
100
AcDbEntity
  8
0
  6
Continuous
 62
     7
370
    25
100
AcDbCircle
 10
170.0803838799
 20
101.5411090121
 30
0.0
 40
2.5
100
AcDbArc
 50
180.0
 51
220.0
  0
ARC
  5
20A
330
1F
100
AcDbEntity
  8
0
  6
Continuous
 62
     7
370
    25
100
AcDbCircle
 10
197.6579838322
 20
124.6814629608
 30
0.0
 40
38.50000000000075
100
AcDbArc
 50
220.0
 51
230.0
  0
ARC
  5
20B
330
1F
100
AcDbEntity
  8
0
  6
Continuous
 62
     7
370
    25
100
AcDbCircle
 10
174.5176298835
 20
97.1038630086
 30
0.0
 40
2.500000000000004
100
AcDbArc
 50
230.0
 51
50.0
  0
ARC
  5
20C
330
1F
100
AcDbEntity
  8
0
  6
Continuous
 62
     7
370
    25
100
AcDbCircle
 10
197.6579838322
 20
95.1814629608
 30
0.0
 40
3.0
100
AcDbArc
 50
0.0
 51
180.0
  0
ARC
  5
20D
330
1F
100
AcDbEntity
  8
0
  6
Continuous
 62
     7
370
    25
100
AcDbCircle
 10
197.6579838322
 20
95.1814629608
 30
0.0
 40
3.0
100
AcDbArc
 50
180.0
 51
0.0
  0
ARC
  5
20E
330
1F
100
AcDbEntity
  8
0
  6
Continuous
 62
     7
370
    25
100
AcDbCircle
 10
227.6579838322
 20
94.6814629608
 30
0.0
 40
9.850000000000023
100
AcDbArc
 50
270.0
 51
0.0
  0
LINE
  5
20F
330
1F
100
AcDbEntity
  8
0
  6
Continuous
 62
     7
370
    25
100
AcDbLine
 10
192.6579838322
 20
84.8314629608
 30
0.0
 11
192.6579838322
 21
84.6814629608
 31
0.0
  0
LINE
  5
210
330
1F
100
AcDbEntity
  8
0
  6
Continuous
 62
     7
370
    25
100
AcDbLine
 10
202.6579838322
 20
84.8314629608
 30
0.0
 11
202.6579838322
 21
84.6814629608
 31
0.0
  0
LINE
  5
211
330
1F
100
AcDbEntity
  8
0
  6
Continuous
 62
     7
370
    25
100
AcDbLine
 10
157.6579838322
 20
94.6814629608
 30
0.0
 11
157.6579838322
 21
154.6814629608
 31
0.0
  0
ARC
  5
212
330
1F
100
AcDbEntity
  8
0
  6
Continuous
 62
     7
370
    25
100
AcDbCircle
 10
167.6579838322
 20
154.6814629608
 30
0.0
 40
10.0
100
AcDbArc
 50
90.0
 51
180.0
  0
ARC
  5
213
330
1F
100
AcDbEntity
  8
0
  6
Continuous
 62
     7
370
    25
100
AcDbCircle
 10
167.6579838322
 20
94.6814629608
 30
0.0
 40
10.0
100
AcDbArc
 50
180.0
 51
270.0
  0
LINE
  5
214
330
1F
100
AcDbEntity
  8
0
  6
Continuous
 62
     7
370
    25
100
AcDbLine
 10
167.6579838322
 20
164.6814629608
 30
0.0
 11
227.6579838322
 21
164.6814629608
 31
0.0
  0
LINE
  5
215
330
1F
100
AcDbEntity
  8
0
  6
Continuous
 62
     7
370
    25
100
AcDbLine
 10
227.6579838322
 20
84.6814629608
 30
0.0
 11
202.6579838322
 21
84.6814629608
 31
0.0
  0
LINE
  5
216
330
1F
100
AcDbEntity
  8
0
  6
Continuous
 62
     7
370
    25
100
AcDbLine
 10
192.6579838322
 20
84.6814629608
 30
0.0
 11
167.6579838322
 21
84.6814629608
 31
0.0
  0
ARC
  5
217
330
1F
100
AcDbEntity
  8
0
  6
Continuous
 62
     7
370
    25
100
AcDbCircle
 10
227.6579838322
 20
154.6814629608
 30
0.0
 40
10.00000000000003
100
AcDbArc
 50
0.0
 51
90.0
  0
LINE
  5
218
330
1F
100
AcDbEntity
  8
0
  6
Continuous
 62
     7
370
    25
100
AcDbLine
 10
237.6579838322
 20
154.6814629608
 30
0.0
 11
237.6579838322
 21
94.6814629608
 31
0.0
  0
ARC
  5
219
330
1F
100
AcDbEntity
  8
0
  6
Continuous
 62
     7
370
    25
100
AcDbCircle
 10
227.6579838322
 20
94.6814629608
 30
0.0
 40
10.00000000000003
100
AcDbArc
 50
270.0
 51
0.0
  0
LINE
  5
21A
330
1F
100
AcDbEntity
  8
0
  6
Continuous
 62
     7
370
    25
100
AcDbLine
 10
202.6579838322
 20
84.6814629608
 30
0.0
 11
202.6282770034
 21
84.8314629608
 31
0.0
  0
LINE
  5
21B
330
1F
100
AcDbEntity
  8
0
  6
Continuous
 62
     7
370
    25
100
AcDbLine
 10
192.6876906609
 20
84.8314629608
 30
0.0
 11
192.6579838322
 21
84.6814629608
 31
0.0
  0
CIRCLE
  5
21C
330
1F
100
AcDbEntity
  8
FORMAT
  6
CENTERX2
 62
     7
370
    18
100
AcDbCircle
 10
197.6579838322
 20
124.6814629608
 30
0.0
 40
36.00000000000008
  0
DIMENSION
  5
21D
330
1F
100
AcDbEntity
  8
FORMAT
 62
     7
100
AcDbDimension
  2
_D_4
 10
233.6579838322
 20
75.554314287
 30
0.0
 11
197.6579838322
 21
75.554314287
 31
0.0
 70
   160
  1
%%c<>
 71
     2
 42
-1.0
  3
SLDDIMSTYLE0
100
AcDbAlignedDimension
 13
161.6579838322
 23
124.6814629608
 33
0.0
 14
233.6579838322
 24
124.6814629608
 34
0.0
100
AcDbRotatedDimension
  0
DIMENSION
  5
228
330
1F
100
AcDbEntity
  8
FORMAT
 62
     7
100
AcDbDimension
  2
_D_5
 10
172.2079838322
 20
170.9060560215
 30
0.0
 11
197.6579838322
 21
170.9060560215
 31
0.0
 70
   160
  1
<>
 71
     2
 42
-1.0
  3
SLDDIMSTYLE0
100
AcDbAlignedDimension
 13
223.1079838322
 23
154.3714620995
 33
0.0
 14
172.2079838322
 24
154.3714620995
 34
0.0
100
AcDbRotatedDimension
  0
DIMENSION
  5
232
330
1F
100
AcDbEntity
  8
FORMAT
 62
     7
100
AcDbDimension
  2
_D_6
 10
151.239375712
 20
99.2197760568
 30
0.0
 11
151.239375712
 21
124.6814629608
 31
0.0
 70
   160
  1
<>
 71
     2
 42
-1.0
  3
SLDDIMSTYLE2
100
AcDbAlignedDimension
 13
167.9796715976
 23
150.1431498649
 33
0.0
 14
167.9796715976
 24
99.2197760568
 34
0.0
 50
90.0
100
AcDbRotatedDimension
  0
INSERT
  5
248
330
1F
100
AcDbEntity
  8
FORMAT
 62
     7
100
AcDbBlockReference
  2
SW_CENTERMARKSYMBOL_0
 10
223.1079838322
 20
150.1431498649
 30
0.0
  0
INSERT
  5
254
330
1F
100
AcDbEntity
  8
FORMAT
 62
     7
100
AcDbBlockReference
  2
SW_CENTERMARKSYMBOL_1
 10
172.2079838322
 20
150.1431498649
 30
0.0
  0
INSERT
  5
260
330
1F
100
AcDbEntity
  8
FORMAT
 62
     7
100
AcDbBlockReference
  2
SW_CENTERMARKSYMBOL_2
 10
172.2079838322
 20
99.2197760568
 30
0.0
  0
INSERT
  5
26C
330
1F
100
AcDbEntity
  8
FORMAT
 62
     7
100
AcDbBlockReference
  2
SW_CENTERMARKSYMBOL_3
 10
223.1079838322
 20
99.2197760568
 30
0.0
  0
LINE
  5
26D
330
1F
100
AcDbEntity
  8
FORMAT
  6
CENTERX2
 62
     7
370
    18
100
AcDbLine
 10
197.6579838322
 20
168.0845463061
 30
0.0
 11
197.6579838322
 21
80.6616100844
 31
0.0
  0
LINE
  5
26E
330
1F
100
AcDbEntity
  8
FORMAT
  6
CENTERX2
 62
     7
370
    18
100
AcDbLine
 10
242.0829472909
 20
124.6814629608
 30
0.0
 11
153.4735916638
 21
124.6814629608
 31
0.0
  0
ENDSEC
  0
SECTION
  2
OBJECTS
  0
DICTIONARY
  5
C
330
0
100
AcDbDictionary
281
     1
  3
ACAD_GROUP
350
D
  3
ACAD_LAYOUT
350
1A
  3
ACAD_MLINESTYLE
350
17
  3
ACAD_PLOTSETTINGS
350
19
  3
ACAD_PLOTSTYLENAME
350
E
  3
ACAD_SCALELIST
350
47
  3
DWGPROPS
350
26F
  0
DICTIONARY
  5
D
102
{ACAD_REACTORS
330
C
102
}
330
C
100
AcDbDictionary
281
     1
  0
DICTIONARY
  5
1A
102
{ACAD_REACTORS
330
C
102
}
330
C
100
AcDbDictionary
281
     1
  3
Layout1
350
1E
  3
Layout2
350
26
  3
Model
350
22
  0
DICTIONARY
  5
17
102
{ACAD_REACTORS
330
C
102
}
330
C
100
AcDbDictionary
281
     1
  3
Standard
350
18
  0
DICTIONARY
  5
19
102
{ACAD_REACTORS
330
C
102
}
330
C
100
AcDbDictionary
281
     1
  0
ACDBDICTIONARYWDFLT
  5
E
102
{ACAD_REACTORS
330
C
102
}
330
C
100
AcDbDictionary
281
     1
  3
Normal
350
F
100
AcDbDictionaryWithDefault
340
F
  0
DICTIONARY
  5
47
102
{ACAD_REACTORS
330
C
102
}
330
C
100
AcDbDictionary
281
     1
  3
A0
350
48
  3
A1
350
49
  3
A2
350
4A
  3
A3
350
4B
  3
A4
350
4C
  3
A5
350
4D
  3
A6
350
4E
  3
A7
350
4F
  3
A8
350
50
  3
A9
350
51
  3
B0
350
52
  3
B1
350
53
  3
B2
350
54
  3
B3
350
55
  3
B4
350
56
  3
B5
350
57
  3
B6
350
58
  3
B7
350
59
  3
B8
350
5A
  3
B9
350
5B
  3
C0
350
5C
  3
C1
350
5D
  3
C2
350
5E
  3
C3
350
5F
  3
C4
350
60
  3
C5
350
61
  3
C6
350
62
  3
C7
350
63
  3
C8
350
64
  3
C9
350
65
  3
D0
350
66
  3
D1
350
67
  3
D2
350
68
  0
XRECORD
  5
26F
102
{ACAD_REACTORS
330
C
102
}
330
C
100
AcDbXrecord
280
     1
  1
DWGPROPS COOKIE
  2

  3

  4

  6

  7

  8
beland
  9

300
=
301
=
302
=
303
=
304
=
305
=
306
=
307
=
308
=
309
=
 40
0.0
 41
2460031.290519479
 42
2460031.290521285
  1

 90
        0
  0
LAYOUT
  5
1E
102
{ACAD_REACTORS
330
1A
102
}
330
1A
100
AcDbPlotSettings
  1

  2
none_device
  4

  6

 40
0.0
 41
0.0
 42
0.0
 43
0.0
 44
0.0
 45
0.0
 46
0.0
 47
0.0
 48
0.0
 49
0.0
140
0.0
141
0.0
142
1.0
143
1.0
 70
   688
 72
     1
 73
     0
 74
     5
  7

 75
    16
147
1.0
148
0.0
149
0.0
100
AcDbLayout
  1
Layout1
 70
     1
 71
     1
 10
0.0
 20
0.0
 11
420.0
 21
297.0
 12
0.0
 22
0.0
 32
0.0
 14
1.0000000000E+20
 24
1.0000000000E+20
 34
1.0000000000E+20
 15
-1.0000000000E+20
 25
-1.0000000000E+20
 35
-1.0000000000E+20
146
0.0
 13
0.0
 23
0.0
 33
0.0
 16
1.0
 26
0.0
 36
0.0
 17
0.0
 27
1.0
 37
0.0
 76
     0
330
1B
  0
LAYOUT
  5
26
102
{ACAD_REACTORS
330
1A
102
}
330
1A
100
AcDbPlotSettings
  1

  2
none_device
  4

  6

 40
0.0
 41
0.0
 42
0.0
 43
0.0
 44
0.0
 45
0.0
 46
0.0
 47
0.0
 48
0.0
 49
0.0
140
0.0
141
0.0
142
1.0
143
1.0
 70
   688
 72
     1
 73
     0
 74
     5
  7

 75
    16
147
1.0
148
0.0
149
0.0
100
AcDbLayout
  1
Layout2
 70
     1
 71
     2
 10
0.0
 20
0.0
 11
0.0
 21
0.0
 12
0.0
 22
0.0
 32
0.0
 14
0.0
 24
0.0
 34
0.0
 15
0.0
 25
0.0
 35
0.0
146
0.0
 13
0.0
 23
0.0
 33
0.0
 16
1.0
 26
0.0
 36
0.0
 17
0.0
 27
1.0
 37
0.0
 76
     0
330
23
  0
LAYOUT
  5
22
102
{ACAD_REACTORS
330
1A
102
}
330
1A
100
AcDbPlotSettings
  1

  2
none_device
  4
Letter_(8.50_x_11.00_Inches)
  6

 40
6.35
 41
6.35
 42
6.35000508
 43
6.35000508
 44
215.9
 45
279.4
 46
0.0
 47
0.0
 48
0.0
 49
0.0
140
0.0
141
0.0
142
1.0
143
1.0
 70
  1712
 72
     1
 73
     0
 74
     0
  7

 75
     0
147
1.0
148
0.0
149
0.0
100
AcDbLayout
  1
Model
 70
     1
 71
     0
 10
0.0
 20
0.0
 11
297.0
 21
210.0
 12
0.0
 22
0.0
 32
0.0
 14
0.0
 24
0.0
 34
0.0
 15
297.0
 25
210.0
 35
0.0
146
0.0
 13
0.0
 23
0.0
 33
0.0
 16
1.0
 26
0.0
 36
0.0
 17
0.0
 27
1.0
 37
0.0
 76
     0
330
1F
331
29
  0
MLINESTYLE
  5
18
102
{ACAD_REACTORS
330
17
102
}
330
17
100
AcDbMlineStyle
  2
Standard
 70
     0
  3

 62
   256
 51
90.0
 52
90.0
 71
     2
 49
0.5
 62
   256
  6
BYLAYER
 49
-0.5
 62
   256
  6
BYLAYER
  0
ACDBPLACEHOLDER
  5
F
102
{ACAD_REACTORS
330
E
102
}
330
E
  0
SCALE
  5
48
102
{ACAD_REACTORS
330
47
102
}
330
47
100
AcDbScale
 70
     0
300
1:1
140
1.0
141
1.0
290
     1
  0
SCALE
  5
49
102
{ACAD_REACTORS
330
47
102
}
330
47
100
AcDbScale
 70
     0
300
1:2
140
1.0
141
2.0
290
     0
  0
SCALE
  5
4A
102
{ACAD_REACTORS
330
47
102
}
330
47
100
AcDbScale
 70
     0
300
1:4
140
1.0
141
4.0
290
     0
  0
SCALE
  5
4B
102
{ACAD_REACTORS
330
47
102
}
330
47
100
AcDbScale
 70
     0
300
1:5
140
1.0
141
5.0
290
     0
  0
SCALE
  5
4C
102
{ACAD_REACTORS
330
47
102
}
330
47
100
AcDbScale
 70
     0
300
1:8
140
1.0
141
8.0
290
     0
  0
SCALE
  5
4D
102
{ACAD_REACTORS
330
47
102
}
330
47
100
AcDbScale
 70
     0
300
1:10
140
1.0
141
10.0
290
     0
  0
SCALE
  5
4E
102
{ACAD_REACTORS
330
47
102
}
330
47
100
AcDbScale
 70
     0
300
1:16
140
1.0
141
16.0
290
     0
  0
SCALE
  5
4F
102
{ACAD_REACTORS
330
47
102
}
330
47
100
AcDbScale
 70
     0
300
1:20
140
1.0
141
20.0
290
     0
  0
SCALE
  5
50
102
{ACAD_REACTORS
330
47
102
}
330
47
100
AcDbScale
 70
     0
300
1:30
140
1.0
141
30.0
290
     0
  0
SCALE
  5
51
102
{ACAD_REACTORS
330
47
102
}
330
47
100
AcDbScale
 70
     0
300
1:40
140
1.0
141
40.0
290
     0
  0
SCALE
  5
52
102
{ACAD_REACTORS
330
47
102
}
330
47
100
AcDbScale
 70
     0
300
1:50
140
1.0
141
50.0
290
     0
  0
SCALE
  5
53
102
{ACAD_REACTORS
330
47
102
}
330
47
100
AcDbScale
 70
     0
300
1:100
140
1.0
141
100.0
290
     0
  0
SCALE
  5
54
102
{ACAD_REACTORS
330
47
102
}
330
47
100
AcDbScale
 70
     0
300
2:1
140
2.0
141
1.0
290
     0
  0
SCALE
  5
55
102
{ACAD_REACTORS
330
47
102
}
330
47
100
AcDbScale
 70
     0
300
4:1
140
4.0
141
1.0
290
     0
  0
SCALE
  5
56
102
{ACAD_REACTORS
330
47
102
}
330
47
100
AcDbScale
 70
     0
300
8:1
140
8.0
141
1.0
290
     0
  0
SCALE
  5
57
102
{ACAD_REACTORS
330
47
102
}
330
47
100
AcDbScale
 70
     0
300
10:1
140
10.0
141
1.0
290
     0
  0
SCALE
  5
58
102
{ACAD_REACTORS
330
47
102
}
330
47
100
AcDbScale
 70
     0
300
100:1
140
100.0
141
1.0
290
     0
  0
SCALE
  5
59
102
{ACAD_REACTORS
330
47
102
}
330
47
100
AcDbScale
 70
     0
300
1/128" = 1'-0"
140
0.0078125
141
12.0
290
     0
  0
SCALE
  5
5A
102
{ACAD_REACTORS
330
47
102
}
330
47
100
AcDbScale
 70
     0
300
1/64" = 1'-0"
140
0.015625
141
12.0
290
     0
  0
SCALE
  5
5B
102
{ACAD_REACTORS
330
47
102
}
330
47
100
AcDbScale
 70
     0
300
1/32" = 1'-0"
140
0.03125
141
12.0
290
     0
  0
SCALE
  5
5C
102
{ACAD_REACTORS
330
47
102
}
330
47
100
AcDbScale
 70
     0
300
1/16" = 1'-0"
140
0.0625
141
12.0
290
     0
  0
SCALE
  5
5D
102
{ACAD_REACTORS
330
47
102
}
330
47
100
AcDbScale
 70
     0
300
3/32" = 1'-0"
140
0.09375
141
12.0
290
     0
  0
SCALE
  5
5E
102
{ACAD_REACTORS
330
47
102
}
330
47
100
AcDbScale
 70
     0
300
1/8" = 1'-0"
140
0.125
141
12.0
290
     0
  0
SCALE
  5
5F
102
{ACAD_REACTORS
330
47
102
}
330
47
100
AcDbScale
 70
     0
300
3/16" = 1'-0"
140
0.1875
141
12.0
290
     0
  0
SCALE
  5
60
102
{ACAD_REACTORS
330
47
102
}
330
47
100
AcDbScale
 70
     0
300
1/4" = 1'-0"
140
0.25
141
12.0
290
     0
  0
SCALE
  5
61
102
{ACAD_REACTORS
330
47
102
}
330
47
100
AcDbScale
 70
     0
300
3/8" = 1'-0"
140
0.375
141
12.0
290
     0
  0
SCALE
  5
62
102
{ACAD_REACTORS
330
47
102
}
330
47
100
AcDbScale
 70
     0
300
1/2" = 1'-0"
140
0.5
141
12.0
290
     0
  0
SCALE
  5
63
102
{ACAD_REACTORS
330
47
102
}
330
47
100
AcDbScale
 70
     0
300
3/4" = 1'-0"
140
0.75
141
12.0
290
     0
  0
SCALE
  5
64
102
{ACAD_REACTORS
330
47
102
}
330
47
100
AcDbScale
 70
     0
300
1" = 1'-0"
140
1.0
141
12.0
290
     0
  0
SCALE
  5
65
102
{ACAD_REACTORS
330
47
102
}
330
47
100
AcDbScale
 70
     0
300
1-1/2" = 1'-0"
140
1.5
141
12.0
290
     0
  0
SCALE
  5
66
102
{ACAD_REACTORS
330
47
102
}
330
47
100
AcDbScale
 70
     0
300
3" = 1'-0"
140
3.0
141
12.0
290
     0
  0
SCALE
  5
67
102
{ACAD_REACTORS
330
47
102
}
330
47
100
AcDbScale
 70
     0
300
6" = 1'-0"
140
6.0
141
12.0
290
     0
  0
SCALE
  5
68
102
{ACAD_REACTORS
330
47
102
}
330
47
100
AcDbScale
 70
     0
300
1'-0" = 1'-0"
140
12.0
141
12.0
290
     0
  0
ENDSEC
  0
EOF
