  0
SECTION
  2
HEADER
  9
$ACADVER
  1
AC1015
  9
$ACADMAINTVER
 70
     6
  9
$DWGCODEPAGE
  3
ANSI_1252
  9
$INSBASE
 10
0.0
 20
0.0
 30
0.0
  9
$EXTMIN
 10
0.0
 20
0.0
 30
0.0
  9
$EXTMAX
 10
210.0
 20
297.0
 30
0.0
  9
$LIMMIN
 10
0.0
 20
0.0
  9
$LIMMAX
 10
210.0
 20
297.0
  9
$ORTHOMODE
 70
     0
  9
$REGENMODE
 70
     1
  9
$FILLMODE
 70
     1
  9
$QTEXTMODE
 70
     0
  9
$MIRRTEXT
 70
     1
  9
$LTSCALE
 40
1.0
  9
$ATTMODE
 70
     1
  9
$TEXTSIZE
 40
3.5
  9
$TRACEWID
 40
1.0
  9
$TEXTSTYLE
  7
STANDARD
  9
$CLAYER
  8
0
  9
$CELTYPE
  6
ByLayer
  9
$CECOLOR
 62
   256
  9
$CELTSCALE
 40
1.0
  9
$DISPSILH
 70
     0
  9
$DIMSCALE
 40
1.0
  9
$DIMASZ
 40
3.302
  9
$DIMEXO
 40
1.0
  9
$DIMDLI
 40
3.75
  9
$DIMRND
 40
0.0
  9
$DIMDLE
 40
0.0
  9
$DIMEXE
 40
1.0
  9
$DIMTP
 40
0.0
  9
$DIMTM
 40
0.0
  9
$DIMTXT
 40
3.5
  9
$DIMCEN
 40
2.5
  9
$DIMTSZ
 40
0.0
  9
$DIMTOL
 70
     0
  9
$DIMLIM
 70
     0
  9
$DIMTIH
 70
     1
  9
$DIMTOH
 70
     1
  9
$DIMSE1
 70
     0
  9
$DIMSE2
 70
     0
  9
$DIMTAD
 70
     1
  9
$DIMZIN
 70
     0
  9
$DIMBLK
  1

  9
$DIMASO
 70
     1
  9
$DIMSHO
 70
     1
  9
$DIMPOST
  1

  9
$DIMAPOST
  1

  9
$DIMALT
 70
     0
  9
$DIMALTD
 70
     3
  9
$DIMALTF
 40
0.0393700787
  9
$DIMLFAC
 40
1.0
  9
$DIMTOFL
 70
     1
  9
$DIMTVP
 40
0.0
  9
$DIMTIX
 70
     0
  9
$DIMSOXD
 70
     0
  9
$DIMSAH
 70
     0
  9
$DIMBLK1
  1

  9
$DIMBLK2
  1

  9
$DIMSTYLE
  2
ISO-25
  9
$DIMCLRD
 70
     0
  9
$DIMCLRE
 70
     0
  9
$DIMCLRT
 70
     0
  9
$DIMTFAC
 40
1.0
  9
$DIMGAP
 40
3.0
  9
$DIMJUST
 70
     0
  9
$DIMSD1
 70
     0
  9
$DIMSD2
 70
     0
  9
$DIMTOLJ
 70
     0
  9
$DIMTZIN
 70
     0
  9
$DIMALTZ
 70
     0
  9
$DIMALTTZ
 70
     0
  9
$DIMUPT
 70
     0
  9
$DIMDEC
 70
     2
  9
$DIMTDEC
 70
     2
  9
$DIMALTU
 70
     2
  9
$DIMALTTD
 70
     3
  9
$DIMTXSTY
  7
STANDARD
  9
$DIMAUNIT
 70
     0
  9
$DIMADEC
 70
     2
  9
$DIMALTRND
 40
0.0
  9
$DIMAZIN
 70
     0
  9
$DIMDSEP
 70
    44
  9
$DIMATFIT
 70
     3
  9
$DIMFRAC
 70
     0
  9
$DIMLDRBLK
  1

  9
$DIMLUNIT
 70
     2
  9
$DIMLWD
 70
    -2
  9
$DIMLWE
 70
    -2
  9
$DIMTMOVE
 70
     0
  9
$LUNITS
 70
     2
  9
$LUPREC
 70
     2
  9
$SKETCHINC
 40
1.0
  9
$FILLETRAD
 40
10.0
  9
$AUNITS
 70
     0
  9
$AUPREC
 70
     2
  9
$MENU
  1
.
  9
$ELEVATION
 40
0.0
  9
$PELEVATION
 40
0.0
  9
$THICKNESS
 40
0.0
  9
$LIMCHECK
 70
     0
  9
$CHAMFERA
 40
0.0
  9
$CHAMFERB
 40
0.0
  9
$CHAMFERC
 40
0.0
  9
$CHAMFERD
 40
0.0
  9
$SKPOLY
 70
     0
  9
$TDCREATE
 40
2459997.554417592
  9
$TDUCREATE
 40
2459997.512750926
  9
$TDUPDATE
 40
2459997.554419583
  9
$TDUUPDATE
 40
2459997.512752917
  9
$TDINDWG
 40
0.0000000116
  9
$TDUSRTIMER
 40
0.0000000116
  9
$USRTIMER
 70
     1
  9
$ANGBASE
 50
0.0
  9
$ANGDIR
 70
     0
  9
$PDMODE
 70
     0
  9
$PDSIZE
 40
-1.0
  9
$PLINEWID
 40
0.0
  9
$SPLFRAME
 70
     0
  9
$SPLINETYPE
 70
     6
  9
$SPLINESEGS
 70
     8
  9
$HANDSEED
  5
593
  9
$SURFTAB1
 70
     6
  9
$SURFTAB2
 70
     6
  9
$SURFTYPE
 70
     6
  9
$SURFU
 70
     6
  9
$SURFV
 70
     6
  9
$UCSBASE
  2

  9
$UCSNAME
  2

  9
$UCSORG
 10
0.0
 20
0.0
 30
0.0
  9
$UCSXDIR
 10
1.0
 20
0.0
 30
0.0
  9
$UCSYDIR
 10
0.0
 20
1.0
 30
0.0
  9
$UCSORTHOREF
  2

  9
$UCSORTHOVIEW
 70
     0
  9
$UCSORGTOP
 10
0.0
 20
0.0
 30
0.0
  9
$UCSORGBOTTOM
 10
0.0
 20
0.0
 30
0.0
  9
$UCSORGLEFT
 10
0.0
 20
0.0
 30
0.0
  9
$UCSORGRIGHT
 10
0.0
 20
0.0
 30
0.0
  9
$UCSORGFRONT
 10
0.0
 20
0.0
 30
0.0
  9
$UCSORGBACK
 10
0.0
 20
0.0
 30
0.0
  9
$PUCSBASE
  2

  9
$PUCSNAME
  2

  9
$PUCSORG
 10
0.0
 20
0.0
 30
0.0
  9
$PUCSXDIR
 10
1.0
 20
0.0
 30
0.0
  9
$PUCSYDIR
 10
0.0
 20
1.0
 30
0.0
  9
$PUCSORTHOREF
  2

  9
$PUCSORTHOVIEW
 70
     0
  9
$PUCSORGTOP
 10
0.0
 20
0.0
 30
0.0
  9
$PUCSORGBOTTOM
 10
0.0
 20
0.0
 30
0.0
  9
$PUCSORGLEFT
 10
0.0
 20
0.0
 30
0.0
  9
$PUCSORGRIGHT
 10
0.0
 20
0.0
 30
0.0
  9
$PUCSORGFRONT
 10
0.0
 20
0.0
 30
0.0
  9
$PUCSORGBACK
 10
0.0
 20
0.0
 30
0.0
  9
$USERI1
 70
     0
  9
$USERI2
 70
     0
  9
$USERI3
 70
     0
  9
$USERI4
 70
     0
  9
$USERI5
 70
     0
  9
$USERR1
 40
0.0
  9
$USERR2
 40
0.0
  9
$USERR3
 40
0.0
  9
$USERR4
 40
0.0
  9
$USERR5
 40
0.0
  9
$WORLDVIEW
 70
     1
  9
$SHADEDGE
 70
     3
  9
$SHADEDIF
 70
    70
  9
$TILEMODE
 70
     1
  9
$MAXACTVP
 70
    64
  9
$PINSBASE
 10
0.0
 20
0.0
 30
0.0
  9
$PLIMCHECK
 70
     0
  9
$PEXTMIN
 10
1.0000000000E+20
 20
1.0000000000E+20
 30
1.0000000000E+20
  9
$PEXTMAX
 10
-1.0000000000E+20
 20
-1.0000000000E+20
 30
-1.0000000000E+20
  9
$PLIMMIN
 10
0.0
 20
0.0
  9
$PLIMMAX
 10
420.0
 20
297.0
  9
$UNITMODE
 70
     0
  9
$VISRETAIN
 70
     1
  9
$PLINEGEN
 70
     0
  9
$PSLTSCALE
 70
     1
  9
$TREEDEPTH
 70
  3020
  9
$CMLSTYLE
  2
Standard
  9
$CMLJUST
 70
     0
  9
$CMLSCALE
 40
20.0
  9
$PROXYGRAPHICS
 70
     1
  9
$MEASUREMENT
 70
     1
  9
$CELWEIGHT
370
    -1
  9
$ENDCAPS
280
     0
  9
$JOINSTYLE
280
     0
  9
$LWDISPLAY
290
     1
  9
$INSUNITS
 70
     4
  9
$HYPERLINKBASE
  1

  9
$STYLESHEET
  1

  9
$XEDIT
290
     1
  9
$CEPSNTYPE
380
     0
  9
$PSTYLEMODE
290
     1
  9
$FINGERPRINTGUID
  2
{67bb49f6-d7f5-405e-9e83-3d712ec9a223}
  9
$VERSIONGUID
  2
{FAEB1C32-E019-11D5-929B-00C0DF256EC4}
  9
$EXTNAMES
290
     1
  9
$PSVPSCALE
 40
0.0
  9
$OLESTARTUP
290
     0
  0
ENDSEC
  0
SECTION
  2
CLASSES
  0
CLASS
  1
ACDBDICTIONARYWDFLT
  2
AcDbDictionaryWithDefault
  3
ObjectDBX Classes
 90
        0
280
     0
281
     0
  0
CLASS
  1
VISUALSTYLE
  2
AcDbVisualStyle
  3
ObjectDBX Classes
 90
     4095
280
     0
281
     0
  0
CLASS
  1
MATERIAL
  2
AcDbMaterial
  3
ObjectDBX Classes
 90
     1153
280
     0
281
     0
  0
CLASS
  1
SCALE
  2
AcDbScale
  3
ObjectDBX Classes
 90
     1153
280
     0
281
     0
  0
CLASS
  1
TABLESTYLE
  2
AcDbTableStyle
  3
ObjectDBX Classes
 90
     4095
280
     0
281
     0
  0
CLASS
  1
MLEADERSTYLE
  2
AcDbMLeaderStyle
  3
ACDB_MLEADERSTYLE_CLASS
 90
     4095
280
     0
281
     0
  0
CLASS
  1
SUN
  2
AcDbSun
  3
SCENEOE
 90
     1153
280
     0
281
     0
  0
CLASS
  1
ACDBPLACEHOLDER
  2
AcDbPlaceHolder
  3
ObjectDBX Classes
 90
        0
280
     0
281
     0
  0
CLASS
  1
LAYOUT
  2
AcDbLayout
  3
ObjectDBX Classes
 90
        0
280
     0
281
     0
  0
ENDSEC
  0
SECTION
  2
TABLES
  0
TABLE
  2
VPORT
  5
8
330
0
100
AcDbSymbolTable
 70
     1
  0
VPORT
  5
29
330
8
100
AcDbSymbolTableRecord
100
AcDbViewportTableRecord
  2
*Active
 70
     0
 10
0.0
 20
0.0
 11
1.0
 21
1.0
 12
105.0
 22
148.5
 13
0.0
 23
0.0
 14
10.0
 24
10.0
 15
10.0
 25
10.0
 16
0.0
 26
0.0
 36
1.0
 17
0.0
 27
0.0
 37
0.0
 40
297.0
 41
0.7070707071
 42
50.0
 43
0.0
 44
0.0
 50
0.0
 51
0.0
 71
     0
 72
  2000
 73
     1
 74
     3
 75
     0
 76
     0
 77
     0
 78
     0
281
     0
 65
     1
110
0.0
120
0.0
130
0.0
111
1.0
121
0.0
131
0.0
112
0.0
122
1.0
132
0.0
 79
     0
146
0.0
  0
ENDTAB
  0
TABLE
  2
LTYPE
  5
5
330
0
100
AcDbSymbolTable
 70
     6
  0
LTYPE
  5
14
330
5
100
AcDbSymbolTableRecord
100
AcDbLinetypeTableRecord
  2
ByBlock
 70
     0
  3

 72
    65
 73
     0
 40
0.0
  0
LTYPE
  5
15
330
5
100
AcDbSymbolTableRecord
100
AcDbLinetypeTableRecord
  2
ByLayer
 70
     0
  3

 72
    65
 73
     0
 40
0.0
  0
LTYPE
  5
16
330
5
100
AcDbSymbolTableRecord
100
AcDbLinetypeTableRecord
  2
Continuous
 70
     0
  3
Solid line
 72
    65
 73
     0
 40
0.0
  0
LTYPE
  5
6E
330
5
100
AcDbSymbolTableRecord
100
AcDbLinetypeTableRecord
  2
HIDDEN
 70
     0
  3
Hidden __ __ __ __ __ __ __ __ __ __ __ __ __ __
 72
    65
 73
     2
 40
1.905
 49
1.27
 74
     0
 49
-0.635
 74
     0
  0
LTYPE
  5
6F
330
5
100
AcDbSymbolTableRecord
100
AcDbLinetypeTableRecord
  2
PHANTOM
 70
     0
  3
Phantom ______  __  __  ______  __  __  ______
 72
    65
 73
     6
 40
12.7
 49
6.35
 74
     0
 49
-1.27
 74
     0
 49
1.27
 74
     0
 49
-1.27
 74
     0
 49
1.27
 74
     0
 49
-1.27
 74
     0
  0
LTYPE
  5
70
330
5
100
AcDbSymbolTableRecord
100
AcDbLinetypeTableRecord
  2
CENTER
 70
     0
  3
Center ____ _ ____ _ ____ _ ____ _ ____ _ ____
 72
    65
 73
     4
 40
10.16
 49
6.35
 74
     0
 49
-1.27
 74
     0
 49
1.27
 74
     0
 49
-1.27
 74
     0
  0
LTYPE
  5
71
330
5
100
AcDbSymbolTableRecord
100
AcDbLinetypeTableRecord
  2
CENTERX2
 70
     0
  3
Center (2x) ________  __  ________  __  _____
 72
    65
 73
     4
 40
20.32
 49
12.7
 74
     0
 49
-2.54
 74
     0
 49
2.54
 74
     0
 49
-2.54
 74
     0
  0
LTYPE
  5
72
330
5
100
AcDbSymbolTableRecord
100
AcDbLinetypeTableRecord
  2
DOT2
 70
     0
  3
Dot (.5x) ........................................
 72
    65
 73
     2
 40
0.635
 49
0.0
 74
     0
 49
-0.635
 74
     0
  0
ENDTAB
  0
TABLE
  2
LAYER
  5
2
330
0
100
AcDbSymbolTable
 70
     9
  0
LAYER
  5
10
330
2
100
AcDbSymbolTableRecord
100
AcDbLayerTableRecord
  2
0
 70
     0
 62
     7
  6
Continuous
370
    -3
390
F
  0
LAYER
  5
73
330
2
100
AcDbSymbolTableRecord
100
AcDbLayerTableRecord
  2
FORMAT
 70
     0
 62
     7
  6
Continuous
370
    -3
390
F
  0
LAYER
  5
74
330
2
100
AcDbSymbolTableRecord
100
AcDbLayerTableRecord
  2
VORLAGE
 70
     0
 62
     7
  6
Continuous
370
    -3
390
F
  0
LAYER
  5
75
330
2
100
AcDbSymbolTableRecord
100
AcDbLayerTableRecord
  2
1
 70
     0
 62
   179
  6
Continuous
370
    -3
390
F
  0
LAYER
  5
76
330
2
100
AcDbSymbolTableRecord
100
AcDbLayerTableRecord
  2
LAYER0
 70
     0
 62
     7
  6
Continuous
370
    -3
390
F
  0
LAYER
  5
77
330
2
100
AcDbSymbolTableRecord
100
AcDbLayerTableRecord
  2
BEMASSUNG
 70
     0
 62
     1
  6
Continuous
370
    -3
390
F
  0
LAYER
  5
78
330
2
100
AcDbSymbolTableRecord
100
AcDbLayerTableRecord
  2
ÄNDERUNG
 70
     0
 62
     1
  6
Continuous
370
    -3
390
F
  0
LAYER
  5
79
330
2
100
AcDbSymbolTableRecord
100
AcDbLayerTableRecord
  2
KENNZEICHNUNG
 70
     0
 62
     7
  6
Continuous
370
    -3
390
F
  0
LAYER
  5
7A
330
2
100
AcDbSymbolTableRecord
100
AcDbLayerTableRecord
  2
LOGOS
 70
     0
 62
     7
  6
Continuous
370
    -3
390
F
  0
ENDTAB
  0
TABLE
  2
STYLE
  5
3
330
0
100
AcDbSymbolTable
 70
     5
  0
STYLE
  5
11
330
3
100
AcDbSymbolTableRecord
100
AcDbTextStyleTableRecord
  2
STANDARD
 70
     0
 40
0.0
 41
1.0
 50
0.0
 71
     0
 42
3.5
  3
ARIAL.TTF
  4

1001
ACAD
1000
ARIAL
1071
       34
  0
STYLE
  5
8C
330
3
100
AcDbSymbolTableRecord
100
AcDbTextStyleTableRecord
  2
SLDTEXTSTYLE0
 70
     0
 40
0.0
 41
0.948
 50
0.0
 71
     0
 42
3.5
  3
ARIAL.TTF
  4

1001
ACAD
1000
Arial
1071
      290
  0
STYLE
  5
B3
330
3
100
AcDbSymbolTableRecord
100
AcDbTextStyleTableRecord
  2
SLDTEXTSTYLE1
 70
     0
 40
0.0
 41
1.0
 50
0.0
 71
     0
 42
3.5
  3
Arial Unicode MS
  4

1001
ACAD
1000
Arial Unicode MS
1071
 33554688
  0
STYLE
  5
B9
330
3
100
AcDbSymbolTableRecord
100
AcDbTextStyleTableRecord
  2
SLDTEXTSTYLE2
 70
     0
 40
0.0
 41
0.87
 50
0.0
 71
     0
 42
3.5
  3
ARIALN.TTF
  4

1001
ACAD
1000
Arial Narrow
1071
      290
  0
STYLE
  5
CE
330
3
100
AcDbSymbolTableRecord
100
AcDbTextStyleTableRecord
  2
SLDTEXTSTYLE3
 70
     0
 40
0.0
 41
0.948
 50
0.0
 71
     0
 42
3.5
  3
ARIALBD.TTF
  4

1001
ACAD
1000
Arial
1071
 33554722
  0
ENDTAB
  0
TABLE
  2
VIEW
  5
6
330
0
100
AcDbSymbolTable
 70
     0
  0
ENDTAB
  0
TABLE
  2
UCS
  5
7
330
0
100
AcDbSymbolTable
 70
     0
  0
ENDTAB
  0
TABLE
  2
APPID
  5
9
330
0
100
AcDbSymbolTable
 70
     1
  0
APPID
  5
12
330
9
100
AcDbSymbolTableRecord
100
AcDbRegAppTableRecord
  2
ACAD
 70
     0
  0
ENDTAB
  0
TABLE
  2
DIMSTYLE
  5
A
330
0
100
AcDbSymbolTable
 70
     4
100
AcDbDimStyleTable
  0
DIMSTYLE
105
27
330
A
100
AcDbSymbolTableRecord
100
AcDbDimStyleTableRecord
  2
ISO-25
 70
     0
 41
2.5
 42
0.625
 43
3.75
 44
1.25
 73
     0
 74
     0
 77
     1
 78
     8
140
2.5
141
2.5
143
0.0393700787
147
0.625
171
     3
172
     1
178
     0
271
     2
272
     2
274
     3
278
    44
283
     0
284
     8
340
11
  0
DIMSTYLE
105
22F
102
{ACAD_REACTORS
330
22E
330
239
330
55A
330
564
330
56F
102
}
330
A
100
AcDbSymbolTableRecord
100
AcDbDimStyleTableRecord
  2
SLDDIMSTYLE0
 70
     0
 41
3.302
 44
0.0
 45
0.000000001
 73
     0
 74
     0
 77
     1
 78
    12
 79
     3
140
3.5
147
0.875
173
     1
178
     0
271
     2
272
     2
276
     2
284
    12
340
8C
  0
DIMSTYLE
105
47F
102
{ACAD_REACTORS
330
47E
330
497
330
579
102
}
330
A
100
AcDbSymbolTableRecord
100
AcDbDimStyleTableRecord
  2
SLDDIMSTYLE1
 70
     0
 41
3.302
 44
0.0
 45
0.000000001
 73
     0
 74
     0
 77
     1
 78
    12
 79
     3
140
3.5
147
0.875
172
     1
173
     1
178
     0
271
     2
272
     2
276
     2
284
    12
289
     0
340
8C
  0
DIMSTYLE
105
48B
102
{ACAD_REACTORS
330
48A
102
}
330
A
100
AcDbSymbolTableRecord
100
AcDbDimStyleTableRecord
  2
SLDDIMSTYLE2
 70
     0
 41
3.302
 44
0.0
 45
0.000000001
 73
     0
 74
     0
 77
     1
 78
    12
 79
     3
140
3.5
147
0.875
172
     1
173
     1
178
     0
271
     1
272
     2
276
     2
284
    12
289
     0
340
8C
  0
ENDTAB
  0
TABLE
  2
BLOCK_RECORD
  5
1
330
0
100
AcDbSymbolTable
 70
    18
  0
BLOCK_RECORD
  5
1F
330
1
100
AcDbSymbolTableRecord
100
AcDbBlockTableRecord
  2
*Model_Space
340
22
  0
BLOCK_RECORD
  5
1B
330
1
100
AcDbSymbolTableRecord
100
AcDbBlockTableRecord
  2
*Paper_Space
340
1E
  0
BLOCK_RECORD
  5
23
330
1
100
AcDbSymbolTableRecord
100
AcDbBlockTableRecord
  2
*Paper_Space0
340
26
  0
BLOCK_RECORD
  5
7B
330
1
100
AcDbSymbolTableRecord
100
AcDbBlockTableRecord
  2
Block1
340
0
102
{BLKREFS
331
CD
102
}
  0
BLOCK_RECORD
  5
89
330
1
100
AcDbSymbolTableRecord
100
AcDbBlockTableRecord
  2
SW_NOTE_0
340
0
102
{BLKREFS
331
8F
102
}
  0
BLOCK_RECORD
  5
90
330
1
100
AcDbSymbolTableRecord
100
AcDbBlockTableRecord
  2
Block2
340
0
102
{BLKREFS
331
CC
102
}
  0
BLOCK_RECORD
  5
B0
330
1
100
AcDbSymbolTableRecord
100
AcDbBlockTableRecord
  2
SW_NOTE_0_1
340
0
102
{BLKREFS
331
B5
102
}
  0
BLOCK_RECORD
  5
B6
330
1
100
AcDbSymbolTableRecord
100
AcDbBlockTableRecord
  2
SW_NOTE_0_2
340
0
102
{BLKREFS
331
BD
102
}
  0
BLOCK_RECORD
  5
DF
330
1
100
AcDbSymbolTableRecord
100
AcDbBlockTableRecord
  2
SW_NOTE_0_3
340
0
102
{BLKREFS
331
EC
102
}
  0
BLOCK_RECORD
  5
230
330
1
100
AcDbSymbolTableRecord
100
AcDbBlockTableRecord
  2
_D
340
0
  0
BLOCK_RECORD
  5
23A
330
1
100
AcDbSymbolTableRecord
100
AcDbBlockTableRecord
  2
_D_1
340
0
  0
BLOCK_RECORD
  5
243
330
1
100
AcDbSymbolTableRecord
100
AcDbBlockTableRecord
  2
SW_CENTERMARKSYMBOL_0
340
0
102
{BLKREFS
331
24E
102
}
  0
BLOCK_RECORD
  5
480
330
1
100
AcDbSymbolTableRecord
100
AcDbBlockTableRecord
  2
_D_2
340
0
  0
BLOCK_RECORD
  5
48C
330
1
100
AcDbSymbolTableRecord
100
AcDbBlockTableRecord
  2
_D_3
340
0
  0
BLOCK_RECORD
  5
498
330
1
100
AcDbSymbolTableRecord
100
AcDbBlockTableRecord
  2
_D_4
340
0
  0
BLOCK_RECORD
  5
55B
330
1
100
AcDbSymbolTableRecord
100
AcDbBlockTableRecord
  2
_D_5
340
0
  0
BLOCK_RECORD
  5
565
330
1
100
AcDbSymbolTableRecord
100
AcDbBlockTableRecord
  2
_D_6
340
0
  0
BLOCK_RECORD
  5
570
330
1
100
AcDbSymbolTableRecord
100
AcDbBlockTableRecord
  2
_D_7
340
0
  0
BLOCK_RECORD
  5
57A
330
1
100
AcDbSymbolTableRecord
100
AcDbBlockTableRecord
  2
_D_8
340
0
  0
BLOCK_RECORD
  5
586
330
1
100
AcDbSymbolTableRecord
100
AcDbBlockTableRecord
  2
SW_CENTERMARKSYMBOL_1
340
0
102
{BLKREFS
331
591
102
}
  0
ENDTAB
  0
ENDSEC
  0
SECTION
  2
BLOCKS
  0
BLOCK
  5
20
330
1F
100
AcDbEntity
  8
0
100
AcDbBlockBegin
  2
*Model_Space
 70
     0
 10
0.0
 20
0.0
 30
0.0
  3
*Model_Space
  1

  0
ENDBLK
  5
21
330
1F
100
AcDbEntity
  8
0
100
AcDbBlockEnd
  0
BLOCK
  5
1C
330
1B
100
AcDbEntity
 67
     1
  8
0
100
AcDbBlockBegin
  2
*Paper_Space
 70
     0
 10
0.0
 20
0.0
 30
0.0
  3
*Paper_Space
  1

  0
ENDBLK
  5
1D
330
1B
100
AcDbEntity
 67
     1
  8
0
100
AcDbBlockEnd
  0
BLOCK
  5
24
330
23
100
AcDbEntity
  8
0
100
AcDbBlockBegin
  2
*Paper_Space0
 70
     0
 10
0.0
 20
0.0
 30
0.0
  3
*Paper_Space0
  1

  0
ENDBLK
  5
25
330
23
100
AcDbEntity
  8
0
100
AcDbBlockEnd
  0
BLOCK
  5
7C
330
7B
100
AcDbEntity
  8
0
100
AcDbBlockBegin
  2
Block1
 70
     0
 10
0.0
 20
0.0
 30
0.0
  3
Block1
  1

  0
CIRCLE
  5
7E
330
7B
100
AcDbEntity
  8
0
  6
Continuous
 62
     7
370
    18
100
AcDbCircle
 10
11.6137544821
 20
9.0896586992
 30
0.0
 40
1.255909011058753
  0
CIRCLE
  5
7F
330
7B
100
AcDbEntity
  8
0
  6
Continuous
 62
     7
370
    18
100
AcDbCircle
 10
11.6137544821
 20
9.0896586992
 30
0.0
 40
2.216014863655655
  0
LINE
  5
80
330
7B
100
AcDbEntity
  8
0
  6
CENTERX2
 62
     7
370
    18
100
AcDbLine
 10
11.6137544821
 20
9.0896586992
 30
0.0
 11
7.8977396184
 21
9.0896586992
 31
0.0
  0
LINE
  5
81
330
7B
100
AcDbEntity
  8
0
  6
Continuous
 62
     7
370
    18
100
AcDbLine
 10
8.165753588
 20
6.8736438356
 30
0.0
 11
8.165753588
 21
11.3071584591
 31
0.0
  0
LINE
  5
82
330
7B
100
AcDbEntity
  8
0
  6
Continuous
 62
     7
370
    18
100
AcDbLine
 10
2.6797147895
 20
10.3455677103
 30
0.0
 11
2.6797147895
 21
7.8337496881
 31
0.0
  0
LINE
  5
83
330
7B
100
AcDbEntity
  8
0
  6
Continuous
 62
     7
370
    18
100
AcDbLine
 10
2.6797147895
 20
7.8337496881
 30
0.0
 11
8.165753588
 21
6.8736438356
 31
0.0
  0
LINE
  5
84
330
7B
100
AcDbEntity
  8
0
  6
CENTERX2
 62
     7
370
    18
100
AcDbLine
 10
9.665753588
 20
9.0896586992
 30
0.0
 11
1.1797147895
 21
9.0896586992
 31
0.0
  0
LINE
  5
85
330
7B
100
AcDbEntity
  8
0
  6
Continuous
 62
     7
370
    18
100
AcDbLine
 10
8.165753588
 20
11.3071584591
 30
0.0
 11
2.6797147895
 21
10.3455677103
 31
0.0
  0
LINE
  5
86
330
7B
100
AcDbEntity
  8
0
  6
CENTERX2
 62
     7
370
    18
100
AcDbLine
 10
11.6137544821
 20
9.0896586992
 30
0.0
 11
11.6137544821
 21
5.3736438356
 31
0.0
  0
LINE
  5
87
330
7B
100
AcDbEntity
  8
0
  6
CENTERX2
 62
     7
370
    18
100
AcDbLine
 10
11.6137544821
 20
9.0896586992
 30
0.0
 11
11.6137544821
 21
12.8056735629
 31
0.0
  0
LINE
  5
88
330
7B
100
AcDbEntity
  8
0
  6
CENTERX2
 62
     7
370
    18
100
AcDbLine
 10
11.6137544821
 20
9.0896586992
 30
0.0
 11
15.3297693458
 21
9.0896586992
 31
0.0
  0
INSERT
  5
8F
330
7B
100
AcDbEntity
  8
0
  6
Continuous
 62
     7
370
     0
100
AcDbBlockReference
  2
SW_NOTE_0
 10
2.1031832889
 20
2.3754472768
 30
0.0
  0
ENDBLK
  5
7D
330
7B
100
AcDbEntity
  8
0
100
AcDbBlockEnd
  0
BLOCK
  5
8A
330
89
100
AcDbEntity
  8
0
100
AcDbBlockBegin
  2
SW_NOTE_0
 70
     0
 10
0.0
 20
0.0
 30
0.0
  3
SW_NOTE_0
  1

  0
MTEXT
  5
8D
330
89
100
AcDbEntity
  8
0
  6
Continuous
 62
     0
370
     0
100
AcDbMText
 10
6.590625
 20
2.4492287056
 30
0.0
 40
1.9
 41
0.0
 71
     2
 72
     1
  1
DIN 6  T1 - 
  7
SLDTEXTSTYLE0
 73
     1
 44
1.0
  0
MTEXT
  5
8E
330
89
100
AcDbEntity
  8
0
  6
Continuous
 62
     0
370
     0
100
AcDbMText
 10
6.6569262624
 20
0.0003397443
 30
0.0
 40
1.9
 41
0.0
 71
     2
 72
     1
  1
Proj.methode 1
  7
SLDTEXTSTYLE0
 73
     1
 44
1.0
  0
ENDBLK
  5
8B
330
89
100
AcDbEntity
  8
0
100
AcDbBlockEnd
  0
BLOCK
  5
91
330
90
100
AcDbEntity
  8
0
100
AcDbBlockBegin
  2
Block2
 70
     0
 10
0.0
 20
0.0
 30
0.0
  3
Block2
  1

  0
ARC
  5
93
330
90
100
AcDbEntity
  8
FORMAT
100
AcDbCircle
 10
236.7496365382
 20
57.0990600997
 30
0.0
 40
3.75000000000001
100
AcDbArc
 50
93.8225537293
 51
266.1774462707
  0
ARC
  5
94
330
90
100
AcDbEntity
  8
FORMAT
100
AcDbCircle
 10
236.7496365382
 20
57.0990600997
 30
0.0
 40
3.000000000000012
100
AcDbArc
 50
94.7801918472
 51
265.2198081528
  0
ARC
  5
95
330
90
100
AcDbEntity
  8
FORMAT
100
AcDbCircle
 10
236.7496365382
 20
57.0990600997
 30
0.0
 40
3.75000000000001
100
AcDbArc
 50
273.8225537293
 51
86.1774462707
  0
ARC
  5
96
330
90
100
AcDbEntity
  8
FORMAT
100
AcDbCircle
 10
236.7496365382
 20
57.0990600997
 30
0.0
 40
3.000000000000012
100
AcDbArc
 50
274.7801918472
 51
85.2198081528
  0
ARC
  5
97
330
90
100
AcDbEntity
  8
FORMAT
100
AcDbCircle
 10
236.7496365382
 20
58.2320416436
 30
0.0
 40
0.8604027828068846
100
AcDbArc
 50
304.8395134495
 51
73.1084194601
  0
ARC
  5
98
330
90
100
AcDbEntity
  8
FORMAT
100
AcDbCircle
 10
236.7496365382
 20
58.2320416436
 30
0.0
 40
1.402314431660661
100
AcDbArc
 50
313.8988153445
 51
79.7306010333
  0
ARC
  5
99
330
90
100
AcDbEntity
  8
FORMAT
100
AcDbCircle
 10
236.7496365382
 20
55.4979572256
 30
0.0
 40
0.4915306686725103
100
AcDbArc
 50
300.5716370086
 51
0.0
  0
ARC
  5
9A
330
90
100
AcDbEntity
  8
FORMAT
100
AcDbCircle
 10
236.7496365382
 20
58.2320416436
 30
0.0
 40
1.402314431660661
100
AcDbArc
 50
100.2693989667
 51
226.1011846555
  0
ARC
  5
9B
330
90
100
AcDbEntity
  8
FORMAT
100
AcDbCircle
 10
236.7496365382
 20
55.4979572256
 30
0.0
 40
0.9723464985416115
100
AcDbArc
 50
180.0
 51
255.1013518888
  0
ARC
  5
9C
330
90
100
AcDbEntity
  8
FORMAT
100
AcDbCircle
 10
236.7496365382
 20
55.4979572256
 30
0.0
 40
0.9723464985416115
100
AcDbArc
 50
284.8986481112
 51
0.0
  0
ARC
  5
9D
330
90
100
AcDbEntity
  8
FORMAT
100
AcDbCircle
 10
236.7496365382
 20
55.4979572256
 30
0.0
 40
0.4915306686725099
100
AcDbArc
 50
180.0
 51
239.4283629914
  0
ARC
  5
9E
330
90
100
AcDbEntity
  8
FORMAT
100
AcDbCircle
 10
236.7496365382
 20
58.2320416436
 30
0.0
 40
0.8604027828068846
100
AcDbArc
 50
106.8915805399
 51
235.1604865505
  0
LINE
  5
9F
330
90
100
AcDbEntity
  8
FORMAT
100
AcDbLine
 10
232.5312401271
 20
52.8806636887
 30
0.0
 11
240.9680329492
 21
52.8806636887
 31
0.0
  0
LINE
  5
A0
330
90
100
AcDbEntity
  8
FORMAT
100
AcDbLine
 10
232.5312401271
 20
61.3174565107
 30
0.0
 11
240.9680329492
 21
61.3174565107
 31
0.0
  0
LINE
  5
A1
330
90
100
AcDbEntity
  8
FORMAT
100
AcDbLine
 10
232.5312401271
 20
61.3174565107
 30
0.0
 11
232.5312401271
 21
52.8806636887
 31
0.0
  0
LINE
  5
A2
330
90
100
AcDbEntity
  8
FORMAT
100
AcDbLine
 10
240.9680329492
 20
61.3174565107
 30
0.0
 11
240.9680329492
 21
52.8806636887
 31
0.0
  0
LINE
  5
A3
330
90
100
AcDbEntity
  8
FORMAT
100
AcDbLine
 10
236.4996365382
 20
60.8407174865
 30
0.0
 11
236.4996365382
 21
60.0886252855
 31
0.0
  0
LINE
  5
A4
330
90
100
AcDbEntity
  8
FORMAT
100
AcDbLine
 10
236.9996365382
 20
60.8407174865
 30
0.0
 11
236.9996365382
 21
60.0886252855
 31
0.0
  0
LINE
  5
A5
330
90
100
AcDbEntity
  8
FORMAT
100
AcDbLine
 10
236.4996365382
 20
54.1094949139
 30
0.0
 11
236.4996365382
 21
53.3574027129
 31
0.0
  0
LINE
  5
A6
330
90
100
AcDbEntity
  8
FORMAT
100
AcDbLine
 10
236.9996365382
 20
54.1094949139
 30
0.0
 11
236.9996365382
 21
53.3574027129
 31
0.0
  0
LINE
  5
A7
330
90
100
AcDbEntity
  8
FORMAT
100
AcDbLine
 10
236.9996365382
 20
59.6118915504
 30
0.0
 11
236.9996365382
 21
59.0553234597
 31
0.0
  0
LINE
  5
A8
330
90
100
AcDbEntity
  8
FORMAT
100
AcDbLine
 10
236.4996365382
 20
59.6118915504
 30
0.0
 11
236.4996365382
 21
59.0553234597
 31
0.0
  0
LINE
  5
A9
330
90
100
AcDbEntity
  8
FORMAT
100
AcDbLine
 10
235.7772900396
 20
55.4979572256
 30
0.0
 11
235.7772900396
 21
57.2215823164
 31
0.0
  0
LINE
  5
AA
330
90
100
AcDbEntity
  8
FORMAT
100
AcDbLine
 10
237.7219830367
 20
55.4979572256
 30
0.0
 11
237.7219830367
 21
57.2215823164
 31
0.0
  0
LINE
  5
AB
330
90
100
AcDbEntity
  8
FORMAT
100
AcDbLine
 10
237.2411672068
 20
55.4979572256
 30
0.0
 11
237.2411672068
 21
57.5258613901
 31
0.0
  0
LINE
  5
AC
330
90
100
AcDbEntity
  8
FORMAT
100
AcDbLine
 10
236.2581058695
 20
55.4979572256
 30
0.0
 11
236.2581058695
 21
57.5258613901
 31
0.0
  0
LINE
  5
AD
330
90
100
AcDbEntity
  8
FORMAT
100
AcDbLine
 10
236.4996365382
 20
55.0747523127
 30
0.0
 11
236.4996365382
 21
54.5582989296
 31
0.0
  0
LINE
  5
AE
330
90
100
AcDbEntity
  8
FORMAT
100
AcDbLine
 10
236.9996365382
 20
55.0747523127
 30
0.0
 11
236.9996365382
 21
54.5582989296
 31
0.0
  0
HATCH
  5
AF
330
90
100
AcDbEntity
  8
FORMAT
100
AcDbHatch
 10
0.0
 20
0.0
 30
0.0
210
0.0
220
0.0
230
1.0
  2
SOLID
 70
     1
 71
     0
 91
        5
 92
        0
 93
        4
 72
     1
 10
240.9680329492058
 20
61.31745651073599
 11
240.9680329492058
 21
52.88066368865002
 72
     1
 10
240.9680329492058
 20
52.88066368865002
 11
232.5312401271199
 21
52.88066368865002
 72
     1
 10
232.5312401271199
 20
52.88066368865002
 11
232.5312401271199
 21
61.31745651073599
 72
     1
 10
232.5312401271199
 20
61.31745651073599
 11
240.9680329492058
 21
61.31745651073599
 97
        0
 92
        0
 93
        4
 72
     2
 10
236.7496365381628
 20
57.09906009969301
 40
3.000000000000011
 50
94.78019184719915
 51
265.2198081528016
 73
     0
 72
     1
 10
236.4996365381628
 20
60.08862528546836
 11
236.4996365381628
 21
60.84071748646695
 72
     2
 10
236.7496365381628
 20
57.09906009969301
 40
3.750000000000007
 50
93.82255372927435
 51
266.1774462707265
 73
     1
 72
     1
 10
236.4996365381628
 20
53.35740271291905
 11
236.4996365381628
 21
54.10949491391764
 97
        0
 92
        0
 93
        8
 72
     1
 10
237.7219830367044
 20
55.49795722557887
 11
237.7219830367044
 21
57.22158231636488
 72
     2
 10
236.7496365381628
 20
58.23204164361047
 40
1.402314431660656
 50
313.8988153445118
 51
439.730601033339
 73
     1
 72
     1
 10
236.9996365381628
 20
59.61189155039155
 11
236.9996365381628
 21
59.05532345967459
 72
     2
 10
236.7496365381628
 20
58.23204164361047
 40
0.8604027828068782
 50
286.8915805399266
 51
415.1604865505413
 73
     0
 72
     1
 10
237.2411672068353
 20
57.52586139012261
 11
237.2411672068353
 21
55.49795722557887
 72
     2
 10
236.7496365381628
 20
55.49795722557887
 40
0.4915306686725041
 50
0.0
 51
59.42836299135124
 73
     0
 72
     1
 10
236.9996365381628
 20
55.07475231274628
 11
236.9996365381628
 21
54.55829892958712
 72
     2
 10
236.7496365381628
 20
55.49795722557887
 40
0.9723464985416097
 50
284.8986481111874
 51
360.0000000000008
 73
     1
 97
        0
 92
        0
 93
        8
 72
     2
 10
236.7496365381628
 20
55.49795722557887
 40
0.4915306686725041
 50
120.5716370086484
 51
180.0
 73
     0
 72
     1
 10
236.2581058694904
 20
55.49795722557887
 11
236.2581058694904
 21
57.52586139012261
 72
     2
 10
236.7496365381628
 20
58.23204164361047
 40
0.8604027828068782
 50
124.839513449458
 51
253.108419460075
 73
     0
 72
     1
 10
236.4996365381628
 20
59.05532345967459
 11
236.4996365381628
 21
59.61189155039155
 72
     2
 10
236.7496365381628
 20
58.23204164361047
 40
1.402314431660656
 50
100.2693989666618
 51
226.1011846554898
 73
     1
 72
     1
 10
235.7772900396212
 20
57.22158231636488
 11
235.7772900396212
 21
55.49795722557887
 72
     2
 10
236.7496365381628
 20
55.49795722557887
 40
0.9723464985416097
 50
180.0
 51
255.1013518888143
 73
     1
 72
     1
 10
236.4996365381628
 20
54.55829892958712
 11
236.4996365381628
 21
55.07475231274628
 97
        0
 92
        0
 93
        4
 72
     2
 10
236.7496365381628
 20
57.09906009969301
 40
3.000000000000011
 50
274.7801918471999
 51
445.2198081528016
 73
     0
 72
     1
 10
236.9996365381628
 20
54.10949491391764
 11
236.9996365381628
 21
53.35740271291905
 72
     2
 10
236.7496365381628
 20
57.09906009969301
 40
3.750000000000007
 50
273.8225537292751
 51
446.1774462707265
 73
     1
 72
     1
 10
236.9996365381628
 20
60.84071748646695
 11
236.9996365381628
 21
60.08862528546836
 97
        0
 75
     0
 76
     1
 98
        1
 10
0.0
 20
0.0
  0
INSERT
  5
B5
330
90
100
AcDbEntity
  8
FORMAT
 62
     7
100
AcDbBlockReference
  2
SW_NOTE_0_1
 10
232.2514665163
 20
47.7232938825
 30
0.0
  0
INSERT
  5
BD
330
90
100
AcDbEntity
  8
0
  6
Continuous
 62
     7
370
     0
100
AcDbBlockReference
  2
SW_NOTE_0_2
 10
244.0723034979
 20
57.1176018272
 30
0.0
  0
ENDBLK
  5
92
330
90
100
AcDbEntity
  8
0
100
AcDbBlockEnd
  0
BLOCK
  5
B1
330
B0
100
AcDbEntity
  8
0
100
AcDbBlockBegin
  2
SW_NOTE_0_1
 70
     0
 10
0.0
 20
0.0
 30
0.0
  3
SW_NOTE_0_1
  1

  0
MTEXT
  5
B4
330
B0
100
AcDbEntity
  8
FORMAT
 62
     0
100
AcDbMText
 10
0.0
 20
3.8651911469
 30
0.0
 40
3.0
 41
0.0
 71
     1
 72
     1
  1
ECO
  7
SLDTEXTSTYLE1
 73
     1
 44
1.0
  0
ENDBLK
  5
B2
330
B0
100
AcDbEntity
  8
0
100
AcDbBlockEnd
  0
BLOCK
  5
B7
330
B6
100
AcDbEntity
  8
0
100
AcDbBlockBegin
  2
SW_NOTE_0_2
 70
     0
 10
0.0
 20
0.0
 30
0.0
  3
SW_NOTE_0_2
  1

  0
MTEXT
  5
BA
330
B6
100
AcDbEntity
  8
0
  6
Continuous
 62
     0
370
     0
100
AcDbMText
 10
0.0
 20
3.2226693494
 30
0.0
 40
2.5
 41
0.0
 71
     1
 72
     1
  1
ECO Schulte GmbH & Co. KG
  7
SLDTEXTSTYLE2
 73
     1
 44
1.0
  0
MTEXT
  5
BB
330
B6
100
AcDbEntity
  8
0
  6
Continuous
 62
     0
370
     0
100
AcDbMText
 10
0.0
 20
-0.2773307586
 30
0.0
 40
2.5
 41
0.0
 71
     1
 72
     1
  1
Postfach 206
  7
SLDTEXTSTYLE2
 73
     1
 44
1.0
  0
MTEXT
  5
BC
330
B6
100
AcDbEntity
  8
0
  6
Continuous
 62
     0
370
     0
100
AcDbMText
 10
0.0
 20
-3.7773308666
 30
0.0
 40
2.5
 41
0.0
 71
     1
 72
     1
  1
58682 Menden
  7
SLDTEXTSTYLE2
 73
     1
 44
1.0
  0
ENDBLK
  5
B8
330
B6
100
AcDbEntity
  8
0
100
AcDbBlockEnd
  0
BLOCK
  5
E0
330
DF
100
AcDbEntity
  8
0
100
AcDbBlockBegin
  2
SW_NOTE_0_3
 70
     0
 10
0.0
 20
0.0
 30
0.0
  3
SW_NOTE_0_3
  1

  0
MTEXT
  5
E2
330
DF
100
AcDbEntity
  8
FORMAT
 62
     0
100
AcDbMText
 10
0.0
 20
2.5781354795
 30
0.0
 40
2.0
 41
0.0
 71
     1
 72
     1
  1
Technische Änderungen und Irrtümer vorbehalten. Aus dem Gebrauch 
  7
SLDTEXTSTYLE0
 73
     1
 44
1.0
  0
MTEXT
  5
E3
330
DF
100
AcDbEntity
  8
FORMAT
 62
     0
100
AcDbMText
 10
0.0
 20
-0.4218645465
 30
0.0
 40
2.0
 41
0.0
 71
     1
 72
     1
  1
der Zeichnung können keinerlei Ansprüche (inkl. Schadenersatz-
  7
SLDTEXTSTYLE0
 73
     1
 44
1.0
  0
MTEXT
  5
E4
330
DF
100
AcDbEntity
  8
FORMAT
 62
     0
100
AcDbMText
 10
0.0
 20
-3.4218645726
 30
0.0
 40
2.0
 41
0.0
 71
     1
 72
     1
  1
ansprüche) erhoben und gegen ECO Schulte geltend gemacht werden. 
  7
SLDTEXTSTYLE0
 73
     1
 44
1.0
  0
MTEXT
  5
E5
330
DF
100
AcDbEntity
  8
FORMAT
 62
     0
100
AcDbMText
 10
0.0
 20
-6.4218645987
 30
0.0
 40
2.0
 41
0.0
 71
     1
 72
     1
  1
Die Zeichnung bleibt unser Eigentum. Sämtliche sich aus der 
  7
SLDTEXTSTYLE0
 73
     1
 44
1.0
  0
MTEXT
  5
E6
330
DF
100
AcDbEntity
  8
FORMAT
 62
     0
100
AcDbMText
 10
0.0
 20
-9.4218646248
 30
0.0
 40
2.0
 41
0.0
 71
     1
 72
     1
  1
Zeichnung ergebenden Ansprüche stehen ausschließlich ECO Schulte 
  7
SLDTEXTSTYLE0
 73
     1
 44
1.0
  0
MTEXT
  5
E7
330
DF
100
AcDbEntity
  8
FORMAT
 62
     0
100
AcDbMText
 10
0.0
 20
-12.4218646508
 30
0.0
 40
2.0
 41
0.0
 71
     1
 72
     1
  1
zu. 
  7
SLDTEXTSTYLE0
 73
     1
 44
1.0
  0
MTEXT
  5
E8
330
DF
100
AcDbEntity
  8
FORMAT
 62
     0
100
AcDbMText
 10
0.0
 20
-18.421864703
 30
0.0
 40
2.0
 41
0.0
 71
     1
 72
     1
  1
Technical changes and errors excepted. No claims (including 
  7
SLDTEXTSTYLE0
 73
     1
 44
1.0
  0
MTEXT
  5
E9
330
DF
100
AcDbEntity
  8
FORMAT
 62
     0
100
AcDbMText
 10
0.0
 20
-21.4218647291
 30
0.0
 40
2.0
 41
0.0
 71
     1
 72
     1
  1
compensation claims) may be raised against ECO Schulte by using of 
  7
SLDTEXTSTYLE0
 73
     1
 44
1.0
  0
MTEXT
  5
EA
330
DF
100
AcDbEntity
  8
FORMAT
 62
     0
100
AcDbMText
 10
0.0
 20
-24.4218647551
 30
0.0
 40
2.0
 41
0.0
 71
     1
 72
     1
  1
this drawing. The drawing remains the property of ECO Schulte. All 
  7
SLDTEXTSTYLE0
 73
     1
 44
1.0
  0
MTEXT
  5
EB
330
DF
100
AcDbEntity
  8
FORMAT
 62
     0
100
AcDbMText
 10
0.0
 20
-27.4218647812
 30
0.0
 40
2.0
 41
0.0
 71
     1
 72
     1
  1
claims resulting from this drawing are solely entitled to ECO Schulte.
  7
SLDTEXTSTYLE0
 73
     1
 44
1.0
  0
ENDBLK
  5
E1
330
DF
100
AcDbEntity
  8
0
100
AcDbBlockEnd
  0
BLOCK
  5
231
330
230
100
AcDbEntity
  8
0
100
AcDbBlockBegin
  2
_D
 70
     0
 10
0.0
 20
0.0
 30
0.0
  3
_D
  1

  0
SOLID
  5
233
330
230
100
AcDbEntity
  8
FORMAT
 62
     7
100
AcDbTrace
 10
116.2755497303
 20
280.8040150875
 30
0.0
 11
115.7675497303
 21
277.5020150875
 31
0.0
 12
116.7835497303
 22
277.5020150875
 32
0.0
 13
116.7835497303
 23
277.5020150875
 33
0.0
  0
SOLID
  5
234
330
230
100
AcDbEntity
  8
FORMAT
 62
     7
100
AcDbTrace
 10
116.2755497303
 20
200.8040150886
 30
0.0
 11
116.7835497303
 21
204.1060150886
 31
0.0
 12
115.7675497303
 22
204.1060150886
 32
0.0
 13
115.7675497303
 23
204.1060150886
 33
0.0
  0
LINE
  5
235
330
230
100
AcDbEntity
  8
FORMAT
 62
     7
100
AcDbLine
 10
101.7755497813
 20
280.8040150875
 30
0.0
 11
117.2755497303
 21
280.8040150875
 31
0.0
  0
LINE
  5
236
330
230
100
AcDbEntity
  8
FORMAT
 62
     7
100
AcDbLine
 10
101.7755497813
 20
200.8040150886
 30
0.0
 11
117.2755497303
 21
200.8040150886
 31
0.0
  0
LINE
  5
237
330
230
100
AcDbEntity
  8
FORMAT
 62
     7
100
AcDbLine
 10
116.2755497303
 20
280.8040150875
 30
0.0
 11
116.2755497303
 21
200.8040150886
 31
0.0
  0
MTEXT
  5
238
330
230
100
AcDbEntity
  8
FORMAT
 62
     7
100
AcDbMText
 10
111.7638124083
 20
238.1304040431
 30
0.0
 40
3.5
 41
0.0
 71
     1
 72
     1
  1
80
  7
SLDTEXTSTYLE0
 11
-7.099304123605265E-14
 21
1.0
 31
0.0
 73
     1
 44
1.0
  0
ENDBLK
  5
232
330
230
100
AcDbEntity
  8
0
100
AcDbBlockEnd
  0
BLOCK
  5
23B
330
23A
100
AcDbEntity
  8
0
100
AcDbBlockBegin
  2
_D_1
 70
     0
 10
0.0
 20
0.0
 30
0.0
  3
_D_1
  1

  0
SOLID
  5
23D
330
23A
100
AcDbEntity
  8
FORMAT
 62
     7
100
AcDbTrace
 10
106.2755497303
 20
190.8040150886
 30
0.0
 11
102.9735497303
 21
191.3120150886
 31
0.0
 12
102.9735497303
 22
190.2960150886
 32
0.0
 13
102.9735497303
 23
190.2960150886
 33
0.0
  0
SOLID
  5
23E
330
23A
100
AcDbEntity
  8
FORMAT
 62
     7
100
AcDbTrace
 10
26.2755504728
 20
190.8040150886
 30
0.0
 11
29.5775504728
 21
190.2960150886
 31
0.0
 12
29.5775504728
 22
191.3120150886
 32
0.0
 13
29.5775504728
 23
191.3120150886
 33
0.0
  0
LINE
  5
23F
330
23A
100
AcDbEntity
  8
FORMAT
 62
     7
100
AcDbLine
 10
106.2755497303
 20
205.3040150886
 30
0.0
 11
106.2755497303
 21
189.8040150886
 31
0.0
  0
LINE
  5
240
330
23A
100
AcDbEntity
  8
FORMAT
 62
     7
100
AcDbLine
 10
26.2755504728
 20
205.3040150886
 30
0.0
 11
26.2755504728
 21
189.8040150886
 31
0.0
  0
LINE
  5
241
330
23A
100
AcDbEntity
  8
FORMAT
 62
     7
100
AcDbLine
 10
106.2755497303
 20
190.8040150886
 30
0.0
 11
26.2755504728
 21
190.8040150886
 31
0.0
  0
MTEXT
  5
242
330
23A
100
AcDbEntity
  8
FORMAT
 62
     7
100
AcDbMText
 10
63.6019390567
 20
195.3157524106
 30
0.0
 40
3.5
 41
0.0
 71
     1
 72
     1
  1
80
  7
SLDTEXTSTYLE0
 73
     1
 44
1.0
  0
ENDBLK
  5
23C
330
23A
100
AcDbEntity
  8
0
100
AcDbBlockEnd
  0
BLOCK
  5
244
330
243
100
AcDbEntity
  8
0
100
AcDbBlockBegin
  2
SW_CENTERMARKSYMBOL_0
 70
     0
 10
0.0
 20
0.0
 30
0.0
  3
SW_CENTERMARKSYMBOL_0
  1

  0
LINE
  5
246
330
243
100
AcDbEntity
  8
FORMAT
 62
     0
100
AcDbLine
 10
0.0
 20
0.0
 30
0.0
 11
0.0
 21
2.5
 31
0.0
  0
LINE
  5
247
330
243
100
AcDbEntity
  8
FORMAT
 62
     0
100
AcDbLine
 10
0.0
 20
0.0
 30
0.0
 11
-2.5
 21
0.0
 31
0.0
  0
LINE
  5
248
330
243
100
AcDbEntity
  8
FORMAT
 62
     0
100
AcDbLine
 10
0.0
 20
0.0
 30
0.0
 11
0.0
 21
-2.5
 31
0.0
  0
LINE
  5
249
330
243
100
AcDbEntity
  8
FORMAT
 62
     0
100
AcDbLine
 10
0.0
 20
0.0
 30
0.0
 11
2.5
 21
0.0
 31
0.0
  0
LINE
  5
24A
330
243
100
AcDbEntity
  8
FORMAT
 62
     0
100
AcDbLine
 10
0.0
 20
5.0
 30
0.0
 11
0.0
 21
43.3363673622
 31
0.0
  0
LINE
  5
24B
330
243
100
AcDbEntity
  8
FORMAT
 62
     0
100
AcDbLine
 10
-5.0
 20
0.0
 30
0.0
 11
-44.0217393007
 21
0.0
 31
0.0
  0
LINE
  5
24C
330
243
100
AcDbEntity
  8
FORMAT
 62
     0
100
AcDbLine
 10
0.0
 20
-5.0
 30
0.0
 11
0.0
 21
-43.5531048168
 31
0.0
  0
LINE
  5
24D
330
243
100
AcDbEntity
  8
FORMAT
 62
     0
100
AcDbLine
 10
5.0
 20
0.0
 30
0.0
 11
43.4255182561
 21
0.0
 31
0.0
  0
ENDBLK
  5
245
330
243
100
AcDbEntity
  8
0
100
AcDbBlockEnd
  0
BLOCK
  5
481
330
480
100
AcDbEntity
  8
0
100
AcDbBlockBegin
  2
_D_2
 70
     0
 10
0.0
 20
0.0
 30
0.0
  3
_D_2
  1

  0
SOLID
  5
483
330
480
100
AcDbEntity
  8
FORMAT
 62
     7
100
AcDbTrace
 10
35.2426407223
 20
163.5671624107
 30
0.0
 11
35.750190831
 21
166.8692315934
 31
0.0
 12
34.7341908404
 22
166.8690931667
 32
0.0
 13
34.7341908404
 23
166.8690931667
 33
0.0
  0
SOLID
  5
484
330
480
100
AcDbEntity
  8
FORMAT
 62
     7
100
AcDbTrace
 10
35.2431175857
 20
160.0671624427
 30
0.0
 11
34.735567477
 21
156.76509326
 31
0.0
 12
35.7515674675
 22
156.7652316867
 32
0.0
 13
35.7515674675
 23
156.7652316867
 33
0.0
  0
LINE
  5
485
330
480
100
AcDbEntity
  8
FORMAT
 62
     7
100
AcDbLine
 10
47.7758960365
 20
160.0688699923
 30
0.0
 11
34.243117595
 21
160.067026196
 31
0.0
  0
LINE
  5
486
330
480
100
AcDbEntity
  8
FORMAT
 62
     7
100
AcDbLine
 10
35.2426407223
 20
163.5671624107
 30
0.0
 11
35.2417755558
 21
169.9171623518
 31
0.0
  0
LINE
  5
487
330
480
100
AcDbEntity
  8
FORMAT
 62
     7
100
AcDbLine
 10
35.2426407223
 20
163.5671624107
 30
0.0
 11
35.2431175857
 21
160.0671624427
 31
0.0
  0
LINE
  5
488
330
480
100
AcDbEntity
  8
FORMAT
 62
     7
100
AcDbLine
 10
35.2431175857
 20
160.0671624427
 30
0.0
 11
35.2444600984
 21
150.2136190814
 31
0.0
  0
MTEXT
  5
489
330
480
100
AcDbEntity
  8
FORMAT
 62
     7
100
AcDbMText
 10
30.7327228182
 20
150.2130043721
 30
0.0
 40
3.5
 41
0.0
 71
     1
 72
     1
  1
3,5
  7
SLDTEXTSTYLE0
 11
-0.0001362466892723302
 21
0.9999999907184198
 31
0.0
 73
     1
 44
1.0
  0
ENDBLK
  5
482
330
480
100
AcDbEntity
  8
0
100
AcDbBlockEnd
  0
BLOCK
  5
48D
330
48C
100
AcDbEntity
  8
0
100
AcDbBlockBegin
  2
_D_3
 70
     0
 10
0.0
 20
0.0
 30
0.0
  3
_D_3
  1

  0
SOLID
  5
48F
330
48C
100
AcDbEntity
  8
FORMAT
 62
     7
100
AcDbTrace
 10
22.2929164824
 20
176.8189548493
 30
0.0
 11
22.8004665911
 21
180.1210240319
 31
0.0
 12
21.7844666005
 22
180.1208856053
 32
0.0
 13
21.7844666005
 23
180.1208856053
 33
0.0
  0
SOLID
  5
490
330
48C
100
AcDbEntity
  8
FORMAT
 62
     7
100
AcDbTrace
 10
22.2945859889
 20
164.5653982904
 30
0.0
 11
21.7870358802
 21
161.2633291077
 31
0.0
 12
22.8030358707
 22
161.2634675344
 32
0.0
 13
22.8030358707
 23
161.2634675344
 33
0.0
  0
LINE
  5
491
330
48C
100
AcDbEntity
  8
FORMAT
 62
     7
100
AcDbLine
 10
76.6699773616
 20
176.8263635439
 30
0.0
 11
21.2929164916
 21
176.8188186026
 31
0.0
  0
LINE
  5
492
330
48C
100
AcDbEntity
  8
FORMAT
 62
     7
100
AcDbLine
 10
25.2754142354
 20
164.5658044184
 30
0.0
 11
21.2945859982
 21
164.5652620437
 31
0.0
  0
LINE
  5
493
330
48C
100
AcDbEntity
  8
FORMAT
 62
     7
100
AcDbLine
 10
22.2929164824
 20
176.8189548493
 30
0.0
 11
22.2920513159
 21
183.1689547903
 31
0.0
  0
LINE
  5
494
330
48C
100
AcDbEntity
  8
FORMAT
 62
     7
100
AcDbLine
 10
22.2929164824
 20
176.8189548493
 30
0.0
 11
22.2945859889
 21
164.5653982904
 31
0.0
  0
LINE
  5
495
330
48C
100
AcDbEntity
  8
FORMAT
 62
     7
100
AcDbLine
 10
22.2945859889
 20
164.5653982904
 30
0.0
 11
22.2954511554
 21
158.2153983493
 31
0.0
  0
MTEXT
  5
496
330
48C
100
AcDbEntity
  8
FORMAT
 62
     7
100
AcDbMText
 10
17.7826514291
 20
166.0127425754
 30
0.0
 40
3.5
 41
0.0
 71
     1
 72
     1
  1
12,3
  7
SLDTEXTSTYLE0
 11
-0.0001362466892723302
 21
0.9999999907184198
 31
0.0
 73
     1
 44
1.0
  0
ENDBLK
  5
48E
330
48C
100
AcDbEntity
  8
0
100
AcDbBlockEnd
  0
BLOCK
  5
499
330
498
100
AcDbEntity
  8
0
100
AcDbBlockBegin
  2
_D_4
 70
     0
 10
0.0
 20
0.0
 30
0.0
  3
_D_4
  1

  0
SOLID
  5
49B
330
498
100
AcDbEntity
  8
FORMAT
 62
     7
100
AcDbTrace
 10
109.3443237068
 20
164.5772585291
 30
0.0
 11
109.8518738156
 21
167.8793277117
 31
0.0
 12
108.835873825
 22
167.8791892851
 32
0.0
 13
108.835873825
 23
167.8791892851
 33
0.0
  0
SOLID
  5
49C
330
498
100
AcDbEntity
  8
FORMAT
 62
     7
100
AcDbTrace
 10
109.3444599535
 20
163.5772585383
 30
0.0
 11
108.8369098448
 21
160.2751893557
 31
0.0
 12
109.8529098354
 22
160.2753277823
 32
0.0
 13
109.8529098354
 23
160.2753277823
 33
0.0
  0
LINE
  5
49D
330
498
100
AcDbEntity
  8
FORMAT
 62
     7
100
AcDbLine
 10
107.2754134743
 20
164.5769766469
 30
0.0
 11
110.3443236976
 21
164.5773947758
 31
0.0
  0
LINE
  5
49E
330
498
100
AcDbEntity
  8
FORMAT
 62
     7
100
AcDbLine
 10
107.275549721
 20
163.5769766562
 30
0.0
 11
110.3444599443
 21
163.577394785
 31
0.0
  0
LINE
  5
49F
330
498
100
AcDbEntity
  8
FORMAT
 62
     7
100
AcDbLine
 10
109.3443237068
 20
164.5772585291
 30
0.0
 11
109.3433256089
 21
171.9029258491
 31
0.0
  0
LINE
  5
4A0
330
498
100
AcDbEntity
  8
FORMAT
 62
     7
100
AcDbLine
 10
109.3443237068
 20
164.5772585291
 30
0.0
 11
109.3444599535
 21
163.5772585383
 31
0.0
  0
LINE
  5
4A1
330
498
100
AcDbEntity
  8
FORMAT
 62
     7
100
AcDbLine
 10
109.3444599535
 20
163.5772585383
 30
0.0
 11
109.34532512
 21
157.2272585973
 31
0.0
  0
MTEXT
  5
4A2
330
498
100
AcDbEntity
  8
FORMAT
 62
     7
100
AcDbMText
 10
104.8319525994
 20
169.2287001198
 30
0.0
 40
3.5
 41
0.0
 71
     1
 72
     1
  1
1
  7
SLDTEXTSTYLE0
 11
-0.0001362466892723302
 21
0.9999999907184198
 31
0.0
 73
     1
 44
1.0
  0
ENDBLK
  5
49A
330
498
100
AcDbEntity
  8
0
100
AcDbBlockEnd
  0
BLOCK
  5
55C
330
55B
100
AcDbEntity
  8
0
100
AcDbBlockBegin
  2
_D_5
 70
     0
 10
0.0
 20
0.0
 30
0.0
  3
_D_5
  1

  0
SOLID
  5
55E
330
55B
100
AcDbEntity
  8
FORMAT
 62
     7
100
AcDbTrace
 10
22.7769166788
 20
124.2394760031
 30
0.0
 11
22.2689166788
 21
120.9374760031
 31
0.0
 12
23.2849166788
 22
120.9374760031
 32
0.0
 13
23.2849166788
 23
120.9374760031
 33
0.0
  0
SOLID
  5
55F
330
55B
100
AcDbEntity
  8
FORMAT
 62
     7
100
AcDbTrace
 10
22.7769166788
 20
82.2372480549
 30
0.0
 11
23.2849166788
 21
85.5392480549
 31
0.0
 12
22.2689166788
 22
85.5392480549
 32
0.0
 13
22.2689166788
 23
85.5392480549
 33
0.0
  0
LINE
  5
560
330
55B
100
AcDbEntity
  8
FORMAT
 62
     7
100
AcDbLine
 10
72.781510567
 20
124.2394760031
 30
0.0
 11
21.7769166788
 21
124.2394760031
 31
0.0
  0
LINE
  5
561
330
55B
100
AcDbEntity
  8
FORMAT
 62
     7
100
AcDbLine
 10
72.781510567
 20
82.2372480549
 30
0.0
 11
21.7769166788
 21
82.2372480549
 31
0.0
  0
LINE
  5
562
330
55B
100
AcDbEntity
  8
FORMAT
 62
     7
100
AcDbLine
 10
22.7769166788
 20
124.2394760031
 30
0.0
 11
22.7769166788
 21
82.2372480549
 31
0.0
  0
MTEXT
  5
563
330
55B
100
AcDbEntity
  8
FORMAT
 62
     7
100
AcDbMText
 10
18.2651793568
 20
100.5647509841
 30
0.0
 40
3.5
 41
0.0
 71
     1
 72
     1
  1
42
  7
SLDTEXTSTYLE0
 11
-7.044195017643634E-15
 21
1.0
 31
0.0
 73
     1
 44
1.0
  0
ENDBLK
  5
55D
330
55B
100
AcDbEntity
  8
0
100
AcDbBlockEnd
  0
BLOCK
  5
566
330
565
100
AcDbEntity
  8
0
100
AcDbBlockBegin
  2
_D_6
 70
     0
 10
0.0
 20
0.0
 30
0.0
  3
_D_6
  1

  0
SOLID
  5
568
330
565
100
AcDbEntity
  8
FORMAT
 62
     7
100
AcDbTrace
 10
43.2864305775
 20
136.5302423478
 30
0.0
 11
46.5884305775
 21
136.0222423478
 31
0.0
 12
46.5884305775
 22
137.0382423478
 32
0.0
 13
46.5884305775
 23
137.0382423478
 33
0.0
  0
SOLID
  5
569
330
565
100
AcDbEntity
  8
FORMAT
 62
     7
100
AcDbTrace
 10
89.2864305775
 20
136.5302423478
 30
0.0
 11
85.9844305775
 21
137.0382423478
 31
0.0
 12
85.9844305775
 22
136.0222423478
 32
0.0
 13
85.9844305775
 23
136.0222423478
 33
0.0
  0
LINE
  5
56A
330
565
100
AcDbEntity
  8
FORMAT
 62
     7
100
AcDbLine
 10
43.2864305775
 20
103.6257507316
 30
0.0
 11
43.2864305775
 21
122.7394760031
 31
0.0
  0
LINE
  5
56B
330
565
100
AcDbEntity
  8
FORMAT
 62
     7
100
AcDbLine
 10
43.2864305775
 20
125.7394760031
 30
0.0
 11
43.2864305775
 21
137.5302423478
 31
0.0
  0
LINE
  5
56C
330
565
100
AcDbEntity
  8
FORMAT
 62
     7
100
AcDbLine
 10
89.2864305775
 20
104.3836208283
 30
0.0
 11
89.2864305775
 21
137.5302423478
 31
0.0
  0
LINE
  5
56D
330
565
100
AcDbEntity
  8
FORMAT
 62
     7
100
AcDbLine
 10
43.2864305775
 20
136.5302423478
 30
0.0
 11
89.2864305775
 21
136.5302423478
 31
0.0
  0
MTEXT
  5
56E
330
565
100
AcDbEntity
  8
FORMAT
 62
     7
100
AcDbMText
 10
63.6128195326
 20
141.0419796698
 30
0.0
 40
3.5
 41
0.0
 71
     1
 72
     1
  1
46
  7
SLDTEXTSTYLE0
 73
     1
 44
1.0
  0
ENDBLK
  5
567
330
565
100
AcDbEntity
  8
0
100
AcDbBlockEnd
  0
BLOCK
  5
571
330
570
100
AcDbEntity
  8
0
100
AcDbBlockBegin
  2
_D_7
 70
     0
 10
0.0
 20
0.0
 30
0.0
  3
_D_7
  1

  0
SOLID
  5
573
330
570
100
AcDbEntity
  8
FORMAT
 62
     7
100
AcDbTrace
 10
36.2747054023
 20
67.1043537735
 30
0.0
 11
39.5767054023
 21
66.5963537735
 31
0.0
 12
39.5767054023
 22
67.6123537735
 32
0.0
 13
39.5767054023
 23
67.6123537735
 33
0.0
  0
SOLID
  5
574
330
570
100
AcDbEntity
  8
FORMAT
 62
     7
100
AcDbTrace
 10
96.2747054023
 20
67.1043537735
 30
0.0
 11
92.9727054023
 21
67.6123537735
 31
0.0
 12
92.9727054023
 22
66.5963537735
 32
0.0
 13
92.9727054023
 23
66.5963537735
 33
0.0
  0
LINE
  5
575
330
570
100
AcDbEntity
  8
FORMAT
 62
     7
100
AcDbLine
 10
36.2747054023
 20
98.4256778131
 30
0.0
 11
36.2747054023
 21
66.1043537735
 31
0.0
  0
LINE
  5
576
330
570
100
AcDbEntity
  8
FORMAT
 62
     7
100
AcDbLine
 10
96.2747054023
 20
98.4256778131
 30
0.0
 11
96.2747054023
 21
66.1043537735
 31
0.0
  0
LINE
  5
577
330
570
100
AcDbEntity
  8
FORMAT
 62
     7
100
AcDbLine
 10
36.2747054023
 20
67.1043537735
 30
0.0
 11
96.2747054023
 21
67.1043537735
 31
0.0
  0
MTEXT
  5
578
330
570
100
AcDbEntity
  8
FORMAT
 62
     7
100
AcDbMText
 10
63.6010943574
 20
71.6160910955
 30
0.0
 40
3.5
 41
0.0
 71
     1
 72
     1
  1
60
  7
SLDTEXTSTYLE0
 73
     1
 44
1.0
  0
ENDBLK
  5
572
330
570
100
AcDbEntity
  8
0
100
AcDbBlockEnd
  0
BLOCK
  5
57B
330
57A
100
AcDbEntity
  8
0
100
AcDbBlockBegin
  2
_D_8
 70
     0
 10
0.0
 20
0.0
 30
0.0
  3
_D_8
  1

  0
SOLID
  5
57D
330
57A
100
AcDbEntity
  8
FORMAT
 62
     7
100
AcDbTrace
 10
94.4329939181
 20
102.4280784737
 30
0.0
 11
91.2092565552
 21
101.5627699392
 31
0.0
 12
91.6189199354
 22
100.6330216319
 32
0.0
 13
91.6189199354
 23
100.6330216319
 33
0.0
  0
SOLID
  5
57E
330
57A
100
AcDbEntity
  8
FORMAT
 62
     7
100
AcDbTrace
 10
98.0900571196
 20
104.0394445406
 30
0.0
 11
101.3137944826
 21
104.9047530751
 31
0.0
 12
100.9041311023
 22
105.8345013824
 32
0.0
 13
100.9041311023
 23
105.8345013824
 33
0.0
  0
LINE
  5
57F
330
57A
100
AcDbEntity
  8
FORMAT
 62
     7
100
AcDbLine
 10
94.4076628652
 20
102.4169171684
 30
0.0
 11
94.3937748077
 21
102.4107978471
 31
0.0
  0
LINE
  5
580
330
57A
100
AcDbEntity
  8
FORMAT
 62
     7
100
AcDbLine
 10
98.0647260667
 20
104.0282832352
 30
0.0
 11
98.0508380092
 21
104.0221639139
 31
0.0
  0
LINE
  5
581
330
57A
100
AcDbEntity
  8
FORMAT
 62
     7
100
AcDbLine
 10
94.4329939181
 20
102.4280784737
 30
0.0
 11
88.6274060858
 21
99.8700348426
 31
0.0
  0
LINE
  5
582
330
57A
100
AcDbEntity
  8
FORMAT
 62
     7
100
AcDbLine
 10
94.4329939181
 20
102.4280784737
 30
0.0
 11
98.0900571196
 21
104.0394445406
 31
0.0
  0
LINE
  5
583
330
57A
100
AcDbEntity
  8
FORMAT
 62
     7
100
AcDbLine
 10
98.0900571196
 20
104.0394445406
 30
0.0
 11
115.6446956091
 21
111.7743255692
 31
0.0
  0
MTEXT
  5
584
330
57A
100
AcDbEntity
  8
FORMAT
 62
     7
100
AcDbMText
 10
106.7156609015
 20
112.7703223722
 30
0.0
 40
3.5
 41
0.0
 71
     1
 72
     1
  1
%%c
  7
SLDTEXTSTYLE0
 11
0.9151066016351271
 21
0.4032119884673678
 31
0.0
 73
     1
 44
1.0
  0
MTEXT
  5
585
330
57A
100
AcDbEntity
  8
FORMAT
 62
     7
100
AcDbMText
 10
111.3814853968
 20
114.8367905612
 30
0.0
 40
3.5
 41
0.0
 71
     1
 72
     1
  1
4
  7
SLDTEXTSTYLE0
 11
0.9151066016351271
 21
0.4032119884673678
 31
0.0
 73
     1
 44
1.0
  0
ENDBLK
  5
57C
330
57A
100
AcDbEntity
  8
0
100
AcDbBlockEnd
  0
BLOCK
  5
587
330
586
100
AcDbEntity
  8
0
100
AcDbBlockBegin
  2
SW_CENTERMARKSYMBOL_1
 70
     0
 10
0.0
 20
0.0
 30
0.0
  3
SW_CENTERMARKSYMBOL_1
  1

  0
LINE
  5
589
330
586
100
AcDbEntity
  8
FORMAT
 62
     0
100
AcDbLine
 10
0.0
 20
0.0
 30
0.0
 11
0.0
 21
2.5
 31
0.0
  0
LINE
  5
58A
330
586
100
AcDbEntity
  8
FORMAT
 62
     0
100
AcDbLine
 10
0.0
 20
0.0
 30
0.0
 11
-2.5
 21
0.0
 31
0.0
  0
LINE
  5
58B
330
586
100
AcDbEntity
  8
FORMAT
 62
     0
100
AcDbLine
 10
0.0
 20
0.0
 30
0.0
 11
0.0
 21
-2.5
 31
0.0
  0
LINE
  5
58C
330
586
100
AcDbEntity
  8
FORMAT
 62
     0
100
AcDbLine
 10
0.0
 20
0.0
 30
0.0
 11
2.5
 21
0.0
 31
0.0
  0
LINE
  5
58D
330
586
100
AcDbEntity
  8
FORMAT
 62
     0
100
AcDbLine
 10
0.0
 20
5.0
 30
0.0
 11
0.0
 21
31.9827077252
 31
0.0
  0
LINE
  5
58E
330
586
100
AcDbEntity
  8
FORMAT
 62
     0
100
AcDbLine
 10
-5.0
 20
0.0
 30
0.0
 11
-42.3380514429
 21
0.0
 31
0.0
  0
LINE
  5
58F
330
586
100
AcDbEntity
  8
FORMAT
 62
     0
100
AcDbLine
 10
0.0
 20
-5.0
 30
0.0
 11
0.0
 21
-29.5544240691
 31
0.0
  0
LINE
  5
590
330
586
100
AcDbEntity
  8
FORMAT
 62
     0
100
AcDbLine
 10
5.0
 20
0.0
 30
0.0
 11
41.7774463136
 21
0.0
 31
0.0
  0
ENDBLK
  5
588
330
586
100
AcDbEntity
  8
0
100
AcDbBlockEnd
  0
ENDSEC
  0
SECTION
  2
ENTITIES
  0
LINE
  5
BE
330
1F
100
AcDbEntity
  8
FORMAT
  6
Continuous
 62
     7
370
    18
100
AcDbLine
 10
168.2233544162
 20
35.6464717326
 30
0.0
 11
100.034011087
 21
35.6464717326
 31
0.0
  0
LINE
  5
BF
330
1F
100
AcDbEntity
  8
FORMAT
  6
Continuous
 62
     7
370
    18
100
AcDbLine
 10
168.2233544162
 20
48.7420674192
 30
0.0
 11
199.7748262501
 21
48.7420674192
 31
0.0
  0
LINE
  5
C0
330
1F
100
AcDbEntity
  8
FORMAT
  6
Continuous
 62
     7
370
    18
100
AcDbLine
 10
154.5410273733
 20
35.6464717326
 30
0.0
 11
154.5410273733
 21
25.9765524102
 31
0.0
  0
LINE
  5
C1
330
1F
100
AcDbEntity
  8
BEMASSUNG
  6
Continuous
 62
     7
370
    18
100
AcDbLine
 10
168.2233544162
 20
40.5638075942
 30
0.0
 11
199.7748262501
 21
40.5638075942
 31
0.0
  0
LINE
  5
C2
330
1F
100
AcDbEntity
  8
FORMAT
100
AcDbLine
 10
9.9438597858
 20
287.0
 30
0.0
 11
9.9438597858
 21
10.0
 31
0.0
  0
LINE
  5
C3
330
1F
100
AcDbEntity
  8
FORMAT
 62
     7
370
    18
100
AcDbLine
 10
100.034011087
 20
52.6963884738
 30
0.0
 11
100.034011087
 21
10.0
 31
0.0
  0
LINE
  5
C4
330
1F
100
AcDbEntity
  8
FORMAT
 62
     7
100
AcDbLine
 10
185.0302857672
 20
10.0
 30
0.0
 11
185.0302857672
 21
19.3470401503
 31
0.0
  0
LINE
  5
C5
330
1F
100
AcDbEntity
  8
FORMAT
 62
     7
100
AcDbLine
 10
100.034011087
 20
25.9765524102
 30
0.0
 11
199.7748262501
 21
25.9765524102
 31
0.0
  0
LINE
  5
C6
330
1F
100
AcDbEntity
  8
FORMAT
 62
     7
100
AcDbLine
 10
168.2233544162
 20
19.3470401503
 30
0.0
 11
199.7748262501
 21
19.3470401503
 31
0.0
  0
LINE
  5
C7
330
1F
100
AcDbEntity
  8
FORMAT
100
AcDbLine
 10
9.9438597858
 20
10.0
 30
0.0
 11
199.9438597858
 21
10.0
 31
0.0
  0
LINE
  5
C8
330
1F
100
AcDbEntity
  8
FORMAT
 62
     7
100
AcDbLine
 10
100.034011087
 20
52.6963884738
 30
0.0
 11
199.7882081366
 21
52.6963884738
 31
0.0
  0
LINE
  5
C9
330
1F
100
AcDbEntity
  8
FORMAT
 62
     7
100
AcDbLine
 10
168.2233544162
 20
10.0
 30
0.0
 11
168.2233544162
 21
52.6963884738
 31
0.0
  0
LINE
  5
CA
330
1F
100
AcDbEntity
  8
FORMAT
100
AcDbLine
 10
199.9438597858
 20
10.0
 30
0.0
 11
199.9438597858
 21
287.0
 31
0.0
  0
LINE
  5
CB
330
1F
100
AcDbEntity
  8
FORMAT
100
AcDbLine
 10
199.9438597858
 20
287.0
 30
0.0
 11
9.9438597858
 21
287.0
 31
0.0
  0
INSERT
  5
CC
330
1F
100
AcDbEntity
  8
FORMAT
100
AcDbBlockReference
  2
Block2
 10
-130.7567167495
 20
-36.9711154434
 30
0.0
  0
INSERT
  5
CD
330
1F
100
AcDbEntity
  8
FORMAT
100
AcDbBlockReference
  2
Block1
 10
175.6328999998
 20
27.0956685316
 30
0.0
  0
MTEXT
  5
CF
330
1F
100
AcDbEntity
  8
0
  6
Continuous
 62
     7
370
     0
100
AcDbMText
 10
101.379344253
 20
31.2497388993
 30
0.0
 40
3.175
 41
0.0
 71
     1
 72
     1
  1
D007-52841
  7
SLDTEXTSTYLE3
 73
     1
 44
1.0
  0
MTEXT
  5
D0
330
1F
100
AcDbEntity
  8
BEMASSUNG
 62
     7
100
AcDbMText
 10
169.1138237549
 20
47.9795870073
 30
0.0
 40
2.0
 41
0.0
 71
     1
 72
     1
  1
Ausführung:
  7
SLDTEXTSTYLE0
 73
     1
 44
1.0
  0
MTEXT
  5
D1
330
1F
100
AcDbEntity
  8
FORMAT
100
AcDbMText
 10
157.9048085267
 20
34.4345411691
 30
0.0
 40
2.0
 41
0.0
 71
     1
 72
     1
  1
Index:
  7
SLDTEXTSTYLE0
 73
     1
 44
1.0
  0
MTEXT
  5
D2
330
1F
100
AcDbEntity
  8
FORMAT
100
AcDbMText
 10
170.7771570289
 20
51.6009600552
 30
0.0
 40
1.8
 41
0.0
 71
     1
 72
     1
  1
KATALOGZEICHNUNG
  7
SLDTEXTSTYLE3
 73
     1
 44
1.0
  0
MTEXT
  5
D3
330
1F
100
AcDbEntity
  8
FORMAT
100
AcDbMText
 10
101.6738581533
 20
34.7696723378
 30
0.0
 40
2.0
 41
0.0
 71
     1
 72
     1
  1
Zeichnungsnummer:
  7
SLDTEXTSTYLE0
 73
     1
 44
1.0
  0
MTEXT
  5
D4
330
1F
100
AcDbEntity
  8
FORMAT
100
AcDbMText
 10
178.7654032586
 20
14.2806067945
 30
0.0
 40
2.1166666667
 41
0.0
 71
     1
 72
     1
  1
1
  7
SLDTEXTSTYLE0
 73
     1
 44
1.0
  0
MTEXT
  5
D5
330
1F
100
AcDbEntity
  8
FORMAT
100
AcDbMText
 10
172.6928815371
 20
14.2806067945
 30
0.0
 40
2.1166666667
 41
0.0
 71
     1
 72
     1
  1
1
  7
SLDTEXTSTYLE0
 73
     1
 44
1.0
  0
MTEXT
  5
D6
330
1F
100
AcDbEntity
  8
FORMAT
100
AcDbMText
 10
190.3665335114
 20
14.1724992936
 30
0.0
 40
2.1166666667
 41
0.0
 71
     1
 72
     1
  1
A4
  7
SLDTEXTSTYLE0
 73
     1
 44
1.0
  0
MTEXT
  5
D7
330
1F
100
AcDbEntity
  8
FORMAT
100
AcDbMText
 10
183.0445761222
 20
23.7012230636
 30
0.0
 40
2.1166666667
 41
0.0
 71
     1
 72
     1
  1
1:1
  7
SLDTEXTSTYLE0
 73
     1
 44
1.0
  0
MTEXT
  5
D8
330
1F
100
AcDbEntity
  8
FORMAT
100
AcDbMText
 10
176.4699079998
 20
14.3853488894
 30
0.0
 40
2.5
 41
0.0
 71
     2
 72
     1
  1
/
  7
SLDTEXTSTYLE0
 73
     1
 44
1.0
  0
MTEXT
  5
D9
330
1F
100
AcDbEntity
  8
FORMAT
100
AcDbMText
 10
170.4739006917
 20
17.8898077508
 30
0.0
 40
2.0
 41
0.0
 71
     1
 72
     1
  1
Blatt / von
  7
SLDTEXTSTYLE0
 73
     1
 44
1.0
  0
MTEXT
  5
DA
330
1F
100
AcDbEntity
  8
FORMAT
100
AcDbMText
 10
101.4386342429
 20
51.292111694
 30
0.0
 40
2.0
 41
0.0
 71
     1
 72
     1
  1
Benennung:
  7
SLDTEXTSTYLE0
 73
     1
 44
1.0
  0
MTEXT
  5
DB
330
1F
100
AcDbEntity
  8
FORMAT
100
AcDbMText
 10
187.8238638594
 20
17.8898077508
 30
0.0
 40
2.0
 41
0.0
 71
     1
 72
     1
  1
Format
  7
SLDTEXTSTYLE0
 73
     1
 44
1.0
  0
MTEXT
  5
DC
330
1F
100
AcDbEntity
  8
FORMAT
100
AcDbMText
 10
169.1523306895
 20
23.5727761737
 30
0.0
 40
2.0
 41
0.0
 71
     1
 72
     1
  1
Maßstab:
  7
SLDTEXTSTYLE0
 73
     1
 44
1.0
  0
MTEXT
  5
DD
330
1F
100
AcDbEntity
  8
FORMAT
100
AcDbMText
 10
101.3063537626
 20
47.9174905769
 30
0.0
 40
3.5
 41
0.0
 71
     1
 72
     1
  1
BFT 100
  7
SLDTEXTSTYLE3
 73
     1
 44
1.0
  0
MTEXT
  5
DE
330
1F
100
AcDbEntity
  8
FORMAT
100
AcDbMText
 10
101.3063537626
 20
43.3217919868
 30
0.0
 40
2.5
 41
0.0
 71
     1
 72
     1
  1
berührungsloser Taster
  7
SLDTEXTSTYLE3
 73
     1
 44
1.0
  0
INSERT
  5
EC
330
1F
100
AcDbEntity
  8
FORMAT
100
AcDbBlockReference
  2
SW_NOTE_0_3
 10
11.7828650021
 20
40.9161213672
 30
0.0
  0
LINE
  5
ED
330
1F
100
AcDbEntity
  8
0
  6
Continuous
 62
     7
370
    25
100
AcDbLine
 10
46.280733602
 20
272.0630820323
 30
0.0
 11
46.2807472266
 21
272.0630820323
 31
0.0
  0
LINE
  5
EE
330
1F
100
AcDbEntity
  8
0
  6
Continuous
 62
     7
370
    25
100
AcDbLine
 10
46.2807472266
 20
273.5630820323
 30
0.0
 11
46.280733602
 21
273.5630820323
 31
0.0
  0
LINE
  5
EF
330
1F
100
AcDbEntity
  8
0
  6
Continuous
 62
     7
370
    25
100
AcDbLine
 10
46.280733602
 20
267.8277856428
 30
0.0
 11
46.2807472266
 21
267.8277856428
 31
0.0
  0
LINE
  5
F0
330
1F
100
AcDbEntity
  8
0
  6
Continuous
 62
     7
370
    25
100
AcDbLine
 10
46.2807472266
 20
269.3277856428
 30
0.0
 11
46.280733602
 21
269.3277856428
 31
0.0
  0
LINE
  5
F1
330
1F
100
AcDbEntity
  8
0
  6
Continuous
 62
     7
370
    25
100
AcDbLine
 10
46.280733602
 20
263.5924892532
 30
0.0
 11
46.2807472266
 21
263.5924892532
 31
0.0
  0
LINE
  5
F2
330
1F
100
AcDbEntity
  8
0
  6
Continuous
 62
     7
370
    25
100
AcDbLine
 10
46.2807472266
 20
265.0924892532
 30
0.0
 11
46.280733602
 21
265.0924892532
 31
0.0
  0
LINE
  5
F3
330
1F
100
AcDbEntity
  8
0
  6
Continuous
 62
     7
370
    25
100
AcDbLine
 10
49.9458939051
 20
272.0630820323
 30
0.0
 11
49.9459075298
 21
272.0630820323
 31
0.0
  0
LINE
  5
F4
330
1F
100
AcDbEntity
  8
0
  6
Continuous
 62
     7
370
    25
100
AcDbLine
 10
49.9459075298
 20
273.5630820323
 30
0.0
 11
49.9458939051
 21
273.5630820323
 31
0.0
  0
LINE
  5
F5
330
1F
100
AcDbEntity
  8
0
  6
Continuous
 62
     7
370
    25
100
AcDbLine
 10
55.2400143429
 20
272.0630820323
 30
0.0
 11
55.2400279676
 21
272.0630820323
 31
0.0
  0
LINE
  5
F6
330
1F
100
AcDbEntity
  8
0
  6
Continuous
 62
     7
370
    25
100
AcDbLine
 10
55.2400279676
 20
273.5630820323
 30
0.0
 11
55.2400143429
 21
273.5630820323
 31
0.0
  0
LINE
  5
F7
330
1F
100
AcDbEntity
  8
0
  6
Continuous
 62
     7
370
    25
100
AcDbLine
 10
55.2400143429
 20
263.5924892532
 30
0.0
 11
55.2400279676
 21
263.5924892532
 31
0.0
  0
LINE
  5
F8
330
1F
100
AcDbEntity
  8
0
  6
Continuous
 62
     7
370
    25
100
AcDbLine
 10
55.2400279676
 20
265.0924892532
 30
0.0
 11
55.2400143429
 21
265.0924892532
 31
0.0
  0
LINE
  5
F9
330
1F
100
AcDbEntity
  8
0
  6
Continuous
 62
     7
370
    25
100
AcDbLine
 10
58.009246572
 20
267.9906816577
 30
0.0
 11
58.0092601966
 21
267.9906816577
 31
0.0
  0
LINE
  5
FA
330
1F
100
AcDbEntity
  8
0
  6
Continuous
 62
     7
370
    25
100
AcDbLine
 10
58.0092601966
 20
269.4906816577
 30
0.0
 11
58.009246572
 21
269.4906816577
 31
0.0
  0
LINE
  5
FB
330
1F
100
AcDbEntity
  8
0
  6
Continuous
 62
     7
370
    25
100
AcDbLine
 10
63.9980705967
 20
272.0630820323
 30
0.0
 11
63.9980842213
 21
272.0630820323
 31
0.0
  0
LINE
  5
FC
330
1F
100
AcDbEntity
  8
0
  6
Continuous
 62
     7
370
    25
100
AcDbLine
 10
63.9980842213
 20
273.5630820323
 30
0.0
 11
63.9980705967
 21
273.5630820323
 31
0.0
  0
LINE
  5
FD
330
1F
100
AcDbEntity
  8
0
  6
Continuous
 62
     7
370
    25
100
AcDbLine
 10
63.9980705967
 20
267.8277856428
 30
0.0
 11
63.9980842213
 21
267.8277856428
 31
0.0
  0
LINE
  5
FE
330
1F
100
AcDbEntity
  8
0
  6
Continuous
 62
     7
370
    25
100
AcDbLine
 10
63.9980842213
 20
269.3277856428
 30
0.0
 11
63.9980705967
 21
269.3277856428
 31
0.0
  0
LINE
  5
FF
330
1F
100
AcDbEntity
  8
0
  6
Continuous
 62
     7
370
    25
100
AcDbLine
 10
63.9980705967
 20
263.5924892532
 30
0.0
 11
63.9980842213
 21
263.5924892532
 31
0.0
  0
LINE
  5
100
330
1F
100
AcDbEntity
  8
0
  6
Continuous
 62
     7
370
    25
100
AcDbLine
 10
63.9980842213
 20
265.0924892532
 30
0.0
 11
63.9980705967
 21
265.0924892532
 31
0.0
  0
LINE
  5
101
330
1F
100
AcDbEntity
  8
0
  6
Continuous
 62
     7
370
    25
100
AcDbLine
 10
67.0499753196
 20
267.8277856428
 30
0.0
 11
67.0499889443
 21
267.8277856428
 31
0.0
  0
LINE
  5
102
330
1F
100
AcDbEntity
  8
0
  6
Continuous
 62
     7
370
    25
100
AcDbLine
 10
67.0499889443
 20
269.3277856428
 30
0.0
 11
67.0499753196
 21
269.3277856428
 31
0.0
  0
LINE
  5
103
330
1F
100
AcDbEntity
  8
0
  6
Continuous
 62
     7
370
    25
100
AcDbLine
 10
72.7513357912
 20
267.8277856428
 30
0.0
 11
72.7513494158
 21
267.8277856428
 31
0.0
  0
LINE
  5
104
330
1F
100
AcDbEntity
  8
0
  6
Continuous
 62
     7
370
    25
100
AcDbLine
 10
72.7513494158
 20
269.3277856428
 30
0.0
 11
72.7513357912
 21
269.3277856428
 31
0.0
  0
LINE
  5
105
330
1F
100
AcDbEntity
  8
0
  6
Continuous
 62
     7
370
    25
100
AcDbLine
 10
72.7513357912
 20
263.5924892532
 30
0.0
 11
72.7513494158
 21
263.5924892532
 31
0.0
  0
LINE
  5
106
330
1F
100
AcDbEntity
  8
0
  6
Continuous
 62
     7
370
    25
100
AcDbLine
 10
72.7513494158
 20
265.0924892532
 30
0.0
 11
72.7513357912
 21
265.0924892532
 31
0.0
  0
LINE
  5
107
330
1F
100
AcDbEntity
  8
0
  6
Continuous
 62
     7
370
    25
100
AcDbLine
 10
75.4391200134
 20
272.0630820323
 30
0.0
 11
75.4391336381
 21
272.0630820323
 31
0.0
  0
LINE
  5
108
330
1F
100
AcDbEntity
  8
0
  6
Continuous
 62
     7
370
    25
100
AcDbLine
 10
75.4391336381
 20
273.5630820323
 30
0.0
 11
75.4391200134
 21
273.5630820323
 31
0.0
  0
LINE
  5
109
330
1F
100
AcDbEntity
  8
0
  6
Continuous
 62
     7
370
    25
100
AcDbLine
 10
75.4391200134
 20
267.8277856428
 30
0.0
 11
75.4391336381
 21
267.8277856428
 31
0.0
  0
LINE
  5
10A
330
1F
100
AcDbEntity
  8
0
  6
Continuous
 62
     7
370
    25
100
AcDbLine
 10
75.4391336381
 20
269.3277856428
 30
0.0
 11
75.4391200134
 21
269.3277856428
 31
0.0
  0
LINE
  5
10B
330
1F
100
AcDbEntity
  8
0
  6
Continuous
 62
     7
370
    25
100
AcDbLine
 10
80.5703444378
 20
272.0630820323
 30
0.0
 11
80.5703580625
 21
272.0630820323
 31
0.0
  0
LINE
  5
10C
330
1F
100
AcDbEntity
  8
0
  6
Continuous
 62
     7
370
    25
100
AcDbLine
 10
80.5703580625
 20
273.5630820323
 30
0.0
 11
80.5703444378
 21
273.5630820323
 31
0.0
  0
LINE
  5
10D
330
1F
100
AcDbEntity
  8
0
  6
Continuous
 62
     7
370
    25
100
AcDbLine
 10
83.0952326466
 20
267.8277856428
 30
0.0
 11
83.0952462713
 21
267.8277856428
 31
0.0
  0
LINE
  5
10E
330
1F
100
AcDbEntity
  8
0
  6
Continuous
 62
     7
370
    25
100
AcDbLine
 10
83.0952462713
 20
269.3277856428
 30
0.0
 11
83.0952326466
 21
269.3277856428
 31
0.0
  0
LINE
  5
10F
330
1F
100
AcDbEntity
  8
0
  6
Continuous
 62
     7
370
    25
100
AcDbLine
 10
43.6893428905
 20
210.9436256767
 30
0.0
 11
43.6893292658
 21
210.9436256767
 31
0.0
  0
LINE
  5
110
330
1F
100
AcDbEntity
  8
0
  6
Continuous
 62
     7
370
    25
100
AcDbLine
 10
77.5853799078
 20
222.2037248004
 30
0.0
 11
77.5853662832
 21
222.2037248004
 31
0.0
  0
LINE
  5
111
330
1F
100
AcDbEntity
  8
0
  6
Continuous
 62
     7
370
    25
100
AcDbLine
 10
77.893293999
 20
215.2573976914
 30
0.0
 11
77.8932803743
 21
215.2573976914
 31
0.0
  0
LINE
  5
112
330
1F
100
AcDbEntity
  8
0
  6
Continuous
 62
     7
370
    25
100
AcDbLine
 10
81.3392344416
 20
220.0453149242
 30
0.0
 11
81.3392208169
 21
220.0453149242
 31
0.0
  0
LINE
  5
113
330
1F
100
AcDbEntity
  8
0
  6
Continuous
 62
     7
370
    25
100
AcDbLine
 10
81.6530487604
 20
205.9122427805
 30
0.0
 11
81.6530623851
 21
205.9122427805
 31
0.0
  0
LINE
  5
114
330
1F
100
AcDbEntity
  8
0
  6
Continuous
 62
     7
370
    25
100
AcDbLine
 10
83.8834772549
 20
219.701765809
 30
0.0
 11
83.8834636302
 21
219.701765809
 31
0.0
  0
LINE
  5
115
330
1F
100
AcDbEntity
  8
0
  6
Continuous
 62
     7
370
    25
100
AcDbLine
 10
85.8273762434
 20
220.1760749804
 30
0.0
 11
85.8273626187
 21
220.1760749804
 31
0.0
  0
LINE
  5
116
330
1F
100
AcDbEntity
  8
0
  6
Continuous
 62
     7
370
    25
100
AcDbLine
 10
36.2754141346
 20
238.8040150906
 30
0.0
 11
36.275415497
 21
238.8040150906
 31
0.0
  0
LINE
  5
117
330
1F
100
AcDbEntity
  8
0
  6
Continuous
 62
     7
370
    25
100
AcDbLine
 10
36.275415497
 20
242.8040150906
 30
0.0
 11
36.2754141346
 21
242.8040150906
 31
0.0
  0
LINE
  5
118
330
1F
100
AcDbEntity
  8
0
  6
Continuous
 62
     7
370
    25
100
AcDbLine
 10
96.2754149389
 20
242.8040150906
 30
0.0
 11
96.2754135764
 21
242.8040150906
 31
0.0
  0
LINE
  5
119
330
1F
100
AcDbEntity
  8
0
  6
Continuous
 62
     7
370
    25
100
AcDbLine
 10
96.2754135764
 20
238.8040150906
 30
0.0
 11
96.2754149389
 21
238.8040150906
 31
0.0
  0
LINE
  5
11A
330
1F
100
AcDbEntity
  8
0
  6
Continuous
 62
     7
370
    25
100
AcDbLine
 10
66.2757544716
 20
220.3040150861
 30
0.0
 11
66.2758225946
 21
220.3040150861
 31
0.0
  0
LINE
  5
11B
330
1F
100
AcDbEntity
  8
0
  6
Continuous
 62
     7
370
    25
100
AcDbLine
 10
66.2758225946
 20
261.30401509
 30
0.0
 11
66.2757544716
 21
261.30401509
 31
0.0
  0
CIRCLE
  5
11C
330
1F
100
AcDbEntity
  8
0
  6
Continuous
 62
     7
370
    25
100
AcDbCircle
 10
46.2807472266
 20
272.8130820323
 30
0.0
 40
0.750000000000005
  0
CIRCLE
  5
11D
330
1F
100
AcDbEntity
  8
0
  6
Continuous
 62
     7
370
    25
100
AcDbCircle
 10
46.2807472266
 20
268.5777856428
 30
0.0
 40
0.750000000000005
  0
CIRCLE
  5
11E
330
1F
100
AcDbEntity
  8
0
  6
Continuous
 62
     7
370
    25
100
AcDbCircle
 10
46.2807472266
 20
264.3424892532
 30
0.0
 40
0.750000000000005
  0
CIRCLE
  5
11F
330
1F
100
AcDbEntity
  8
0
  6
Continuous
 62
     7
370
    25
100
AcDbCircle
 10
49.9459075298
 20
272.8130820323
 30
0.0
 40
0.750000000000005
  0
CIRCLE
  5
120
330
1F
100
AcDbEntity
  8
0
  6
Continuous
 62
     7
370
    25
100
AcDbCircle
 10
55.2400279676
 20
272.8130820323
 30
0.0
 40
0.750000000000005
  0
CIRCLE
  5
121
330
1F
100
AcDbEntity
  8
0
  6
Continuous
 62
     7
370
    25
100
AcDbCircle
 10
55.2400279676
 20
264.3424892532
 30
0.0
 40
0.750000000000005
  0
CIRCLE
  5
122
330
1F
100
AcDbEntity
  8
0
  6
Continuous
 62
     7
370
    25
100
AcDbCircle
 10
58.0092601966
 20
268.7406816577
 30
0.0
 40
0.750000000000005
  0
CIRCLE
  5
123
330
1F
100
AcDbEntity
  8
0
  6
Continuous
 62
     7
370
    25
100
AcDbCircle
 10
63.9980842213
 20
272.8130820323
 30
0.0
 40
0.750000000000005
  0
CIRCLE
  5
124
330
1F
100
AcDbEntity
  8
0
  6
Continuous
 62
     7
370
    25
100
AcDbCircle
 10
63.9980842213
 20
268.5777856428
 30
0.0
 40
0.750000000000005
  0
CIRCLE
  5
125
330
1F
100
AcDbEntity
  8
0
  6
Continuous
 62
     7
370
    25
100
AcDbCircle
 10
63.9980842213
 20
264.3424892532
 30
0.0
 40
0.750000000000005
  0
CIRCLE
  5
126
330
1F
100
AcDbEntity
  8
0
  6
Continuous
 62
     7
370
    25
100
AcDbCircle
 10
67.0499889443
 20
268.5777856428
 30
0.0
 40
0.7499999999999979
  0
CIRCLE
  5
127
330
1F
100
AcDbEntity
  8
0
  6
Continuous
 62
     7
370
    25
100
AcDbCircle
 10
72.7513494158
 20
268.5777856428
 30
0.0
 40
0.7500000000000121
  0
CIRCLE
  5
128
330
1F
100
AcDbEntity
  8
0
  6
Continuous
 62
     7
370
    25
100
AcDbCircle
 10
72.7513494158
 20
264.3424892532
 30
0.0
 40
0.7500000000000121
  0
CIRCLE
  5
129
330
1F
100
AcDbEntity
  8
0
  6
Continuous
 62
     7
370
    25
100
AcDbCircle
 10
75.4391336381
 20
272.8130820323
 30
0.0
 40
0.7500000000000121
  0
CIRCLE
  5
12A
330
1F
100
AcDbEntity
  8
0
  6
Continuous
 62
     7
370
    25
100
AcDbCircle
 10
75.4391336381
 20
268.5777856428
 30
0.0
 40
0.7500000000000121
  0
CIRCLE
  5
12B
330
1F
100
AcDbEntity
  8
0
  6
Continuous
 62
     7
370
    25
100
AcDbCircle
 10
80.5703580625
 20
272.8130820323
 30
0.0
 40
0.7499999999999979
  0
CIRCLE
  5
12C
330
1F
100
AcDbEntity
  8
0
  6
Continuous
 62
     7
370
    25
100
AcDbCircle
 10
83.0952462713
 20
268.5777856428
 30
0.0
 40
0.7500000000000121
  0
ARC
  5
12D
330
1F
100
AcDbEntity
  8
0
  6
Continuous
 62
     7
370
    25
100
AcDbCircle
 10
46.280733602
 20
272.8130820323
 30
0.0
 40
0.750000000000005
100
AcDbArc
 50
179.9921936397
 51
270.0
  0
ARC
  5
12E
330
1F
100
AcDbEntity
  8
0
  6
Continuous
 62
     7
370
    25
100
AcDbCircle
 10
46.280733602
 20
272.8130820323
 30
0.0
 40
0.750000000000005
100
AcDbArc
 50
90.0
 51
179.9921936397
  0
ARC
  5
12F
330
1F
100
AcDbEntity
  8
0
  6
Continuous
 62
     7
370
    25
100
AcDbCircle
 10
46.280733602
 20
268.5777856428
 30
0.0
 40
0.750000000000005
100
AcDbArc
 50
179.9921936397
 51
270.0
  0
ARC
  5
130
330
1F
100
AcDbEntity
  8
0
  6
Continuous
 62
     7
370
    25
100
AcDbCircle
 10
46.280733602
 20
268.5777856428
 30
0.0
 40
0.750000000000005
100
AcDbArc
 50
90.0
 51
179.9921936397
  0
ARC
  5
131
330
1F
100
AcDbEntity
  8
0
  6
Continuous
 62
     7
370
    25
100
AcDbCircle
 10
46.280733602
 20
264.3424892532
 30
0.0
 40
0.750000000000005
100
AcDbArc
 50
179.9921936397
 51
270.0
  0
ARC
  5
132
330
1F
100
AcDbEntity
  8
0
  6
Continuous
 62
     7
370
    25
100
AcDbCircle
 10
46.280733602
 20
264.3424892532
 30
0.0
 40
0.7500000000000568
100
AcDbArc
 50
90.0
 51
179.9921936397
  0
ARC
  5
133
330
1F
100
AcDbEntity
  8
0
  6
Continuous
 62
     7
370
    25
100
AcDbCircle
 10
49.9458939051
 20
272.8130820323
 30
0.0
 40
0.75
100
AcDbArc
 50
179.9921936397
 51
270.0
  0
ARC
  5
134
330
1F
100
AcDbEntity
  8
0
  6
Continuous
 62
     7
370
    25
100
AcDbCircle
 10
49.9458939051
 20
272.8130820323
 30
0.0
 40
0.75
100
AcDbArc
 50
90.0
 51
179.9921936397
  0
ARC
  5
135
330
1F
100
AcDbEntity
  8
0
  6
Continuous
 62
     7
370
    25
100
AcDbCircle
 10
55.2400143429
 20
272.8130820323
 30
0.0
 40
0.750000000000005
100
AcDbArc
 50
179.9921936397
 51
270.0
  0
ARC
  5
136
330
1F
100
AcDbEntity
  8
0
  6
Continuous
 62
     7
370
    25
100
AcDbCircle
 10
55.2400143429
 20
272.8130820323
 30
0.0
 40
0.750000000000005
100
AcDbArc
 50
90.0
 51
179.9921936397
  0
ARC
  5
137
330
1F
100
AcDbEntity
  8
0
  6
Continuous
 62
     7
370
    25
100
AcDbCircle
 10
55.2400143429
 20
264.3424892532
 30
0.0
 40
0.750000000000005
100
AcDbArc
 50
179.9921936397
 51
270.0
  0
ARC
  5
138
330
1F
100
AcDbEntity
  8
0
  6
Continuous
 62
     7
370
    25
100
AcDbCircle
 10
55.2400143429
 20
264.3424892532
 30
0.0
 40
0.7500000000000568
100
AcDbArc
 50
90.0
 51
179.9921936397
  0
ARC
  5
139
330
1F
100
AcDbEntity
  8
0
  6
Continuous
 62
     7
370
    25
100
AcDbCircle
 10
58.009246572
 20
268.7406816577
 30
0.0
 40
0.750000000000005
100
AcDbArc
 50
179.9921936397
 51
270.0
  0
ARC
  5
13A
330
1F
100
AcDbEntity
  8
0
  6
Continuous
 62
     7
370
    25
100
AcDbCircle
 10
58.009246572
 20
268.7406816577
 30
0.0
 40
0.7500000000000568
100
AcDbArc
 50
90.0
 51
179.9921936397
  0
ARC
  5
13B
330
1F
100
AcDbEntity
  8
0
  6
Continuous
 62
     7
370
    25
100
AcDbCircle
 10
63.9980705967
 20
272.8130820323
 30
0.0
 40
0.750000000000005
100
AcDbArc
 50
179.9921936397
 51
270.0
  0
ARC
  5
13C
330
1F
100
AcDbEntity
  8
0
  6
Continuous
 62
     7
370
    25
100
AcDbCircle
 10
63.9980705967
 20
272.8130820323
 30
0.0
 40
0.750000000000005
100
AcDbArc
 50
90.0
 51
179.9921936397
  0
ARC
  5
13D
330
1F
100
AcDbEntity
  8
0
  6
Continuous
 62
     7
370
    25
100
AcDbCircle
 10
63.9980705967
 20
268.5777856428
 30
0.0
 40
0.750000000000005
100
AcDbArc
 50
179.9921936397
 51
270.0
  0
ARC
  5
13E
330
1F
100
AcDbEntity
  8
0
  6
Continuous
 62
     7
370
    25
100
AcDbCircle
 10
63.9980705967
 20
268.5777856428
 30
0.0
 40
0.750000000000005
100
AcDbArc
 50
90.0
 51
179.9921936397
  0
ARC
  5
13F
330
1F
100
AcDbEntity
  8
0
  6
Continuous
 62
     7
370
    25
100
AcDbCircle
 10
63.9980705967
 20
264.3424892532
 30
0.0
 40
0.750000000000005
100
AcDbArc
 50
179.9921936397
 51
270.0
  0
ARC
  5
140
330
1F
100
AcDbEntity
  8
0
  6
Continuous
 62
     7
370
    25
100
AcDbCircle
 10
63.9980705967
 20
264.3424892532
 30
0.0
 40
0.7500000000000568
100
AcDbArc
 50
90.0
 51
179.9921936397
  0
ARC
  5
141
330
1F
100
AcDbEntity
  8
0
  6
Continuous
 62
     7
370
    25
100
AcDbCircle
 10
67.0499753196
 20
268.5777856428
 30
0.0
 40
0.75
100
AcDbArc
 50
179.9921936397
 51
270.0
  0
ARC
  5
142
330
1F
100
AcDbEntity
  8
0
  6
Continuous
 62
     7
370
    25
100
AcDbCircle
 10
67.0499753196
 20
268.5777856428
 30
0.0
 40
0.75
100
AcDbArc
 50
90.0
 51
179.9921936397
  0
ARC
  5
143
330
1F
100
AcDbEntity
  8
0
  6
Continuous
 62
     7
370
    25
100
AcDbCircle
 10
72.7513357912
 20
268.5777856428
 30
0.0
 40
0.7500000000000121
100
AcDbArc
 50
179.9921936397
 51
270.0
  0
ARC
  5
144
330
1F
100
AcDbEntity
  8
0
  6
Continuous
 62
     7
370
    25
100
AcDbCircle
 10
72.7513357912
 20
268.5777856428
 30
0.0
 40
0.7500000000000121
100
AcDbArc
 50
90.0
 51
179.9921936397
  0
ARC
  5
145
330
1F
100
AcDbEntity
  8
0
  6
Continuous
 62
     7
370
    25
100
AcDbCircle
 10
72.7513357912
 20
264.3424892532
 30
0.0
 40
0.7500000000000121
100
AcDbArc
 50
179.9921936397
 51
270.0
  0
ARC
  5
146
330
1F
100
AcDbEntity
  8
0
  6
Continuous
 62
     7
370
    25
100
AcDbCircle
 10
72.7513357912
 20
264.3424892532
 30
0.0
 40
0.7500000000000568
100
AcDbArc
 50
90.0
 51
179.9921936397
  0
ARC
  5
147
330
1F
100
AcDbEntity
  8
0
  6
Continuous
 62
     7
370
    25
100
AcDbCircle
 10
75.4391200134
 20
272.8130820323
 30
0.0
 40
0.7500000000000121
100
AcDbArc
 50
179.9921936397
 51
270.0
  0
ARC
  5
148
330
1F
100
AcDbEntity
  8
0
  6
Continuous
 62
     7
370
    25
100
AcDbCircle
 10
75.4391200134
 20
272.8130820323
 30
0.0
 40
0.7500000000000121
100
AcDbArc
 50
90.0
 51
179.9921936397
  0
ARC
  5
149
330
1F
100
AcDbEntity
  8
0
  6
Continuous
 62
     7
370
    25
100
AcDbCircle
 10
75.4391200134
 20
268.5777856428
 30
0.0
 40
0.7500000000000121
100
AcDbArc
 50
179.9921936397
 51
270.0
  0
ARC
  5
14A
330
1F
100
AcDbEntity
  8
0
  6
Continuous
 62
     7
370
    25
100
AcDbCircle
 10
75.4391200134
 20
268.5777856428
 30
0.0
 40
0.7500000000000121
100
AcDbArc
 50
90.0
 51
179.9921936397
  0
ARC
  5
14B
330
1F
100
AcDbEntity
  8
0
  6
Continuous
 62
     7
370
    25
100
AcDbCircle
 10
80.5703444378
 20
272.8130820323
 30
0.0
 40
0.7500000000000121
100
AcDbArc
 50
179.9921936397
 51
270.0
  0
ARC
  5
14C
330
1F
100
AcDbEntity
  8
0
  6
Continuous
 62
     7
370
    25
100
AcDbCircle
 10
80.5703444378
 20
272.8130820323
 30
0.0
 40
0.7500000000000121
100
AcDbArc
 50
90.0
 51
179.9921936397
  0
ARC
  5
14D
330
1F
100
AcDbEntity
  8
0
  6
Continuous
 62
     7
370
    25
100
AcDbCircle
 10
83.0952326466
 20
268.5777856428
 30
0.0
 40
0.7500000000000121
100
AcDbArc
 50
179.9921936397
 51
270.0
  0
ARC
  5
14E
330
1F
100
AcDbEntity
  8
0
  6
Continuous
 62
     7
370
    25
100
AcDbCircle
 10
83.0952326466
 20
268.5777856428
 30
0.0
 40
0.7500000000000121
100
AcDbArc
 50
90.0
 51
179.9921936397
  0
ARC
  5
14F
330
1F
100
AcDbEntity
  8
0
  6
Continuous
 62
     7
370
    25
100
AcDbCircle
 10
31.7755504218
 20
275.3040150875
 30
0.0
 40
5.500000000000253
100
AcDbArc
 50
90.0
 51
179.9921936397
  0
LINE
  5
150
330
1F
100
AcDbEntity
  8
0
  6
Continuous
 62
     7
370
    25
100
AcDbLine
 10
26.2754142261
 20
275.3040150875
 30
0.0
 11
26.2755504728
 21
275.3040150875
 31
0.0
  0
ARC
  5
151
330
1F
100
AcDbEntity
  8
0
  6
Continuous
 62
     7
370
    25
100
AcDbCircle
 10
31.7754141751
 20
275.3040150875
 30
0.0
 40
5.500000000000253
100
AcDbArc
 50
90.0
 51
179.9921936397
  0
LINE
  5
152
330
1F
100
AcDbEntity
  8
0
  6
Continuous
 62
     7
370
    25
100
AcDbLine
 10
31.7755504218
 20
280.8040150875
 30
0.0
 11
31.7754141751
 21
280.8040150875
 31
0.0
  0
LINE
  5
153
330
1F
100
AcDbEntity
  8
0
  6
Continuous
 62
     7
370
    25
100
AcDbLine
 10
43.8707788473
 20
209.8332684455
 30
0.0
 11
43.8707788473
 21
210.9361105408
 31
0.0
  0
LINE
  5
154
330
1F
100
AcDbEntity
  8
0
  6
Continuous
 62
     7
370
    25
100
AcDbLine
 10
46.3184073976
 20
211.1542291876
 30
0.0
 11
43.8707788473
 21
209.8332684455
 31
0.0
  0
LINE
  5
155
330
1F
100
AcDbEntity
  8
0
  6
Continuous
 62
     7
370
    25
100
AcDbLine
 10
43.8707788473
 20
212.4751899296
 30
0.0
 11
46.3184073976
 21
211.1542291876
 31
0.0
  0
LINE
  5
156
330
1F
100
AcDbEntity
  8
0
  6
Continuous
 62
     7
370
    25
100
AcDbLine
 10
43.8707788473
 20
211.2370171162
 30
0.0
 11
43.8707788473
 21
212.4751899296
 31
0.0
  0
ARC
  5
157
330
1F
100
AcDbEntity
  8
0
  6
Continuous
 62
     7
370
    25
100
AcDbCircle
 10
43.6893428905
 20
208.7496876932
 30
0.0
 40
2.493937983515752
100
AcDbArc
 50
85.8280011067
 51
143.0253334795
  0
LINE
  5
158
330
1F
100
AcDbEntity
  8
0
  6
Continuous
 62
     7
370
    25
100
AcDbLine
 10
41.9366024873
 20
210.0692576601
 30
0.0
 11
41.6969320295
 21
210.2496962109
 31
0.0
  0
ARC
  5
159
330
1F
100
AcDbEntity
  8
0
  6
Continuous
 62
     7
370
    25
100
AcDbCircle
 10
43.6893428905
 20
208.7496876932
 30
0.0
 40
2.193937983515759
100
AcDbArc
 50
85.2562923031
 51
143.0253334795
  0
LINE
  5
15A
330
1F
100
AcDbEntity
  8
0
  6
Continuous
 62
     7
370
    25
100
AcDbLine
 10
106.2755497303
 20
275.3040150875
 30
0.0
 11
106.2755497303
 21
206.3040150886
 31
0.0
  0
ARC
  5
15B
330
1F
100
AcDbEntity
  8
0
  6
Continuous
 62
     7
370
    25
100
AcDbCircle
 10
100.7755497813
 20
206.3040150886
 30
0.0
 40
5.50000000000026
100
AcDbArc
 50
270.0
 51
0.0078063603
  0
LINE
  5
15C
330
1F
100
AcDbEntity
  8
0
  6
Continuous
 62
     7
370
    25
100
AcDbLine
 10
100.7755497813
 20
200.8040150886
 30
0.0
 11
31.7755504218
 21
200.8040150886
 31
0.0
  0
ARC
  5
15D
330
1F
100
AcDbEntity
  8
0
  6
Continuous
 62
     7
370
    25
100
AcDbCircle
 10
31.7755504218
 20
206.3040150886
 30
0.0
 40
5.500000000000253
100
AcDbArc
 50
179.9921936397
 51
270.0
  0
LINE
  5
15E
330
1F
100
AcDbEntity
  8
0
  6
Continuous
 62
     7
370
    25
100
AcDbLine
 10
26.2755504728
 20
206.3040150886
 30
0.0
 11
26.2755504728
 21
275.3040150875
 31
0.0
  0
LINE
  5
15F
330
1F
100
AcDbEntity
  8
0
  6
Continuous
 62
     7
370
    25
100
AcDbLine
 10
31.7755504218
 20
280.8040150875
 30
0.0
 11
100.7755497813
 21
280.8040150875
 31
0.0
  0
ARC
  5
160
330
1F
100
AcDbEntity
  8
0
  6
Continuous
 62
     7
370
    25
100
AcDbCircle
 10
100.7755497813
 20
275.3040150875
 30
0.0
 40
5.500000000000057
100
AcDbArc
 50
0.0078063603
 51
90.0
  0
ARC
  5
161
330
1F
100
AcDbEntity
  8
0
  6
Continuous
 62
     7
370
    25
100
AcDbCircle
 10
96.2755498231
 20
240.8040150906
 30
0.0
 40
2.990000000009731
100
AcDbArc
 50
180.0078063603
 51
359.9921936397
  0
ARC
  5
162
330
1F
100
AcDbEntity
  8
0
  6
Continuous
 62
     7
370
    25
100
AcDbCircle
 10
96.2755498231
 20
240.8040150906
 30
0.0
 40
2.990000000009276
100
AcDbArc
 50
359.9921936397
 51
180.0078063603
  0
ARC
  5
163
330
1F
100
AcDbEntity
  8
0
  6
Continuous
 62
     7
370
    25
100
AcDbCircle
 10
36.2755503813
 20
240.8040150906
 30
0.0
 40
2.990000000000394
100
AcDbArc
 50
179.9921936397
 51
0.0078063603
  0
ARC
  5
164
330
1F
100
AcDbEntity
  8
0
  6
Continuous
 62
     7
370
    25
100
AcDbCircle
 10
36.2755503813
 20
240.8040150906
 30
0.0
 40
2.990000000000394
100
AcDbArc
 50
359.9921936397
 51
180.0078063603
  0
LINE
  5
165
330
1F
100
AcDbEntity
  8
0
  6
Continuous
 62
     7
370
    25
100
AcDbLine
 10
46.5583020678
 20
206.1126380892
 30
0.0
 11
46.5583020678
 21
216.2647696861
 31
0.0
  0
LINE
  5
166
330
1F
100
AcDbEntity
  8
0
  6
Continuous
 62
     7
370
    25
100
AcDbLine
 10
50.3111680616
 20
204.7081102929
 30
0.0
 11
46.5583020678
 21
206.1126380892
 31
0.0
  0
LINE
  5
167
330
1F
100
AcDbEntity
  8
0
  6
Continuous
 62
     7
370
    25
100
AcDbLine
 10
50.3111680616
 20
218.3950208406
 30
0.0
 11
50.3111680616
 21
204.7081102929
 31
0.0
  0
LINE
  5
168
330
1F
100
AcDbEntity
  8
0
  6
Continuous
 62
     7
370
    25
100
AcDbLine
 10
46.5583020678
 20
216.76136897
 30
0.0
 11
50.3111680616
 21
218.3950208406
 31
0.0
  0
LINE
  5
169
330
1F
100
AcDbEntity
  8
0
  6
Continuous
 62
     7
370
    25
100
AcDbLine
 10
46.5583020678
 20
216.5647696861
 30
0.0
 11
46.5583020678
 21
216.76136897
 31
0.0
  0
LINE
  5
16A
330
1F
100
AcDbEntity
  8
0
  6
Continuous
 62
     7
370
    25
100
AcDbLine
 10
40.9904735243
 20
216.5647696861
 30
0.0
 11
46.5583020678
 21
216.5647696861
 31
0.0
  0
LINE
  5
16B
330
1F
100
AcDbEntity
  8
0
  6
Continuous
 62
     7
370
    25
100
AcDbLine
 10
40.9904735243
 20
206.3260064951
 30
0.0
 11
40.9904735243
 21
216.5647696861
 31
0.0
  0
LINE
  5
16C
330
1F
100
AcDbEntity
  8
0
  6
Continuous
 62
     7
370
    25
100
AcDbLine
 10
41.2904735215
 20
206.3260064951
 30
0.0
 11
40.9904735243
 21
206.3260064951
 31
0.0
  0
LINE
  5
16D
330
1F
100
AcDbEntity
  8
0
  6
Continuous
 62
     7
370
    25
100
AcDbLine
 10
41.2904735215
 20
206.3260064951
 30
0.0
 11
41.2904735215
 21
216.2647696861
 31
0.0
  0
LINE
  5
16E
330
1F
100
AcDbEntity
  8
0
  6
Continuous
 62
     7
370
    25
100
AcDbLine
 10
41.2904735215
 20
216.2647696861
 30
0.0
 11
46.5583020678
 21
216.2647696861
 31
0.0
  0
ARC
  5
16F
330
1F
100
AcDbEntity
  8
0
  6
Continuous
 62
     7
370
    25
100
AcDbCircle
 10
88.2190950013
 20
211.457987303
 30
0.0
 40
1.689571072673917
100
AcDbArc
 50
341.7092421574
 51
31.6950818611
  0
ARC
  5
170
330
1F
100
AcDbEntity
  8
0
  6
Continuous
 62
     7
370
    25
100
AcDbCircle
 10
91.789627286
 20
209.9588847061
 30
0.0
 40
2.192054236572408
100
AcDbArc
 50
153.7695806137
 51
206.6089208676
  0
LINE
  5
171
330
1F
100
AcDbEntity
  8
0
  6
Continuous
 62
     7
370
    25
100
AcDbLine
 10
89.8297455467
 20
208.9770673744
 30
0.0
 11
90.2390507654
 21
208.1600214608
 31
0.0
  0
LINE
  5
172
330
1F
100
AcDbEntity
  8
0
  6
Continuous
 62
     7
370
    25
100
AcDbLine
 10
90.2390507654
 20
208.1600214608
 30
0.0
 11
83.1162665495
 21
204.6744036207
 31
0.0
  0
LINE
  5
173
330
1F
100
AcDbEntity
  8
0
  6
Continuous
 62
     7
370
    25
100
AcDbLine
 10
83.1162665495
 20
204.6744036207
 30
0.0
 11
82.3960666154
 21
206.1461165432
 31
0.0
  0
ARC
  5
174
330
1F
100
AcDbEntity
  8
0
  6
Continuous
 62
     7
370
    25
100
AcDbCircle
 10
81.6530623851
 20
207.2094217079
 30
0.0
 40
1.297178927445257
100
AcDbArc
 50
206.2554368674
 51
304.9446398633
  0
LINE
  5
175
330
1F
100
AcDbEntity
  8
0
  6
Continuous
 62
     7
370
    25
100
AcDbLine
 10
80.4897124111
 20
206.6355837667
 30
0.0
 11
76.9019968109
 21
213.6353925903
 31
0.0
  0
ARC
  5
176
330
1F
100
AcDbEntity
  8
0
  6
Continuous
 62
     7
370
    25
100
AcDbCircle
 10
77.893293999
 20
214.1434768169
 30
0.0
 40
1.11392087451575
100
AcDbArc
 50
37.8052126543
 51
207.1371736504
  0
LINE
  5
177
330
1F
100
AcDbEntity
  8
0
  6
Continuous
 62
     7
370
    25
100
AcDbLine
 10
78.9314218939
 20
214.9488826265
 30
0.0
 11
78.7734020443
 21
214.8262868408
 31
0.0
  0
LINE
  5
178
330
1F
100
AcDbEntity
  8
0
  6
Continuous
 62
     7
370
    25
100
AcDbLine
 10
79.1094053056
 20
215.0401071
 30
0.0
 11
78.9314218939
 21
214.9488826265
 31
0.0
  0
LINE
  5
179
330
1F
100
AcDbEntity
  8
0
  6
Continuous
 62
     7
370
    25
100
AcDbLine
 10
79.1094053056
 20
215.0401071
 30
0.0
 11
76.4173213334
 21
220.2924947588
 31
0.0
  0
ARC
  5
17A
330
1F
100
AcDbEntity
  8
0
  6
Continuous
 62
     7
370
    25
100
AcDbCircle
 10
77.5853799078
 20
220.8911771161
 30
0.0
 40
1.312547684262417
100
AcDbArc
 50
27.3584369051
 51
207.1371736504
  0
LINE
  5
17B
330
1F
100
AcDbEntity
  8
0
  6
Continuous
 62
     7
370
    25
100
AcDbLine
 10
78.7511178031
 20
221.4943657745
 30
0.0
 11
81.8775170238
 21
214.5140548503
 31
0.0
  0
LINE
  5
17C
330
1F
100
AcDbEntity
  8
0
  6
Continuous
 62
     7
370
    25
100
AcDbLine
 10
82.0600452862
 20
214.5958071152
 30
0.0
 11
81.8775170238
 21
214.5140548503
 31
0.0
  0
LINE
  5
17D
330
1F
100
AcDbEntity
  8
0
  6
Continuous
 62
     7
370
    25
100
AcDbLine
 10
80.1410779088
 20
218.8802852008
 30
0.0
 11
82.0600452862
 21
214.5958071152
 31
0.0
  0
ARC
  5
17E
330
1F
100
AcDbEntity
  8
0
  6
Continuous
 62
     7
370
    25
100
AcDbCircle
 10
81.3392344416
 20
218.846687411
 30
0.0
 40
1.198627513122985
100
AcDbArc
 50
22.9274738595
 51
178.3937575013
  0
LINE
  5
17F
330
1F
100
AcDbEntity
  8
0
  6
Continuous
 62
     7
370
    25
100
AcDbLine
 10
83.7428096884
 20
216.2410614864
 30
0.0
 11
82.4431688363
 21
219.3136314599
 31
0.0
  0
LINE
  5
180
330
1F
100
AcDbEntity
  8
0
  6
Continuous
 62
     7
370
    25
100
AcDbLine
 10
83.9270094306
 20
216.3189746068
 30
0.0
 11
83.7428096884
 21
216.2410614864
 31
0.0
  0
LINE
  5
181
330
1F
100
AcDbEntity
  8
0
  6
Continuous
 62
     7
370
    25
100
AcDbLine
 10
83.9270094306
 20
216.3189746068
 30
0.0
 11
82.6273685785
 21
219.3915445804
 31
0.0
  0
ARC
  5
182
330
1F
100
AcDbEntity
  8
0
  6
Continuous
 62
     7
370
    25
100
AcDbCircle
 10
81.3392344416
 20
218.846687411
 30
0.0
 40
1.398627513122975
100
AcDbArc
 50
22.9274738595
 51
164.6617274695
  0
LINE
  5
183
330
1F
100
AcDbEntity
  8
0
  6
Continuous
 62
     7
370
    25
100
AcDbLine
 10
78.9314218939
 20
221.5810839469
 30
0.0
 11
79.9904247245
 21
219.2166485357
 31
0.0
  0
ARC
  5
184
330
1F
100
AcDbEntity
  8
0
  6
Continuous
 62
     7
370
    25
100
AcDbCircle
 10
77.5853799078
 20
220.8911771161
 30
0.0
 40
1.512547684262427
100
AcDbArc
 50
27.1371736504
 51
207.1371736504
  0
LINE
  5
185
330
1F
100
AcDbEntity
  8
0
  6
Continuous
 62
     7
370
    25
100
AcDbLine
 10
78.9314218939
 20
214.9488826265
 30
0.0
 11
76.2393379217
 21
220.2012702853
 31
0.0
  0
ARC
  5
186
330
1F
100
AcDbEntity
  8
0
  6
Continuous
 62
     7
370
    25
100
AcDbCircle
 10
77.893293999
 20
214.1434768169
 30
0.0
 40
1.313920874515741
100
AcDbArc
 50
37.8052126543
 51
207.1371736504
  0
LINE
  5
187
330
1F
100
AcDbEntity
  8
0
  6
Continuous
 62
     7
370
    25
100
AcDbLine
 10
80.3110522032
 20
206.5456797559
 30
0.0
 11
76.7240133991
 21
213.5441681168
 31
0.0
  0
ARC
  5
188
330
1F
100
AcDbEntity
  8
0
  6
Continuous
 62
     7
370
    25
100
AcDbCircle
 10
81.6530623851
 20
207.2094217079
 30
0.0
 40
1.497178927445241
100
AcDbArc
 50
206.3164414447
 51
296.0753553237
  0
LINE
  5
189
330
1F
100
AcDbEntity
  8
0
  6
Continuous
 62
     7
370
    25
100
AcDbLine
 10
84.3004712921
 20
201.7994991087
 30
0.0
 11
82.3111516644
 21
205.8646305594
 31
0.0
  0
LINE
  5
18A
330
1F
100
AcDbEntity
  8
0
  6
Continuous
 62
     7
370
    25
100
AcDbLine
 10
91.8085044818
 20
205.4736430441
 30
0.0
 11
84.3004712921
 21
201.7994991087
 31
0.0
  0
LINE
  5
18B
330
1F
100
AcDbEntity
  8
0
  6
Continuous
 62
     7
370
    25
100
AcDbLine
 10
90.5082854383
 20
208.0691111879
 30
0.0
 11
91.8085044818
 21
205.4736430441
 31
0.0
  0
LINE
  5
18C
330
1F
100
AcDbEntity
  8
0
  6
Continuous
 62
     7
370
    25
100
AcDbLine
 10
90.4203748664
 20
208.2487545323
 30
0.0
 11
90.5082854383
 21
208.0691111879
 31
0.0
  0
LINE
  5
18D
330
1F
100
AcDbEntity
  8
0
  6
Continuous
 62
     7
370
    25
100
AcDbLine
 10
90.4203748664
 20
208.2487545323
 30
0.0
 11
90.4187018979
 21
208.2479358456
 31
0.0
  0
LINE
  5
18E
330
1F
100
AcDbEntity
  8
0
  6
Continuous
 62
     7
370
    25
100
AcDbLine
 10
90.0085624488
 20
209.0666470313
 30
0.0
 11
90.4187018979
 21
208.2479358456
 31
0.0
  0
ARC
  5
18F
330
1F
100
AcDbEntity
  8
0
  6
Continuous
 62
     7
370
    25
100
AcDbCircle
 10
91.789627286
 20
209.9588847061
 30
0.0
 40
1.992054236572387
100
AcDbArc
 50
153.3910791324
 51
206.6089208676
  0
ARC
  5
190
330
1F
100
AcDbEntity
  8
0
  6
Continuous
 62
     7
370
    25
100
AcDbCircle
 10
88.2190950013
 20
211.457987303
 30
0.0
 40
1.889571072673934
100
AcDbArc
 50
341.2665781282
 51
31.217249876
  0
LINE
  5
191
330
1F
100
AcDbEntity
  8
0
  6
Continuous
 62
     7
370
    25
100
AcDbLine
 10
86.7302446279
 20
219.7776572932
 30
0.0
 11
89.8350717914
 21
212.4373226919
 31
0.0
  0
ARC
  5
192
330
1F
100
AcDbEntity
  8
0
  6
Continuous
 62
     7
370
    25
100
AcDbCircle
 10
85.8273762434
 20
219.3957604874
 30
0.0
 40
0.9803144929327979
100
AcDbArc
 50
22.9274738595
 51
202.9274738595
  0
LINE
  5
193
330
1F
100
AcDbEntity
  8
0
  6
Continuous
 62
     7
370
    25
100
AcDbLine
 10
85.6978222591
 20
217.1856181304
 30
0.0
 11
84.9245078589
 21
219.0138636817
 31
0.0
  0
LINE
  5
194
330
1F
100
AcDbEntity
  8
0
  6
Continuous
 62
     7
370
    25
100
AcDbLine
 10
85.8820220013
 20
217.2635312509
 30
0.0
 11
85.6978222591
 21
217.1856181304
 31
0.0
  0
LINE
  5
195
330
1F
100
AcDbEntity
  8
0
  6
Continuous
 62
     7
370
    25
100
AcDbLine
 10
85.8820220013
 20
217.2635312509
 30
0.0
 11
85.1087076011
 21
219.0917768021
 31
0.0
  0
ARC
  5
196
330
1F
100
AcDbEntity
  8
0
  6
Continuous
 62
     7
370
    25
100
AcDbCircle
 10
85.8273762434
 20
219.3957604874
 30
0.0
 40
0.780314492932798
100
AcDbArc
 50
22.9274738595
 51
202.9274738595
  0
LINE
  5
197
330
1F
100
AcDbEntity
  8
0
  6
Continuous
 62
     7
370
    25
100
AcDbLine
 10
86.5460448856
 20
219.6997441727
 30
0.0
 11
89.6566770434
 21
212.345685587
 31
0.0
  0
LINE
  5
198
330
1F
100
AcDbEntity
  8
0
  6
Continuous
 62
     7
370
    25
100
AcDbLine
 10
84.8081834975
 20
219.2888740735
 30
0.0
 11
84.6239837553
 21
219.2109609531
 31
0.0
  0
ARC
  5
199
330
1F
100
AcDbEntity
  8
0
  6
Continuous
 62
     7
370
    25
100
AcDbCircle
 10
83.8834772549
 20
218.8977402534
 30
0.0
 40
1.004025555626499
100
AcDbArc
 50
22.9274738595
 51
178.499558165
  0
LINE
  5
19A
330
1F
100
AcDbEntity
  8
0
  6
Continuous
 62
     7
370
    25
100
AcDbLine
 10
83.079727381
 20
218.9187931021
 30
0.0
 11
82.8797959564
 21
218.9240299626
 31
0.0
  0
ARC
  5
19B
330
1F
100
AcDbEntity
  8
0
  6
Continuous
 62
     7
370
    25
100
AcDbCircle
 10
83.8834772549
 20
218.8977402534
 30
0.0
 40
0.8040255556265001
100
AcDbArc
 50
22.9274738595
 51
178.499558165
  0
LINE
  5
19C
330
1F
100
AcDbEntity
  8
0
  6
Continuous
 62
     7
370
    25
100
AcDbLine
 10
80.7140280237
 20
211.8780353873
 30
0.0
 11
80.5358249355
 21
211.7872407907
 31
0.0
  0
LINE
  5
19D
330
1F
100
AcDbEntity
  8
0
  6
Continuous
 62
     7
370
    25
100
AcDbLine
 10
79.1348032624
 20
214.9775891614
 30
0.0
 11
80.7140280237
 21
211.8780353873
 31
0.0
  0
LINE
  5
19E
330
1F
100
AcDbEntity
  8
0
  6
Continuous
 62
     7
370
    25
100
AcDbLine
 10
78.9566001743
 20
214.8867945648
 30
0.0
 11
79.1348032624
 21
214.9775891614
 31
0.0
  0
LINE
  5
19F
330
1F
100
AcDbEntity
  8
0
  6
Continuous
 62
     7
370
    25
100
AcDbLine
 10
78.9566001743
 20
214.8867945648
 30
0.0
 11
80.5358249355
 21
211.7872407907
 31
0.0
  0
LINE
  5
1A0
330
1F
100
AcDbEntity
  8
0
  6
Continuous
 62
     7
370
    25
100
AcDbLine
 10
26.2754142261
 20
206.3040150886
 30
0.0
 11
26.2755504728
 21
206.3040150886
 31
0.0
  0
LINE
  5
1A1
330
1F
100
AcDbEntity
  8
0
  6
Continuous
 62
     7
370
    25
100
AcDbLine
 10
26.2754142261
 20
206.3040150886
 30
0.0
 11
26.2754142261
 21
275.3040150875
 31
0.0
  0
LINE
  5
1A2
330
1F
100
AcDbEntity
  8
0
  6
Continuous
 62
     7
370
    25
100
AcDbLine
 10
31.7754141751
 20
200.8040150886
 30
0.0
 11
31.7755504218
 21
200.8040150886
 31
0.0
  0
ARC
  5
1A3
330
1F
100
AcDbEntity
  8
0
  6
Continuous
 62
     7
370
    25
100
AcDbCircle
 10
31.7754141751
 20
206.3040150886
 30
0.0
 40
5.500000000000253
100
AcDbArc
 50
179.9921936397
 51
270.0
  0
LINE
  5
1A4
330
1F
100
AcDbEntity
  8
0
  6
Continuous
 62
     7
370
    25
100
AcDbLine
 10
38.2754154785
 20
240.8040150906
 30
0.0
 11
39.2655503535
 21
240.8040150906
 31
0.0
  0
ARC
  5
1A5
330
1F
100
AcDbEntity
  8
0
  6
Continuous
 62
     7
370
    25
100
AcDbCircle
 10
36.275415497
 20
240.8040150906
 30
0.0
 40
2.000000000000011
100
AcDbArc
 50
359.9921936397
 51
180.0078063603
  0
LINE
  5
1A6
330
1F
100
AcDbEntity
  8
0
  6
Continuous
 62
     7
370
    25
100
AcDbLine
 10
33.285550409
 20
240.8040150906
 30
0.0
 11
34.2754155156
 21
240.8040150906
 31
0.0
  0
ARC
  5
1A7
330
1F
100
AcDbEntity
  8
0
  6
Continuous
 62
     7
370
    25
100
AcDbCircle
 10
36.275415497
 20
240.8040150906
 30
0.0
 40
2.000000000000011
100
AcDbArc
 50
180.0078063603
 51
359.9921936397
  0
LINE
  5
1A8
330
1F
100
AcDbEntity
  8
0
  6
Continuous
 62
     7
370
    25
100
AcDbLine
 10
41.2904598968
 20
206.3260064951
 30
0.0
 11
41.2904598968
 21
216.2647696861
 31
0.0
  0
LINE
  5
1A9
330
1F
100
AcDbEntity
  8
0
  6
Continuous
 62
     7
370
    25
100
AcDbLine
 10
41.2904598968
 20
216.2647696861
 30
0.0
 11
41.2904735215
 21
216.2647696861
 31
0.0
  0
LINE
  5
1AA
330
1F
100
AcDbEntity
  8
0
  6
Continuous
 62
     7
370
    25
100
AcDbLine
 10
43.6893292658
 20
211.2436256767
 30
0.0
 11
43.8707652227
 21
211.2370171162
 31
0.0
  0
LINE
  5
1AB
330
1F
100
AcDbEntity
  8
0
  6
Continuous
 62
     7
370
    25
100
AcDbLine
 10
43.8707652227
 20
211.2370171162
 30
0.0
 11
43.8707788473
 21
211.2370171162
 31
0.0
  0
ARC
  5
1AC
330
1F
100
AcDbEntity
  8
0
  6
Continuous
 62
     7
370
    25
100
AcDbCircle
 10
43.6893292658
 20
208.7496876932
 30
0.0
 40
2.193937983515752
100
AcDbArc
 50
89.9999999999
 51
143.0253334795
  0
LINE
  5
1AD
330
1F
100
AcDbEntity
  8
0
  6
Continuous
 62
     7
370
    25
100
AcDbLine
 10
46.318393773
 20
211.1542291876
 30
0.0
 11
43.8707652227
 21
209.8332684455
 31
0.0
  0
LINE
  5
1AE
330
1F
100
AcDbEntity
  8
0
  6
Continuous
 62
     7
370
    25
100
AcDbLine
 10
46.318393773
 20
211.1542291876
 30
0.0
 11
46.3184073976
 21
211.1542291876
 31
0.0
  0
LINE
  5
1AF
330
1F
100
AcDbEntity
  8
0
  6
Continuous
 62
     7
370
    25
100
AcDbLine
 10
43.8707652227
 20
212.4751899296
 30
0.0
 11
46.318393773
 21
211.1542291876
 31
0.0
  0
LINE
  5
1B0
330
1F
100
AcDbEntity
  8
0
  6
Continuous
 62
     7
370
    25
100
AcDbLine
 10
44.1707788445
 20
211.9723813512
 30
0.0
 11
45.6867456181
 21
211.1542291876
 31
0.0
  0
LINE
  5
1B1
330
1F
100
AcDbEntity
  8
0
  6
Continuous
 62
     7
370
    25
100
AcDbLine
 10
44.1707788445
 20
210.336077024
 30
0.0
 11
44.1707788445
 21
211.9723813512
 31
0.0
  0
LINE
  5
1B2
330
1F
100
AcDbEntity
  8
0
  6
Continuous
 62
     7
370
    25
100
AcDbLine
 10
45.6867456181
 20
211.1542291876
 30
0.0
 11
44.1707788445
 21
210.336077024
 31
0.0
  0
LINE
  5
1B3
330
1F
100
AcDbEntity
  8
0
  6
Continuous
 62
     7
370
    25
100
AcDbLine
 10
44.1707652199
 20
211.9723813512
 30
0.0
 11
44.1707788445
 21
211.9723813512
 31
0.0
  0
LINE
  5
1B4
330
1F
100
AcDbEntity
  8
0
  6
Continuous
 62
     7
370
    25
100
AcDbLine
 10
44.1707652199
 20
210.336077024
 30
0.0
 11
44.1707652199
 21
211.9723813512
 31
0.0
  0
LINE
  5
1B5
330
1F
100
AcDbEntity
  8
0
  6
Continuous
 62
     7
370
    25
100
AcDbLine
 10
44.1707652199
 20
210.336077024
 30
0.0
 11
44.1707788445
 21
210.336077024
 31
0.0
  0
LINE
  5
1B6
330
1F
100
AcDbEntity
  8
0
  6
Continuous
 62
     7
370
    25
100
AcDbLine
 10
50.0111544398
 20
205.1407084091
 30
0.0
 11
50.0111680644
 21
205.1407084091
 31
0.0
  0
LINE
  5
1B7
330
1F
100
AcDbEntity
  8
0
  6
Continuous
 62
     7
370
    25
100
AcDbLine
 10
50.0111544398
 20
205.1407084091
 30
0.0
 11
46.8582884404
 21
206.320683378
 31
0.0
  0
LINE
  5
1B8
330
1F
100
AcDbEntity
  8
0
  6
Continuous
 62
     7
370
    25
100
AcDbLine
 10
46.8582884404
 20
206.320683378
 30
0.0
 11
46.8583020651
 21
206.320683378
 31
0.0
  0
LINE
  5
1B9
330
1F
100
AcDbEntity
  8
0
  6
Continuous
 62
     7
370
    25
100
AcDbLine
 10
50.0111680644
 20
205.1407084091
 30
0.0
 11
46.8583020651
 21
206.320683378
 31
0.0
  0
LINE
  5
1BA
330
1F
100
AcDbEntity
  8
0
  6
Continuous
 62
     7
370
    25
100
AcDbLine
 10
46.8583020651
 20
206.320683378
 30
0.0
 11
46.8583020651
 21
216.5647696861
 31
0.0
  0
LINE
  5
1BB
330
1F
100
AcDbEntity
  8
0
  6
Continuous
 62
     7
370
    25
100
AcDbLine
 10
46.8582884404
 20
206.320683378
 30
0.0
 11
46.8582884404
 21
216.5647696861
 31
0.0
  0
LINE
  5
1BC
330
1F
100
AcDbEntity
  8
0
  6
Continuous
 62
     7
370
    25
100
AcDbLine
 10
46.8582884404
 20
216.5647696861
 30
0.0
 11
46.8583020651
 21
216.5647696861
 31
0.0
  0
LINE
  5
1BD
330
1F
100
AcDbEntity
  8
0
  6
Continuous
 62
     7
370
    25
100
AcDbLine
 10
50.0111680644
 20
217.9372368741
 30
0.0
 11
50.0111680644
 21
205.1407084091
 31
0.0
  0
LINE
  5
1BE
330
1F
100
AcDbEntity
  8
0
  6
Continuous
 62
     7
370
    25
100
AcDbLine
 10
46.8583020651
 20
216.5647696861
 30
0.0
 11
50.0111680644
 21
217.9372368741
 31
0.0
  0
LINE
  5
1BF
330
1F
100
AcDbEntity
  8
0
  6
Continuous
 62
     7
370
    25
100
AcDbLine
 10
49.307864356
 20
210.3392638223
 30
0.0
 11
49.0742119005
 21
210.1510975952
 31
0.0
  0
LINE
  5
1C0
330
1F
100
AcDbEntity
  8
0
  6
Continuous
 62
     7
370
    25
100
AcDbLine
 10
49.0650851997
 20
210.6407310301
 30
0.0
 11
49.307864356
 21
210.3392638223
 31
0.0
  0
LINE
  5
1C1
330
1F
100
AcDbEntity
  8
0
  6
Continuous
 62
     7
370
    25
100
AcDbLine
 10
49.0650851997
 20
212.0166470996
 30
0.0
 11
49.0650851997
 21
210.6407310301
 31
0.0
  0
LINE
  5
1C2
330
1F
100
AcDbEntity
  8
0
  6
Continuous
 62
     7
370
    25
100
AcDbLine
 10
49.5506435123
 20
212.0166470996
 30
0.0
 11
49.0650851997
 21
212.0166470996
 31
0.0
  0
LINE
  5
1C3
330
1F
100
AcDbEntity
  8
0
  6
Continuous
 62
     7
370
    25
100
AcDbLine
 10
49.5506435123
 20
212.3166470996
 30
0.0
 11
49.5506435123
 21
212.0166470996
 31
0.0
  0
LINE
  5
1C4
330
1F
100
AcDbEntity
  8
0
  6
Continuous
 62
     7
370
    25
100
AcDbLine
 10
49.5506435123
 20
212.3166470996
 30
0.0
 11
48.7650852025
 21
212.3166470996
 31
0.0
  0
LINE
  5
1C5
330
1F
100
AcDbEntity
  8
0
  6
Continuous
 62
     7
370
    25
100
AcDbLine
 10
48.7650852025
 20
212.3166470996
 30
0.0
 11
48.7650852025
 21
210.5349508218
 31
0.0
  0
LINE
  5
1C6
330
1F
100
AcDbEntity
  8
0
  6
Continuous
 62
     7
370
    25
100
AcDbLine
 10
48.7650852025
 20
210.5349508218
 30
0.0
 11
49.0742119005
 21
210.1510975952
 31
0.0
  0
LINE
  5
1C7
330
1F
100
AcDbEntity
  8
0
  6
Continuous
 62
     7
370
    25
100
AcDbLine
 10
46.8582884404
 20
216.5647696861
 30
0.0
 11
50.0111544398
 21
217.9372368741
 31
0.0
  0
LINE
  5
1C8
330
1F
100
AcDbEntity
  8
0
  6
Continuous
 62
     7
370
    25
100
AcDbLine
 10
50.0111544398
 20
217.9372368741
 30
0.0
 11
50.0111680644
 21
217.9372368741
 31
0.0
  0
LINE
  5
1C9
330
1F
100
AcDbEntity
  8
0
  6
Continuous
 62
     7
370
    25
100
AcDbLine
 10
49.065071575
 20
210.6407310301
 30
0.0
 11
49.0650851997
 21
210.6407310301
 31
0.0
  0
LINE
  5
1CA
330
1F
100
AcDbEntity
  8
0
  6
Continuous
 62
     7
370
    25
100
AcDbLine
 10
49.065071575
 20
212.0166470996
 30
0.0
 11
49.065071575
 21
210.6407310301
 31
0.0
  0
LINE
  5
1CB
330
1F
100
AcDbEntity
  8
0
  6
Continuous
 62
     7
370
    25
100
AcDbLine
 10
49.065071575
 20
212.0166470996
 30
0.0
 11
49.0650851997
 21
212.0166470996
 31
0.0
  0
LINE
  5
1CC
330
1F
100
AcDbEntity
  8
0
  6
Continuous
 62
     7
370
    25
100
AcDbLine
 10
49.3078507313
 20
210.3392638223
 30
0.0
 11
49.307864356
 21
210.3392638223
 31
0.0
  0
LINE
  5
1CD
330
1F
100
AcDbEntity
  8
0
  6
Continuous
 62
     7
370
    25
100
AcDbLine
 10
49.065071575
 20
210.6407310301
 30
0.0
 11
49.3078507313
 21
210.3392638223
 31
0.0
  0
LINE
  5
1CE
330
1F
100
AcDbEntity
  8
0
  6
Continuous
 62
     7
370
    25
100
AcDbLine
 10
49.3078507313
 20
210.3392638223
 30
0.0
 11
49.0741982758
 21
210.1510975952
 31
0.0
  0
LINE
  5
1CF
330
1F
100
AcDbEntity
  8
0
  6
Continuous
 62
     7
370
    25
100
AcDbLine
 10
49.5506298876
 20
212.3166470996
 30
0.0
 11
49.5506298876
 21
212.0166470996
 31
0.0
  0
LINE
  5
1D0
330
1F
100
AcDbEntity
  8
0
  6
Continuous
 62
     7
370
    25
100
AcDbLine
 10
50.311154437
 20
218.3950208406
 30
0.0
 11
50.311154437
 21
204.7081102929
 31
0.0
  0
LINE
  5
1D1
330
1F
100
AcDbEntity
  8
0
  6
Continuous
 62
     7
370
    25
100
AcDbLine
 10
78.9314082693
 20
221.5810839469
 30
0.0
 11
78.9314218939
 21
221.5810839469
 31
0.0
  0
ARC
  5
1D2
330
1F
100
AcDbEntity
  8
0
  6
Continuous
 62
     7
370
    25
100
AcDbCircle
 10
77.5853662832
 20
220.8911771161
 30
0.0
 40
1.512547684262427
100
AcDbArc
 50
27.1371736504
 51
89.9999999999
  0
LINE
  5
1D3
330
1F
100
AcDbEntity
  8
0
  6
Continuous
 62
     7
370
    25
100
AcDbLine
 10
76.4173077088
 20
220.2924947588
 30
0.0
 11
76.4173213334
 21
220.2924947588
 31
0.0
  0
ARC
  5
1D4
330
1F
100
AcDbEntity
  8
0
  6
Continuous
 62
     7
370
    25
100
AcDbCircle
 10
77.5853662832
 20
220.8911771161
 30
0.0
 40
1.312547684262427
100
AcDbArc
 50
89.9999999999
 51
207.1371736504
  0
LINE
  5
1D5
330
1F
100
AcDbEntity
  8
0
  6
Continuous
 62
     7
370
    25
100
AcDbLine
 10
79.109391681
 20
215.0401071
 30
0.0
 11
79.1094053056
 21
215.0401071
 31
0.0
  0
LINE
  5
1D6
330
1F
100
AcDbEntity
  8
0
  6
Continuous
 62
     7
370
    25
100
AcDbLine
 10
79.109391681
 20
215.0401071
 30
0.0
 11
76.4173077088
 21
220.2924947588
 31
0.0
  0
LINE
  5
1D7
330
1F
100
AcDbEntity
  8
0
  6
Continuous
 62
     7
370
    25
100
AcDbLine
 10
78.9314082693
 20
214.9488826265
 30
0.0
 11
78.9314218939
 21
214.9488826265
 31
0.0
  0
ARC
  5
1D8
330
1F
100
AcDbEntity
  8
0
  6
Continuous
 62
     7
370
    25
100
AcDbCircle
 10
77.8932803743
 20
214.1434768169
 30
0.0
 40
1.313920874515759
100
AcDbArc
 50
37.8052126543
 51
89.9999999999
  0
LINE
  5
1D9
330
1F
100
AcDbEntity
  8
0
  6
Continuous
 62
     7
370
    25
100
AcDbLine
 10
76.9019831862
 20
213.6353925903
 30
0.0
 11
76.9019968109
 21
213.6353925903
 31
0.0
  0
ARC
  5
1DA
330
1F
100
AcDbEntity
  8
0
  6
Continuous
 62
     7
370
    25
100
AcDbCircle
 10
77.8932803743
 20
214.1434768169
 30
0.0
 40
1.113920874515742
100
AcDbArc
 50
89.9999999999
 51
207.1371736504
  0
LINE
  5
1DB
330
1F
100
AcDbEntity
  8
0
  6
Continuous
 62
     7
370
    25
100
AcDbLine
 10
80.4896987865
 20
206.6355837667
 30
0.0
 11
80.4897124111
 21
206.6355837667
 31
0.0
  0
LINE
  5
1DC
330
1F
100
AcDbEntity
  8
0
  6
Continuous
 62
     7
370
    25
100
AcDbLine
 10
80.4896987865
 20
206.6355837667
 30
0.0
 11
76.9019831862
 21
213.6353925903
 31
0.0
  0
LINE
  5
1DD
330
1F
100
AcDbEntity
  8
0
  6
Continuous
 62
     7
370
    25
100
AcDbLine
 10
78.9314082693
 20
214.9488826265
 30
0.0
 11
78.7733884196
 21
214.8262868408
 31
0.0
  0
LINE
  5
1DE
330
1F
100
AcDbEntity
  8
0
  6
Continuous
 62
     7
370
    25
100
AcDbLine
 10
79.9904247245
 20
219.2166485357
 30
0.0
 11
79.9904110998
 21
219.2166485357
 31
0.0
  0
LINE
  5
1DF
330
1F
100
AcDbEntity
  8
0
  6
Continuous
 62
     7
370
    25
100
AcDbLine
 10
78.9314082693
 20
221.5810839469
 30
0.0
 11
79.9904110998
 21
219.2166485357
 31
0.0
  0
LINE
  5
1E0
330
1F
100
AcDbEntity
  8
0
  6
Continuous
 62
     7
370
    25
100
AcDbLine
 10
79.109391681
 20
215.0401071
 30
0.0
 11
78.9314082693
 21
214.9488826265
 31
0.0
  0
LINE
  5
1E1
330
1F
100
AcDbEntity
  8
0
  6
Continuous
 62
     7
370
    25
100
AcDbLine
 10
80.714014399
 20
211.8780353873
 30
0.0
 11
80.7140280237
 21
211.8780353873
 31
0.0
  0
LINE
  5
1E2
330
1F
100
AcDbEntity
  8
0
  6
Continuous
 62
     7
370
    25
100
AcDbLine
 10
79.1347896378
 20
214.9775891614
 30
0.0
 11
80.714014399
 21
211.8780353873
 31
0.0
  0
LINE
  5
1E3
330
1F
100
AcDbEntity
  8
0
  6
Continuous
 62
     7
370
    25
100
AcDbLine
 10
82.6273549538
 20
219.3915445804
 30
0.0
 11
82.6273685785
 21
219.3915445804
 31
0.0
  0
ARC
  5
1E4
330
1F
100
AcDbEntity
  8
0
  6
Continuous
 62
     7
370
    25
100
AcDbCircle
 10
81.3392208169
 20
218.846687411
 30
0.0
 40
1.398627513122965
100
AcDbArc
 50
22.9274738595
 51
89.9999999999
  0
LINE
  5
1E5
330
1F
100
AcDbEntity
  8
0
  6
Continuous
 62
     7
370
    25
100
AcDbLine
 10
80.1410779088
 20
218.8802852008
 30
0.0
 11
80.1410642841
 21
218.8802852008
 31
0.0
  0
ARC
  5
1E6
330
1F
100
AcDbEntity
  8
0
  6
Continuous
 62
     7
370
    25
100
AcDbCircle
 10
81.3392208169
 20
218.846687411
 30
0.0
 40
1.198627513122972
100
AcDbArc
 50
89.9999999999
 51
178.3937575013
  0
LINE
  5
1E7
330
1F
100
AcDbEntity
  8
0
  6
Continuous
 62
     7
370
    25
100
AcDbLine
 10
82.0600316615
 20
214.5958071152
 30
0.0
 11
82.0600452862
 21
214.5958071152
 31
0.0
  0
LINE
  5
1E8
330
1F
100
AcDbEntity
  8
0
  6
Continuous
 62
     7
370
    25
100
AcDbLine
 10
80.1410642841
 20
218.8802852008
 30
0.0
 11
82.0600316615
 21
214.5958071152
 31
0.0
  0
ARC
  5
1E9
330
1F
100
AcDbEntity
  8
0
  6
Continuous
 62
     7
370
    25
100
AcDbCircle
 10
81.6530487604
 20
207.2094217079
 30
0.0
 40
1.497178927445248
100
AcDbArc
 50
269.9999999999
 51
296.0753553237
  0
LINE
  5
1EA
330
1F
100
AcDbEntity
  8
0
  6
Continuous
 62
     7
370
    25
100
AcDbLine
 10
82.3111380398
 20
205.8646305594
 30
0.0
 11
82.3111516644
 21
205.8646305594
 31
0.0
  0
ARC
  5
1EB
330
1F
100
AcDbEntity
  8
0
  6
Continuous
 62
     7
370
    25
100
AcDbCircle
 10
81.6530487604
 20
207.2094217079
 30
0.0
 40
1.297178927445243
100
AcDbArc
 50
206.2554368674
 51
269.9999999999
  0
LINE
  5
1EC
330
1F
100
AcDbEntity
  8
0
  6
Continuous
 62
     7
370
    25
100
AcDbLine
 10
80.714014399
 20
211.8780353873
 30
0.0
 11
80.5358113109
 21
211.7872407907
 31
0.0
  0
LINE
  5
1ED
330
1F
100
AcDbEntity
  8
0
  6
Continuous
 62
     7
370
    25
100
AcDbLine
 10
82.0600316615
 20
214.5958071152
 30
0.0
 11
81.8775033991
 21
214.5140548503
 31
0.0
  0
LINE
  5
1EE
330
1F
100
AcDbEntity
  8
0
  6
Continuous
 62
     7
370
    25
100
AcDbLine
 10
83.1162529249
 20
204.6744036207
 30
0.0
 11
82.3960529908
 21
206.1461165432
 31
0.0
  0
LINE
  5
1EF
330
1F
100
AcDbEntity
  8
0
  6
Continuous
 62
     7
370
    25
100
AcDbLine
 10
83.1162529249
 20
204.6744036207
 30
0.0
 11
83.1162665495
 21
204.6744036207
 31
0.0
  0
LINE
  5
1F0
330
1F
100
AcDbEntity
  8
0
  6
Continuous
 62
     7
370
    25
100
AcDbLine
 10
83.9269958059
 20
216.3189746068
 30
0.0
 11
83.9270094306
 21
216.3189746068
 31
0.0
  0
LINE
  5
1F1
330
1F
100
AcDbEntity
  8
0
  6
Continuous
 62
     7
370
    25
100
AcDbLine
 10
83.9269958059
 20
216.3189746068
 30
0.0
 11
82.6273549538
 21
219.3915445804
 31
0.0
  0
LINE
  5
1F2
330
1F
100
AcDbEntity
  8
0
  6
Continuous
 62
     7
370
    25
100
AcDbLine
 10
84.8081698729
 20
219.2888740735
 30
0.0
 11
84.8081834975
 21
219.2888740735
 31
0.0
  0
ARC
  5
1F3
330
1F
100
AcDbEntity
  8
0
  6
Continuous
 62
     7
370
    25
100
AcDbCircle
 10
83.8834636302
 20
218.8977402534
 30
0.0
 40
1.004025555626498
100
AcDbArc
 50
22.9274738595
 51
89.9999999999
  0
ARC
  5
1F4
330
1F
100
AcDbEntity
  8
0
  6
Continuous
 62
     7
370
    25
100
AcDbCircle
 10
83.8834636302
 20
218.8977402534
 30
0.0
 40
0.8040255556265097
100
AcDbArc
 50
89.9999999999
 51
178.499558165
  0
LINE
  5
1F5
330
1F
100
AcDbEntity
  8
0
  6
Continuous
 62
     7
370
    25
100
AcDbLine
 10
83.2041634969
 20
204.4947602763
 30
0.0
 11
83.2041771215
 21
204.4947602763
 31
0.0
  0
LINE
  5
1F6
330
1F
100
AcDbEntity
  8
0
  6
Continuous
 62
     7
370
    25
100
AcDbLine
 10
84.3922040628
 20
202.0670530259
 30
0.0
 11
83.2041771215
 21
204.4947602763
 31
0.0
  0
LINE
  5
1F7
330
1F
100
AcDbEntity
  8
0
  6
Continuous
 62
     7
370
    25
100
AcDbLine
 10
84.3921904382
 20
202.0670530259
 30
0.0
 11
84.3922040628
 21
202.0670530259
 31
0.0
  0
LINE
  5
1F8
330
1F
100
AcDbEntity
  8
0
  6
Continuous
 62
     7
370
    25
100
AcDbLine
 10
84.3921904382
 20
202.0670530259
 30
0.0
 11
83.2041634969
 21
204.4947602763
 31
0.0
  0
LINE
  5
1F9
330
1F
100
AcDbEntity
  8
0
  6
Continuous
 62
     7
370
    25
100
AcDbLine
 10
90.3286343058
 20
207.9811968031
 30
0.0
 11
83.2041771215
 21
204.4947602763
 31
0.0
  0
LINE
  5
1FA
330
1F
100
AcDbEntity
  8
0
  6
Continuous
 62
     7
370
    25
100
AcDbLine
 10
90.3286343058
 20
207.9811968031
 30
0.0
 11
91.5392698088
 21
205.564553317
 31
0.0
  0
LINE
  5
1FB
330
1F
100
AcDbEntity
  8
0
  6
Continuous
 62
     7
370
    25
100
AcDbLine
 10
91.5392698088
 20
205.564553317
 30
0.0
 11
84.3922040628
 21
202.0670530259
 31
0.0
  0
LINE
  5
1FC
330
1F
100
AcDbEntity
  8
0
  6
Continuous
 62
     7
370
    25
100
AcDbLine
 10
90.3286206811
 20
207.9811968031
 30
0.0
 11
83.2041634969
 21
204.4947602763
 31
0.0
  0
LINE
  5
1FD
330
1F
100
AcDbEntity
  8
0
  6
Continuous
 62
     7
370
    25
100
AcDbLine
 10
90.3286343058
 20
207.9811968031
 30
0.0
 11
90.3286206811
 21
207.9811968031
 31
0.0
  0
LINE
  5
1FE
330
1F
100
AcDbEntity
  8
0
  6
Continuous
 62
     7
370
    25
100
AcDbLine
 10
83.9269958059
 20
216.3189746068
 30
0.0
 11
83.7427960637
 21
216.2410614864
 31
0.0
  0
LINE
  5
1FF
330
1F
100
AcDbEntity
  8
0
  6
Continuous
 62
     7
370
    25
100
AcDbLine
 10
91.8084908571
 20
205.4736430441
 30
0.0
 11
84.3004576674
 21
201.7994991087
 31
0.0
  0
LINE
  5
200
330
1F
100
AcDbEntity
  8
0
  6
Continuous
 62
     7
370
    25
100
AcDbLine
 10
91.8084908571
 20
205.4736430441
 30
0.0
 11
91.8085044818
 21
205.4736430441
 31
0.0
  0
LINE
  5
201
330
1F
100
AcDbEntity
  8
0
  6
Continuous
 62
     7
370
    25
100
AcDbLine
 10
84.8081698729
 20
219.2888740735
 30
0.0
 11
84.6239701306
 21
219.2109609531
 31
0.0
  0
LINE
  5
202
330
1F
100
AcDbEntity
  8
0
  6
Continuous
 62
     7
370
    25
100
AcDbLine
 10
86.7302310032
 20
219.7776572932
 30
0.0
 11
86.7302446279
 21
219.7776572932
 31
0.0
  0
ARC
  5
203
330
1F
100
AcDbEntity
  8
0
  6
Continuous
 62
     7
370
    25
100
AcDbCircle
 10
85.8273626187
 20
219.3957604874
 30
0.0
 40
0.9803144929327914
100
AcDbArc
 50
22.9274738595
 51
89.9999999999
  0
LINE
  5
204
330
1F
100
AcDbEntity
  8
0
  6
Continuous
 62
     7
370
    25
100
AcDbLine
 10
85.1086939765
 20
219.0917768021
 30
0.0
 11
85.1087076011
 21
219.0917768021
 31
0.0
  0
ARC
  5
205
330
1F
100
AcDbEntity
  8
0
  6
Continuous
 62
     7
370
    25
100
AcDbCircle
 10
85.8273626187
 20
219.3957604874
 30
0.0
 40
0.7803144929327849
100
AcDbArc
 50
89.9999999999
 51
202.9274738595
  0
LINE
  5
206
330
1F
100
AcDbEntity
  8
0
  6
Continuous
 62
     7
370
    25
100
AcDbLine
 10
85.8820083766
 20
217.2635312509
 30
0.0
 11
85.8820220013
 21
217.2635312509
 31
0.0
  0
LINE
  5
207
330
1F
100
AcDbEntity
  8
0
  6
Continuous
 62
     7
370
    25
100
AcDbLine
 10
85.8820083766
 20
217.2635312509
 30
0.0
 11
85.1086939765
 21
219.0917768021
 31
0.0
  0
LINE
  5
208
330
1F
100
AcDbEntity
  8
0
  6
Continuous
 62
     7
370
    25
100
AcDbLine
 10
85.8820083766
 20
217.2635312509
 30
0.0
 11
85.6978086344
 21
217.1856181304
 31
0.0
  0
LINE
  5
209
330
1F
100
AcDbEntity
  8
0
  6
Continuous
 62
     7
370
    25
100
AcDbLine
 10
89.8350581668
 20
212.4373226919
 30
0.0
 11
89.8350717914
 21
212.4373226919
 31
0.0
  0
LINE
  5
20A
330
1F
100
AcDbEntity
  8
0
  6
Continuous
 62
     7
370
    25
100
AcDbLine
 10
86.7302310032
 20
219.7776572932
 30
0.0
 11
89.8350581668
 21
212.4373226919
 31
0.0
  0
LINE
  5
20B
330
1F
100
AcDbEntity
  8
0
  6
Continuous
 62
     7
370
    25
100
AcDbLine
 10
90.0085488242
 20
209.0666470313
 30
0.0
 11
90.0085624488
 21
209.0666470313
 31
0.0
  0
ARC
  5
20C
330
1F
100
AcDbEntity
  8
0
  6
Continuous
 62
     7
370
    25
100
AcDbCircle
 10
91.7896136613
 20
209.9588847061
 30
0.0
 40
1.992054236572399
100
AcDbArc
 50
153.3910791324
 51
206.6089208676
  0
LINE
  5
20D
330
1F
100
AcDbEntity
  8
0
  6
Continuous
 62
     7
370
    25
100
AcDbLine
 10
90.0085488242
 20
210.851122381
 30
0.0
 11
90.0085624488
 21
210.851122381
 31
0.0
  0
ARC
  5
20E
330
1F
100
AcDbEntity
  8
0
  6
Continuous
 62
     7
370
    25
100
AcDbCircle
 10
88.2190813766
 20
211.457987303
 30
0.0
 40
1.889571072673931
100
AcDbArc
 50
341.2665781282
 51
31.217249876
  0
LINE
  5
20F
330
1F
100
AcDbEntity
  8
0
  6
Continuous
 62
     7
370
    25
100
AcDbLine
 10
90.4187018979
 20
208.2479358456
 30
0.0
 11
90.4186882732
 21
208.2479358456
 31
0.0
  0
LINE
  5
210
330
1F
100
AcDbEntity
  8
0
  6
Continuous
 62
     7
370
    25
100
AcDbLine
 10
90.0085488242
 20
209.0666470313
 30
0.0
 11
90.4186882732
 21
208.2479358456
 31
0.0
  0
LINE
  5
211
330
1F
100
AcDbEntity
  8
0
  6
Continuous
 62
     7
370
    25
100
AcDbLine
 10
90.5082854383
 20
208.0691111879
 30
0.0
 11
90.5082718137
 21
208.0691111879
 31
0.0
  0
LINE
  5
212
330
1F
100
AcDbEntity
  8
0
  6
Continuous
 62
     7
370
    25
100
AcDbLine
 10
90.4203612417
 20
208.2487545323
 30
0.0
 11
90.5082718137
 21
208.0691111879
 31
0.0
  0
LINE
  5
213
330
1F
100
AcDbEntity
  8
0
  6
Continuous
 62
     7
370
    25
100
AcDbLine
 10
90.5082718137
 20
208.0691111879
 30
0.0
 11
91.8084908571
 21
205.4736430441
 31
0.0
  0
LINE
  5
214
330
1F
100
AcDbEntity
  8
0
  6
Continuous
 62
     7
370
    25
100
AcDbLine
 10
93.2855498509
 20
240.8040150906
 30
0.0
 11
94.2754149574
 21
240.8040150906
 31
0.0
  0
ARC
  5
215
330
1F
100
AcDbEntity
  8
0
  6
Continuous
 62
     7
370
    25
100
AcDbCircle
 10
96.2754149389
 20
240.8040150906
 30
0.0
 40
2.000000000000004
100
AcDbArc
 50
180.0078063603
 51
359.9921936397
  0
LINE
  5
216
330
1F
100
AcDbEntity
  8
0
  6
Continuous
 62
     7
370
    25
100
AcDbLine
 10
98.2754149203
 20
240.8040150906
 30
0.0
 11
99.2655497954
 21
240.8040150906
 31
0.0
  0
ARC
  5
217
330
1F
100
AcDbEntity
  8
0
  6
Continuous
 62
     7
370
    25
100
AcDbCircle
 10
96.2754149389
 20
240.8040150906
 30
0.0
 40
2.000000000000004
100
AcDbArc
 50
359.9921936397
 51
180.0078063603
  0
ARC
  5
218
330
1F
100
AcDbEntity
  8
0
  6
Continuous
 62
     7
370
    25
100
AcDbCircle
 10
36.2754141346
 20
240.8040150906
 30
0.0
 40
2.0
100
AcDbArc
 50
270.0
 51
0.0078063603
  0
LINE
  5
219
330
1F
100
AcDbEntity
  8
0
  6
Continuous
 62
     7
370
    25
100
AcDbLine
 10
38.2754154785
 20
240.8040150906
 30
0.0
 11
38.275414116
 21
240.8040150906
 31
0.0
  0
ARC
  5
21A
330
1F
100
AcDbEntity
  8
0
  6
Continuous
 62
     7
370
    25
100
AcDbCircle
 10
36.2754141346
 20
240.8040150906
 30
0.0
 40
1.999999999999571
100
AcDbArc
 50
0.0078063603
 51
90.0
  0
LINE
  5
21B
330
1F
100
AcDbEntity
  8
0
  6
Continuous
 62
     7
370
    25
100
AcDbLine
 10
98.2754149203
 20
240.8040150906
 30
0.0
 11
98.2754135579
 21
240.8040150906
 31
0.0
  0
ARC
  5
21C
330
1F
100
AcDbEntity
  8
0
  6
Continuous
 62
     7
370
    25
100
AcDbCircle
 10
96.2754135764
 20
240.8040150906
 30
0.0
 40
1.999999999999563
100
AcDbArc
 50
0.0078063603
 51
90.0
  0
ARC
  5
21D
330
1F
100
AcDbEntity
  8
0
  6
Continuous
 62
     7
370
    25
100
AcDbCircle
 10
96.2754135764
 20
240.8040150906
 30
0.0
 40
2.0
100
AcDbArc
 50
270.0
 51
0.0078063603
  0
ARC
  5
21E
330
1F
100
AcDbEntity
  8
0
  6
Continuous
 62
     7
370
    25
100
AcDbCircle
 10
66.2760270216
 20
240.8040150553
 30
0.0
 40
17.49999587246408
100
AcDbArc
 50
60.0000033172
 51
240.0000028892
  0
LINE
  5
21F
330
1F
100
AcDbEntity
  8
0
  6
Continuous
 62
     7
370
    25
100
AcDbLine
 10
57.5260298496
 20
225.6485736224
 30
0.0
 11
56.025823579
 21
223.0504937948
 31
0.0
  0
ARC
  5
220
330
1F
100
AcDbEntity
  8
0
  6
Continuous
 62
     7
370
    25
100
AcDbCircle
 10
66.2758225946
 20
240.804015088
 30
0.0
 40
20.50000000195264
100
AcDbArc
 50
60.0000031799
 51
240.0000031799
  0
LINE
  5
221
330
1F
100
AcDbEntity
  8
0
  6
Continuous
 62
     7
370
    25
100
AcDbLine
 10
76.5258216103
 20
258.5575363812
 30
0.0
 11
75.0260240804
 21
255.9594565536
 31
0.0
  0
ARC
  5
222
330
1F
100
AcDbEntity
  8
0
  6
Continuous
 62
     7
370
    25
100
AcDbCircle
 10
66.2760269084
 20
240.8040151207
 30
0.0
 40
17.49999587246409
100
AcDbArc
 50
240.0000033172
 51
60.0000028892
  0
ARC
  5
223
330
1F
100
AcDbEntity
  8
0
  6
Continuous
 62
     7
370
    25
100
AcDbCircle
 10
66.2760269114
 20
240.8040151189
 30
0.0
 40
16.5499999616175
100
AcDbArc
 50
240.0000033172
 51
60.0000028892
  0
ARC
  5
224
330
1F
100
AcDbEntity
  8
0
  6
Continuous
 62
     7
370
    25
100
AcDbCircle
 10
66.2760270185
 20
240.8040150571
 30
0.0
 40
16.54999996161749
100
AcDbArc
 50
60.0000033172
 51
240.0000028892
  0
ARC
  5
225
330
1F
100
AcDbEntity
  8
0
  6
Continuous
 62
     7
370
    25
100
AcDbCircle
 10
66.2758225946
 20
240.804015088
 30
0.0
 40
20.50000000194787
100
AcDbArc
 50
240.0000031799
 51
60.0000031799
  0
ARC
  5
226
330
1F
100
AcDbEntity
  8
0
  6
Continuous
 62
     7
370
    25
100
AcDbCircle
 10
66.2757544716
 20
240.804015088
 30
0.0
 40
20.50000000000003
100
AcDbArc
 50
329.9999982566
 51
89.9999999999
  0
ARC
  5
227
330
1F
100
AcDbEntity
  8
0
  6
Continuous
 62
     7
370
    25
100
AcDbCircle
 10
66.2757544716
 20
240.804015088
 30
0.0
 40
20.5
100
AcDbArc
 50
269.9999999999
 51
329.9999982566
  0
CIRCLE
  5
228
330
1F
100
AcDbEntity
  8
0
  6
Continuous
 62
     7
370
    25
100
AcDbCircle
 10
66.2758582606
 20
240.8023771051
 30
0.0
 40
14.08552981814415
  0
CIRCLE
  5
229
330
1F
100
AcDbEntity
  8
0
  6
Continuous
 62
     7
370
    25
100
AcDbCircle
 10
66.2760654466
 20
240.801596433
 30
0.0
 40
16.52319958436433
  0
CIRCLE
  5
22A
330
1F
100
AcDbEntity
  8
0
  6
Continuous
 62
     7
370
    25
100
AcDbCircle
 10
66.2760657733
 20
240.8015961846
 30
0.0
 40
14.18515620392897
  0
LINE
  5
22B
330
1F
100
AcDbEntity
  8
0
  6
Continuous
 62
     7
370
    25
100
AcDbLine
 10
59.2272422473
 20
228.5967521117
 30
0.0
 11
59.8126170422
 21
228.2770080896
 31
0.0
  0
ARC
  5
22C
330
1F
100
AcDbEntity
  8
0
  6
Continuous
 62
     7
370
    25
100
AcDbCircle
 10
66.275320156
 20
240.8043850986
 30
0.0
 40
14.09615936576553
100
AcDbArc
 50
265.0070734999
 51
277.8924904385
  0
LINE
  5
22D
330
1F
100
AcDbEntity
  8
0
  6
Continuous
 62
     7
370
    25
100
AcDbLine
 10
58.1848050851
 20
229.2611936417
 30
0.0
 11
59.2272422473
 21
228.5967521117
 31
0.0
  0
DIMENSION
  5
22E
330
1F
100
AcDbEntity
  8
FORMAT
 62
     7
100
AcDbDimension
  2
_D
 10
116.2755497303
 20
200.8040150886
 30
0.0
 11
116.2755497303
 21
240.804015088
 31
0.0
 70
   160
  1
<>
 71
     2
 42
-1.0
  3
SLDDIMSTYLE0
100
AcDbAlignedDimension
 13
100.7755497813
 23
280.8040150875
 33
0.0
 14
100.7755497813
 24
200.8040150886
 34
0.0
 50
90.0
100
AcDbRotatedDimension
  0
DIMENSION
  5
239
330
1F
100
AcDbEntity
  8
FORMAT
 62
     7
100
AcDbDimension
  2
_D_1
 10
26.2755504728
 20
190.8040150886
 30
0.0
 11
66.2755501016
 21
190.8040150886
 31
0.0
 70
   160
  1
<>
 71
     2
 42
-1.0
  3
SLDDIMSTYLE0
100
AcDbAlignedDimension
 13
106.2755497303
 23
206.3040150886
 33
0.0
 14
26.2755504728
 24
206.3040150886
 34
0.0
100
AcDbRotatedDimension
  0
INSERT
  5
24E
330
1F
100
AcDbEntity
  8
FORMAT
 62
     7
100
AcDbBlockReference
  2
SW_CENTERMARKSYMBOL_0
 10
66.2758582606
 20
240.8023771051
 30
0.0
  0
ARC
  5
24F
330
1F
100
AcDbEntity
  8
0
  6
Continuous
 62
     7
370
    25
100
AcDbCircle
 10
169.2355678031
 20
129.8594580274
 30
0.0
 40
0.7500000000000365
100
AcDbArc
 50
120.0040723343
 51
180.0
  0
ARC
  5
250
330
1F
100
AcDbEntity
  8
0
  6
Continuous
 62
     7
370
    25
100
AcDbCircle
 10
169.2355678031
 20
129.8594580274
 30
0.0
 40
0.7500000000000284
100
AcDbArc
 50
180.0
 51
300.0040723343
  0
LINE
  5
251
330
1F
100
AcDbEntity
  8
0
  6
Continuous
 62
     7
370
    25
100
AcDbLine
 10
168.9312226824
 20
130.5497763921
 30
0.0
 11
168.860521639
 21
130.5089504253
 31
0.0
  0
LINE
  5
252
330
1F
100
AcDbEntity
  8
0
  6
Continuous
 62
     7
370
    25
100
AcDbLine
 10
169.6106139671
 20
129.2099656296
 30
0.0
 11
169.6813150105
 21
129.2507915965
 31
0.0
  0
ARC
  5
253
330
1F
100
AcDbEntity
  8
0
  6
Continuous
 62
     7
370
    25
100
AcDbCircle
 10
171.0211766274
 20
125.3706364927
 30
0.0
 40
0.75000000000001
100
AcDbArc
 50
120.0040723343
 51
180.0
  0
ARC
  5
254
330
1F
100
AcDbEntity
  8
0
  6
Continuous
 62
     7
370
    25
100
AcDbCircle
 10
171.0211766274
 20
125.3706364927
 30
0.0
 40
0.75
100
AcDbArc
 50
180.0
 51
300.0040723343
  0
LINE
  5
255
330
1F
100
AcDbEntity
  8
0
  6
Continuous
 62
     7
370
    25
100
AcDbLine
 10
170.7168315067
 20
126.0609548574
 30
0.0
 11
170.6461304634
 21
126.0201288905
 31
0.0
  0
LINE
  5
256
330
1F
100
AcDbEntity
  8
0
  6
Continuous
 62
     7
370
    25
100
AcDbLine
 10
171.3962227914
 20
124.7211440948
 30
0.0
 11
171.4669238348
 21
124.7619700617
 31
0.0
  0
ARC
  5
257
330
1F
100
AcDbEntity
  8
0
  6
Continuous
 62
     7
370
    25
100
AcDbCircle
 10
165.6067498697
 20
131.9537592688
 30
0.0
 40
0.7500000000000223
100
AcDbArc
 50
120.0040723343
 51
180.0
  0
ARC
  5
258
330
1F
100
AcDbEntity
  8
0
  6
Continuous
 62
     7
370
    25
100
AcDbCircle
 10
165.6067498697
 20
131.9537592688
 30
0.0
 40
0.7500000000000014
100
AcDbArc
 50
180.0
 51
300.0040723343
  0
LINE
  5
259
330
1F
100
AcDbEntity
  8
0
  6
Continuous
 62
     7
370
    25
100
AcDbLine
 10
165.3024047491
 20
132.6440776334
 30
0.0
 11
165.2317037057
 21
132.6032516666
 31
0.0
  0
LINE
  5
25A
330
1F
100
AcDbEntity
  8
0
  6
Continuous
 62
     7
370
    25
100
AcDbLine
 10
165.9817960338
 20
131.3042668709
 30
0.0
 11
166.0524970771
 21
131.3450928378
 31
0.0
  0
ARC
  5
25B
330
1F
100
AcDbEntity
  8
0
  6
Continuous
 62
     7
370
    25
100
AcDbCircle
 10
165.6067498697
 20
128.4954669162
 30
0.0
 40
0.75
100
AcDbArc
 50
120.0040723343
 51
180.0
  0
ARC
  5
25C
330
1F
100
AcDbEntity
  8
0
  6
Continuous
 62
     7
370
    25
100
AcDbCircle
 10
165.6067498697
 20
128.4954669162
 30
0.0
 40
0.7500000000000384
100
AcDbArc
 50
180.0
 51
300.0040723343
  0
LINE
  5
25D
330
1F
100
AcDbEntity
  8
0
  6
Continuous
 62
     7
370
    25
100
AcDbLine
 10
165.3024047491
 20
129.1857852809
 30
0.0
 11
165.2317037057
 21
129.1449593141
 31
0.0
  0
LINE
  5
25E
330
1F
100
AcDbEntity
  8
0
  6
Continuous
 62
     7
370
    25
100
AcDbLine
 10
165.9817960338
 20
127.8459745184
 30
0.0
 11
166.0524970771
 21
127.8868004853
 31
0.0
  0
ARC
  5
25F
330
1F
100
AcDbEntity
  8
0
  6
Continuous
 62
     7
370
    25
100
AcDbCircle
 10
163.7059404761
 20
129.5924818522
 30
0.0
 40
0.7500000000000261
100
AcDbArc
 50
120.0040723343
 51
180.0
  0
ARC
  5
260
330
1F
100
AcDbEntity
  8
0
  6
Continuous
 62
     7
370
    25
100
AcDbCircle
 10
163.7059404761
 20
129.5924818522
 30
0.0
 40
0.75
100
AcDbArc
 50
180.0
 51
300.0040723343
  0
LINE
  5
261
330
1F
100
AcDbEntity
  8
0
  6
Continuous
 62
     7
370
    25
100
AcDbLine
 10
163.4015953554
 20
130.2828002168
 30
0.0
 11
163.330894312
 21
130.24197425
 31
0.0
  0
LINE
  5
262
330
1F
100
AcDbEntity
  8
0
  6
Continuous
 62
     7
370
    25
100
AcDbLine
 10
164.0809866401
 20
128.9429894543
 30
0.0
 11
164.1516876835
 21
128.9838154212
 31
0.0
  0
ARC
  5
263
330
1F
100
AcDbEntity
  8
0
  6
Continuous
 62
     7
370
    25
100
AcDbCircle
 10
163.7059404761
 20
126.1341894996
 30
0.0
 40
0.7500000000000242
100
AcDbArc
 50
120.0040723343
 51
180.0
  0
ARC
  5
264
330
1F
100
AcDbEntity
  8
0
  6
Continuous
 62
     7
370
    25
100
AcDbCircle
 10
163.7059404761
 20
126.1341894996
 30
0.0
 40
0.75
100
AcDbArc
 50
180.0
 51
300.0040723343
  0
ARC
  5
265
330
1F
100
AcDbEntity
  8
0
  6
Continuous
 62
     7
370
    25
100
AcDbCircle
 10
157.5156040015
 20
136.623405734
 30
0.0
 40
0.75
100
AcDbArc
 50
120.0040723343
 51
180.0
  0
ARC
  5
266
330
1F
100
AcDbEntity
  8
0
  6
Continuous
 62
     7
370
    25
100
AcDbCircle
 10
157.5156040015
 20
136.623405734
 30
0.0
 40
0.7500000000000223
100
AcDbArc
 50
180.0
 51
300.0040723343
  0
LINE
  5
267
330
1F
100
AcDbEntity
  8
0
  6
Continuous
 62
     7
370
    25
100
AcDbLine
 10
163.4015953554
 20
126.8245078643
 30
0.0
 11
163.330894312
 21
126.7836818975
 31
0.0
  0
LINE
  5
268
330
1F
100
AcDbEntity
  8
0
  6
Continuous
 62
     7
370
    25
100
AcDbLine
 10
164.0809866401
 20
125.4846971018
 30
0.0
 11
164.1516876835
 21
125.5255230687
 31
0.0
  0
LINE
  5
269
330
1F
100
AcDbEntity
  8
0
  6
Continuous
 62
     7
370
    25
100
AcDbLine
 10
157.2112588809
 20
137.3137240987
 30
0.0
 11
157.1405578375
 21
137.2728981318
 31
0.0
  0
LINE
  5
26A
330
1F
100
AcDbEntity
  8
0
  6
Continuous
 62
     7
370
    25
100
AcDbLine
 10
157.8906501656
 20
135.9739133362
 30
0.0
 11
157.961351209
 21
136.014739303
 31
0.0
  0
ARC
  5
26B
330
1F
100
AcDbEntity
  8
0
  6
Continuous
 62
     7
370
    25
100
AcDbCircle
 10
159.6739205501
 20
131.9194832314
 30
0.0
 40
0.7500000000000284
100
AcDbArc
 50
120.0040723343
 51
180.0
  0
ARC
  5
26C
330
1F
100
AcDbEntity
  8
0
  6
Continuous
 62
     7
370
    25
100
AcDbCircle
 10
159.6739205501
 20
131.9194832314
 30
0.0
 40
0.7500000000000284
100
AcDbArc
 50
180.0
 51
300.0040723343
  0
LINE
  5
26D
330
1F
100
AcDbEntity
  8
0
  6
Continuous
 62
     7
370
    25
100
AcDbLine
 10
159.3695754295
 20
132.6098015961
 30
0.0
 11
159.2988743861
 21
132.5689756292
 31
0.0
  0
LINE
  5
26E
330
1F
100
AcDbEntity
  8
0
  6
Continuous
 62
     7
370
    25
100
AcDbLine
 10
160.0489667142
 20
131.2699908336
 30
0.0
 11
160.1196677575
 21
131.3108168004
 31
0.0
  0
ARC
  5
26F
330
1F
100
AcDbEntity
  8
0
  6
Continuous
 62
     7
370
    25
100
AcDbCircle
 10
157.5156040015
 20
133.1651133815
 30
0.0
 40
0.7500000000000365
100
AcDbArc
 50
120.0040723343
 51
180.0
  0
ARC
  5
270
330
1F
100
AcDbEntity
  8
0
  6
Continuous
 62
     7
370
    25
100
AcDbCircle
 10
157.5156040015
 20
133.1651133815
 30
0.0
 40
0.75
100
AcDbArc
 50
180.0
 51
300.0040723343
  0
LINE
  5
271
330
1F
100
AcDbEntity
  8
0
  6
Continuous
 62
     7
370
    25
100
AcDbLine
 10
157.2112588809
 20
133.8554317462
 30
0.0
 11
157.1405578375
 21
133.8146057793
 31
0.0
  0
LINE
  5
272
330
1F
100
AcDbEntity
  8
0
  6
Continuous
 62
     7
370
    25
100
AcDbLine
 10
157.8906501656
 20
132.5156209836
 30
0.0
 11
157.961351209
 21
132.5564469505
 31
0.0
  0
ARC
  5
273
330
1F
100
AcDbEntity
  8
0
  6
Continuous
 62
     7
370
    25
100
AcDbCircle
 10
157.5156040015
 20
129.7068210289
 30
0.0
 40
0.7500000000000119
100
AcDbArc
 50
120.0040723343
 51
180.0
  0
ARC
  5
274
330
1F
100
AcDbEntity
  8
0
  6
Continuous
 62
     7
370
    25
100
AcDbCircle
 10
157.5156040015
 20
129.7068210289
 30
0.0
 40
0.75
100
AcDbArc
 50
180.0
 51
300.0040723343
  0
ARC
  5
275
330
1F
100
AcDbEntity
  8
0
  6
Continuous
 62
     7
370
    25
100
AcDbCircle
 10
151.321879275
 20
140.1979927267
 30
0.0
 40
0.7500000000000119
100
AcDbArc
 50
120.0040723343
 51
180.0
  0
ARC
  5
276
330
1F
100
AcDbEntity
  8
0
  6
Continuous
 62
     7
370
    25
100
AcDbCircle
 10
151.321879275
 20
140.1979927267
 30
0.0
 40
0.7500000000000119
100
AcDbArc
 50
180.0
 51
300.0040723343
  0
LINE
  5
277
330
1F
100
AcDbEntity
  8
0
  6
Continuous
 62
     7
370
    25
100
AcDbLine
 10
157.2112588809
 20
130.3971393936
 30
0.0
 11
157.1405578375
 21
130.3563134268
 31
0.0
  0
LINE
  5
278
330
1F
100
AcDbEntity
  8
0
  6
Continuous
 62
     7
370
    25
100
AcDbLine
 10
157.8906501656
 20
129.0573286311
 30
0.0
 11
157.961351209
 21
129.098154598
 31
0.0
  0
LINE
  5
279
330
1F
100
AcDbEntity
  8
0
  6
Continuous
 62
     7
370
    25
100
AcDbLine
 10
151.0175341543
 20
140.8883110913
 30
0.0
 11
150.946833111
 21
140.8474851245
 31
0.0
  0
LINE
  5
27A
330
1F
100
AcDbEntity
  8
0
  6
Continuous
 62
     7
370
    25
100
AcDbLine
 10
151.696925439
 20
139.5485003288
 30
0.0
 11
151.7676264824
 21
139.5893262957
 31
0.0
  0
ARC
  5
27B
330
1F
100
AcDbEntity
  8
0
  6
Continuous
 62
     7
370
    25
100
AcDbCircle
 10
153.2802889533
 20
135.7424538057
 30
0.0
 40
0.75
100
AcDbArc
 50
120.0040723343
 51
180.0
  0
ARC
  5
27C
330
1F
100
AcDbEntity
  8
0
  6
Continuous
 62
     7
370
    25
100
AcDbCircle
 10
153.2802889533
 20
135.7424538057
 30
0.0
 40
0.75
100
AcDbArc
 50
180.0
 51
300.0040723343
  0
LINE
  5
27D
330
1F
100
AcDbEntity
  8
0
  6
Continuous
 62
     7
370
    25
100
AcDbLine
 10
152.9759438326
 20
136.4327721704
 30
0.0
 11
152.9052427893
 21
136.3919462035
 31
0.0
  0
LINE
  5
27E
330
1F
100
AcDbEntity
  8
0
  6
Continuous
 62
     7
370
    25
100
AcDbLine
 10
153.6553351173
 20
135.0929614078
 30
0.0
 11
153.7260361607
 21
135.1337873747
 31
0.0
  0
ARC
  5
27F
330
1F
100
AcDbEntity
  8
0
  6
Continuous
 62
     7
370
    25
100
AcDbCircle
 10
147.5778607723
 20
142.3587797217
 30
0.0
 40
0.75
100
AcDbArc
 50
120.0040723343
 51
180.0
  0
ARC
  5
280
330
1F
100
AcDbEntity
  8
0
  6
Continuous
 62
     7
370
    25
100
AcDbCircle
 10
147.5778607723
 20
142.3587797217
 30
0.0
 40
0.7500000000000119
100
AcDbArc
 50
180.0
 51
300.0040723343
  0
LINE
  5
281
330
1F
100
AcDbEntity
  8
0
  6
Continuous
 62
     7
370
    25
100
AcDbLine
 10
147.2735156517
 20
143.0490980864
 30
0.0
 11
147.2028146083
 21
143.0082721195
 31
0.0
  0
LINE
  5
282
330
1F
100
AcDbEntity
  8
0
  6
Continuous
 62
     7
370
    25
100
AcDbLine
 10
147.9529069364
 20
141.7092873238
 30
0.0
 11
148.0236079797
 21
141.7501132907
 31
0.0
  0
ARC
  5
283
330
1F
100
AcDbEntity
  8
0
  6
Continuous
 62
     7
370
    25
100
AcDbCircle
 10
151.321879275
 20
133.2814080216
 30
0.0
 40
0.75
100
AcDbArc
 50
120.0040723343
 51
180.0
  0
ARC
  5
284
330
1F
100
AcDbEntity
  8
0
  6
Continuous
 62
     7
370
    25
100
AcDbCircle
 10
151.321879275
 20
133.2814080216
 30
0.0
 40
0.7500000000000365
100
AcDbArc
 50
180.0
 51
300.0040723343
  0
ARC
  5
285
330
1F
100
AcDbEntity
  8
0
  6
Continuous
 62
     7
370
    25
100
AcDbCircle
 10
144.9858479628
 20
143.8547091798
 30
0.0
 40
0.7500000000000223
100
AcDbArc
 50
120.0040723343
 51
180.0
  0
ARC
  5
286
330
1F
100
AcDbEntity
  8
0
  6
Continuous
 62
     7
370
    25
100
AcDbCircle
 10
144.9858479628
 20
143.8547091798
 30
0.0
 40
0.75
100
AcDbArc
 50
180.0
 51
300.0040723343
  0
LINE
  5
287
330
1F
100
AcDbEntity
  8
0
  6
Continuous
 62
     7
370
    25
100
AcDbLine
 10
151.0175341543
 20
133.9717263863
 30
0.0
 11
150.946833111
 21
133.9309004194
 31
0.0
  0
LINE
  5
288
330
1F
100
AcDbEntity
  8
0
  6
Continuous
 62
     7
370
    25
100
AcDbLine
 10
151.696925439
 20
132.6319156238
 30
0.0
 11
151.7676264824
 21
132.6727415906
 31
0.0
  0
LINE
  5
289
330
1F
100
AcDbEntity
  8
0
  6
Continuous
 62
     7
370
    25
100
AcDbLine
 10
144.6815028421
 20
144.5450275444
 30
0.0
 11
144.6108017988
 21
144.5042015776
 31
0.0
  0
LINE
  5
28A
330
1F
100
AcDbEntity
  8
0
  6
Continuous
 62
     7
370
    25
100
AcDbLine
 10
145.3608941269
 20
143.2052167819
 30
0.0
 11
145.4315951702
 21
143.2460427488
 31
0.0
  0
ARC
  5
28B
330
1F
100
AcDbEntity
  8
0
  6
Continuous
 62
     7
370
    25
100
AcDbCircle
 10
144.9858479628
 20
140.3964168272
 30
0.0
 40
0.75
100
AcDbArc
 50
120.0040723343
 51
180.0
  0
ARC
  5
28C
330
1F
100
AcDbEntity
  8
0
  6
Continuous
 62
     7
370
    25
100
AcDbCircle
 10
144.9858479628
 20
140.3964168272
 30
0.0
 40
0.7500000000000365
100
AcDbArc
 50
180.0
 51
300.0040723343
  0
LINE
  5
28D
330
1F
100
AcDbEntity
  8
0
  6
Continuous
 62
     7
370
    25
100
AcDbLine
 10
144.6815028421
 20
141.0867351919
 30
0.0
 11
144.6108017988
 21
141.0459092251
 31
0.0
  0
LINE
  5
28E
330
1F
100
AcDbEntity
  8
0
  6
Continuous
 62
     7
370
    25
100
AcDbLine
 10
145.3608941269
 20
139.7469244294
 30
0.0
 11
145.4315951702
 21
139.7877503963
 31
0.0
  0
ARC
  5
28F
330
1F
100
AcDbEntity
  8
0
  6
Continuous
 62
     7
370
    25
100
AcDbCircle
 10
144.9858479628
 20
136.9381244747
 30
0.0
 40
0.75
100
AcDbArc
 50
120.0040723343
 51
180.0
  0
ARC
  5
290
330
1F
100
AcDbEntity
  8
0
  6
Continuous
 62
     7
370
    25
100
AcDbCircle
 10
144.9858479628
 20
136.9381244747
 30
0.0
 40
0.7500000000000365
100
AcDbArc
 50
180.0
 51
300.0040723343
  0
LINE
  5
291
330
1F
100
AcDbEntity
  8
0
  6
Continuous
 62
     7
370
    25
100
AcDbLine
 10
186.3457916852
 20
62.5832491936
 30
0.0
 11
187.0528021189
 21
62.9915088622
 31
0.0
  0
LINE
  5
292
330
1F
100
AcDbEntity
  8
0
  6
Continuous
 62
     7
370
    25
100
AcDbLine
 10
132.7551100712
 20
157.0209554442
 30
0.0
 11
132.0480996376
 21
156.6126957757
 31
0.0
  0
LINE
  5
293
330
1F
100
AcDbEntity
  8
0
  6
Continuous
 62
     7
370
    25
100
AcDbLine
 10
144.6815028421
 20
137.6284428394
 30
0.0
 11
144.6108017988
 21
137.5876168725
 31
0.0
  0
LINE
  5
294
330
1F
100
AcDbEntity
  8
0
  6
Continuous
 62
     7
370
    25
100
AcDbLine
 10
145.3608941269
 20
136.2886320769
 30
0.0
 11
145.4315951702
 21
136.3294580437
 31
0.0
  0
LINE
  5
295
330
1F
100
AcDbEntity
  8
0
  6
Continuous
 62
     7
370
    25
100
AcDbLine
 10
172.7045539195
 20
84.8537819719
 30
0.0
 11
172.6338528761
 21
84.812956005
 31
0.0
  0
LINE
  5
296
330
1F
100
AcDbEntity
  8
0
  6
Continuous
 62
     7
370
    25
100
AcDbLine
 10
171.3179654949
 20
85.2610610042
 30
0.0
 11
171.2472644515
 21
85.2202350374
 31
0.0
  0
LINE
  5
297
330
1F
100
AcDbEntity
  8
0
  6
Continuous
 62
     7
370
    25
100
AcDbLine
 10
169.3213437665
 20
86.5995243042
 30
0.0
 11
169.2506427232
 21
86.5586983373
 31
0.0
  0
LINE
  5
298
330
1F
100
AcDbEntity
  8
0
  6
Continuous
 62
     7
370
    25
100
AcDbLine
 10
166.6096390226
 20
89.8997171712
 30
0.0
 11
166.5389379792
 21
89.8588912044
 31
0.0
  0
LINE
  5
299
330
1F
100
AcDbEntity
  8
0
  6
Continuous
 62
     7
370
    25
100
AcDbLine
 10
166.9267224599
 20
84.0922610308
 30
0.0
 11
166.8560214166
 21
84.051435064
 31
0.0
  0
LINE
  5
29A
330
1F
100
AcDbEntity
  8
0
  6
Continuous
 62
     7
370
    25
100
AcDbLine
 10
142.1975064145
 20
94.583585218
 30
0.0
 11
142.1268053712
 21
94.5427592512
 31
0.0
  0
LINE
  5
29B
330
1F
100
AcDbEntity
  8
0
  6
Continuous
 62
     7
370
    25
100
AcDbLine
 10
147.8851681929
 20
126.7383751908
 30
0.0
 11
147.5316646681
 21
126.5342463336
 31
0.0
  0
LINE
  5
29C
330
1F
100
AcDbEntity
  8
0
  6
Continuous
 62
     7
370
    25
100
AcDbLine
 10
168.034188304
 20
91.0286619154
 30
0.0
 11
168.3876918289
 21
91.2327907727
 31
0.0
  0
LINE
  5
29D
330
1F
100
AcDbEntity
  8
0
  6
Continuous
 62
     7
370
    25
100
AcDbLine
 10
168.3876918279
 20
91.2327907743
 30
0.0
 11
169.4482074784
 21
91.8451802772
 31
0.0
  0
LINE
  5
29E
330
1F
100
AcDbEntity
  8
0
  6
Continuous
 62
     7
370
    25
100
AcDbLine
 10
148.9456838444
 20
127.350764692
 30
0.0
 11
148.1413601978
 21
126.8863119912
 31
0.0
  0
LINE
  5
29F
330
1F
100
AcDbEntity
  8
0
  6
Continuous
 62
     7
370
    25
100
AcDbLine
 10
163.8508858564
 20
96.0201566856
 30
0.0
 11
164.6874325274
 21
96.5272288972
 31
0.0
  0
LINE
  5
2A0
330
1F
100
AcDbEntity
  8
0
  6
Continuous
 62
     7
370
    25
100
AcDbLine
 10
150.6077531967
 20
120.8771797208
 30
0.0
 11
149.7675737525
 21
120.4158121085
 31
0.0
  0
LINE
  5
2A1
330
1F
100
AcDbEntity
  8
0
  6
Continuous
 62
     7
370
    25
100
AcDbLine
 10
165.0430591249
 20
93.8920398788
 30
0.0
 11
165.193583098
 21
93.9812203696
 31
0.0
  0
LINE
  5
2A2
330
1F
100
AcDbEntity
  8
0
  6
Continuous
 62
     7
370
    25
100
AcDbLine
 10
148.699261584
 20
122.61128852
 30
0.0
 11
148.5036534249
 21
122.5009753558
 31
0.0
  0
LINE
  5
2A3
330
1F
100
AcDbEntity
  8
0
  6
Continuous
 62
     7
370
    25
100
AcDbLine
 10
143.3522214795
 20
93.4535663003
 30
0.0
 11
143.3522214795
 21
94.3540818801
 31
0.0
  0
LINE
  5
2A4
330
1F
100
AcDbEntity
  8
0
  6
Continuous
 62
     7
370
    25
100
AcDbLine
 10
145.0831920321
 20
93.5331888839
 30
0.0
 11
143.3522214795
 21
93.4535663003
 31
0.0
  0
LINE
  5
2A5
330
1F
100
AcDbEntity
  8
0
  6
Continuous
 62
     7
370
    25
100
AcDbLine
 10
143.3522214795
 20
95.6108030139
 30
0.0
 11
145.0831920321
 21
93.5331888839
 31
0.0
  0
LINE
  5
2A6
330
1F
100
AcDbEntity
  8
0
  6
Continuous
 62
     7
370
    25
100
AcDbLine
 10
143.3522214795
 20
94.5997843795
 30
0.0
 11
143.3522214795
 21
95.6108030139
 31
0.0
  0
ARC
  5
2A7
330
1F
100
AcDbEntity
  8
0
  6
Continuous
 62
     7
370
    25
100
AcDbCircle
 10
142.5337480642
 20
93.6959227728
 30
0.0
 40
1.219370548948533
100
AcDbArc
 50
47.8382286446
 51
126.1249611629
  0
LINE
  5
2A8
330
1F
100
AcDbEntity
  8
0
  6
Continuous
 62
     7
370
    25
100
AcDbLine
 10
141.9843659189
 20
94.4356921882
 30
0.0
 11
141.8148702228
 21
94.6808487522
 31
0.0
  0
ARC
  5
2A9
330
1F
100
AcDbEntity
  8
0
  6
Continuous
 62
     7
370
    25
100
AcDbCircle
 10
142.618518261
 20
93.5606099494
 30
0.0
 40
1.08070260370087
100
AcDbArc
 50
47.2412282895
 51
125.9299954547
  0
LINE
  5
2AA
330
1F
100
AcDbEntity
  8
0
  6
Continuous
 62
     7
370
    25
100
AcDbLine
 10
187.4850702847
 20
121.4426930674
 30
0.0
 11
187.4850702847
 21
65.1013770482
 31
0.0
  0
LWPOLYLINE
  5
2AB
330
1F
100
AcDbEntity
  8
0
  6
Continuous
 62
     7
370
    25
100
AcDbPolyline
 90
       11
 70
   128
 43
0.0
 10
187.4850702847
 20
65.1013770482
 10
187.4371826433
 20
64.426471275
 10
187.2946988718
 20
63.8234587518
 10
187.0611273935
 20
63.3071876479
 10
186.7422195133
 20
62.8903702714
 10
186.3458278018
 20
62.5832700495
 10
185.8817127384
 20
62.3934488088
 10
185.3613023762
 20
62.3255805782
 10
184.7974109455
 20
62.3813364989
 10
184.2039233248
 20
62.5593436749
 10
183.595453149
 20
62.855218979
  0
LINE
  5
2AC
330
1F
100
AcDbEntity
  8
0
  6
Continuous
 62
     7
370
    25
100
AcDbLine
 10
183.595453149
 20
62.855218979
 30
0.0
 11
134.7984381738
 21
91.0174610403
 31
0.0
  0
ARC
  5
2AD
330
1F
100
AcDbEntity
  8
0
  6
Continuous
 62
     7
370
    25
100
AcDbCircle
 10
139.2912619198
 20
98.1028004173
 30
0.0
 40
8.389725817853133
100
AcDbArc
 50
182.3878555625
 51
237.6211580404
  0
LINE
  5
2AE
330
1F
100
AcDbEntity
  8
0
  6
Continuous
 62
     7
370
    25
100
AcDbLine
 10
130.9088210381
 20
97.7532519019
 30
0.0
 11
130.9088210381
 21
154.0945679211
 31
0.0
  0
LWPOLYLINE
  5
2AF
330
1F
100
AcDbEntity
  8
0
  6
Continuous
 62
     7
370
    25
100
AcDbPolyline
 90
       11
 70
   128
 43
0.0
 10
130.9088210381
 20
154.0945679211
 10
130.9567086795
 20
154.7694736942
 10
131.099192451
 20
155.3724862175
 10
131.3327639293
 20
155.8887573213
 10
131.6516718095
 20
156.3055746978
 10
132.048063521
 20
156.6126749198
 10
132.5121785844
 20
156.8024961605
 10
133.0325889466
 20
156.870364391
 10
133.5964803773
 20
156.8146084704
 10
134.189967998
 20
156.6366012943
 10
134.7984381738
 20
156.3407259903
  0
LINE
  5
2B0
330
1F
100
AcDbEntity
  8
0
  6
Continuous
 62
     7
370
    25
100
AcDbLine
 10
134.7984381738
 20
156.3407259903
 30
0.0
 11
183.595453149
 21
128.1784839289
 31
0.0
  0
ARC
  5
2B1
330
1F
100
AcDbEntity
  8
0
  6
Continuous
 62
     7
370
    25
100
AcDbCircle
 10
179.102629403
 20
121.093144552
 30
0.0
 40
8.389725817836437
100
AcDbArc
 50
2.3878555624
 51
57.6211580405
  0
LWPOLYLINE
  5
2B2
330
1F
100
AcDbEntity
  8
0
  6
Continuous
 62
     7
370
    25
100
AcDbPolyline
 90
       15
 70
   128
 43
0.0
 10
182.5275764444
 20
96.1331555939
 10
182.4745605792
 20
95.6204773648
 10
182.3181714202
 20
95.1947011008
 10
182.066250973
 20
94.8771770016
 10
181.7314315808
 20
94.6838270513
 10
181.3305024858
 20
94.6243466239
 10
180.8835679472
 20
94.7017183164
 10
180.4130391288
 20
94.912062389
 10
179.9425103105
 20
95.2448313116
 10
179.4955757719
 20
95.6833386609
 10
179.0946466769
 20
96.2055958473
 10
178.7598272847
 20
96.7854147148
 10
178.5079068375
 20
97.3937207243
 10
178.3515176785
 20
98.0000108723
 10
178.2985018133
 20
98.5738832392
  0
LWPOLYLINE
  5
2B3
330
1F
100
AcDbEntity
  8
0
  6
Continuous
 62
     7
370
    25
100
AcDbPolyline
 90
       15
 70
   128
 43
0.0
 10
178.2985018133
 20
98.5738832392
 10
178.3515176785
 20
99.0865614682
 10
178.5079068375
 20
99.5123377323
 10
178.7598272847
 20
99.8298618315
 10
179.0946466769
 20
100.0232117817
 10
179.4955757718
 20
100.0826922091
 10
179.9425103105
 20
100.0053205167
 10
180.4130391288
 20
99.7949764441
 10
180.8835679472
 20
99.4622075215
 10
181.3305024858
 20
99.0237001722
 10
181.7314315808
 20
98.5014429858
 10
182.066250973
 20
97.9216241183
 10
182.3181714202
 20
97.3133181088
 10
182.4745605792
 20
96.7070279608
 10
182.5275764444
 20
96.1331555939
  0
LWPOLYLINE
  5
2B4
330
1F
100
AcDbEntity
  8
0
  6
Continuous
 62
     7
370
    25
100
AcDbPolyline
 90
       15
 70
   128
 43
0.0
 10
135.8663148793
 20
123.062789379
 10
135.9193307445
 20
122.4889170121
 10
136.0757199035
 20
121.882626864
 10
136.3276403507
 20
121.2743208546
 10
136.6624597429
 20
120.6945019871
 10
137.0633888379
 20
120.1722448006
 10
137.5103233765
 20
119.7337374514
 10
137.9808521949
 20
119.4009685288
 10
138.4513810132
 20
119.1906244562
 10
138.8983155518
 20
119.1132527637
 10
139.2992446468
 20
119.1727331911
 10
139.634064039
 20
119.3660831413
 10
139.8859844862
 20
119.6836072406
 10
140.0423736452
 20
120.1093835046
 10
140.0953895104
 20
120.6220617337
  0
LWPOLYLINE
  5
2B5
330
1F
100
AcDbEntity
  8
0
  6
Continuous
 62
     7
370
    25
100
AcDbPolyline
 90
       15
 70
   128
 43
0.0
 10
140.0953895104
 20
120.6220617337
 10
140.0423736452
 20
121.1959341006
 10
139.8859844862
 20
121.8022242486
 10
139.634064039
 20
122.410530258
 10
139.2992446468
 20
122.9903491255
 10
138.8983155518
 20
123.512606312
 10
138.4513810132
 20
123.9511136613
 10
137.9808521949
 20
124.2838825838
 10
137.5103233765
 20
124.4942266564
 10
137.0633888379
 20
124.5715983489
 10
136.6624597429
 20
124.5121179215
 10
136.3276403507
 20
124.3187679713
 10
136.0757199035
 20
124.001243872
 10
135.9193307445
 20
123.575467608
 10
135.8663148793
 20
123.062789379
  0
LINE
  5
2B6
330
1F
100
AcDbEntity
  8
0
  6
Continuous
 62
     7
370
    25
100
AcDbLine
 10
145.2528462918
 20
89.31861136
 30
0.0
 11
145.2528462918
 21
97.6082411365
 31
0.0
  0
LINE
  5
2B7
330
1F
100
AcDbEntity
  8
0
  6
Continuous
 62
     7
370
    25
100
AcDbLine
 10
147.9068848397
 20
86.640030694
 30
0.0
 11
145.2528462918
 21
89.31861136
 31
0.0
  0
LINE
  5
2B8
330
1F
100
AcDbEntity
  8
0
  6
Continuous
 62
     7
370
    25
100
AcDbLine
 10
147.9068848397
 20
97.8159517448
 30
0.0
 11
147.9068848397
 21
86.640030694
 31
0.0
  0
LINE
  5
2B9
330
1F
100
AcDbEntity
  8
0
  6
Continuous
 62
     7
370
    25
100
AcDbLine
 10
145.2528462918
 20
98.0137347189
 30
0.0
 11
147.9068848397
 21
97.8159517448
 31
0.0
  0
LINE
  5
2BA
330
1F
100
AcDbEntity
  8
0
  6
Continuous
 62
     7
370
    25
100
AcDbLine
 10
145.2528462918
 20
97.85320338
 30
0.0
 11
145.2528462918
 21
98.0137347189
 31
0.0
  0
LINE
  5
2BB
330
1F
100
AcDbEntity
  8
0
  6
Continuous
 62
     7
370
    25
100
AcDbLine
 10
141.3152605623
 20
100.1257039113
 30
0.0
 11
145.2528462918
 21
97.85320338
 31
0.0
  0
LINE
  5
2BC
330
1F
100
AcDbEntity
  8
0
  6
Continuous
 62
     7
370
    25
100
AcDbLine
 10
141.3152605623
 20
91.7653359026
 30
0.0
 11
141.3152605623
 21
100.1257039113
 31
0.0
  0
LINE
  5
2BD
330
1F
100
AcDbEntity
  8
0
  6
Continuous
 62
     7
370
    25
100
AcDbLine
 10
141.5274214969
 20
91.6428913719
 30
0.0
 11
141.3152605623
 21
91.7653359026
 31
0.0
  0
LINE
  5
2BE
330
1F
100
AcDbEntity
  8
0
  6
Continuous
 62
     7
370
    25
100
AcDbLine
 10
141.5274214969
 20
91.6428913719
 30
0.0
 11
141.5274214969
 21
99.758297137
 31
0.0
  0
LINE
  5
2BF
330
1F
100
AcDbEntity
  8
0
  6
Continuous
 62
     7
370
    25
100
AcDbLine
 10
141.5274214969
 20
99.758297137
 30
0.0
 11
145.2528462918
 21
97.6082411365
 31
0.0
  0
ARC
  5
2C0
330
1F
100
AcDbEntity
  8
0
  6
Continuous
 62
     7
370
    25
100
AcDbCircle
 10
174.0819534441
 20
76.0404059557
 30
0.0
 40
1.824063387364073
100
AcDbArc
 50
345.7624509587
 51
25.2194475867
  0
ARC
  5
2C1
330
1F
100
AcDbEntity
  8
0
  6
Continuous
 62
     7
370
    25
100
AcDbCircle
 10
177.7128206816
 20
74.7993906352
 30
0.0
 40
2.0243611161191
100
AcDbArc
 50
156.956349776
 51
203.3709289881
  0
LINE
  5
2C2
330
1F
100
AcDbEntity
  8
0
  6
Continuous
 62
     7
370
    25
100
AcDbLine
 10
175.8545462198
 20
73.996362645
 30
0.0
 11
176.1440081484
 21
73.1621540251
 31
0.0
  0
LINE
  5
2C3
330
1F
100
AcDbEntity
  8
0
  6
Continuous
 62
     7
370
    25
100
AcDbLine
 10
176.1440081484
 20
73.1621540251
 30
0.0
 11
171.1067529126
 21
73.2231580664
 31
0.0
  0
LINE
  5
2C4
330
1F
100
AcDbEntity
  8
0
  6
Continuous
 62
     7
370
    25
100
AcDbLine
 10
171.1067529126
 20
73.2231580664
 30
0.0
 11
170.5974252706
 21
74.7188202102
 31
0.0
  0
ARC
  5
2C5
330
1F
100
AcDbEntity
  8
0
  6
Continuous
 62
     7
370
    25
100
AcDbCircle
 10
170.7098987498
 20
76.2080815809
 30
0.0
 40
1.493502498807541
100
AcDbArc
 50
192.039195171
 51
265.6810500369
  0
LINE
  5
2C6
330
1F
100
AcDbEntity
  8
0
  6
Continuous
 62
     7
370
    25
100
AcDbLine
 10
169.2492456254
 20
75.8965656678
 30
0.0
 11
166.7120019515
 21
83.0765157711
 31
0.0
  0
LWPOLYLINE
  5
2C7
330
1F
100
AcDbEntity
  8
0
  6
Continuous
 62
     7
370
    25
100
AcDbPolyline
 90
        9
 70
   128
 43
0.0
 10
166.7120019515
 20
83.0765157711
 10
166.6295555432
 20
83.444357458
 10
166.6528259269
 20
83.7639527644
 10
166.7786732348
 20
83.9921787656
 10
166.9901169172
 20
84.0982409772
 10
167.2586269243
 20
84.0678284482
 10
167.5479732596
 20
83.9050447345
 10
167.8191144854
 20
83.631854207
 10
168.0354655754
 20
83.2851184036
  0
LINE
  5
2C8
330
1F
100
AcDbEntity
  8
0
  6
Continuous
 62
     7
370
    25
100
AcDbLine
 10
168.1472177064
 20
83.320727311
 30
0.0
 11
168.0354655754
 21
83.2851184036
 31
0.0
  0
LINE
  5
2C9
330
1F
100
AcDbEntity
  8
0
  6
Continuous
 62
     7
370
    25
100
AcDbLine
 10
168.2730881309
 20
83.3225721649
 30
0.0
 11
168.1472177064
 21
83.320727311
 31
0.0
  0
LINE
  5
2CA
330
1F
100
AcDbEntity
  8
0
  6
Continuous
 62
     7
370
    25
100
AcDbLine
 10
168.2730881309
 20
83.3225721649
 30
0.0
 11
166.3692379407
 21
88.7101309203
 31
0.0
  0
LWPOLYLINE
  5
2CB
330
1F
100
AcDbEntity
  8
0
  6
Continuous
 62
     7
370
    25
100
AcDbPolyline
 90
       10
 70
   128
 43
0.0
 10
166.3692379407
 20
88.7101309203
 10
166.2742967857
 20
89.1201569285
 10
166.2901711557
 20
89.4823047921
 10
166.4149510241
 20
89.7530003662
 10
166.6336226999
 20
89.899673175
 10
166.9198752967
 20
89.904675338
 10
167.2392664957
 20
89.7674049878
 10
167.5533666946
 20
89.5043786879
 10
167.8243829115
 20
89.1472441359
 10
168.0197060905
 20
88.7389722682
  0
LINE
  5
2CC
330
1F
100
AcDbEntity
  8
0
  6
Continuous
 62
     7
370
    25
100
AcDbLine
 10
168.0197060905
 20
88.7389722682
 30
0.0
 11
170.2307053804
 21
81.7632285559
 31
0.0
  0
LINE
  5
2CD
330
1F
100
AcDbEntity
  8
0
  6
Continuous
 62
     7
370
    25
100
AcDbLine
 10
170.3597899375
 20
81.7554839912
 30
0.0
 11
170.2307053804
 21
81.7632285559
 31
0.0
  0
LINE
  5
2CE
330
1F
100
AcDbEntity
  8
0
  6
Continuous
 62
     7
370
    25
100
AcDbLine
 10
169.0026902169
 20
86.0371587461
 30
0.0
 11
170.3597899375
 21
81.7554839912
 31
0.0
  0
LWPOLYLINE
  5
2CF
330
1F
100
AcDbEntity
  8
0
  6
Continuous
 62
     7
370
    25
100
AcDbPolyline
 90
        9
 70
   128
 43
0.0
 10
170.6307361083
 20
85.4514088328
 10
170.4763903033
 20
85.8186713049
 10
170.2506764312
 20
86.1519825323
 10
169.979312548
 20
86.4133647126
 10
169.693218116
 20
86.5730357083
 10
169.4249910106
 20
86.6128024522
 10
169.2051932866
 20
86.5281338832
 10
169.0588689084
 20
86.3286772197
 10
169.0026902169
 20
86.0371587461
  0
LINE
  5
2D0
330
1F
100
AcDbEntity
  8
0
  6
Continuous
 62
     7
370
    25
100
AcDbLine
 10
171.5498461765
 20
82.4120836664
 30
0.0
 11
170.6307361083
 21
85.4514088328
 31
0.0
  0
LINE
  5
2D1
330
1F
100
AcDbEntity
  8
0
  6
Continuous
 62
     7
370
    25
100
AcDbLine
 10
171.6801128093
 20
82.4005220717
 30
0.0
 11
171.5498461765
 21
82.4120836664
 31
0.0
  0
LINE
  5
2D2
330
1F
100
AcDbEntity
  8
0
  6
Continuous
 62
     7
370
    25
100
AcDbLine
 10
171.6801128093
 20
82.4005220717
 30
0.0
 11
170.7610027411
 21
85.4398472381
 31
0.0
  0
LWPOLYLINE
  5
2D3
330
1F
100
AcDbEntity
  8
0
  6
Continuous
 62
     7
370
    25
100
AcDbPolyline
 90
        9
 70
   128
 43
0.0
 10
170.7610027411
 20
85.4398472381
 10
170.6005385326
 20
85.8314353032
 10
170.3688846939
 20
86.1935484126
 10
170.0880148017
 20
86.4918382462
 10
169.7845708323
 20
86.6980104553
 10
169.4873360314
 20
86.7925085288
 10
169.2245046724
 20
86.7663688309
 10
169.0210076827
 20
86.6220708484
 10
168.8961478146
 20
86.3733019987
  0
LINE
  5
2D4
330
1F
100
AcDbEntity
  8
0
  6
Continuous
 62
     7
370
    25
100
AcDbLine
 10
168.1472177064
 20
88.7361903618
 30
0.0
 11
168.8961478146
 21
86.3733019987
 31
0.0
  0
LWPOLYLINE
  5
2D5
330
1F
100
AcDbEntity
  8
0
  6
Continuous
 62
     7
370
    25
100
AcDbPolyline
 90
       11
 70
   128
 43
0.0
 10
166.2433675162
 20
88.7082860664
 10
166.1391873386
 20
89.1356233266
 10
166.1383861033
 20
89.5224955717
 10
166.241042241
 20
89.831033051
 10
166.4371070536
 20
90.0310339662
 10
166.7073883511
 20
90.1029208342
 10
167.0254291171
 20
90.0396568676
 10
167.3600973054
 20
89.8474347843
 10
167.678633262
 20
89.5450706209
 10
167.949856468
 20
89.1621618885
 10
168.1472177064
 20
88.7361903618
  0
LINE
  5
2D6
330
1F
100
AcDbEntity
  8
0
  6
Continuous
 62
     7
370
    25
100
AcDbLine
 10
168.1472177064
 20
83.320727311
 30
0.0
 11
166.2433675162
 21
88.7082860664
 31
0.0
  0
LWPOLYLINE
  5
2D7
330
1F
100
AcDbEntity
  8
0
  6
Continuous
 62
     7
370
    25
100
AcDbPolyline
 90
       10
 70
   128
 43
0.0
 10
166.5861315271
 20
83.0746709172
 10
166.4936269829
 20
83.4621255955
 10
166.4993779855
 20
83.8094695734
 10
166.6027699455
 20
84.0795834223
 10
166.7927537281
 20
84.2436010259
 10
167.0490264349
 20
84.2839944
 10
167.3442011037
 20
84.196446847
 10
167.6467334565
 20
83.9903142656
 10
167.9242929252
 20
83.6876253195
 10
168.1472177064
 20
83.320727311
  0
LINE
  5
2D8
330
1F
100
AcDbEntity
  8
0
  6
Continuous
 62
     7
370
    25
100
AcDbLine
 10
169.1228965685
 20
75.8960752588
 30
0.0
 11
166.5861315271
 21
83.0746709172
 31
0.0
  0
ARC
  5
2D9
330
1F
100
AcDbEntity
  8
0
  6
Continuous
 62
     7
370
    25
100
AcDbCircle
 10
170.9509962727
 20
76.3650450327
 30
0.0
 40
1.887294671532466
100
AcDbArc
 50
194.3880482983
 51
257.3401867973
  0
LINE
  5
2DA
330
1F
100
AcDbEntity
  8
0
  6
Continuous
 62
     7
370
    25
100
AcDbLine
 10
171.9442262038
 20
70.3923498843
 30
0.0
 11
170.5373731522
 21
74.5236333211
 31
0.0
  0
LINE
  5
2DB
330
1F
100
AcDbEntity
  8
0
  6
Continuous
 62
     7
370
    25
100
AcDbLine
 10
177.2539307167
 20
70.3280463266
 30
0.0
 11
171.9442262038
 21
70.3923498843
 31
0.0
  0
LINE
  5
2DC
330
1F
100
AcDbEntity
  8
0
  6
Continuous
 62
     7
370
    25
100
AcDbLine
 10
176.3344117497
 20
72.9780343655
 30
0.0
 11
177.2539307167
 21
70.3280463266
 31
0.0
  0
LINE
  5
2DD
330
1F
100
AcDbEntity
  8
0
  6
Continuous
 62
     7
370
    25
100
AcDbLine
 10
176.2722411187
 20
73.1606010505
 30
0.0
 11
176.3344117497
 21
72.9780343655
 31
0.0
  0
LINE
  5
2DE
330
1F
100
AcDbEntity
  8
0
  6
Continuous
 62
     7
370
    25
100
AcDbLine
 10
176.2722411187
 20
73.1606010505
 30
0.0
 11
176.2710579902
 21
73.1606153789
 31
0.0
  0
LINE
  5
2DF
330
1F
100
AcDbEntity
  8
0
  6
Continuous
 62
     7
370
    25
100
AcDbLine
 10
175.9810060913
 20
73.9965242512
 30
0.0
 11
176.2710579902
 21
73.1606153789
 31
0.0
  0
ARC
  5
2E0
330
1F
100
AcDbEntity
  8
0
  6
Continuous
 62
     7
370
    25
100
AcDbCircle
 10
177.6601654805
 20
74.7250727267
 30
0.0
 40
1.830398627468959
100
AcDbArc
 50
156.5450917909
 51
203.4549082091
  0
ARC
  5
2E1
330
1F
100
AcDbEntity
  8
0
  6
Continuous
 62
     7
370
    25
100
AcDbCircle
 10
174.0279748156
 20
75.966715961
 30
0.0
 40
2.01930616681085
100
AcDbArc
 50
345.2800584117
 51
24.9848735766
  0
LINE
  5
2E2
330
1F
100
AcDbEntity
  8
0
  6
Continuous
 62
     7
370
    25
100
AcDbLine
 10
173.6625694929
 20
84.0805415693
 30
0.0
 11
175.8583129567
 21
76.8196284328
 31
0.0
  0
LWPOLYLINE
  5
2E3
330
1F
100
AcDbEntity
  8
0
  6
Continuous
 62
     7
370
    25
100
AcDbPolyline
 90
        9
 70
   128
 43
0.0
 10
172.3855468122
 20
84.193881558
 10
172.3307959841
 20
84.5313421838
 10
172.3815880367
 20
84.8087999955
 10
172.5301903405
 20
84.9840145564
 10
172.7539795417
 20
85.030311038
 10
173.0188857632
 20
84.9406412205
 10
173.284579434
 20
84.7286565209
 10
173.5106111014
 20
84.426629688
 10
173.6625694929
 20
84.0805415693
  0
LINE
  5
2E4
330
1F
100
AcDbEntity
  8
0
  6
Continuous
 62
     7
370
    25
100
AcDbLine
 10
172.9324371704
 20
82.3854173856
 30
0.0
 11
172.3855468122
 21
84.193881558
 31
0.0
  0
LINE
  5
2E5
330
1F
100
AcDbEntity
  8
0
  6
Continuous
 62
     7
370
    25
100
AcDbLine
 10
173.0627038032
 20
82.3738557908
 30
0.0
 11
172.9324371704
 21
82.3854173856
 31
0.0
  0
LINE
  5
2E6
330
1F
100
AcDbEntity
  8
0
  6
Continuous
 62
     7
370
    25
100
AcDbLine
 10
173.0627038032
 20
82.3738557908
 30
0.0
 11
172.515813445
 21
84.1823199632
 31
0.0
  0
LWPOLYLINE
  5
2E7
330
1F
100
AcDbEntity
  8
0
  6
Continuous
 62
     7
370
    25
100
AcDbPolyline
 90
        9
 70
   128
 43
0.0
 10
172.515813445
 20
84.1823199632
 10
172.4722326707
 20
84.4509331675
 10
172.5126623237
 20
84.6717851015
 10
172.6309473558
 20
84.8112530602
 10
172.8090799432
 20
84.8481043113
 10
173.0199410142
 20
84.7767285858
 10
173.2314288822
 20
84.6079921909
 10
173.4113464364
 20
84.3675837132
 10
173.5323028601
 20
84.092103164
  0
LINE
  5
2E8
330
1F
100
AcDbEntity
  8
0
  6
Continuous
 62
     7
370
    25
100
AcDbLine
 10
173.5323028601
 20
84.092103164
 30
0.0
 11
175.7321516339
 21
76.8176145348
 31
0.0
  0
LINE
  5
2E9
330
1F
100
AcDbEntity
  8
0
  6
Continuous
 62
     7
370
    25
100
AcDbLine
 10
172.3032818606
 20
84.4659163732
 30
0.0
 11
172.1730152278
 21
84.4774779679
 31
0.0
  0
LWPOLYLINE
  5
2EA
330
1F
100
AcDbEntity
  8
0
  6
Continuous
 62
     7
370
    25
100
AcDbPolyline
 90
        9
 70
   128
 43
0.0
 10
170.9395201708
 20
84.9550746322
 10
170.9862025496
 20
85.1997572252
 10
171.1085438208
 20
85.3673346624
 10
171.292585505
 20
85.4386872619
 10
171.5173294383
 20
85.4056740766
 10
171.7571335497
 20
85.272061733
 10
171.9846374829
 20
85.0530946792
 10
172.1738842657
 20
84.7737558754
 10
172.3032818606
 20
84.4659163732
  0
LINE
  5
2EB
330
1F
100
AcDbEntity
  8
0
  6
Continuous
 62
     7
370
    25
100
AcDbLine
 10
171.0809122985
 20
84.8691968229
 30
0.0
 11
170.9395201708
 21
84.9550746322
 31
0.0
  0
LWPOLYLINE
  5
2EC
330
1F
100
AcDbEntity
  8
0
  6
Continuous
 62
     7
370
    25
100
AcDbPolyline
 90
        9
 70
   128
 43
0.0
 10
171.0809122985
 20
84.8691968229
 10
171.1182956353
 20
85.0651391041
 10
171.2162667557
 20
85.1993354314
 10
171.363647683
 20
85.2564747274
 10
171.543623048
 20
85.2300377064
 10
171.735658632
 20
85.1230406901
 10
171.9178442101
 20
84.9476914611
 10
172.0693933902
 20
84.723996421
 10
172.1730152278
 20
84.4774779679
  0
LINE
  5
2ED
330
1F
100
AcDbEntity
  8
0
  6
Continuous
 62
     7
370
    25
100
AcDbLine
 10
169.407882327
 20
80.0856873031
 30
0.0
 11
169.2818565466
 21
80.0842831218
 31
0.0
  0
LINE
  5
2EE
330
1F
100
AcDbEntity
  8
0
  6
Continuous
 62
     7
370
    25
100
AcDbLine
 10
168.2910496452
 20
83.2611575802
 30
0.0
 11
169.407882327
 21
80.0856873031
 31
0.0
  0
LINE
  5
2EF
330
1F
100
AcDbEntity
  8
0
  6
Continuous
 62
     7
370
    25
100
AcDbLine
 10
168.1650238649
 20
83.2597533989
 30
0.0
 11
168.2910496452
 21
83.2611575802
 31
0.0
  0
LINE
  5
2F0
330
1F
100
AcDbEntity
  8
0
  6
Continuous
 62
     7
370
    25
100
AcDbLine
 10
168.1650238649
 20
83.2597533989
 30
0.0
 11
169.2818565466
 21
80.0842831218
 31
0.0
  0
LWPOLYLINE
  5
2F1
330
1F
100
AcDbEntity
  8
0
  6
Continuous
 62
     7
370
    25
100
AcDbPolyline
 90
        9
 70
   128
 43
0.0
 10
145.4316000952
 20
143.2460455928
 10
145.546576869
 20
143.3783676767
 10
145.5869513429
 20
143.5894238199
 10
145.546576869
 20
143.8470826376
 10
145.4316000952
 20
144.1121179106
 10
145.2595251929
 20
144.3441804211
 10
145.0565490062
 20
144.5079407555
 10
144.8535728194
 20
144.5784678875
 10
144.6814979172
 20
144.5450247005
  0
LWPOLYLINE
  5
2F2
330
1F
100
AcDbEntity
  8
0
  6
Continuous
 62
     7
370
    25
100
AcDbPolyline
 90
        9
 70
   128
 43
0.0
 10
145.4316000952
 20
139.7877532402
 10
145.546576869
 20
139.9200753242
 10
145.5869513429
 20
140.1311314673
 10
145.546576869
 20
140.388790285
 10
145.4316000952
 20
140.653825558
 10
145.2595251929
 20
140.8858880686
 10
145.0565490062
 20
141.049648403
 10
144.8535728194
 20
141.120175535
 10
144.6814979172
 20
141.0867323479
  0
LWPOLYLINE
  5
2F3
330
1F
100
AcDbEntity
  8
0
  6
Continuous
 62
     7
370
    25
100
AcDbPolyline
 90
        9
 70
   128
 43
0.0
 10
145.4316000952
 20
136.3294608877
 10
145.546576869
 20
136.4617829717
 10
145.5869513429
 20
136.6728391148
 10
145.546576869
 20
136.9304979325
 10
145.4316000952
 20
137.1955332055
 10
145.2595251929
 20
137.427595716
 10
145.0565490062
 20
137.5913560505
 10
144.8535728194
 20
137.6618831824
 10
144.6814979172
 20
137.6284399954
  0
LWPOLYLINE
  5
2F4
330
1F
100
AcDbEntity
  8
0
  6
Continuous
 62
     7
370
    25
100
AcDbPolyline
 90
        9
 70
   128
 43
0.0
 10
151.7676314074
 20
139.5893291397
 10
151.8826081812
 20
139.7216512236
 10
151.922982655
 20
139.9327073668
 10
151.8826081812
 20
140.1903661845
 10
151.7676314074
 20
140.4554014575
 10
151.5955565051
 20
140.687463968
 10
151.3925803184
 20
140.8512243024
 10
151.1896041316
 20
140.9217514344
 10
151.0175292293
 20
140.8883082474
  0
LWPOLYLINE
  5
2F5
330
1F
100
AcDbEntity
  8
0
  6
Continuous
 62
     7
370
    25
100
AcDbPolyline
 90
        9
 70
   128
 43
0.0
 10
153.7260410857
 20
135.1337902187
 10
153.8410178595
 20
135.2661123027
 10
153.8813923334
 20
135.4771684458
 10
153.8410178595
 20
135.7348272635
 10
153.7260410857
 20
135.9998625365
 10
153.5539661834
 20
136.231925047
 10
153.3509899967
 20
136.3956853815
 10
153.1480138099
 20
136.4662125134
 10
152.9759389076
 20
136.4327693264
  0
LWPOLYLINE
  5
2F6
330
1F
100
AcDbEntity
  8
0
  6
Continuous
 62
     7
370
    25
100
AcDbPolyline
 90
        9
 70
   128
 43
0.0
 10
151.7676314074
 20
132.6727444346
 10
151.8826081812
 20
132.8050665186
 10
151.922982655
 20
133.0161226617
 10
151.8826081812
 20
133.2737814794
 10
151.7676314074
 20
133.5388167524
 10
151.5955565051
 20
133.7708792629
 10
151.3925803184
 20
133.9346395974
 10
151.1896041316
 20
134.0051667293
 10
151.0175292293
 20
133.9717235423
  0
LWPOLYLINE
  5
2F7
330
1F
100
AcDbEntity
  8
0
  6
Continuous
 62
     7
370
    25
100
AcDbPolyline
 90
        9
 70
   128
 43
0.0
 10
157.9613561339
 20
136.014742147
 10
158.0763329078
 20
136.147064231
 10
158.1167073816
 20
136.3581203741
 10
158.0763329078
 20
136.6157791918
 10
157.9613561339
 20
136.8808144648
 10
157.7892812317
 20
137.1128769753
 10
157.5863050449
 20
137.2766373098
 10
157.3833288582
 20
137.3471644417
 10
157.2112539559
 20
137.3137212547
  0
LWPOLYLINE
  5
2F8
330
1F
100
AcDbEntity
  8
0
  6
Continuous
 62
     7
370
    25
100
AcDbPolyline
 90
        9
 70
   128
 43
0.0
 10
157.9613561339
 20
132.5564497945
 10
158.0763329078
 20
132.6887718785
 10
158.1167073816
 20
132.8998280216
 10
158.0763329078
 20
133.1574868393
 10
157.9613561339
 20
133.4225221123
 10
157.7892812317
 20
133.6545846228
 10
157.5863050449
 20
133.8183449572
 10
157.3833288582
 20
133.8888720892
 10
157.2112539559
 20
133.8554289022
  0
LWPOLYLINE
  5
2F9
330
1F
100
AcDbEntity
  8
0
  6
Continuous
 62
     7
370
    25
100
AcDbPolyline
 90
        9
 70
   128
 43
0.0
 10
160.1196726825
 20
131.3108196444
 10
160.2346494564
 20
131.4431417284
 10
160.2750239302
 20
131.6541978715
 10
160.2346494564
 20
131.9118566892
 10
160.1196726825
 20
132.1768919622
 10
159.9475977802
 20
132.4089544727
 10
159.7446215935
 20
132.5727148072
 10
159.5416454068
 20
132.6432419391
 10
159.3695705045
 20
132.6097987521
  0
LWPOLYLINE
  5
2FA
330
1F
100
AcDbEntity
  8
0
  6
Continuous
 62
     7
370
    25
100
AcDbPolyline
 90
        9
 70
   128
 43
0.0
 10
157.9613561339
 20
129.098157442
 10
158.0763329078
 20
129.2304795259
 10
158.1167073816
 20
129.4415356691
 10
158.0763329078
 20
129.6991944868
 10
157.9613561339
 20
129.9642297598
 10
157.7892812317
 20
130.1962922703
 10
157.5863050449
 20
130.3600526047
 10
157.3833288582
 20
130.4305797367
 10
157.2112539559
 20
130.3971365497
  0
LWPOLYLINE
  5
2FB
330
1F
100
AcDbEntity
  8
0
  6
Continuous
 62
     7
370
    25
100
AcDbPolyline
 90
        9
 70
   128
 43
0.0
 10
164.1516926085
 20
125.5255259126
 10
164.2666693823
 20
125.6578479966
 10
164.3070438561
 20
125.8689041397
 10
164.2666693823
 20
126.1265629575
 10
164.1516926085
 20
126.3915982304
 10
163.9796177062
 20
126.623660741
 10
163.7766415194
 20
126.7874210754
 10
163.5736653327
 20
126.8579482074
 10
163.4015904304
 20
126.8245050203
  0
LWPOLYLINE
  5
2FC
330
1F
100
AcDbEntity
  8
0
  6
Continuous
 62
     7
370
    25
100
AcDbPolyline
 90
        9
 70
   128
 43
0.0
 10
164.1516926085
 20
128.9838182652
 10
164.2666693823
 20
129.1161403491
 10
164.3070438561
 20
129.3271964923
 10
164.2666693823
 20
129.58485531
 10
164.1516926085
 20
129.849890583
 10
163.9796177062
 20
130.0819530935
 10
163.7766415194
 20
130.2457134279
 10
163.5736653327
 20
130.3162405599
 10
163.4015904304
 20
130.2827973729
  0
LWPOLYLINE
  5
2FD
330
1F
100
AcDbEntity
  8
0
  6
Continuous
 62
     7
370
    25
100
AcDbPolyline
 90
        9
 70
   128
 43
0.0
 10
166.0525020021
 20
127.8868033292
 10
166.1674787759
 20
128.0191254132
 10
166.2078532498
 20
128.2301815563
 10
166.1674787759
 20
128.487840374
 10
166.0525020021
 20
128.752875647
 10
165.8804270998
 20
128.9849381575
 10
165.6774509131
 20
129.148698492
 10
165.4744747264
 20
129.219225624
 10
165.3023998241
 20
129.1857824369
  0
LWPOLYLINE
  5
2FE
330
1F
100
AcDbEntity
  8
0
  6
Continuous
 62
     7
370
    25
100
AcDbPolyline
 90
        9
 70
   128
 43
0.0
 10
166.0525020021
 20
131.3450956818
 10
166.1674787759
 20
131.4774177657
 10
166.2078532498
 20
131.6884739089
 10
166.1674787759
 20
131.9461327266
 10
166.0525020021
 20
132.2111679996
 10
165.8804270998
 20
132.4432305101
 10
165.6774509131
 20
132.6069908445
 10
165.4744747264
 20
132.6775179765
 10
165.3023998241
 20
132.6440747895
  0
LWPOLYLINE
  5
2FF
330
1F
100
AcDbEntity
  8
0
  6
Continuous
 62
     7
370
    25
100
AcDbPolyline
 90
        9
 70
   128
 43
0.0
 10
169.6813199355
 20
129.2507944404
 10
169.7962967093
 20
129.3831165244
 10
169.8366711831
 20
129.5941726675
 10
169.7962967093
 20
129.8518314852
 10
169.6813199355
 20
130.1168667582
 10
169.5092450332
 20
130.3489292688
 10
169.3062688464
 20
130.5126896032
 10
169.1032926597
 20
130.5832167352
 10
168.9312177574
 20
130.5497735481
  0
LWPOLYLINE
  5
300
330
1F
100
AcDbEntity
  8
0
  6
Continuous
 62
     7
370
    25
100
AcDbPolyline
 90
        9
 70
   128
 43
0.0
 10
171.4669287598
 20
124.7619729057
 10
171.5819055336
 20
124.8942949897
 10
171.6222800075
 20
125.1053511328
 10
171.5819055336
 20
125.3630099505
 10
171.4669287598
 20
125.6280452235
 10
171.2948538575
 20
125.860107734
 10
171.0918776708
 20
126.0238680684
 10
170.888901484
 20
126.0943952004
 10
170.7168265817
 20
126.0609520134
  0
LWPOLYLINE
  5
301
330
1F
100
AcDbEntity
  8
0
  6
Continuous
 62
     7
370
    25
100
AcDbPolyline
 90
        9
 70
   128
 43
0.0
 10
148.0236129047
 20
141.7501161347
 10
148.1385896786
 20
141.8824382186
 10
148.1789641524
 20
142.0934943618
 10
148.1385896786
 20
142.3511531795
 10
148.0236129047
 20
142.6161884525
 10
147.8515380024
 20
142.848250963
 10
147.6485618157
 20
143.0120112974
 10
147.445585629
 20
143.0825384294
 10
147.2735107267
 20
143.0490952424
  0
LINE
  5
302
330
1F
100
AcDbEntity
  8
0
  6
Continuous
 62
     7
370
    25
100
AcDbLine
 10
184.3024635826
 20
128.5867435975
 30
0.0
 11
183.595453149
 21
128.1784839289
 31
0.0
  0
ARC
  5
303
330
1F
100
AcDbEntity
  8
0
  6
Continuous
 62
     7
370
    25
100
AcDbCircle
 10
179.8096398367
 20
121.5014042206
 30
0.0
 40
8.38972581783654
100
AcDbArc
 50
2.3878555624
 51
57.6211580405
  0
LINE
  5
304
330
1F
100
AcDbEntity
  8
0
  6
Continuous
 62
     7
370
    25
100
AcDbLine
 10
188.1920807183
 20
121.8509527359
 30
0.0
 11
187.4850702847
 21
121.4426930674
 31
0.0
  0
LINE
  5
305
330
1F
100
AcDbEntity
  8
0
  6
Continuous
 62
     7
370
    25
100
AcDbLine
 10
134.7984381738
 20
156.3407259903
 30
0.0
 11
135.5054486075
 21
156.7489856588
 31
0.0
  0
LINE
  5
306
330
1F
100
AcDbEntity
  8
0
  6
Continuous
 62
     7
370
    25
100
AcDbLine
 10
135.5054486075
 20
156.7489856588
 30
0.0
 11
184.3024635826
 21
128.5867435975
 31
0.0
  0
LINE
  5
307
330
1F
100
AcDbEntity
  8
0
  6
Continuous
 62
     7
370
    25
100
AcDbLine
 10
188.1920807183
 20
65.5096367167
 30
0.0
 11
187.4850702847
 21
65.1013770482
 31
0.0
  0
LINE
  5
308
330
1F
100
AcDbEntity
  8
0
  6
Continuous
 62
     7
370
    25
100
AcDbLine
 10
188.1920807183
 20
121.8509527359
 30
0.0
 11
188.1920807183
 21
65.5096367167
 31
0.0
  0
LWPOLYLINE
  5
309
330
1F
100
AcDbEntity
  8
0
  6
Continuous
 62
     7
370
    25
100
AcDbPolyline
 90
        7
 70
   128
 43
0.0
 10
179.698573227
 20
98.5739933598
 10
179.7467679506
 20
98.9688513448
 10
179.8880677307
 20
99.2811711279
 10
180.1128432208
 20
99.489668632
 10
180.4057763426
 20
99.5801350967
 10
180.746904188
 20
99.546405382
 10
180.7989430089
 20
99.5312572101
  0
LINE
  5
30A
330
1F
100
AcDbEntity
  8
0
  6
Continuous
 62
     7
370
    25
100
AcDbLine
 10
178.2985018133
 20
98.5738832392
 30
0.0
 11
179.698573227
 21
98.5739933598
 31
0.0
  0
LINE
  5
30B
330
1F
100
AcDbEntity
  8
0
  6
Continuous
 62
     7
370
    25
100
AcDbLine
 10
179.7056433313
 20
98.5780759565
 30
0.0
 11
179.698573227
 21
98.5739933598
 31
0.0
  0
ARC
  5
30C
330
1F
100
AcDbEntity
  8
0
  6
Continuous
 62
     7
370
    25
100
AcDbCircle
 10
180.6536292225
 20
98.7007365928
 30
0.0
 40
0.9558885298882808
100
AcDbArc
 50
123.9404945238
 51
187.372583975
  0
LWPOLYLINE
  5
30D
330
1F
100
AcDbEntity
  8
0
  6
Continuous
 62
     7
370
    25
100
AcDbPolyline
 90
       13
 70
   128
 43
0.0
 10
182.4920745766
 20
96.5991486133
 10
182.4791909657
 20
96.546541632
 10
182.3378911856
 20
96.2342218489
 10
182.1131156956
 20
96.0257243448
 10
181.8201825737
 20
95.9352578801
 10
181.4790547283
 20
95.9689875948
 10
181.1129794582
 20
96.1246148647
 10
180.746904188
 20
96.3915339484
 10
180.4057763426
 20
96.7515547515
 10
180.1128432208
 20
97.1801424512
 10
179.8880677307
 20
97.6480895042
 10
179.7467679506
 20
98.1235060919
 10
179.698573227
 20
98.5739933598
  0
LWPOLYLINE
  5
30E
330
1F
100
AcDbEntity
  8
0
  6
Continuous
 62
     7
370
    25
100
AcDbPolyline
 90
       10
 70
   128
 43
0.0
 10
179.7056433313
 20
98.5780759565
 10
179.753838055
 20
98.1275886886
 10
179.895137835
 20
97.6521721009
 10
180.1199133251
 20
97.1842250479
 10
180.4128464469
 20
96.7556373482
 10
180.7539742924
 20
96.395616545
 10
181.1200495625
 20
96.1286974614
 10
181.4861248326
 20
95.9730701915
 10
181.8272526781
 20
95.9393404768
 10
182.1201726666
 20
96.0297993576
  0
ARC
  5
30F
330
1F
100
AcDbEntity
  8
0
  6
Continuous
 62
     7
370
    25
100
AcDbCircle
 10
185.5096668511
 20
65.206457077
 30
0.0
 40
2.699492924434719
100
AcDbArc
 50
304.8645931212
 51
6.4484853776
  0
ARC
  5
310
330
1F
100
AcDbEntity
  8
0
  6
Continuous
 62
     7
370
    25
100
AcDbCircle
 10
133.889630505
 20
154.4513702091
 30
0.0
 40
2.808897451871706
100
AcDbArc
 50
54.8828621797
 51
113.822364407
  0
LINE
  5
311
330
1F
100
AcDbEntity
  8
0
  6
Continuous
 62
     7
370
    25
100
AcDbLine
 10
175.9252472632
 20
74.0371886119
 30
0.0
 11
176.2147091918
 21
73.202979992
 31
0.0
  0
ARC
  5
312
330
1F
100
AcDbEntity
  8
0
  6
Continuous
 62
     7
370
    25
100
AcDbCircle
 10
177.783521725
 20
74.8402166021
 30
0.0
 40
2.024361116119022
100
AcDbArc
 50
156.956349776
 51
203.3709289881
  0
ARC
  5
313
330
1F
100
AcDbEntity
  8
0
  6
Continuous
 62
     7
370
    25
100
AcDbCircle
 10
174.1526544875
 20
76.0812319225
 30
0.0
 40
1.824063387364337
100
AcDbArc
 50
345.7624509587
 51
25.2194475867
  0
LINE
  5
314
330
1F
100
AcDbEntity
  8
0
  6
Continuous
 62
     7
370
    25
100
AcDbLine
 10
173.6030039035
 20
84.1329291308
 30
0.0
 11
175.8028526773
 21
76.8584405017
 31
0.0
  0
LWPOLYLINE
  5
315
330
1F
100
AcDbEntity
  8
0
  6
Continuous
 62
     7
370
    25
100
AcDbPolyline
 90
        6
 70
   128
 43
0.0
 10
172.7045539195
 20
84.8537819719
 10
172.8797809866
 20
84.8889302782
 10
173.0906420576
 20
84.8175545527
 10
173.3021299255
 20
84.6488181578
 10
173.4820474797
 20
84.40840968
 10
173.6030039035
 20
84.1329291308
  0
LINE
  5
316
330
1F
100
AcDbEntity
  8
0
  6
Continuous
 62
     7
370
    25
100
AcDbLine
 10
173.0480673693
 20
82.4222557412
 30
0.0
 11
173.0031382137
 21
82.4262433524
 31
0.0
  0
LINE
  5
317
330
1F
100
AcDbEntity
  8
0
  6
Continuous
 62
     7
370
    25
100
AcDbLine
 10
173.0031382137
 20
82.4262433524
 30
0.0
 11
172.4562478555
 21
84.2347075248
 31
0.0
  0
ARC
  5
318
330
1F
100
AcDbEntity
  8
0
  6
Continuous
 62
     7
370
    25
100
AcDbCircle
 10
173.0876992113
 20
84.5342973317
 30
0.0
 40
0.6989169243587274
100
AcDbArc
 50
137.7354876575
 51
205.3818315861
  0
LINE
  5
319
330
1F
100
AcDbEntity
  8
0
  6
Continuous
 62
     7
370
    25
100
AcDbLine
 10
177.2394063824
 20
70.3699044215
 30
0.0
 11
172.0149272471
 21
70.4331758512
 31
0.0
  0
LINE
  5
31A
330
1F
100
AcDbEntity
  8
0
  6
Continuous
 62
     7
370
    25
100
AcDbLine
 10
172.0149272471
 20
70.4331758512
 30
0.0
 11
170.6080741955
 21
74.564459288
 31
0.0
  0
ARC
  5
31B
330
1F
100
AcDbEntity
  8
0
  6
Continuous
 62
     7
370
    25
100
AcDbCircle
 10
171.0216973161
 20
76.4058709995
 30
0.0
 40
1.887294671532565
100
AcDbArc
 50
194.3880482983
 51
257.3401867973
  0
LINE
  5
31C
330
1F
100
AcDbEntity
  8
0
  6
Continuous
 62
     7
370
    25
100
AcDbLine
 10
169.1935976119
 20
75.9369012257
 30
0.0
 11
166.6568325704
 21
83.115496884
 31
0.0
  0
ARC
  5
31D
330
1F
100
AcDbEntity
  8
0
  6
Continuous
 62
     7
370
    25
100
AcDbCircle
 10
167.5009939679
 20
83.586186963
 30
0.0
 40
0.9665182953794853
100
AcDbArc
 50
137.1580836438
 51
209.1432963152
  0
LINE
  5
31E
330
1F
100
AcDbEntity
  8
0
  6
Continuous
 62
     7
370
    25
100
AcDbLine
 10
168.1394758639
 20
83.3365580905
 30
0.0
 11
168.1061666188
 21
83.3259443705
 31
0.0
  0
LWPOLYLINE
  5
31F
330
1F
100
AcDbEntity
  8
0
  6
Continuous
 62
     7
370
    25
100
AcDbPolyline
 90
        6
 70
   128
 43
0.0
 10
166.9267224599
 20
84.0922610308
 10
167.0608179605
 20
84.1390669441
 10
167.3293279676
 20
84.1086544151
 10
167.6186743029
 20
83.9458707014
 10
167.8898155288
 20
83.6726801738
 10
168.1061666188
 20
83.3259443705
  0
LINE
  5
320
330
1F
100
AcDbEntity
  8
0
  6
Continuous
 62
     7
370
    25
100
AcDbLine
 10
176.2780629512
 20
73.0203989786
 30
0.0
 11
171.2396245869
 21
73.0814173482
 31
0.0
  0
LINE
  5
321
330
1F
100
AcDbEntity
  8
0
  6
Continuous
 62
     7
370
    25
100
AcDbLine
 10
176.2780629512
 20
73.0203989786
 30
0.0
 11
177.1342281587
 21
70.5529919531
 31
0.0
  0
LINE
  5
322
330
1F
100
AcDbEntity
  8
0
  6
Continuous
 62
     7
370
    25
100
AcDbLine
 10
173.6030039035
 20
84.1329291308
 30
0.0
 11
173.5323028601
 21
84.092103164
 31
0.0
  0
LINE
  5
323
330
1F
100
AcDbEntity
  8
0
  6
Continuous
 62
     7
370
    25
100
AcDbLine
 10
175.8028526773
 20
76.8584405017
 30
0.0
 11
175.7321516339
 21
76.8176145348
 31
0.0
  0
LINE
  5
324
330
1F
100
AcDbEntity
  8
0
  6
Continuous
 62
     7
370
    25
100
AcDbLine
 10
172.4562478555
 20
84.2347075248
 30
0.0
 11
172.3855468122
 21
84.193881558
 31
0.0
  0
LWPOLYLINE
  5
325
330
1F
100
AcDbEntity
  8
0
  6
Continuous
 62
     7
370
    25
100
AcDbPolyline
 90
        3
 70
   128
 43
0.0
 10
169.1868748385
 20
86.7507612602
 10
169.091708726
 20
86.6628968152
 10
168.9668488579
 20
86.4141279656
  0
LINE
  5
326
330
1F
100
AcDbEntity
  8
0
  6
Continuous
 62
     7
370
    25
100
AcDbLine
 10
171.6654763755
 20
82.448922022
 30
0.0
 11
171.6205472199
 21
82.4529096333
 31
0.0
  0
LINE
  5
327
330
1F
100
AcDbEntity
  8
0
  6
Continuous
 62
     7
370
    25
100
AcDbLine
 10
171.6205472199
 20
82.4529096333
 30
0.0
 11
170.7014371516
 21
85.4922347997
 31
0.0
  0
LWPOLYLINE
  5
328
330
1F
100
AcDbEntity
  8
0
  6
Continuous
 62
     7
370
    25
100
AcDbPolyline
 90
        7
 70
   128
 43
0.0
 10
170.7014371516
 20
85.4922347997
 10
170.5470913467
 20
85.8594972718
 10
170.3213774746
 20
86.1928084992
 10
170.0500135914
 20
86.4541906795
 10
169.7639191594
 20
86.6138616751
 10
169.495692054
 20
86.653628419
 10
169.3213437665
 20
86.5995243042
  0
LINE
  5
329
330
1F
100
AcDbEntity
  8
0
  6
Continuous
 62
     7
370
    25
100
AcDbLine
 10
170.3452285728
 20
81.8014253665
 30
0.0
 11
170.3014064238
 21
81.8040545227
 31
0.0
  0
LINE
  5
32A
330
1F
100
AcDbEntity
  8
0
  6
Continuous
 62
     7
370
    25
100
AcDbLine
 10
168.0904071339
 20
88.779798235
 30
0.0
 11
170.3014064238
 21
81.8040545227
 31
0.0
  0
LWPOLYLINE
  5
32B
330
1F
100
AcDbEntity
  8
0
  6
Continuous
 62
     7
370
    25
100
AcDbPolyline
 90
        7
 70
   128
 43
0.0
 10
166.6096390226
 20
89.8997171712
 10
166.7043237433
 20
89.9404991418
 10
166.9905763401
 20
89.9455013048
 10
167.3099675391
 20
89.8082309547
 10
167.624067738
 20
89.5452046547
 10
167.8950839549
 20
89.1880701028
 10
168.0904071339
 20
88.779798235
  0
LINE
  5
32C
330
1F
100
AcDbEntity
  8
0
  6
Continuous
 62
     7
370
    25
100
AcDbLine
 10
168.2590997311
 20
83.362156858
 30
0.0
 11
168.2179187498
 21
83.3615532779
 31
0.0
  0
LINE
  5
32D
330
1F
100
AcDbEntity
  8
0
  6
Continuous
 62
     7
370
    25
100
AcDbLine
 10
168.2179187498
 20
83.3615532779
 30
0.0
 11
166.3140685596
 21
88.7491120333
 31
0.0
  0
ARC
  5
32E
330
1F
100
AcDbEntity
  8
0
  6
Continuous
 62
     7
370
    25
100
AcDbCircle
 10
167.2981655013
 20
89.2883312252
 30
0.0
 40
1.122142650302444
100
AcDbArc
 50
137.1784542654
 51
208.7197890648
  0
LINE
  5
32F
330
1F
100
AcDbEntity
  8
0
  6
Continuous
 62
     7
370
    25
100
AcDbLine
 10
173.0031382137
 20
82.4262433524
 30
0.0
 11
172.9324371704
 21
82.3854173856
 31
0.0
  0
ARC
  5
330
330
1F
100
AcDbEntity
  8
0
  6
Continuous
 62
     7
370
    25
100
AcDbCircle
 10
171.4906117421
 20
85.0394419537
 30
0.0
 40
0.4823597296819782
100
AcDbArc
 50
129.4914699752
 51
185.1789901099
  0
LINE
  5
331
330
1F
100
AcDbEntity
  8
0
  6
Continuous
 62
     7
370
    25
100
AcDbLine
 10
171.0102212142
 20
84.9959005991
 30
0.0
 11
170.9395201708
 21
84.9550746322
 31
0.0
  0
LINE
  5
332
330
1F
100
AcDbEntity
  8
0
  6
Continuous
 62
     7
370
    25
100
AcDbLine
 10
171.087454085
 20
84.9489914121
 30
0.0
 11
171.0102212142
 21
84.9959005991
 31
0.0
  0
LINE
  5
333
330
1F
100
AcDbEntity
  8
0
  6
Continuous
 62
     7
370
    25
100
AcDbLine
 10
172.2877293039
 20
84.5143976324
 30
0.0
 11
172.2437162712
 21
84.5183039347
 31
0.0
  0
LWPOLYLINE
  5
334
330
1F
100
AcDbEntity
  8
0
  6
Continuous
 62
     7
370
    25
100
AcDbPolyline
 90
        7
 70
   128
 43
0.0
 10
171.3179654949
 20
85.2610610042
 10
171.4343487264
 20
85.2973006942
 10
171.6143240914
 20
85.2708636733
 10
171.8063596753
 20
85.1638666569
 10
171.9885452535
 20
84.9885174279
 10
172.1400944335
 20
84.7648223878
 10
172.2437162712
 20
84.5183039347
  0
LINE
  5
335
330
1F
100
AcDbEntity
  8
0
  6
Continuous
 62
     7
370
    25
100
AcDbLine
 10
172.2437162712
 20
84.5183039347
 30
0.0
 11
172.1730152278
 21
84.4774779679
 31
0.0
  0
LINE
  5
336
330
1F
100
AcDbEntity
  8
0
  6
Continuous
 62
     7
370
    25
100
AcDbLine
 10
168.0904071339
 20
88.779798235
 30
0.0
 11
168.0197060905
 21
88.7389722682
 31
0.0
  0
LINE
  5
337
330
1F
100
AcDbEntity
  8
0
  6
Continuous
 62
     7
370
    25
100
AcDbLine
 10
170.3014064238
 20
81.8040545227
 30
0.0
 11
170.2307053804
 21
81.7632285559
 31
0.0
  0
LINE
  5
338
330
1F
100
AcDbEntity
  8
0
  6
Continuous
 62
     7
370
    25
100
AcDbLine
 10
170.7014371516
 20
85.4922347997
 30
0.0
 11
170.6307361083
 21
85.4514088328
 31
0.0
  0
LINE
  5
339
330
1F
100
AcDbEntity
  8
0
  6
Continuous
 62
     7
370
    25
100
AcDbLine
 10
171.6205472199
 20
82.4529096333
 30
0.0
 11
171.5498461765
 21
82.4120836664
 31
0.0
  0
LINE
  5
33A
330
1F
100
AcDbEntity
  8
0
  6
Continuous
 62
     7
370
    25
100
AcDbLine
 10
168.8961478146
 20
86.3733019987
 30
0.0
 11
168.9668488579
 21
86.4141279656
 31
0.0
  0
LINE
  5
33B
330
1F
100
AcDbEntity
  8
0
  6
Continuous
 62
     7
370
    25
100
AcDbLine
 10
175.9206906342
 20
75.6326169148
 30
0.0
 11
175.8499895908
 21
75.5917909479
 31
0.0
  0
LINE
  5
33C
330
1F
100
AcDbEntity
  8
0
  6
Continuous
 62
     7
370
    25
100
AcDbLine
 10
166.3140685596
 20
88.7491120333
 30
0.0
 11
166.2433675162
 21
88.7082860664
 31
0.0
  0
LINE
  5
33D
330
1F
100
AcDbEntity
  8
0
  6
Continuous
 62
     7
370
    25
100
AcDbLine
 10
175.9252472632
 20
74.0371886119
 30
0.0
 11
175.8545462198
 21
73.996362645
 31
0.0
  0
LINE
  5
33E
330
1F
100
AcDbEntity
  8
0
  6
Continuous
 62
     7
370
    25
100
AcDbLine
 10
176.2073619079
 20
72.9795730117
 30
0.0
 11
171.1689235436
 21
73.0405913813
 31
0.0
  0
LINE
  5
33F
330
1F
100
AcDbEntity
  8
0
  6
Continuous
 62
     7
370
    25
100
AcDbLine
 10
176.2073619079
 20
72.9795730117
 30
0.0
 11
177.0635271154
 21
70.5121659862
 31
0.0
  0
LINE
  5
340
330
1F
100
AcDbEntity
  8
0
  6
Continuous
 62
     7
370
    25
100
AcDbLine
 10
177.0635271154
 20
70.5121659862
 30
0.0
 11
172.0090999057
 21
70.5733779899
 31
0.0
  0
LINE
  5
341
330
1F
100
AcDbEntity
  8
0
  6
Continuous
 62
     7
370
    25
100
AcDbLine
 10
172.0090999057
 20
70.5733779899
 30
0.0
 11
171.1689235436
 21
73.0405913813
 31
0.0
  0
LINE
  5
342
330
1F
100
AcDbEntity
  8
0
  6
Continuous
 62
     7
370
    25
100
AcDbLine
 10
176.2073619079
 20
72.9795730117
 30
0.0
 11
176.2780629512
 21
73.0203989786
 31
0.0
  0
LINE
  5
343
330
1F
100
AcDbEntity
  8
0
  6
Continuous
 62
     7
370
    25
100
AcDbLine
 10
177.1342281587
 20
70.5529919531
 30
0.0
 11
177.0635271154
 21
70.5121659862
 31
0.0
  0
LINE
  5
344
330
1F
100
AcDbEntity
  8
0
  6
Continuous
 62
     7
370
    25
100
AcDbLine
 10
176.1440081484
 20
73.1621540251
 30
0.0
 11
176.2147091918
 21
73.202979992
 31
0.0
  0
LINE
  5
345
330
1F
100
AcDbEntity
  8
0
  6
Continuous
 62
     7
370
    25
100
AcDbLine
 10
168.2179187498
 20
83.3615532779
 30
0.0
 11
168.1472177064
 21
83.320727311
 31
0.0
  0
LINE
  5
346
330
1F
100
AcDbEntity
  8
0
  6
Continuous
 62
     7
370
    25
100
AcDbLine
 10
171.2396245869
 20
73.0814173482
 30
0.0
 11
171.1689235436
 21
73.0405913813
 31
0.0
  0
LINE
  5
347
330
1F
100
AcDbEntity
  8
0
  6
Continuous
 62
     7
370
    25
100
AcDbLine
 10
172.0149272471
 20
70.4331758512
 30
0.0
 11
171.9442262038
 21
70.3923498843
 31
0.0
  0
LINE
  5
348
330
1F
100
AcDbEntity
  8
0
  6
Continuous
 62
     7
370
    25
100
AcDbLine
 10
169.3938556042
 20
80.1255692318
 30
0.0
 11
169.35255759
 21
80.1251090887
 31
0.0
  0
LINE
  5
349
330
1F
100
AcDbEntity
  8
0
  6
Continuous
 62
     7
370
    25
100
AcDbLine
 10
168.2497516311
 20
83.260697437
 30
0.0
 11
169.35255759
 21
80.1251090887
 31
0.0
  0
LINE
  5
34A
330
1F
100
AcDbEntity
  8
0
  6
Continuous
 62
     7
370
    25
100
AcDbLine
 10
169.35255759
 20
80.1251090887
 30
0.0
 11
169.2818565466
 21
80.0842831218
 31
0.0
  0
LINE
  5
34B
330
1F
100
AcDbEntity
  8
0
  6
Continuous
 62
     7
370
    25
100
AcDbLine
 10
166.6568325704
 20
83.115496884
 30
0.0
 11
166.5861315271
 21
83.0746709172
 31
0.0
  0
LINE
  5
34C
330
1F
100
AcDbEntity
  8
0
  6
Continuous
 62
     7
370
    25
100
AcDbLine
 10
168.1061666188
 20
83.3259443705
 30
0.0
 11
168.0354655754
 21
83.2851184036
 31
0.0
  0
LINE
  5
34D
330
1F
100
AcDbEntity
  8
0
  6
Continuous
 62
     7
370
    25
100
AcDbLine
 10
169.1935976119
 20
75.9369012257
 30
0.0
 11
169.1228965685
 21
75.8960752588
 31
0.0
  0
LINE
  5
34E
330
1F
100
AcDbEntity
  8
0
  6
Continuous
 62
     7
370
    25
100
AcDbLine
 10
170.6080741955
 20
74.564459288
 30
0.0
 11
170.5373731522
 21
74.5236333211
 31
0.0
  0
LWPOLYLINE
  5
34F
330
1F
100
AcDbEntity
  8
0
  6
Continuous
 62
     7
370
    25
100
AcDbPolyline
 90
        7
 70
   128
 43
0.0
 10
137.266386293
 20
123.0628994995
 10
137.3145810166
 20
123.4577574846
 10
137.4558807967
 20
123.7700772677
 10
137.6806562868
 20
123.9785747718
 10
137.9735894086
 20
124.0690412365
 10
138.314717254
 20
124.0353115218
 10
138.3667560749
 20
124.0201633498
  0
LINE
  5
350
330
1F
100
AcDbEntity
  8
0
  6
Continuous
 62
     7
370
    25
100
AcDbLine
 10
135.8663148793
 20
123.062789379
 30
0.0
 11
137.266386293
 21
123.0628994995
 31
0.0
  0
LINE
  5
351
330
1F
100
AcDbEntity
  8
0
  6
Continuous
 62
     7
370
    25
100
AcDbLine
 10
137.2734563974
 20
123.0669820962
 30
0.0
 11
137.266386293
 21
123.0628994995
 31
0.0
  0
ARC
  5
352
330
1F
100
AcDbEntity
  8
0
  6
Continuous
 62
     7
370
    25
100
AcDbCircle
 10
138.221442275
 20
123.1896427387
 30
0.0
 40
0.9558885172126749
100
AcDbArc
 50
123.9404940543
 51
187.3725844445
  0
LWPOLYLINE
  5
353
330
1F
100
AcDbEntity
  8
0
  6
Continuous
 62
     7
370
    25
100
AcDbPolyline
 90
       13
 70
   128
 43
0.0
 10
140.0598876426
 20
121.088054753
 10
140.0470040317
 20
121.0354477718
 10
139.9057042516
 20
120.7231279887
 10
139.6809287616
 20
120.5146304846
 10
139.3879956398
 20
120.4241640199
 10
139.0468677943
 20
120.4578937346
 10
138.6807925242
 20
120.6135210044
 10
138.314717254
 20
120.8804400881
 10
137.9735894086
 20
121.2404608912
 10
137.6806562868
 20
121.669048591
 10
137.4558807967
 20
122.1369956439
 10
137.3145810166
 20
122.6124122317
 10
137.266386293
 20
123.0628994995
  0
LWPOLYLINE
  5
354
330
1F
100
AcDbEntity
  8
0
  6
Continuous
 62
     7
370
    25
100
AcDbPolyline
 90
       10
 70
   128
 43
0.0
 10
137.2734563974
 20
123.0669820962
 10
137.321651121
 20
122.6164948284
 10
137.4629509011
 20
122.1410782406
 10
137.6877263911
 20
121.6731311877
 10
137.9806595129
 20
121.2445434879
 10
138.3217873584
 20
120.8845226848
 10
138.6878626285
 20
120.6176036011
 10
139.0539378987
 20
120.4619763313
 10
139.3950657441
 20
120.4282466166
 10
139.6879857326
 20
120.5187054973
  0
LINE
  5
355
330
1F
100
AcDbEntity
  8
0
  6
Continuous
 62
     7
370
    25
100
AcDbLine
 10
141.5981225403
 20
99.7991231039
 30
0.0
 11
145.3235473352
 21
97.6490671033
 31
0.0
  0
LINE
  5
356
330
1F
100
AcDbEntity
  8
0
  6
Continuous
 62
     7
370
    25
100
AcDbLine
 10
141.5274214969
 20
91.7245210621
 30
0.0
 11
141.3859616056
 21
91.8061618695
 31
0.0
  0
LINE
  5
357
330
1F
100
AcDbEntity
  8
0
  6
Continuous
 62
     7
370
    25
100
AcDbLine
 10
141.3859616056
 20
91.8061618695
 30
0.0
 11
141.3859616056
 21
100.084900188
 31
0.0
  0
LINE
  5
358
330
1F
100
AcDbEntity
  8
0
  6
Continuous
 62
     7
370
    25
100
AcDbLine
 10
145.3235473352
 20
97.8940293469
 30
0.0
 11
145.3235473352
 21
98.0084659701
 31
0.0
  0
LINE
  5
359
330
1F
100
AcDbEntity
  8
0
  6
Continuous
 62
     7
370
    25
100
AcDbLine
 10
147.9068848397
 20
86.7522114827
 30
0.0
 11
145.3235473352
 21
89.3594373269
 31
0.0
  0
LINE
  5
35A
330
1F
100
AcDbEntity
  8
0
  6
Continuous
 62
     7
370
    25
100
AcDbLine
 10
145.3235473352
 20
89.3594373269
 30
0.0
 11
145.3235473352
 21
97.6490671033
 31
0.0
  0
LINE
  5
35B
330
1F
100
AcDbEntity
  8
0
  6
Continuous
 62
     7
370
    25
100
AcDbLine
 10
147.7654249484
 20
97.6054229507
 30
0.0
 11
147.7654249484
 21
87.1565352086
 31
0.0
  0
LINE
  5
35C
330
1F
100
AcDbEntity
  8
0
  6
Continuous
 62
     7
370
    25
100
AcDbLine
 10
145.5357082699
 20
97.7715848162
 30
0.0
 11
147.7654249484
 21
97.6054229507
 31
0.0
  0
LINE
  5
35D
330
1F
100
AcDbEntity
  8
0
  6
Continuous
 62
     7
370
    25
100
AcDbLine
 10
147.694723905
 20
97.5645969838
 30
0.0
 11
147.694723905
 21
87.1157092417
 31
0.0
  0
LINE
  5
35E
330
1F
100
AcDbEntity
  8
0
  6
Continuous
 62
     7
370
    25
100
AcDbLine
 10
147.694723905
 20
87.1157092417
 30
0.0
 11
145.4650072265
 21
89.3660442983
 31
0.0
  0
LINE
  5
35F
330
1F
100
AcDbEntity
  8
0
  6
Continuous
 62
     7
370
    25
100
AcDbLine
 10
145.4650072265
 20
89.3660442983
 30
0.0
 11
145.4650072265
 21
97.7307588493
 31
0.0
  0
LINE
  5
360
330
1F
100
AcDbEntity
  8
0
  6
Continuous
 62
     7
370
    25
100
AcDbLine
 10
145.4650072265
 20
97.7307588493
 30
0.0
 11
147.694723905
 21
97.5645969838
 31
0.0
  0
LINE
  5
361
330
1F
100
AcDbEntity
  8
0
  6
Continuous
 62
     7
370
    25
100
AcDbLine
 10
147.1973453266
 20
91.6475942105
 30
0.0
 11
147.0321055805
 21
91.5893136918
 31
0.0
  0
LINE
  5
362
330
1F
100
AcDbEntity
  8
0
  6
Continuous
 62
     7
370
    25
100
AcDbLine
 10
147.0256511492
 20
91.9928444229
 30
0.0
 11
147.1973453266
 21
91.6475942105
 31
0.0
  0
LINE
  5
363
330
1F
100
AcDbEntity
  8
0
  6
Continuous
 62
     7
370
    25
100
AcDbLine
 10
147.0256511492
 20
93.1163360474
 30
0.0
 11
147.0256511492
 21
91.9928444229
 31
0.0
  0
LINE
  5
364
330
1F
100
AcDbEntity
  8
0
  6
Continuous
 62
     7
370
    25
100
AcDbLine
 10
147.3690395039
 20
92.9181561798
 30
0.0
 11
147.0256511492
 21
93.1163360474
 31
0.0
  0
LINE
  5
365
330
1F
100
AcDbEntity
  8
0
  6
Continuous
 62
     7
370
    25
100
AcDbLine
 10
147.3690395039
 20
93.1631184234
 30
0.0
 11
147.3690395039
 21
92.9181561798
 31
0.0
  0
LINE
  5
366
330
1F
100
AcDbEntity
  8
0
  6
Continuous
 62
     7
370
    25
100
AcDbLine
 10
147.3690395039
 20
93.1631184234
 30
0.0
 11
146.8134902145
 21
93.4837428217
 31
0.0
  0
LINE
  5
367
330
1F
100
AcDbEntity
  8
0
  6
Continuous
 62
     7
370
    25
100
AcDbLine
 10
146.8134902145
 20
93.4837428217
 30
0.0
 11
146.8134902145
 21
92.0289150964
 31
0.0
  0
LINE
  5
368
330
1F
100
AcDbEntity
  8
0
  6
Continuous
 62
     7
370
    25
100
AcDbLine
 10
146.8134902145
 20
92.0289150964
 30
0.0
 11
147.0321055805
 21
91.5893136918
 31
0.0
  0
LINE
  5
369
330
1F
100
AcDbEntity
  8
0
  6
Continuous
 62
     7
370
    25
100
AcDbLine
 10
145.5357082699
 20
97.7715848162
 30
0.0
 11
145.4650072265
 21
97.7307588493
 31
0.0
  0
LINE
  5
36A
330
1F
100
AcDbEntity
  8
0
  6
Continuous
 62
     7
370
    25
100
AcDbLine
 10
147.7654249484
 20
97.6054229507
 30
0.0
 11
147.694723905
 21
97.5645969838
 31
0.0
  0
LINE
  5
36B
330
1F
100
AcDbEntity
  8
0
  6
Continuous
 62
     7
370
    25
100
AcDbLine
 10
147.7654249484
 20
87.1565352086
 30
0.0
 11
147.694723905
 21
87.1157092417
 31
0.0
  0
LINE
  5
36C
330
1F
100
AcDbEntity
  8
0
  6
Continuous
 62
     7
370
    25
100
AcDbLine
 10
145.3235473352
 20
97.8940293469
 30
0.0
 11
145.2528462918
 21
97.85320338
 31
0.0
  0
LINE
  5
36D
330
1F
100
AcDbEntity
  8
0
  6
Continuous
 62
     7
370
    25
100
AcDbLine
 10
145.3235473352
 20
97.6490671033
 30
0.0
 11
145.2528462918
 21
97.6082411365
 31
0.0
  0
LINE
  5
36E
330
1F
100
AcDbEntity
  8
0
  6
Continuous
 62
     7
370
    25
100
AcDbLine
 10
141.5981225403
 20
99.7991231039
 30
0.0
 11
141.5274214969
 21
99.758297137
 31
0.0
  0
LINE
  5
36F
330
1F
100
AcDbEntity
  8
0
  6
Continuous
 62
     7
370
    25
100
AcDbLine
 10
145.3235473352
 20
89.3594373269
 30
0.0
 11
145.2528462918
 21
89.31861136
 31
0.0
  0
LINE
  5
370
330
1F
100
AcDbEntity
  8
0
  6
Continuous
 62
     7
370
    25
100
AcDbLine
 10
146.8841912579
 20
93.4429390984
 30
0.0
 11
146.8841912579
 21
92.0697410633
 31
0.0
  0
LINE
  5
371
330
1F
100
AcDbEntity
  8
0
  6
Continuous
 62
     7
370
    25
100
AcDbLine
 10
147.3690395039
 20
92.99978587
 30
0.0
 11
147.0963521926
 21
93.1571620143
 31
0.0
  0
LINE
  5
372
330
1F
100
AcDbEntity
  8
0
  6
Continuous
 62
     7
370
    25
100
AcDbLine
 10
147.1906225861
 20
91.6611125931
 30
0.0
 11
147.1028066239
 21
91.6301396586
 31
0.0
  0
LINE
  5
373
330
1F
100
AcDbEntity
  8
0
  6
Continuous
 62
     7
370
    25
100
AcDbLine
 10
146.8841912579
 20
92.0697410633
 30
0.0
 11
147.1028066239
 21
91.6301396586
 31
0.0
  0
LINE
  5
374
330
1F
100
AcDbEntity
  8
0
  6
Continuous
 62
     7
370
    25
100
AcDbLine
 10
147.0963521926
 20
93.1571620143
 30
0.0
 11
147.0256511492
 21
93.1163360474
 31
0.0
  0
LINE
  5
375
330
1F
100
AcDbEntity
  8
0
  6
Continuous
 62
     7
370
    25
100
AcDbLine
 10
146.8841912579
 20
92.0697410633
 30
0.0
 11
146.8134902145
 21
92.0289150964
 31
0.0
  0
LINE
  5
376
330
1F
100
AcDbEntity
  8
0
  6
Continuous
 62
     7
370
    25
100
AcDbLine
 10
147.1028066239
 20
91.6301396586
 30
0.0
 11
147.0321055805
 21
91.5893136918
 31
0.0
  0
LINE
  5
377
330
1F
100
AcDbEntity
  8
0
  6
Continuous
 62
     7
370
    25
100
AcDbLine
 10
143.6350834575
 20
95.1186207251
 30
0.0
 11
144.7071798928
 21
93.8318266203
 31
0.0
  0
ARC
  5
378
330
1F
100
AcDbEntity
  8
0
  6
Continuous
 62
     7
370
    25
100
AcDbCircle
 10
142.6516064106
 20
93.4591236927
 30
0.0
 40
1.212691439929408
100
AcDbArc
 50
50.5030920991
 51
111.9907152152
  0
LINE
  5
379
330
1F
100
AcDbEntity
  8
0
  6
Continuous
 62
     7
370
    25
100
AcDbLine
 10
142.0464401909
 20
94.4889958148
 30
0.0
 11
141.8855712662
 21
94.7216747191
 31
0.0
  0
LINE
  5
37A
330
1F
100
AcDbEntity
  8
0
  6
Continuous
 62
     7
370
    25
100
AcDbLine
 10
141.8855712662
 20
94.7216747191
 30
0.0
 11
142.0126385187
 21
94.8221014204
 31
0.0
  0
LINE
  5
37B
330
1F
100
AcDbEntity
  8
0
  6
Continuous
 62
     7
370
    25
100
AcDbLine
 10
143.4229225228
 20
94.6406103464
 30
0.0
 11
143.4229225228
 21
95.5259434035
 31
0.0
  0
LINE
  5
37C
330
1F
100
AcDbEntity
  8
0
  6
Continuous
 62
     7
370
    25
100
AcDbLine
 10
145.0530427461
 20
93.5693758557
 30
0.0
 11
143.4229225228
 21
93.4943922671
 31
0.0
  0
LINE
  5
37D
330
1F
100
AcDbEntity
  8
0
  6
Continuous
 62
     7
370
    25
100
AcDbLine
 10
143.4229225228
 20
93.4943922671
 30
0.0
 11
143.4229225228
 21
94.394907847
 31
0.0
  0
LINE
  5
37E
330
1F
100
AcDbEntity
  8
0
  6
Continuous
 62
     7
370
    25
100
AcDbLine
 10
143.6350834575
 20
95.1186207251
 30
0.0
 11
143.5643824141
 21
95.0777947583
 31
0.0
  0
LINE
  5
37F
330
1F
100
AcDbEntity
  8
0
  6
Continuous
 62
     7
370
    25
100
AcDbLine
 10
144.7071798928
 20
93.8318266203
 30
0.0
 11
144.6364788495
 21
93.7910006535
 31
0.0
  0
LINE
  5
380
330
1F
100
AcDbEntity
  8
0
  6
Continuous
 62
     7
370
    25
100
AcDbLine
 10
143.5643824141
 20
95.0777947583
 30
0.0
 11
144.6364788495
 21
93.7910006535
 31
0.0
  0
LINE
  5
381
330
1F
100
AcDbEntity
  8
0
  6
Continuous
 62
     7
370
    25
100
AcDbLine
 10
144.6364788495
 20
93.7910006535
 30
0.0
 11
143.5643824141
 21
93.7416854945
 31
0.0
  0
LINE
  5
382
330
1F
100
AcDbEntity
  8
0
  6
Continuous
 62
     7
370
    25
100
AcDbLine
 10
143.5643824141
 20
93.7416854945
 30
0.0
 11
143.5643824141
 21
95.0777947583
 31
0.0
  0
LINE
  5
383
330
1F
100
AcDbEntity
  8
0
  6
Continuous
 62
     7
370
    25
100
AcDbLine
 10
141.3859616056
 20
91.8061618695
 30
0.0
 11
141.3152605623
 21
91.7653359026
 31
0.0
  0
LINE
  5
384
330
1F
100
AcDbEntity
  8
0
  6
Continuous
 62
     7
370
    25
100
AcDbLine
 10
143.4229225228
 20
93.4943922671
 30
0.0
 11
143.3522214795
 21
93.4535663003
 31
0.0
  0
LINE
  5
385
330
1F
100
AcDbEntity
  8
0
  6
Continuous
 62
     7
370
    25
100
AcDbLine
 10
143.4229225228
 20
94.6406103464
 30
0.0
 11
143.3522214795
 21
94.5997843795
 31
0.0
  0
LINE
  5
386
330
1F
100
AcDbEntity
  8
0
  6
Continuous
 62
     7
370
    25
100
AcDbLine
 10
141.8855712662
 20
94.7216747191
 30
0.0
 11
141.8148702228
 21
94.6808487522
 31
0.0
  0
LINE
  5
387
330
1F
100
AcDbEntity
  8
0
  6
Continuous
 62
     7
370
    25
100
AcDbLine
 10
143.4229225228
 20
94.394907847
 30
0.0
 11
143.3522214795
 21
94.3540818801
 31
0.0
  0
LWPOLYLINE
  5
388
330
1F
100
AcDbEntity
  8
0
  6
Continuous
 62
     7
370
    25
100
AcDbPolyline
 90
       29
 70
   128
 43
0.0
 10
150.5343838644
 20
99.3653248335
 10
151.8840572191
 20
97.8091066259
 10
153.3506781678
 20
96.3659249876
 10
154.9140856826
 20
95.0766007451
 10
156.1579921596
 20
94.2200262196
 10
157.4080404493
 20
93.5058491324
 10
158.6770411616
 20
92.9306629755
 10
159.9255676083
 20
92.5178643201
 10
161.1397441638
 20
92.2712155951
 10
162.3071586744
 20
92.1940873223
 10
163.3925640149
 20
92.2828002444
 10
164.4100779344
 20
92.534004422
 10
165.5961861127
 20
93.0869423557
 10
166.6079949026
 20
93.8665048543
 10
167.4403845657
 20
94.8386641034
 10
168.1135565174
 20
96.0084053074
 10
168.6304277178
 20
97.4035637003
 10
168.9656366699
 20
99.0152237833
 10
169.0857454127
 20
100.3821269938
 10
169.0794542479
 20
101.8290708094
 10
168.9433101486
 20
103.3728392813
 10
168.6767568818
 20
104.968231146
 10
168.2834715612
 20
106.5971033517
 10
167.7667392126
 20
108.2432288657
 10
167.1473647253
 20
109.8539040181
 10
166.4211927043
 20
111.447827449
 10
165.3494181963
 20
113.4358684979
 10
164.1684246765
 20
115.2857590945
 10
162.910434422
 20
116.9728024553
  0
LWPOLYLINE
  5
389
330
1F
100
AcDbEntity
  8
0
  6
Continuous
 62
     7
370
    25
100
AcDbPolyline
 90
       29
 70
   128
 43
0.0
 10
162.910434422
 20
116.9728024553
 10
161.5607610674
 20
118.5290206629
 10
160.0941401186
 20
119.9722023012
 10
158.5307326039
 20
121.2615265437
 10
157.2868261268
 20
122.1181010691
 10
156.0367778371
 20
122.8322781564
 10
154.7677771248
 20
123.4074643133
 10
153.5192506782
 20
123.8202629687
 10
152.3050741227
 20
124.0669116937
 10
151.137659612
 20
124.1440399665
 10
150.0522542715
 20
124.0553270444
 10
149.0347403521
 20
123.8041228668
 10
147.8486321738
 20
123.2511849331
 10
146.8368233838
 20
122.4716224345
 10
146.0044337207
 20
121.4994631854
 10
145.331261769
 20
120.3297219814
 10
144.8143905687
 20
118.9345635885
 10
144.4791816166
 20
117.3229035055
 10
144.3590728738
 20
115.956000295
 10
144.3653640385
 20
114.5090564794
 10
144.5015081378
 20
112.9652880075
 10
144.7680614046
 20
111.3698961428
 10
145.1613467252
 20
109.7410239371
 10
145.6780790739
 20
108.0948984231
 10
146.2974535612
 20
106.4842232707
 10
147.0236255821
 20
104.8902998398
 10
148.0954000901
 20
102.9022587909
 10
149.2763936099
 20
101.0523681943
 10
150.5343838644
 20
99.3653248335
  0
LWPOLYLINE
  5
38A
330
1F
100
AcDbEntity
  8
0
  6
Continuous
 62
     7
370
    25
100
AcDbPolyline
 90
       14
 70
   128
 43
0.0
 10
150.87030387
 20
99.8432401389
 10
152.2434018314
 20
98.268957349
 10
153.6931368497
 20
96.8640681227
 10
155.1947035568
 20
95.6526105041
 10
156.7224097301
 20
94.655312869
 10
158.2501158933
 20
93.8892392563
 10
159.7516825705
 20
93.3674973981
 10
161.2014175394
 20
93.099014442
 10
162.5745154329
 20
93.0883842061
 10
163.8474821653
 20
93.3357885765
 10
164.9985369228
 20
93.8369943958
 10
166.0079848394
 20
94.5834258936
 10
166.8585539814
 20
95.56231142
 10
167.0404077846
 20
95.8831340443
  0
LWPOLYLINE
  5
38B
330
1F
100
AcDbEntity
  8
0
  6
Continuous
 62
     7
370
    25
100
AcDbPolyline
 90
       16
 70
   128
 43
0.0
 10
148.4463971092
 20
122.5011832922
 10
148.4462813637
 20
122.501132893
 10
147.4368334471
 20
121.7547013952
 10
146.5862643051
 20
120.7758158688
 10
145.9091274115
 20
119.5812253166
 10
145.4170087664
 20
118.1913695142
 10
145.1183286562
 20
116.6300292796
 10
145.0181975803
 20
114.9239195772
 10
145.1183288094
 20
113.1022324169
 10
145.4170090702
 20
111.1961373713
 10
145.9091278607
 20
109.2382482549
 10
146.5862648919
 20
107.2620650934
 10
147.4368341616
 20
105.3014009285
 10
148.4462821936
 20
103.3898032678
 10
149.5973370524
 20
101.5599800772
 10
150.87030387
 20
99.8432401389
  0
LWPOLYLINE
  5
38C
330
1F
100
AcDbEntity
  8
0
  6
Continuous
 62
     7
370
    25
100
AcDbPolyline
 90
       39
 70
   128
 43
0.0
 10
150.5340951802
 20
98.4685005366
 10
151.5956658337
 20
97.2141972739
 10
152.6995017512
 20
96.0389101045
 10
153.8380626142
 20
94.9506674316
 10
155.0035708974
 20
93.956903056
 10
156.1880649976
 20
93.0644053961
 10
157.3834536189
 20
92.2792711159
 10
158.5815710449
 20
91.6068634787
 10
159.7742329188
 20
91.0517757103
 10
160.9532921506
 20
90.6177996232
 10
162.1106945702
 20
90.307899714
 10
163.2385339455
 20
90.1241929134
 10
164.3291059899
 20
90.0679341251
 10
165.3749609906
 20
90.1395076536
 10
166.3689546974
 20
90.3384245792
 10
167.3042971254
 20
90.6633260976
 10
168.1745989373
 20
91.111992802
 10
168.9739150895
 20
91.6813598438
 10
169.6967854419
 20
92.3675378688
 10
170.3382720572
 20
93.1658395853
 10
170.8939929313
 20
94.0708117831
 10
171.3601519271
 20
95.0762725845
 10
171.733564706
 20
96.1753536727
 10
172.0116804801
 20
97.3605472095
 10
172.1925994367
 20
98.6237571211
 10
172.2750857158
 20
99.956354403
 10
172.2585758525
 20
101.3492360645
 10
172.1431826259
 20
102.7928873115
 10
171.9296942888
 20
104.2774465422
 10
171.6195691829
 20
105.7927727117
 10
171.2149257773
 20
107.3285146058
 10
170.7185281966
 20
108.87418155
 10
170.1337673397
 20
110.4192150718
 10
169.4646377162
 20
111.9530610258
 10
168.71571016
 20
113.4652416886
 10
167.8921006055
 20
114.9454273331
 10
166.9994351412
 20
116.3835067903
 10
166.0438115774
 20
117.7696565195
 10
165.0317577919
 20
119.0944077124
  0
LINE
  5
38D
330
1F
100
AcDbEntity
  8
0
  6
Continuous
 62
     7
370
    25
100
AcDbLine
 10
150.5343838644
 20
99.3653248335
 30
0.0
 11
150.5340951802
 21
98.4685005366
 31
0.0
  0
LINE
  5
38E
330
1F
100
AcDbEntity
  8
0
  6
Continuous
 62
     7
370
    25
100
AcDbLine
 10
165.0317577919
 20
119.0944077124
 30
0.0
 11
162.910434422
 21
116.9728024553
 31
0.0
  0
LWPOLYLINE
  5
38F
330
1F
100
AcDbEntity
  8
0
  6
Continuous
 62
     7
370
    25
100
AcDbPolyline
 90
       39
 70
   128
 43
0.0
 10
165.0317577919
 20
119.0944077124
 10
163.9701871385
 20
120.3487109751
 10
162.866351221
 20
121.5239981445
 10
161.727790358
 20
122.6122408174
 10
160.5622820747
 20
123.606005193
 10
159.3777879746
 20
124.4985028529
 10
158.1823993533
 20
125.2836371331
 10
156.9842819272
 20
125.9560447704
 10
155.7916200533
 20
126.5111325387
 10
154.6125608215
 20
126.9451086258
 10
153.4551584019
 20
127.255008535
 10
152.3273190266
 20
127.4387153356
 10
151.2367469822
 20
127.4949741239
 10
150.1908919816
 20
127.4234005954
 10
149.1968982748
 20
127.2244836698
 10
148.2615558468
 20
126.8995821514
 10
147.3912540348
 20
126.450915447
 10
146.5919378827
 20
125.8815484052
 10
145.8690675302
 20
125.1953703803
 10
145.227580915
 20
124.3970686637
 10
144.6718600409
 20
123.4920964659
 10
144.2057010451
 20
122.4866356645
 10
143.8322882662
 20
121.3875545763
 10
143.5541724921
 20
120.2023610395
 10
143.3732535355
 20
118.9391511279
 10
143.2907672564
 20
117.6065538461
 10
143.3072771197
 20
116.2136721845
 10
143.4226703462
 20
114.7700209375
 10
143.6361586834
 20
113.2854617068
 10
143.9462837892
 20
111.7701355373
 10
144.3509271949
 20
110.2343936432
 10
144.8473247755
 20
108.688726699
 10
145.4320856324
 20
107.1436931772
 10
146.1012152559
 20
105.6098472232
 10
146.8501428122
 20
104.0976665604
 10
147.6737523667
 20
102.6174809159
 10
148.566417831
 20
101.1794014587
 10
149.5220413948
 20
99.7932517295
 10
150.5340951802
 20
98.4685005366
  0
LWPOLYLINE
  5
390
330
1F
100
AcDbEntity
  8
0
  6
Continuous
 62
     7
370
    25
100
AcDbPolyline
 90
       11
 70
   128
 43
0.0
 10
147.885176433
 20
126.7383595865
 10
149.3108108589
 20
127.359126119
 10
150.887597446
 20
127.6655786624
 10
152.5884135679
 20
127.6524113006
 10
154.3841577895
 20
127.3198493309
 10
156.244104429
 20
126.6735829807
 10
158.136429284
 20
125.7246700465
 10
160.0287541513
 20
124.4893466917
 10
161.888700828
 20
122.9887496414
 10
163.6844451107
 20
121.248554527
 10
165.0618554296
 20
119.6693275376
  0
LWPOLYLINE
  5
391
330
1F
100
AcDbEntity
  8
0
  6
Continuous
 62
     7
370
    25
100
AcDbPolyline
 90
       37
 70
   128
 43
0.0
 10
170.6917751133
 20
93.3699677789
 10
171.2408453505
 20
94.2625288263
 10
171.7027078656
 20
95.25306937
 10
172.0742890399
 20
96.3349975261
 10
172.353116062
 20
97.5011132412
 10
172.5373333839
 20
98.7436562076
 10
172.6257150699
 20
100.0543575069
 10
172.6176729544
 20
101.4244946381
 10
172.5132605564
 20
102.8449495648
 10
172.313172723
 20
104.3062693938
 10
172.018741006
 20
105.7987292827
 10
171.6319247996
 20
107.3123971571
 10
171.1552983021
 20
108.8371998072
 10
170.592033384
 20
110.3629899227
 10
169.9458784805
 20
111.8796136224
 10
169.2211336459
 20
113.3769780256
 10
168.4226219374
 20
114.8451184193
 10
167.5556573188
 20
116.2742645715
 10
166.6260092965
 20
117.6549057502
 10
165.6398645247
 20
118.9778540162
 10
164.6037856342
 20
120.2343053671
 10
163.5246675591
 20
121.4158983265
 10
162.4096916521
 20
122.5147695881
 10
161.2662778939
 20
123.5236063449
 10
160.1020355145
 20
124.4356949549
 10
158.9247123547
 20
125.2449656188
 10
157.7421433059
 20
125.9460327739
 10
156.5621981702
 20
126.5342309339
 10
155.3927292876
 20
127.005645737
 10
154.2415192806
 20
127.3571399957
 10
153.116229262
 20
127.5863745735
 10
152.024347851
 20
127.6918239522
 10
150.9731413384
 20
127.6727863835
 10
149.9696053301
 20
127.5293885593
 10
149.0204181926
 20
127.2625847686
 10
148.1318966097
 20
126.8741505465
 10
147.8851681939
 20
126.7383751892
  0
ARC
  5
392
330
1F
100
AcDbEntity
  8
0
  6
Continuous
 62
     7
370
    25
100
AcDbCircle
 10
164.7591988863
 20
97.4552574101
 30
0.0
 40
7.203127935907214
100
AcDbArc
 50
300.2476476713
 51
325.447931223
  0
LWPOLYLINE
  5
393
330
1F
100
AcDbEntity
  8
0
  6
Continuous
 62
     7
370
    25
100
AcDbPolyline
 90
       37
 70
   128
 43
0.0
 10
171.7522907638
 20
93.9823572817
 10
172.301361001
 20
94.8749183292
 10
172.7632235161
 20
95.8654588729
 10
173.1348046904
 20
96.9473870289
 10
173.4136317125
 20
98.113502744
 10
173.5978490344
 20
99.3560457104
 10
173.6862307204
 20
100.6667470097
 10
173.6781886049
 20
102.036884141
 10
173.5737762069
 20
103.4573390677
 10
173.3736883735
 20
104.9186588967
 10
173.0792566565
 20
106.4111187855
 10
172.6924404501
 20
107.92478666
 10
172.2158139526
 20
109.44958931
 10
171.6525490345
 20
110.9753794256
 10
171.006394131
 20
112.4920031253
 10
170.2816492964
 20
113.9893675285
 10
169.4831375879
 20
115.4575079222
 10
168.6161729693
 20
116.8866540744
 10
167.686524947
 20
118.2672952531
 10
166.7003801752
 20
119.5902435191
 10
165.6643012847
 20
120.84669487
 10
164.5851832096
 20
122.0282878293
 10
163.4702073026
 20
123.1271590909
 10
162.3267935444
 20
124.1359958478
 10
161.162551165
 20
125.0480844578
 10
159.9852280052
 20
125.8573551217
 10
158.8026589564
 20
126.5584222768
 10
157.6227138207
 20
127.1466204367
 10
156.4532449381
 20
127.6180352399
 10
155.3020349311
 20
127.9695294985
 10
154.1767449125
 20
128.1987640763
 10
153.0848635015
 20
128.304213455
 10
152.0336569889
 20
128.2851758863
 10
151.0301209806
 20
128.1417780622
 10
150.0809338431
 20
127.8749742715
 10
149.1924122602
 20
127.4865400493
 10
148.9456838444
 20
127.350764692
  0
ARC
  5
394
330
1F
100
AcDbEntity
  8
0
  6
Continuous
 62
     7
370
    25
100
AcDbCircle
 10
165.8197145368
 20
98.067646913
 30
0.0
 40
7.203127935906711
100
AcDbArc
 50
300.2476476713
 51
325.447931223
  0
LWPOLYLINE
  5
395
330
1F
100
AcDbEntity
  8
0
  6
Continuous
 62
     7
370
    25
100
AcDbPolyline
 90
       65
 70
   128
 43
0.0
 10
156.7222896832
 20
96.6663849798
 10
157.6985378182
 20
96.1581913601
 10
158.66538415
 20
95.7656567879
 10
159.6135174199
 20
95.4925615857
 10
160.5338065862
 20
95.3415358097
 10
161.4173887612
 20
95.3140339206
 10
162.2557545654
 20
95.4103207766
 10
163.0408300778
 20
95.6294690827
 10
163.7650545923
 20
95.9693683209
 10
164.4214534306
 20
96.4267450757
 10
165.0037051133
 20
96.9971945589
 10
165.5062022384
 20
97.6752230302
 10
165.9241054837
 20
98.4543007048
 10
166.2533902127
 20
99.3269246387
 10
166.4908852333
 20
100.2846909864
 10
166.6343033387
 20
101.3183759346
 10
166.6822633342
 20
102.4180245319
 10
166.6343033387
 20
103.5730465614
 10
166.4908852333
 20
104.7723185294
 10
166.2533902127
 20
106.0042907914
 10
165.9241054837
 20
107.2570987809
 10
165.5062022384
 20
108.5186772722
 10
165.0037051133
 20
109.7768765748
 10
164.4214534306
 20
111.0195795415
 10
163.7650545923
 20
112.2348182636
 10
163.0408300778
 20
113.4108893277
 10
162.2557545654
 20
114.5364665266
 10
161.4173887612
 20
115.6007099366
 10
160.5338065862
 20
116.5933703119
 10
159.6135174199
 20
117.5048877904
 10
158.66538415
 20
118.3264839605
 10
157.6985378182
 20
119.050246402
 10
156.7222896832
 20
119.6692048869
 10
155.7460415482
 20
120.1773985066
 10
154.7791952163
 20
120.5699330788
 10
153.8310619464
 20
120.8430282809
 10
152.9107727802
 20
120.994054057
 10
152.0271906052
 20
121.0215559461
 10
151.188824801
 20
120.9252690901
 10
150.4037492885
 20
120.706120784
 10
149.6795247741
 20
120.3662215458
 10
149.0231259357
 20
119.908844791
 10
148.440874253
 20
119.3383953078
 10
147.938377128
 20
118.6603668365
 10
147.5204738827
 20
117.8812891619
 10
147.1911891537
 20
117.008665228
 10
146.9536941331
 20
116.0508988802
 10
146.8102760276
 20
115.0172139321
 10
146.7623160322
 20
113.9175653348
 10
146.8102760276
 20
112.7625433053
 10
146.9536941331
 20
111.5632713373
 10
147.1911891537
 20
110.3312990753
 10
147.5204738827
 20
109.0784910858
 10
147.938377128
 20
107.8169125945
 10
148.440874253
 20
106.5587132919
 10
149.0231259357
 20
105.3160103251
 10
149.6795247741
 20
104.1007716031
 10
150.4037492885
 20
102.924700539
 10
151.188824801
 20
101.7991233401
 10
152.0271906052
 20
100.73487993
 10
152.9107727802
 20
99.7422195548
 10
153.8310619464
 20
98.8307020763
 10
154.7791952163
 20
98.0091059061
 10
155.7460415482
 20
97.2853434647
 10
156.7222896832
 20
96.6663849798
  0
LWPOLYLINE
  5
396
330
1F
100
AcDbEntity
  8
0
  6
Continuous
 62
     7
370
    25
100
AcDbPolyline
 90
       70
 70
   128
 43
0.0
 10
150.8854672894
 20
99.8579985897
 10
149.9890975938
 20
101.0367782981
 10
149.1485224814
 20
102.2746418575
 10
148.3707072224
 20
103.5613319406
 10
147.6620970389
 20
104.8861866282
 10
147.0285636981
 20
106.2382277571
 10
146.4753568567
 20
107.6062518887
 10
146.007060561
 20
108.9789231441
 10
145.6275552614
 20
110.3448671371
 10
145.3399856584
 20
111.6927652255
 10
145.1467346444
 20
113.0114483013
 10
145.049403558
 20
114.2899893413
 10
145.0487989153
 20
115.5177939516
 10
145.1449257266
 20
116.6846881566
 10
145.3369874548
 20
117.7810027035
 10
145.6233926159
 20
118.7976531846
 10
146.0017679667
 20
119.7262153138
 10
146.4689781698
 20
120.558994733
 10
147.0211517742
 20
121.2890907695
 10
147.6537132957
 20
121.9104536178
 10
148.3614211302
 20
122.4179344694
 10
149.1384109877
 20
122.8073281784
 10
149.9782444856
 20
123.0754081057
 10
150.8739624989
 20
123.2199528566
 10
151.8181428263
 20
123.2397646879
 10
152.802961692
 20
123.1346794325
 10
153.8202585769
 20
122.9055678598
 10
154.8616038385
 20
122.5543284606
 10
155.918368562
 20
122.0838717151
 10
156.9817960622
 20
121.498095976
 10
158.0430744439
 20
120.8018551656
 10
159.0934096201
 20
120.0009185546
 10
160.1240981829
 20
119.101922956
 10
161.1265995221
 20
118.1123177303
 10
162.0926065959
 20
117.0403030583
 10
163.0141147655
 20
115.894761991
 10
163.8834881241
 20
114.6851868425
 10
164.69352277
 20
113.4216005334
 10
165.4375065012
 20
112.1144735379
 10
166.1092744342
 20
110.7746371219
 10
166.7032600883
 20
109.4131935919
 10
167.2145415112
 20
108.0414242977
 10
167.6388820642
 20
106.6706961518
 10
167.9727655277
 20
105.3123674392
 10
168.2134252382
 20
103.9776936995
 10
168.3588670136
 20
102.6777344596
 10
168.4078856775
 20
101.4232615912
 10
168.3600750458
 20
100.2246700516
 10
168.2158312924
 20
99.0918917476
 10
167.9763496666
 20
98.0343132371
 10
167.6436145885
 20
97.0606979488
 10
167.2203832057
 20
96.1791135654
 10
166.7101625469
 20
95.396865173
 10
166.1171804609
 20
94.7204347279
 10
165.4463505843
 20
94.1554273459
 10
164.7032316245
 20
93.7065248561
 10
163.8939812994
 20
93.3774470059
 10
163.025305312
 20
93.1709206381
 10
162.104401785
 20
93.0886570951
 10
161.1389016152
 20
93.1313380385
 10
160.136805241
 20
93.2986098007
 10
159.1064163486
 20
93.5890863151
 10
158.0562730649
 20
94.0003606019
 10
156.9950772078
 20
94.5290247128
 10
155.9316221804
 20
95.1706979704
 10
154.8747201059
 20
95.9200632681
 10
153.833128808
 20
96.770911129
 10
152.8154792399
 20
97.7161911597
 10
151.8302039667
 20
98.7480704723
 10
150.8854672894
 20
99.8579985897
  0
LWPOLYLINE
  5
397
330
1F
100
AcDbEntity
  8
0
  6
Continuous
 62
     7
370
    25
100
AcDbPolyline
 90
       65
 70
   128
 43
0.0
 10
151.7114024608
 20
101.0337376711
 10
150.883687173
 20
102.1270280703
 10
150.1122022521
 20
103.2784873848
 10
149.4043775196
 20
104.477026432
 10
148.7670297148
 20
105.7111026257
 10
148.2062968453
 20
106.9688311376
 10
147.7275790753
 20
108.2380993545
 10
147.3354867185
 20
109.5066835296
 10
147.0337958387
 20
110.7623665039
 10
146.8254118839
 20
111.9930553638
 10
146.7123417056
 20
113.186897903
 10
146.6956742314
 20
114.3323967651
 10
146.7755699782
 20
115.4185201699
 10
146.9512595062
 20
116.4348081552
 10
147.2210508294
 20
117.3714733123
 10
147.5823457096
 20
118.2194950436
 10
148.0316646798
 20
118.9707064362
 10
148.5646805527
 20
119.6178729138
 10
149.176260094
 20
120.1547619095
 10
149.8605134583
 20
120.5762028888
 10
150.6108509118
 20
120.8781371445
 10
151.4200462946
 20
121.0576568848
 10
152.2803066129
 20
121.1130332364
 10
153.1833470894
 20
121.0437328949
 10
154.1204709507
 20
120.8504232603
 10
155.0826531818
 20
120.5349660101
 10
156.0606274418
 20
120.1003991702
 10
157.044975304
 20
119.5509078566
 10
158.0262169603
 20
118.8917839712
 10
158.9949025172
 20
118.1293752373
 10
159.9417030033
 20
117.2710240678
 10
160.8575002123
 20
116.3249968536
 10
161.7334745164
 20
115.300404354
 10
162.5611898043
 20
114.2071139548
 10
163.3326747252
 20
113.0556546403
 10
164.0404994576
 20
111.8571155931
 10
164.6778472624
 20
110.6230393993
 10
165.2385801319
 20
109.3653108875
 10
165.7172979019
 20
108.0960426706
 10
166.1093902587
 20
106.8274584955
 10
166.4110811386
 20
105.5717755212
 10
166.6194650933
 20
104.3410866612
 10
166.7325352716
 20
103.1472441221
 10
166.7492027458
 20
102.00174526
 10
166.669306999
 20
100.9156218552
 10
166.493617471
 20
99.8993338699
 10
166.2238261479
 20
98.9626687128
 10
165.8625312676
 20
98.1146469815
 10
165.4132122974
 20
97.3634355889
 10
164.8801964245
 20
96.7162691112
 10
164.2686168833
 20
96.1793801155
 10
163.5843635189
 20
95.7579391363
 10
162.8340260654
 20
95.4560048806
 10
162.0248306826
 20
95.2764851403
 10
161.1645703644
 20
95.2211087887
 10
160.2615298879
 20
95.2904091302
 10
159.3244060265
 20
95.4837187648
 10
158.3622237954
 20
95.799176015
 10
157.3842495354
 20
96.2337428549
 10
156.3999016732
 20
96.7832341685
 10
155.4186600169
 20
97.4423580538
 10
154.44997446
 20
98.2047667878
 10
153.5031739739
 20
99.0631179573
 10
152.5873767649
 20
100.0091451715
 10
151.7114024608
 20
101.0337376711
  0
LWPOLYLINE
  5
398
330
1F
100
AcDbEntity
  8
0
  6
Continuous
 62
     1
370
    25
100
AcDbPolyline
 90
        9
 70
   128
 43
0.0
 10
169.6106188921
 20
129.2099684736
 10
169.7255956659
 20
129.3422905576
 10
169.7659701397
 20
129.5533467007
 10
169.7255956659
 20
129.8110055184
 10
169.6106188921
 20
130.0760407914
 10
169.4385439898
 20
130.3081033019
 10
169.2355678031
 20
130.4718636363
 10
169.0325916163
 20
130.5423907683
 10
168.860516714
 20
130.5089475813
  0
LWPOLYLINE
  5
399
330
1F
100
AcDbEntity
  8
0
  6
Continuous
 62
     1
370
    25
100
AcDbPolyline
 90
        9
 70
   128
 43
0.0
 10
171.3962277164
 20
124.7211469388
 10
171.5112044903
 20
124.8534690228
 10
171.5515789641
 20
125.0645251659
 10
171.5112044903
 20
125.3221839836
 10
171.3962277164
 20
125.5872192566
 10
171.2241528141
 20
125.8192817671
 10
171.0211766274
 20
125.9830421016
 10
170.8182004407
 20
126.0535692335
 10
170.6461255384
 20
126.0201260465
  0
LWPOLYLINE
  5
39A
330
1F
100
AcDbEntity
  8
0
  6
Continuous
 62
     1
370
    25
100
AcDbPolyline
 90
        9
 70
   128
 43
0.0
 10
165.9818009588
 20
131.3042697149
 10
166.0967777326
 20
131.4365917989
 10
166.1371522064
 20
131.647647942
 10
166.0967777326
 20
131.9053067597
 10
165.9818009588
 20
132.1703420327
 10
165.8097260565
 20
132.4024045432
 10
165.6067498697
 20
132.5661648777
 10
165.403773683
 20
132.6366920096
 10
165.2316987807
 20
132.6032488226
  0
LWPOLYLINE
  5
39B
330
1F
100
AcDbEntity
  8
0
  6
Continuous
 62
     1
370
    25
100
AcDbPolyline
 90
        9
 70
   128
 43
0.0
 10
165.9818009588
 20
127.8459773624
 10
166.0967777326
 20
127.9782994464
 10
166.1371522064
 20
128.1893555895
 10
166.0967777326
 20
128.4470144072
 10
165.9818009588
 20
128.7120496802
 10
165.8097260565
 20
128.9441121907
 10
165.6067498697
 20
129.1078725251
 10
165.403773683
 20
129.1783996571
 10
165.2316987807
 20
129.1449564701
  0
LWPOLYLINE
  5
39C
330
1F
100
AcDbEntity
  8
0
  6
Continuous
 62
     1
370
    25
100
AcDbPolyline
 90
        9
 70
   128
 43
0.0
 10
164.0809915651
 20
128.9429922983
 10
164.1959683389
 20
129.0753143823
 10
164.2363428128
 20
129.2863705254
 10
164.1959683389
 20
129.5440293431
 10
164.0809915651
 20
129.8090646161
 10
163.9089166628
 20
130.0411271266
 10
163.7059404761
 20
130.2048874611
 10
163.5029642893
 20
130.275414593
 10
163.330889387
 20
130.241971406
  0
LWPOLYLINE
  5
39D
330
1F
100
AcDbEntity
  8
0
  6
Continuous
 62
     1
370
    25
100
AcDbPolyline
 90
        9
 70
   128
 43
0.0
 10
164.0809915651
 20
125.4846999458
 10
164.1959683389
 20
125.6170220298
 10
164.2363428128
 20
125.8280781729
 10
164.1959683389
 20
126.0857369906
 10
164.0809915651
 20
126.3507722636
 10
163.9089166628
 20
126.5828347741
 10
163.7059404761
 20
126.7465951085
 10
163.5029642893
 20
126.8171222405
 10
163.330889387
 20
126.7836790535
  0
LWPOLYLINE
  5
39E
330
1F
100
AcDbEntity
  8
0
  6
Continuous
 62
     1
370
    25
100
AcDbPolyline
 90
        9
 70
   128
 43
0.0
 10
157.8906550906
 20
135.9739161802
 10
158.0056318644
 20
136.1062382641
 10
158.0460063382
 20
136.3172944072
 10
158.0056318644
 20
136.574953225
 10
157.8906550906
 20
136.839988498
 10
157.7185801883
 20
137.0720510085
 10
157.5156040015
 20
137.2358113429
 10
157.3126278148
 20
137.3063384749
 10
157.1405529125
 20
137.2728952878
  0
LWPOLYLINE
  5
39F
330
1F
100
AcDbEntity
  8
0
  6
Continuous
 62
     1
370
    25
100
AcDbPolyline
 90
        9
 70
   128
 43
0.0
 10
160.0489716392
 20
131.2699936776
 10
160.163948413
 20
131.4023157615
 10
160.2043228868
 20
131.6133719047
 10
160.163948413
 20
131.8710307224
 10
160.0489716392
 20
132.1360659954
 10
159.8768967369
 20
132.3681285059
 10
159.6739205501
 20
132.5318888403
 10
159.4709443634
 20
132.6024159723
 10
159.2988694611
 20
132.5689727853
  0
LWPOLYLINE
  5
3A0
330
1F
100
AcDbEntity
  8
0
  6
Continuous
 62
     1
370
    25
100
AcDbPolyline
 90
        9
 70
   128
 43
0.0
 10
157.8906550906
 20
132.5156238276
 10
158.0056318644
 20
132.6479459116
 10
158.0460063382
 20
132.8590020547
 10
158.0056318644
 20
133.1166608724
 10
157.8906550906
 20
133.3816961454
 10
157.7185801883
 20
133.6137586559
 10
157.5156040015
 20
133.7775189904
 10
157.3126278148
 20
133.8480461224
 10
157.1405529125
 20
133.8146029353
  0
LWPOLYLINE
  5
3A1
330
1F
100
AcDbEntity
  8
0
  6
Continuous
 62
     1
370
    25
100
AcDbPolyline
 90
        9
 70
   128
 43
0.0
 10
157.8906550906
 20
129.0573314751
 10
158.0056318644
 20
129.1896535591
 10
158.0460063382
 20
129.4007097022
 10
158.0056318644
 20
129.6583685199
 10
157.8906550906
 20
129.9234037929
 10
157.7185801883
 20
130.1554663034
 10
157.5156040015
 20
130.3192266379
 10
157.3126278148
 20
130.3897537698
 10
157.1405529125
 20
130.3563105828
  0
LWPOLYLINE
  5
3A2
330
1F
100
AcDbEntity
  8
0
  6
Continuous
 62
     1
370
    25
100
AcDbPolyline
 90
        9
 70
   128
 43
0.0
 10
151.696930364
 20
139.5485031728
 10
151.8119071379
 20
139.6808252568
 10
151.8522816117
 20
139.8918813999
 10
151.8119071379
 20
140.1495402176
 10
151.696930364
 20
140.4145754906
 10
151.5248554617
 20
140.6466380011
 10
151.321879275
 20
140.8103983356
 10
151.1189030883
 20
140.8809254675
 10
150.946828186
 20
140.8474822805
  0
LWPOLYLINE
  5
3A3
330
1F
100
AcDbEntity
  8
0
  6
Continuous
 62
     1
370
    25
100
AcDbPolyline
 90
        9
 70
   128
 43
0.0
 10
153.6553400423
 20
135.0929642518
 10
153.7703168162
 20
135.2252863358
 10
153.81069129
 20
135.4363424789
 10
153.7703168162
 20
135.6940012966
 10
153.6553400423
 20
135.9590365696
 10
153.48326514
 20
136.1910990801
 10
153.2802889533
 20
136.3548594146
 10
153.0773127666
 20
136.4253865466
 10
152.9052378643
 20
136.3919433595
  0
LWPOLYLINE
  5
3A4
330
1F
100
AcDbEntity
  8
0
  6
Continuous
 62
     1
370
    25
100
AcDbPolyline
 90
        9
 70
   128
 43
0.0
 10
147.9529118614
 20
141.7092901678
 10
148.0678886352
 20
141.8416122518
 10
148.108263109
 20
142.0526683949
 10
148.0678886352
 20
142.3103272126
 10
147.9529118614
 20
142.5753624856
 10
147.7808369591
 20
142.8074249961
 10
147.5778607723
 20
142.9711853306
 10
147.3748845856
 20
143.0417124625
 10
147.2028096833
 20
143.0082692755
  0
LWPOLYLINE
  5
3A5
330
1F
100
AcDbEntity
  8
0
  6
Continuous
 62
     1
370
    25
100
AcDbPolyline
 90
        9
 70
   128
 43
0.0
 10
151.696930364
 20
132.6319184678
 10
151.8119071379
 20
132.7642405517
 10
151.8522816117
 20
132.9752966949
 10
151.8119071379
 20
133.2329555126
 10
151.696930364
 20
133.4979907856
 10
151.5248554617
 20
133.7300532961
 10
151.321879275
 20
133.8938136305
 10
151.1189030883
 20
133.9643407625
 10
150.946828186
 20
133.9308975755
  0
LWPOLYLINE
  5
3A6
330
1F
100
AcDbEntity
  8
0
  6
Continuous
 62
     1
370
    25
100
AcDbPolyline
 90
        9
 70
   128
 43
0.0
 10
145.3608990518
 20
143.2052196259
 10
145.4758758257
 20
143.3375417099
 10
145.5162502995
 20
143.548597853
 10
145.4758758257
 20
143.8062566707
 10
145.3608990518
 20
144.0712919437
 10
145.1888241496
 20
144.3033544542
 10
144.9858479628
 20
144.4671147887
 10
144.7828717761
 20
144.5376419206
 10
144.6107968738
 20
144.5041987336
  0
LWPOLYLINE
  5
3A7
330
1F
100
AcDbEntity
  8
0
  6
Continuous
 62
     1
370
    25
100
AcDbPolyline
 90
        9
 70
   128
 43
0.0
 10
145.3608990518
 20
139.7469272734
 10
145.4758758257
 20
139.8792493574
 10
145.5162502995
 20
140.0903055005
 10
145.4758758257
 20
140.3479643182
 10
145.3608990518
 20
140.6129995912
 10
145.1888241496
 20
140.8450621017
 10
144.9858479628
 20
141.0088224361
 10
144.7828717761
 20
141.0793495681
 10
144.6107968738
 20
141.0459063811
  0
LWPOLYLINE
  5
3A8
330
1F
100
AcDbEntity
  8
0
  6
Continuous
 62
     1
370
    25
100
AcDbPolyline
 90
        9
 70
   128
 43
0.0
 10
145.3608990518
 20
136.2886349209
 10
145.4758758257
 20
136.4209570048
 10
145.5162502995
 20
136.632013148
 10
145.4758758257
 20
136.8896719657
 10
145.3608990518
 20
137.1547072387
 10
145.1888241496
 20
137.3867697492
 10
144.9858479628
 20
137.5505300836
 10
144.7828717761
 20
137.6210572156
 10
144.6107968738
 20
137.5876140286
  0
ARC
  5
3A9
330
1F
100
AcDbEntity
  8
0
  6
Continuous
 62
     7
370
    25
100
AcDbCircle
 10
55.2400279676
 20
163.4698869876
 30
0.0
 40
0.750000000000005
100
AcDbArc
 50
180.0078063603
 51
270.0
  0
ARC
  5
3AA
330
1F
100
AcDbEntity
  8
0
  6
Continuous
 62
     7
370
    25
100
AcDbCircle
 10
55.2400279676
 20
163.4698869876
 30
0.0
 40
0.750000000000005
100
AcDbArc
 50
270.0
 51
0.0078063603
  0
LINE
  5
3AB
330
1F
100
AcDbEntity
  8
0
  6
Continuous
 62
     7
370
    25
100
AcDbLine
 10
54.4900143499
 20
163.5697848017
 30
0.0
 11
54.4900279746
 21
163.4697848026
 31
0.0
  0
LINE
  5
3AC
330
1F
100
AcDbEntity
  8
0
  6
Continuous
 62
     7
370
    25
100
AcDbLine
 10
55.9900279606
 20
163.4699891726
 30
0.0
 11
55.990014336
 21
163.5699891717
 31
0.0
  0
ARC
  5
3AD
330
1F
100
AcDbEntity
  8
0
  6
Continuous
 62
     7
370
    25
100
AcDbCircle
 10
80.5703580625
 20
163.4733381613
 30
0.0
 40
0.7500000000000284
100
AcDbArc
 50
180.0078063603
 51
270.0
  0
ARC
  5
3AE
330
1F
100
AcDbEntity
  8
0
  6
Continuous
 62
     7
370
    25
100
AcDbCircle
 10
80.5703580625
 20
163.4733381613
 30
0.0
 40
0.7500000000000284
100
AcDbArc
 50
270.0
 51
0.0078063603
  0
ARC
  5
3AF
330
1F
100
AcDbEntity
  8
0
  6
Continuous
 62
     7
370
    25
100
AcDbCircle
 10
63.9980842213
 20
163.4710802438
 30
0.0
 40
0.750000000000005
100
AcDbArc
 50
180.0078063603
 51
270.0
  0
ARC
  5
3B0
330
1F
100
AcDbEntity
  8
0
  6
Continuous
 62
     7
370
    25
100
AcDbCircle
 10
63.9980842213
 20
163.4710802438
 30
0.0
 40
0.75
100
AcDbArc
 50
270.0
 51
0.0078063603
  0
LINE
  5
3B1
330
1F
100
AcDbEntity
  8
0
  6
Continuous
 62
     7
370
    25
100
AcDbLine
 10
63.2480706036
 20
163.5709780579
 30
0.0
 11
63.2480842283
 21
163.4709780588
 31
0.0
  0
LINE
  5
3B2
330
1F
100
AcDbEntity
  8
0
  6
Continuous
 62
     7
370
    25
100
AcDbLine
 10
64.7480842144
 20
163.4711824288
 30
0.0
 11
64.7480705897
 21
163.5711824279
 31
0.0
  0
LINE
  5
3B3
330
1F
100
AcDbEntity
  8
0
  6
Continuous
 62
     7
370
    25
100
AcDbLine
 10
79.8203444448
 20
163.5732359753
 30
0.0
 11
79.8203580694
 21
163.4732359762
 31
0.0
  0
LINE
  5
3B4
330
1F
100
AcDbEntity
  8
0
  6
Continuous
 62
     7
370
    25
100
AcDbLine
 10
81.3203580555
 20
163.4734403463
 30
0.0
 11
81.3203444308
 21
163.5734403453
 31
0.0
  0
ARC
  5
3B5
330
1F
100
AcDbEntity
  8
0
  6
Continuous
 62
     7
370
    25
100
AcDbCircle
 10
75.4391336381
 20
163.4726390489
 30
0.0
 40
0.7500000000000284
100
AcDbArc
 50
180.0078063603
 51
270.0
  0
ARC
  5
3B6
330
1F
100
AcDbEntity
  8
0
  6
Continuous
 62
     7
370
    25
100
AcDbCircle
 10
75.4391336381
 20
163.4726390489
 30
0.0
 40
0.7500000000000284
100
AcDbArc
 50
270.0
 51
0.0078063603
  0
ARC
  5
3B7
330
1F
100
AcDbEntity
  8
0
  6
Continuous
 62
     7
370
    25
100
AcDbCircle
 10
49.9459075298
 20
163.4691656812
 30
0.0
 40
0.750000000000005
100
AcDbArc
 50
180.0078063603
 51
270.0
  0
ARC
  5
3B8
330
1F
100
AcDbEntity
  8
0
  6
Continuous
 62
     7
370
    25
100
AcDbCircle
 10
49.9459075298
 20
163.4691656812
 30
0.0
 40
0.750000000000005
100
AcDbArc
 50
270.0
 51
0.0078063603
  0
LINE
  5
3B9
330
1F
100
AcDbEntity
  8
0
  6
Continuous
 62
     7
370
    25
100
AcDbLine
 10
45.5307336089
 20
163.5685641293
 30
0.0
 11
45.5307472336
 21
163.4685641302
 31
0.0
  0
LINE
  5
3BA
330
1F
100
AcDbEntity
  8
0
  6
Continuous
 62
     7
370
    25
100
AcDbLine
 10
47.0307472197
 20
163.4687685003
 30
0.0
 11
47.030733595
 21
163.5687684994
 31
0.0
  0
ARC
  5
3BB
330
1F
100
AcDbEntity
  8
0
  6
Continuous
 62
     7
370
    25
100
AcDbCircle
 10
46.2807472266
 20
163.4686663153
 30
0.0
 40
0.7500000000000284
100
AcDbArc
 50
180.0078063603
 51
270.0
  0
ARC
  5
3BC
330
1F
100
AcDbEntity
  8
0
  6
Continuous
 62
     7
370
    25
100
AcDbCircle
 10
46.2807472266
 20
163.4686663153
 30
0.0
 40
0.7500000000000284
100
AcDbArc
 50
270.0
 51
0.0078063603
  0
LINE
  5
3BD
330
1F
100
AcDbEntity
  8
0
  6
Continuous
 62
     7
370
    25
100
AcDbLine
 10
74.6891200204
 20
163.572536863
 30
0.0
 11
74.6891336451
 21
163.4725368639
 31
0.0
  0
LINE
  5
3BE
330
1F
100
AcDbEntity
  8
0
  6
Continuous
 62
     7
370
    25
100
AcDbLine
 10
76.1891336312
 20
163.4727412339
 30
0.0
 11
76.1891200065
 21
163.572741233
 31
0.0
  0
LINE
  5
3BF
330
1F
100
AcDbEntity
  8
0
  6
Continuous
 62
     7
370
    25
100
AcDbLine
 10
49.1958939121
 20
163.5690634953
 30
0.0
 11
49.1959075367
 21
163.4690634962
 31
0.0
  0
LINE
  5
3C0
330
1F
100
AcDbEntity
  8
0
  6
Continuous
 62
     7
370
    25
100
AcDbLine
 10
50.6959075228
 20
163.4692678662
 30
0.0
 11
50.6958938981
 21
163.5692678653
 31
0.0
  0
LINE
  5
3C1
330
1F
100
AcDbEntity
  8
0
  6
Continuous
 62
     7
370
    25
100
AcDbLine
 10
57.2592465789
 20
163.5701621004
 30
0.0
 11
57.2592602036
 21
163.4701621013
 31
0.0
  0
LINE
  5
3C2
330
1F
100
AcDbEntity
  8
0
  6
Continuous
 62
     7
370
    25
100
AcDbLine
 10
58.7592601897
 20
163.4703664714
 30
0.0
 11
58.759246565
 21
163.5703664704
 31
0.0
  0
ARC
  5
3C3
330
1F
100
AcDbEntity
  8
0
  6
Continuous
 62
     7
370
    25
100
AcDbCircle
 10
58.0092601966
 20
163.4702642863
 30
0.0
 40
0.7500000000000284
100
AcDbArc
 50
180.0078063603
 51
270.0
  0
ARC
  5
3C4
330
1F
100
AcDbEntity
  8
0
  6
Continuous
 62
     7
370
    25
100
AcDbCircle
 10
58.0092601966
 20
163.4702642863
 30
0.0
 40
0.7500000000000284
100
AcDbArc
 50
270.0
 51
0.0078063603
  0
ARC
  5
3C5
330
1F
100
AcDbEntity
  8
0
  6
Continuous
 62
     7
370
    25
100
AcDbCircle
 10
67.0499889443
 20
163.4714960557
 30
0.0
 40
0.75
100
AcDbArc
 50
180.0078063603
 51
270.0
  0
ARC
  5
3C6
330
1F
100
AcDbEntity
  8
0
  6
Continuous
 62
     7
370
    25
100
AcDbCircle
 10
67.0499889443
 20
163.4714960557
 30
0.0
 40
0.7500000000000121
100
AcDbArc
 50
270.0
 51
0.0078063603
  0
ARC
  5
3C7
330
1F
100
AcDbEntity
  8
0
  6
Continuous
 62
     7
370
    25
100
AcDbCircle
 10
83.0952462713
 20
163.4736821689
 30
0.0
 40
0.7500000000000121
100
AcDbArc
 50
180.0078063603
 51
270.0
  0
ARC
  5
3C8
330
1F
100
AcDbEntity
  8
0
  6
Continuous
 62
     7
370
    25
100
AcDbCircle
 10
83.0952462713
 20
163.4736821689
 30
0.0
 40
0.75
100
AcDbArc
 50
270.0
 51
0.0078063603
  0
LINE
  5
3C9
330
1F
100
AcDbEntity
  8
0
  6
Continuous
 62
     7
370
    25
100
AcDbLine
 10
66.2999753266
 20
163.5713938698
 30
0.0
 11
66.2999889513
 21
163.4713938707
 31
0.0
  0
LINE
  5
3CA
330
1F
100
AcDbEntity
  8
0
  6
Continuous
 62
     7
370
    25
100
AcDbLine
 10
67.7999889374
 20
163.4715982407
 30
0.0
 11
67.7999753127
 21
163.5715982398
 31
0.0
  0
LINE
  5
3CB
330
1F
100
AcDbEntity
  8
0
  6
Continuous
 62
     7
370
    25
100
AcDbLine
 10
82.3452326536
 20
163.573579983
 30
0.0
 11
82.3452462783
 21
163.4735799839
 31
0.0
  0
LINE
  5
3CC
330
1F
100
AcDbEntity
  8
0
  6
Continuous
 62
     7
370
    25
100
AcDbLine
 10
83.8452462643
 20
163.4737843539
 30
0.0
 11
83.8452326397
 21
163.573784353
 31
0.0
  0
LINE
  5
3CD
330
1F
100
AcDbEntity
  8
0
  6
Continuous
 62
     7
370
    25
100
AcDbLine
 10
72.0013357981
 20
163.5721706613
 30
0.0
 11
72.0013494228
 21
163.4721706622
 31
0.0
  0
LINE
  5
3CE
330
1F
100
AcDbEntity
  8
0
  6
Continuous
 62
     7
370
    25
100
AcDbLine
 10
73.5013494089
 20
163.4723750322
 30
0.0
 11
73.5013357842
 21
163.5723750313
 31
0.0
  0
ARC
  5
3CF
330
1F
100
AcDbEntity
  8
0
  6
Continuous
 62
     7
370
    25
100
AcDbCircle
 10
72.7513494158
 20
163.4722728472
 30
0.0
 40
0.7500000000000121
100
AcDbArc
 50
180.0078063603
 51
270.0
  0
ARC
  5
3D0
330
1F
100
AcDbEntity
  8
0
  6
Continuous
 62
     7
370
    25
100
AcDbCircle
 10
72.7513494158
 20
163.4722728472
 30
0.0
 40
0.75
100
AcDbArc
 50
270.0
 51
0.0078063603
  0
LINE
  5
3D1
330
1F
100
AcDbEntity
  8
0
  6
Continuous
 62
     7
370
    25
100
AcDbLine
 10
45.7758298652
 20
161.5685998975
 30
0.0
 11
48.7760372601
 21
160.0690062582
 31
0.0
  0
LINE
  5
3D2
330
1F
100
AcDbEntity
  8
0
  6
Continuous
 62
     7
370
    25
100
AcDbLine
 10
45.7757535618
 20
162.0766568846
 30
0.0
 11
45.7758227829
 21
161.5685998965
 31
0.0
  0
LINE
  5
3D3
330
1F
100
AcDbEntity
  8
0
  6
Continuous
 62
     7
370
    25
100
AcDbLine
 10
86.7758224063
 20
161.5741860108
 30
0.0
 11
86.7757539463
 21
162.0766568846
 31
0.0
  0
LINE
  5
3D4
330
1F
100
AcDbEntity
  8
0
  6
Continuous
 62
     7
370
    25
100
AcDbLine
 10
48.2902373374
 20
174.2809001052
 30
0.0
 11
47.3767705789
 21
173.6410549771
 31
0.0
  0
LINE
  5
3D5
330
1F
100
AcDbEntity
  8
0
  6
Continuous
 62
     7
370
    25
100
AcDbLine
 10
85.2771978929
 20
172.8228142482
 30
0.0
 11
84.2632894431
 21
173.5325329018
 31
0.0
  0
LINE
  5
3D6
330
1F
100
AcDbEntity
  8
0
  6
Continuous
 62
     7
370
    25
100
AcDbLine
 10
84.2653989356
 20
173.6155628389
 30
0.0
 11
84.7689444885
 21
173.9682082079
 31
0.0
  0
LINE
  5
3D7
330
1F
100
AcDbEntity
  8
0
  6
Continuous
 62
     7
370
    25
100
AcDbLine
 10
48.5240546125
 20
174.5689720602
 30
0.0
 11
48.273730676
 21
174.3686569371
 31
0.0
  0
LWPOLYLINE
  5
3D8
330
1F
100
AcDbEntity
  8
0
  6
Continuous
 62
     7
370
    25
100
AcDbPolyline
 90
        3
 70
   128
 43
0.0
 10
84.2643425655
 20
167.6145853609
 10
84.7706163597
 20
167.9691548479
 10
85.2768959589
 20
168.3237243356
  0
LWPOLYLINE
  5
3D9
330
1F
100
AcDbEntity
  8
0
  6
Continuous
 62
     7
370
    25
100
AcDbPolyline
 90
        3
 70
   128
 43
0.0
 10
47.2692862617
 20
170.571270129
 10
47.7756737726
 20
170.216792384
 10
48.2750651897
 20
169.8672139907
  0
LWPOLYLINE
  5
3DA
330
1F
100
AcDbEntity
  8
0
  6
Continuous
 62
     7
370
    25
100
AcDbPolyline
 90
        3
 70
   128
 43
0.0
 10
84.2645205167
 20
169.1148450063
 10
84.7707776707
 20
169.4694032288
 10
85.2770400665
 20
169.823961452
  0
LWPOLYLINE
  5
3DB
330
1F
100
AcDbEntity
  8
0
  6
Continuous
 62
     7
370
    25
100
AcDbPolyline
 90
        3
 70
   128
 43
0.0
 10
48.2943486912
 20
169.7823970335
 10
47.7881303447
 20
169.4278200624
 10
47.2818960922
 20
169.0732430892
  0
LWPOLYLINE
  5
3DC
330
1F
100
AcDbEntity
  8
0
  6
Continuous
 62
     7
370
    25
100
AcDbPolyline
 90
        3
 70
   128
 43
0.0
 10
85.2780470544
 20
168.3234506651
 10
84.7716860718
 20
168.6778727301
 10
84.2741600957
 20
169.026113606
  0
LWPOLYLINE
  5
3DD
330
1F
100
AcDbEntity
  8
0
  6
Continuous
 62
     7
370
    25
100
AcDbPolyline
 90
        3
 70
   128
 43
0.0
 10
47.4596895237
 20
173.5394136945
 10
47.9613673462
 20
173.1851141568
 10
48.3573919352
 20
172.9054129036
  0
LWPOLYLINE
  5
3DE
330
1F
100
AcDbEntity
  8
0
  6
Continuous
 62
     7
370
    25
100
AcDbPolyline
 90
        3
 70
   128
 43
0.0
 10
84.2649462863
 20
172.115352431
 10
84.7711308436
 20
172.4698584497
 10
85.2773196896
 20
172.8243644691
  0
LWPOLYLINE
  5
3DF
330
1F
100
AcDbEntity
  8
0
  6
Continuous
 62
     7
370
    25
100
AcDbPolyline
 90
        3
 70
   128
 43
0.0
 10
48.28399443
 20
172.7776407921
 10
47.7786506125
 20
172.4236931664
 10
47.271621511
 20
172.0686304345
  0
LWPOLYLINE
  5
3E0
330
1F
100
AcDbEntity
  8
0
  6
Continuous
 62
     7
370
    25
100
AcDbPolyline
 90
        3
 70
   128
 43
0.0
 10
85.27723593
 20
171.323728566
 10
84.7711767088
 20
171.6779146132
 10
84.264670843
 20
172.0324634365
  0
LWPOLYLINE
  5
3E1
330
1F
100
AcDbEntity
  8
0
  6
Continuous
 62
     7
370
    25
100
AcDbPolyline
 90
        3
 70
   128
 43
0.0
 10
47.2688392022
 20
172.0713482166
 10
47.775015037
 20
171.7170134831
 10
48.2747232237
 20
171.3672088902
  0
LWPOLYLINE
  5
3E2
330
1F
100
AcDbEntity
  8
0
  6
Continuous
 62
     7
370
    25
100
AcDbPolyline
 90
        3
 70
   128
 43
0.0
 10
84.2649948551
 20
170.6149311397
 10
84.7710661157
 20
170.9693465364
 10
85.2771429912
 20
171.3237619338
  0
LWPOLYLINE
  5
3E3
330
1F
100
AcDbEntity
  8
0
  6
Continuous
 62
     7
370
    25
100
AcDbPolyline
 90
        3
 70
   128
 43
0.0
 10
48.2885147812
 20
171.2781056666
 10
47.7855662393
 20
170.9258138051
 10
47.2826013401
 20
170.5735219413
  0
LWPOLYLINE
  5
3E4
330
1F
100
AcDbEntity
  8
0
  6
Continuous
 62
     7
370
    25
100
AcDbPolyline
 90
        3
 70
   128
 43
0.0
 10
85.2784600111
 20
169.823466065
 10
84.7753437289
 20
170.1756042128
 10
84.2745912814
 20
170.5260904775
  0
LINE
  5
3E5
330
1F
100
AcDbEntity
  8
0
  6
Continuous
 62
     7
370
    25
100
AcDbLine
 10
48.2752051811
 20
174.3690920217
 30
0.0
 11
48.2752186302
 21
174.2703801312
 31
0.0
  0
LINE
  5
3E6
330
1F
100
AcDbEntity
  8
0
  6
Continuous
 62
     7
370
    25
100
AcDbLine
 10
84.2725004923
 20
173.5238061715
 30
0.0
 11
84.2724868668
 21
173.6238122253
 31
0.0
  0
LINE
  5
3E7
330
1F
100
AcDbEntity
  8
0
  6
Continuous
 62
     7
370
    25
100
AcDbLine
 10
48.2748633089
 20
172.8689865771
 30
0.0
 11
48.2748769339
 21
172.7689843209
 31
0.0
  0
LINE
  5
3E8
330
1F
100
AcDbEntity
  8
0
  6
Continuous
 62
     7
370
    25
100
AcDbLine
 10
48.2747229983
 20
171.3688632258
 30
0.0
 11
48.2747366233
 21
171.2688609696
 31
0.0
  0
LINE
  5
3E9
330
1F
100
AcDbEntity
  8
0
  6
Continuous
 62
     7
370
    25
100
AcDbLine
 10
48.2750649445
 20
169.8690139849
 30
0.0
 11
48.2750785694
 21
169.7690117286
 31
0.0
  0
LINE
  5
3EA
330
1F
100
AcDbEntity
  8
0
  6
Continuous
 62
     7
370
    25
100
AcDbLine
 10
48.275363284
 20
168.3688728746
 30
0.0
 11
48.2753766011
 21
168.2711300175
 31
0.0
  0
LINE
  5
3EB
330
1F
100
AcDbEntity
  8
0
  6
Continuous
 62
     7
370
    25
100
AcDbLine
 10
84.2741604038
 20
169.0238519595
 30
0.0
 11
84.2741470877
 21
169.1215869948
 31
0.0
  0
LINE
  5
3EC
330
1F
100
AcDbEntity
  8
0
  6
Continuous
 62
     7
370
    25
100
AcDbLine
 10
84.2745915843
 20
170.5238670779
 30
0.0
 11
84.2745782627
 21
170.6216426593
 31
0.0
  0
LINE
  5
3ED
330
1F
100
AcDbEntity
  8
0
  6
Continuous
 62
     7
370
    25
100
AcDbLine
 10
84.2737944996
 20
172.0238048983
 30
0.0
 11
84.2737811836
 21
172.1215399454
 31
0.0
  0
LINE
  5
3EE
330
1F
100
AcDbEntity
  8
0
  6
Continuous
 62
     7
370
    25
100
AcDbLine
 10
83.7760166698
 20
160.0737748896
 30
0.0
 11
86.775815324
 21
161.5741860098
 31
0.0
  0
LINE
  5
3EF
330
1F
100
AcDbEntity
  8
0
  6
Continuous
 62
     7
370
    25
100
AcDbLine
 10
48.523779059
 20
176.5689720417
 30
0.0
 11
48.5240515524
 21
174.5689720598
 31
0.0
  0
LINE
  5
3F0
330
1F
100
AcDbEntity
  8
0
  6
Continuous
 62
     7
370
    25
100
AcDbLine
 10
84.0240512235
 20
174.5738088172
 30
0.0
 11
84.0237787302
 21
176.5738087992
 31
0.0
  0
LINE
  5
3F1
330
1F
100
AcDbEntity
  8
0
  6
Continuous
 62
     7
370
    25
100
AcDbLine
 10
84.771391302
 20
173.976095731
 30
0.0
 11
84.0240416324
 21
174.5738088159
 31
0.0
  0
LWPOLYLINE
  5
3F2
330
1F
100
AcDbEntity
  8
0
  6
Continuous
 62
     7
370
    25
100
AcDbPolyline
 90
        3
 70
   128
 43
0.0
 10
47.2715327504
 20
169.0692431047
 10
47.7777114374
 20
168.71495205
 10
48.2753635901
 20
168.366626386
  0
LWPOLYLINE
  5
3F3
330
1F
100
AcDbEntity
  8
0
  6
Continuous
 62
     7
370
    25
100
AcDbPolyline
 90
        3
 70
   128
 43
0.0
 10
48.2849382805
 20
168.277826495
 10
47.7818631452
 20
167.9255001728
 10
47.2787827133
 20
167.57317385
  0
LINE
  5
3F4
330
1F
100
AcDbEntity
  8
0
  6
Continuous
 62
     7
370
    25
100
AcDbLine
 10
89.3292938429
 20
166.9430707789
 30
0.0
 11
87.2752286653
 21
167.5747334703
 31
0.0
  0
LINE
  5
3F5
330
1F
100
AcDbEntity
  8
0
  6
Continuous
 62
     7
370
    25
100
AcDbLine
 10
45.2752698468
 20
167.5680714468
 30
0.0
 11
43.2214051609
 21
166.9357571565
 31
0.0
  0
LINE
  5
3F6
330
1F
100
AcDbEntity
  8
0
  6
Continuous
 62
     7
370
    25
100
AcDbLine
 10
88.8991058449
 20
164.5744729358
 30
0.0
 11
89.3002315766
 21
164.6979657511
 31
0.0
  0
LINE
  5
3F7
330
1F
100
AcDbEntity
  8
0
  6
Continuous
 62
     7
370
    25
100
AcDbLine
 10
43.2511796615
 20
164.6906614614
 30
0.0
 11
43.6490541417
 21
164.568307766
 31
0.0
  0
LINE
  5
3F8
330
1F
100
AcDbEntity
  8
0
  6
Continuous
 62
     7
370
    25
100
AcDbLine
 10
89.2881016172
 20
164.6942209865
 30
0.0
 11
89.2877426803
 21
166.9570976701
 31
0.0
  0
LINE
  5
3F9
330
1F
100
AcDbEntity
  8
0
  6
Continuous
 62
     7
370
    25
100
AcDbLine
 10
43.2629519332
 20
166.9494077448
 30
0.0
 11
43.2633108084
 21
164.6869205459
 31
0.0
  0
LINE
  5
3FA
330
1F
100
AcDbEntity
  8
0
  6
Continuous
 62
     7
370
    25
100
AcDbLine
 10
86.7757542813
 20
162.074183613
 30
0.0
 11
86.7755499113
 21
163.574183599
 31
0.0
  0
LINE
  5
3FB
330
1F
100
AcDbEntity
  8
0
  6
Continuous
 62
     7
370
    25
100
AcDbLine
 10
45.7756394431
 20
162.9142602123
 30
0.0
 11
45.7757546619
 21
162.0685974987
 31
0.0
  0
LINE
  5
3FC
330
1F
100
AcDbEntity
  8
0
  6
Continuous
 62
     7
370
    25
100
AcDbLine
 10
50.0728658873
 20
176.8162176497
 30
0.0
 11
49.8259554445
 21
176.5691494589
 31
0.0
  0
LINE
  5
3FD
330
1F
100
AcDbEntity
  8
0
  6
Continuous
 62
     7
370
    25
100
AcDbLine
 10
82.7259552905
 20
176.573631975
 30
0.0
 11
82.4728607318
 21
176.8265649786
 31
0.0
  0
LINE
  5
3FE
330
1F
100
AcDbEntity
  8
0
  6
Continuous
 62
     7
370
    25
100
AcDbLine
 10
100.7754135346
 20
164.5760910434
 30
0.0
 11
100.7755497813
 21
163.5760910527
 31
0.0
  0
LINE
  5
3FF
330
1F
100
AcDbEntity
  8
0
  6
Continuous
 62
     7
370
    25
100
AcDbLine
 10
100.7754135346
 20
164.5760910434
 30
0.0
 11
106.2754134836
 21
164.5768404002
 31
0.0
  0
LINE
  5
400
330
1F
100
AcDbEntity
  8
0
  6
Continuous
 62
     7
370
    25
100
AcDbLine
 10
106.2754134836
 20
164.5768404002
 30
0.0
 11
106.2755497303
 21
163.5768404095
 31
0.0
  0
LINE
  5
401
330
1F
100
AcDbEntity
  8
0
  6
Continuous
 62
     7
370
    25
100
AcDbLine
 10
100.7755497813
 20
163.5760910527
 30
0.0
 11
106.2755497303
 21
163.5768404095
 31
0.0
  0
LINE
  5
402
330
1F
100
AcDbEntity
  8
0
  6
Continuous
 62
     7
370
    25
100
AcDbLine
 10
26.2754142261
 20
164.5659406651
 30
0.0
 11
26.2755504728
 21
163.5659406743
 31
0.0
  0
LINE
  5
403
330
1F
100
AcDbEntity
  8
0
  6
Continuous
 62
     7
370
    25
100
AcDbLine
 10
31.7755504218
 20
163.5666900311
 30
0.0
 11
31.7754141751
 21
164.5666900219
 31
0.0
  0
LINE
  5
404
330
1F
100
AcDbEntity
  8
0
  6
Continuous
 62
     7
370
    25
100
AcDbLine
 10
26.2754142261
 20
164.5659406651
 30
0.0
 11
31.7754141751
 21
164.5666900219
 31
0.0
  0
LINE
  5
405
330
1F
100
AcDbEntity
  8
0
  6
Continuous
 62
     7
370
    25
100
AcDbLine
 10
26.2755504728
 20
163.5659406743
 30
0.0
 11
31.7755504218
 21
163.5666900311
 31
0.0
  0
LINE
  5
406
330
1F
100
AcDbEntity
  8
0
  6
Continuous
 62
     7
370
    25
100
AcDbLine
 10
31.7754141751
 20
164.5666900219
 30
0.0
 11
100.7754135346
 21
164.5760910434
 31
0.0
  0
LINE
  5
407
330
1F
100
AcDbEntity
  8
0
  6
Continuous
 62
     7
370
    25
100
AcDbLine
 10
31.7755504218
 20
163.5666900311
 30
0.0
 11
100.7755497813
 21
163.5760910527
 31
0.0
  0
LINE
  5
408
330
1F
100
AcDbEntity
  8
0
  6
Continuous
 62
     7
370
    25
100
AcDbLine
 10
75.0260240804
 20
160.072582732
 30
0.0
 11
48.7940110034
 21
160.0690087071
 31
0.0
  0
LINE
  5
409
330
1F
100
AcDbEntity
  8
0
  6
Continuous
 62
     7
370
    25
100
AcDbLine
 10
76.5258216103
 20
161.5727894821
 30
0.0
 11
45.775829716
 21
161.5685998975
 31
0.0
  0
LINE
  5
40A
330
1F
100
AcDbEntity
  8
0
  6
Continuous
 62
     7
370
    25
100
AcDbLine
 10
76.5258216103
 20
161.5727894821
 30
0.0
 11
75.0260240804
 21
160.072582732
 31
0.0
  0
LINE
  5
40B
330
1F
100
AcDbEntity
  8
0
  6
Continuous
 62
     7
370
    25
100
AcDbLine
 10
86.7758224063
 20
161.5741860108
 30
0.0
 11
76.5258216103
 21
161.5727894821
 31
0.0
  0
LINE
  5
40C
330
1F
100
AcDbEntity
  8
0
  6
Continuous
 62
     7
370
    25
100
AcDbLine
 10
76.5257534872
 20
162.0727870843
 30
0.0
 11
86.7757542833
 21
162.074183613
 31
0.0
  0
LINE
  5
40D
330
1F
100
AcDbEntity
  8
0
  6
Continuous
 62
     7
370
    25
100
AcDbLine
 10
45.7757546599
 20
162.0685974987
 30
0.0
 11
76.5257534872
 21
162.0727870843
 31
0.0
  0
ARC
  5
40E
330
1F
100
AcDbEntity
  8
0
  6
Continuous
 62
     7
370
    25
100
AcDbCircle
 10
50.9292945443
 20
166.3248179492
 30
0.0
 40
8.119061227639907
100
AcDbArc
 50
97.7797103323
 51
115.8838012017
  0
LWPOLYLINE
  5
40F
330
1F
100
AcDbEntity
  8
0
  6
Continuous
 62
     7
370
    25
100
AcDbPolyline
 90
        3
 70
   128
 43
0.0
 10
47.4783510828
 20
173.5351858142
 10
47.4367135077
 20
173.5378646529
 10
47.274388861
 20
173.5690890517
  0
ARC
  5
410
330
1F
100
AcDbEntity
  8
0
  6
Continuous
 62
     7
370
    25
100
AcDbCircle
 10
76.1661706774
 20
339.4025533246
 30
0.0
 40
166.8300749011835
100
AcDbArc
 50
269.8653929901
 51
273.1221634941
  0
LINE
  5
411
330
1F
100
AcDbEntity
  8
0
  6
Continuous
 62
     7
370
    25
100
AcDbLine
 10
85.2740431127
 20
172.8242535136
 30
0.0
 11
85.2524903867
 21
172.8284026702
 31
0.0
  0
LWPOLYLINE
  5
412
330
1F
100
AcDbEntity
  8
0
  6
Continuous
 62
     7
370
    25
100
AcDbPolyline
 90
        9
 70
   128
 43
0.0
 10
53.7273986179
 20
172.2727245748
 10
56.0900211588
 20
172.3101977793
 10
58.699389868
 20
172.3477046021
 10
61.4912670269
 20
172.385236291
 10
64.3991313322
 20
172.4227837828
 10
67.3521773188
 20
172.4603374305
 10
70.2790404936
 20
172.4978875109
 10
73.1094783104
 20
172.5354244536
 10
75.7742312173
 20
172.5729388223
  0
ARC
  5
413
330
1F
100
AcDbEntity
  8
0
  6
Continuous
 62
     7
370
    25
100
AcDbCircle
 10
50.7918542843
 20
165.6633749965
 30
0.0
 40
7.231668959330696
100
AcDbArc
 50
66.0516031509
 51
90.840112925
  0
LWPOLYLINE
  5
414
330
1F
100
AcDbEntity
  8
0
  6
Continuous
 62
     7
370
    25
100
AcDbPolyline
 90
        5
 70
   128
 43
0.0
 10
49.8313658105
 20
174.3691484015
 10
49.0278909962
 20
174.3383098007
 10
48.5083204282
 20
174.307509881
 10
48.2844699529
 20
174.2767502521
 10
48.3029703973
 20
174.2690943375
  0
LWPOLYLINE
  5
415
330
1F
100
AcDbEntity
  8
0
  6
Continuous
 62
     7
370
    25
100
AcDbPolyline
 90
       22
 70
   128
 43
0.0
 10
84.2394094549
 20
173.5238036932
 10
84.255613036
 20
173.5134229524
 10
84.0074361212
 20
173.4826600092
 10
83.4638130525
 20
173.4518568124
 10
82.6356764608
 20
173.4210148516
 10
81.5385912067
 20
173.3901362474
 10
80.1883316459
 20
173.359223149
 10
78.6065577486
 20
173.3282785076
 10
76.8218628455
 20
173.2973062189
 10
74.863238987
 20
173.2663102329
 10
72.7613580784
 20
173.2352947286
 10
70.5522228091
 20
173.2042646113
 10
68.2728908506
 20
173.1732249299
 10
65.960496548
 20
173.1421807439
 10
63.652917978
 20
173.111137214
 10
61.388451144
 20
173.0800995579
 10
59.2053521652
 20
173.0490729879
 10
57.1396296767
 20
173.0180624101
 10
55.2240330192
 20
172.9870722865
 10
53.4910558342
 20
172.9561070441
 10
51.9712335185
 20
172.9251708434
 10
50.6872376185
 20
172.8942667732
  0
ARC
  5
416
330
1F
100
AcDbEntity
  8
0
  6
Continuous
 62
     7
370
    25
100
AcDbCircle
 10
76.745156115
 20
412.8355189531
 30
0.0
 40
238.9984710670437
100
AcDbArc
 50
269.7271957856
 51
271.9233415458
  0
LWPOLYLINE
  5
417
330
1F
100
AcDbEntity
  8
0
  6
Continuous
 62
     7
370
    25
100
AcDbPolyline
 90
       23
 70
   128
 43
0.0
 10
50.6872239529
 20
172.994272826
 10
51.8764801887
 20
173.0230805656
 10
53.2718884822
 20
173.0519163928
 10
54.8556832165
 20
173.080777887
 10
56.6039124241
 20
173.1096617848
 10
58.4902584194
 20
173.1385645007
 10
60.4883862166
 20
173.1674824464
 10
62.5704725111
 20
173.1964118311
 10
64.7058189011
 20
173.2253484724
 10
66.8633987993
 20
173.254288143
 10
69.0122312722
 20
173.2832266217
 10
71.1219038358
 20
173.312159765
 10
73.162389493
 20
173.3410834818
 10
75.1036686612
 20
173.3699936821
 10
76.9169604774
 20
173.3988864445
 10
78.5778279321
 20
173.4277584396
 10
80.0627856572
 20
173.4566064676
 10
81.3485024084
 20
173.4854273497
 10
82.4164338142
 20
173.5142185592
 10
83.2536348237
 20
173.5429783325
 10
83.8474782522
 20
173.5717049491
 10
84.1866205534
 20
173.6003968635
 10
84.2408397901
 20
173.6194470961
  0
LWPOLYLINE
  5
418
330
1F
100
AcDbEntity
  8
0
  6
Continuous
 62
     7
370
    25
100
AcDbPolyline
 90
        3
 70
   128
 43
0.0
 10
53.5145360683
 20
173.6750933942
 10
52.1245857321
 20
173.1923043127
 10
50.6858084018
 20
172.9942665779
  0
LWPOLYLINE
  5
419
330
1F
100
AcDbEntity
  8
0
  6
Continuous
 62
     7
370
    25
100
AcDbPolyline
 90
        9
 70
   128
 43
0.0
 10
53.5146851646
 20
173.6754149838
 10
55.8794547758
 20
173.6959175008
 10
58.4963035182
 20
173.7164543627
 10
61.3014211774
 20
173.7370168756
 10
64.2229506021
 20
173.7575952493
 10
67.1874875054
 20
173.7781794826
 10
70.1216652031
 20
173.7987595795
 10
72.9521277485
 20
173.8193255456
 10
75.6072889427
 20
173.8398676275
  0
LINE
  5
41A
330
1F
100
AcDbEntity
  8
0
  6
Continuous
 62
     7
370
    25
100
AcDbLine
 10
48.2740788022
 20
174.3689379987
 30
0.0
 11
49.8302601042
 21
174.3691500232
 31
0.0
  0
LINE
  5
41B
330
1F
100
AcDbEntity
  8
0
  6
Continuous
 62
     7
370
    25
100
AcDbLine
 10
75.149050535
 20
174.5725996278
 30
0.0
 11
48.5240515524
 21
174.5689720598
 31
0.0
  0
LINE
  5
41C
330
1F
100
AcDbEntity
  8
0
  6
Continuous
 62
     7
370
    25
100
AcDbLine
 10
75.149050535
 20
174.5725996278
 30
0.0
 11
75.6074837388
 21
173.8393287481
 31
0.0
  0
ARC
  5
41D
330
1F
100
AcDbEntity
  8
0
  6
Continuous
 62
     7
370
    25
100
AcDbCircle
 10
50.6806735447
 20
168.1466067052
 30
0.0
 40
6.212482746302268
100
AcDbArc
 50
62.8606491086
 51
118.7227128038
  0
ARC
  5
41E
330
1F
100
AcDbEntity
  8
0
  6
Continuous
 62
     7
370
    25
100
AcDbCircle
 10
47.8079769905
 20
167.4703961071
 30
0.0
 40
6.125681773209517
100
AcDbArc
 50
91.0513292573
 51
94.7071536408
  0
LWPOLYLINE
  5
41F
330
1F
100
AcDbEntity
  8
0
  6
Continuous
 62
     7
370
    25
100
AcDbPolyline
 90
        3
 70
   128
 43
0.0
 10
47.3049436857
 20
173.575215407
 10
47.2839745286
 20
173.5721514537
 10
47.2743888606
 20
173.5690890514
  0
ARC
  5
420
330
1F
100
AcDbEntity
  8
0
  6
Continuous
 62
     7
370
    25
100
AcDbCircle
 10
76.2325504005
 20
332.3283308589
 30
0.0
 40
164.2566001821529
100
AcDbArc
 50
269.8403379254
 51
273.1436289288
  0
LINE
  5
421
330
1F
100
AcDbEntity
  8
0
  6
Continuous
 62
     7
370
    25
100
AcDbLine
 10
53.1614324274
 20
167.5632154576
 30
0.0
 11
53.7279008857
 21
167.7724798306
 31
0.0
  0
LWPOLYLINE
  5
422
330
1F
100
AcDbEntity
  8
0
  6
Continuous
 62
     7
370
    25
100
AcDbPolyline
 90
        9
 70
   128
 43
0.0
 10
53.7279639969
 20
167.7723461319
 10
56.0908182044
 20
167.8097953734
 10
58.6999904044
 20
167.8472781748
 10
61.4918916726
 20
167.8847858725
 10
64.3997688301
 20
167.9223093715
 10
67.3527096536
 20
167.9598390103
 10
70.2796777371
 20
167.9973651104
 10
73.1100841153
 20
168.0348780543
 10
75.7748288051
 20
168.0723684273
  0
LINE
  5
423
330
1F
100
AcDbEntity
  8
0
  6
Continuous
 62
     7
370
    25
100
AcDbLine
 10
85.254404016
 20
169.8281358537
 30
0.0
 11
85.2744362012
 21
169.8242735734
 31
0.0
  0
ARC
  5
424
330
1F
100
AcDbEntity
  8
0
  6
Continuous
 62
     7
370
    25
100
AcDbCircle
 10
76.1562557774
 20
337.0223451111
 30
0.0
 40
167.449778453366
100
AcDbArc
 50
269.8694158278
 51
273.1134059121
  0
LWPOLYLINE
  5
425
330
1F
100
AcDbEntity
  8
0
  6
Continuous
 62
     7
370
    25
100
AcDbPolyline
 90
        3
 70
   128
 43
0.0
 10
47.644921704
 20
170.6163025077
 10
47.2912230937
 20
170.5791039748
 10
47.2939702987
 20
170.5781410064
  0
ARC
  5
426
330
1F
100
AcDbEntity
  8
0
  6
Continuous
 62
     7
370
    25
100
AcDbCircle
 10
50.5765616232
 20
177.2074350343
 30
0.0
 40
7.214001879073632
100
AcDbArc
 50
246.0207653201
 51
270.8709507558
  0
LWPOLYLINE
  5
427
330
1F
100
AcDbEntity
  8
0
  6
Continuous
 62
     7
370
    25
100
AcDbPolyline
 90
        6
 70
   128
 43
0.0
 10
50.6865859821
 20
169.994266656
 10
49.6449683449
 20
169.9628747041
 10
48.888662735
 20
169.9315216251
 10
48.4288113798
 20
169.900208937
 10
48.275065819
 20
169.8689379548
 10
48.286774197
 20
169.8665663028
  0
LWPOLYLINE
  5
428
330
1F
100
AcDbEntity
  8
0
  6
Continuous
 62
     7
370
    25
100
AcDbPolyline
 90
       21
 70
   128
 43
0.0
 10
84.2508020541
 20
169.1190861274
 10
84.1206458651
 20
169.0925709241
 10
83.6611423692
 20
169.0612582833
 10
82.9040886242
 20
169.0299051024
 10
81.8632604119
 20
168.9985132581
 10
80.5547152074
 20
168.9670849382
 10
79.0024601173
 20
168.9356234137
 10
77.2324383349
 20
168.9041322192
 10
75.2744670336
 20
168.8726154172
 10
73.1630610748
 20
168.8410777102
 10
70.9334796517
 20
168.8095239023
 10
68.6241528164
 20
168.7779592292
 10
66.2748426952
 20
168.7463891086
 10
63.9254331517
 20
168.7148189744
 10
61.6160551624
 20
168.6832542944
 10
59.386705692
 20
168.651700518
 10
57.2750677243
 20
168.6201627795
 10
55.3171213783
 20
168.5886459809
 10
53.5473553985
 20
168.5571548212
 10
51.9946906647
 20
168.5256932409
 10
50.6865801655
 20
168.4942649803
  0
ARC
  5
429
330
1F
100
AcDbEntity
  8
0
  6
Continuous
 62
     7
370
    25
100
AcDbCircle
 10
50.3783854419
 20
176.0298714343
 30
0.0
 40
7.541898046424422
100
AcDbArc
 50
272.3408003282
 51
296.3653826439
  0
LWPOLYLINE
  5
42A
330
1F
100
AcDbEntity
  8
0
  6
Continuous
 62
     7
370
    25
100
AcDbPolyline
 90
        9
 70
   128
 43
0.0
 10
75.7746173397
 20
169.5730015585
 10
73.1098727427
 20
169.5354653215
 10
70.279466649
 20
169.4979065136
 10
67.3524990094
 20
169.4603345496
 10
64.3995587473
 20
169.4227590469
 10
61.4916822293
 20
169.385189684
 10
58.6997816377
 20
169.3476361224
 10
56.0906101085
 20
169.310107457
 10
53.7277565326
 20
169.2726123516
  0
ARC
  5
42B
330
1F
100
AcDbEntity
  8
0
  6
Continuous
 62
     7
370
    25
100
AcDbCircle
 10
50.9941808865
 20
162.3589976883
 30
0.0
 40
7.541558921816319
100
AcDbArc
 50
92.3402521098
 51
116.3659308624
  0
LWPOLYLINE
  5
42C
330
1F
100
AcDbEntity
  8
0
  6
Continuous
 62
     7
370
    25
100
AcDbPolyline
 90
        3
 70
   128
 43
0.0
 10
47.6449914283
 20
169.116105574
 10
47.2921968581
 20
169.078921331
 10
47.2952680275
 20
169.0778332583
  0
ARC
  5
42D
330
1F
100
AcDbEntity
  8
0
  6
Continuous
 62
     7
370
    25
100
AcDbCircle
 10
50.796124116
 20
161.1812618665
 30
0.0
 40
7.213838733789608
100
AcDbArc
 50
66.0204798296
 51
90.8712362463
  0
LWPOLYLINE
  5
42E
330
1F
100
AcDbEntity
  8
0
  6
Continuous
 62
     7
370
    25
100
AcDbPolyline
 90
       22
 70
   128
 43
0.0
 10
50.6865937789
 20
168.3942666438
 10
51.9947042757
 20
168.4256949044
 10
53.5473690074
 20
168.4571564847
 10
55.3171349853
 20
168.4886476444
 10
57.2750813297
 20
168.520164443
 10
59.3867192961
 20
168.5517021815
 10
61.6160687656
 20
168.5832559579
 10
63.9254467543
 20
168.6148206379
 10
66.2748562976
 20
168.6463907721
 10
68.624166419
 20
168.6779608927
 10
70.9334932549
 20
168.7095255658
 10
73.1630746788
 20
168.7410793737
 10
75.2744806389
 20
168.7726170807
 10
77.2324519419
 20
168.8041338827
 10
79.0024737261
 20
168.8356250772
 10
80.5547288184
 20
168.8670866017
 10
81.8632740253
 20
168.8985149216
 10
82.9041022402
 20
168.9299067659
 10
83.6611559879
 20
168.9612599468
 10
84.1206594867
 20
168.9925725876
 10
84.2741603882
 20
169.0238435364
 10
84.2741096953
 20
169.0238538549
  0
ARC
  5
42F
330
1F
100
AcDbEntity
  8
0
  6
Continuous
 62
     7
370
    25
100
AcDbCircle
 10
50.526520536
 20
148.9876538493
 30
0.0
 40
20.90722731287098
100
AcDbArc
 50
89.5613027025
 51
96.0570026969
  0
LINE
  5
430
330
1F
100
AcDbEntity
  8
0
  6
Continuous
 62
     7
370
    25
100
AcDbLine
 10
48.2960337414
 20
172.8808056236
 30
0.0
 11
47.3049436795
 21
173.5752154061
 31
0.0
  0
LWPOLYLINE
  5
431
330
1F
100
AcDbEntity
  8
0
  6
Continuous
 62
     7
370
    25
100
AcDbPolyline
 90
       23
 70
   128
 43
0.0
 10
50.6861302682
 20
171.494462577
 10
51.8862271783
 20
171.5235150173
 10
53.297557017
 20
171.5525962373
 10
54.8980882372
 20
171.5817032354
 10
56.6650139853
 20
171.6108329042
 10
58.5729328027
 20
171.6399817829
 10
60.593086239
 20
171.6691459531
 10
62.6963953589
 20
171.6983214531
 10
64.8522372832
 20
171.7275041104
 10
67.0287554593
 20
171.7566895849
 10
69.1941165373
 20
171.7858735392
 10
71.3169566498
 20
171.8150517001
 10
73.3661406297
 20
171.8442198257
 10
75.3111632659
 20
171.8733737596
 10
77.1244020047
 20
171.9025097384
 10
78.7790636606
 20
171.9316241116
 10
80.2501673821
 20
171.9607134757
 10
81.5175450866
 20
171.9897750827
 10
82.5618728801
 20
172.0188063
 10
83.3673330691
 20
172.0478049723
 10
83.9236951786
 20
172.0767697058
 10
84.2214618544
 20
172.1056992065
 10
84.2382997734
 20
172.1196468536
  0
LINE
  5
432
330
1F
100
AcDbEntity
  8
0
  6
Continuous
 62
     7
370
    25
100
AcDbLine
 10
48.3062267843
 20
172.8691449926
 30
0.0
 11
48.2960337414
 21
172.8808056236
 31
0.0
  0
LWPOLYLINE
  5
433
330
1F
100
AcDbEntity
  8
0
  6
Continuous
 62
     7
370
    25
100
AcDbPolyline
 90
        3
 70
   128
 43
0.0
 10
50.6860127718
 20
171.4942665918
 10
52.2157456535
 20
171.7153883948
 10
53.7272877756
 20
172.2724797888
  0
LINE
  5
434
330
1F
100
AcDbEntity
  8
0
  6
Continuous
 62
     7
370
    25
100
AcDbLine
 10
47.2973525457
 20
172.0803465295
 30
0.0
 11
48.2960486667
 21
172.7804913363
 31
0.0
  0
LINE
  5
435
330
1F
100
AcDbEntity
  8
0
  6
Continuous
 62
     7
370
    25
100
AcDbLine
 10
47.2974118662
 20
172.0807651007
 30
0.0
 11
47.3086619806
 21
172.0734299084
 31
0.0
  0
ARC
  5
436
330
1F
100
AcDbEntity
  8
0
  6
Continuous
 62
     7
370
    25
100
AcDbCircle
 10
76.1503863486
 20
338.7948389805
 30
0.0
 40
167.7225253766151
100
AcDbArc
 50
269.8715973569
 51
273.1100927342
  0
LWPOLYLINE
  5
437
330
1F
100
AcDbEntity
  8
0
  6
Continuous
 62
     7
370
    25
100
AcDbPolyline
 90
        9
 70
   128
 43
0.0
 10
75.7745109073
 20
171.0727328222
 10
73.109247358
 20
171.035234099
 10
70.2793274633
 20
170.9977137811
 10
67.3523067646
 20
170.9601802334
 10
64.3992739177
 20
170.9226431417
 10
61.4917760197
 20
170.885112254
 10
58.6994517421
 20
170.8475970583
 10
56.0906738439
 20
170.8101068702
 10
53.7275692297
 20
170.7726501542
  0
LWPOLYLINE
  5
438
330
1F
100
AcDbEntity
  8
0
  6
Continuous
 62
     7
370
    25
100
AcDbPolyline
 90
        3
 70
   128
 43
0.0
 10
53.7274921456
 20
170.7724798027
 10
52.2142495262
 20
171.2542748351
 10
50.6860263965
 20
171.3942665943
  0
LWPOLYLINE
  5
439
330
1F
100
AcDbEntity
  8
0
  6
Continuous
 62
     7
370
    25
100
AcDbPolyline
 90
       23
 70
   128
 43
0.0
 10
50.6863888375
 20
171.3942666437
 10
51.8864663245
 20
171.4233199008
 10
53.2977735964
 20
171.4524019372
 10
54.8982794841
 20
171.4815097514
 10
56.6651775213
 20
171.5106402359
 10
58.5730666652
 20
171.53978993
 10
60.5931889302
 20
171.5689549155
 10
62.6964658439
 20
171.5981312305
 10
64.8522750036
 20
171.6273147029
 10
67.0287603465
 20
171.6565009924
 10
69.194089004
 20
171.6856857617
 10
71.3168975754
 20
171.7148647379
 10
73.3660513479
 20
171.7440336788
 10
75.3110455497
 20
171.7731884284
 10
77.1242580164
 20
171.8023252231
 10
78.7788959298
 20
171.8314404125
 10
80.2499787776
 20
171.8605305932
 10
81.5173387375
 20
171.8895930173
 10
82.5616521561
 20
171.9186250521
 10
83.3671015321
 20
171.9476245424
 10
83.9234564931
 20
171.9765900945
 10
84.2212197735
 20
172.0055204143
 10
84.2432925767
 20
172.0238046852
  0
LINE
  5
43A
330
1F
100
AcDbEntity
  8
0
  6
Continuous
 62
     7
370
    25
100
AcDbLine
 10
47.2976561617
 20
172.0799127962
 30
0.0
 11
47.6450151056
 21
172.1153741651
 31
0.0
  0
ARC
  5
43B
330
1F
100
AcDbEntity
  8
0
  6
Continuous
 62
     7
370
    25
100
AcDbCircle
 10
50.5801456914
 20
178.72596614
 30
0.0
 40
7.232474417098166
100
AcDbArc
 50
246.0530053972
 51
270.8387106787
  0
LWPOLYLINE
  5
43C
330
1F
100
AcDbEntity
  8
0
  6
Continuous
 62
     7
370
    25
100
AcDbPolyline
 90
       21
 70
   128
 43
0.0
 10
50.6863374257
 20
169.9944673111
 10
51.9945631013
 20
170.0258955162
 10
53.5465831884
 20
170.0573569374
 10
55.317187294
 20
170.08884814
 10
57.2747289194
 20
170.1203648122
 10
59.3863298057
 20
170.1519024745
 10
61.6160679587
 20
170.1834562326
 10
63.9251932465
 20
170.2150208069
 10
66.274628939
 20
170.2465908734
 10
68.6241994422
 20
170.2781609583
 10
70.9334023542
 20
170.3097255432
 10
73.1628227374
 20
170.341279258
 10
75.2747830119
 20
170.3728169692
 10
77.2322142253
 20
170.4043336264
 10
79.0024256953
 20
170.4358247755
 10
80.555182926
 20
170.4672862972
 10
81.8627654976
 20
170.4987144146
 10
82.9045065812
 20
170.5301063121
 10
83.6612740513
 20
170.5614593828
 10
84.1202785647
 20
170.5927718843
 10
84.2506992309
 20
170.6191547416
  0
LWPOLYLINE
  5
43D
330
1F
100
AcDbEntity
  8
0
  6
Continuous
 62
     7
370
    25
100
AcDbPolyline
 90
        6
 70
   128
 43
0.0
 10
48.2748315339
 20
171.3690573807
 10
48.2744383632
 20
171.3691370984
 10
48.4288082667
 20
171.4004080945
 10
48.8875465917
 20
171.4317205597
 10
49.6448126271
 20
171.4630736983
 10
50.6861265835
 20
171.4944655376
  0
LWPOLYLINE
  5
43E
330
1F
100
AcDbEntity
  8
0
  6
Continuous
 62
     7
370
    25
100
AcDbPolyline
 90
        3
 70
   128
 43
0.0
 10
53.7274921456
 20
170.7724798027
 10
52.1915750682
 20
170.2090804923
 10
50.6862171419
 20
169.9942666057
  0
ARC
  5
43F
330
1F
100
AcDbEntity
  8
0
  6
Continuous
 62
     7
370
    25
100
AcDbCircle
 10
50.9999624041
 20
163.8356046884
 30
0.0
 40
7.56517849256357
100
AcDbArc
 50
92.3783146361
 51
116.327868336
  0
LWPOLYLINE
  5
440
330
1F
100
AcDbEntity
  8
0
  6
Continuous
 62
     7
370
    25
100
AcDbPolyline
 90
        3
 70
   128
 43
0.0
 10
50.6862307665
 20
169.8942666082
 10
52.1910054643
 20
169.759122989
 10
53.7276965156
 20
169.2724798167
  0
LWPOLYLINE
  5
441
330
1F
100
AcDbEntity
  8
0
  6
Continuous
 62
     7
370
    25
100
AcDbPolyline
 90
       22
 70
   128
 43
0.0
 10
50.6865996068
 20
169.8942666585
 10
51.9948048142
 20
169.9256948608
 10
53.5468005421
 20
169.9571562788
 10
55.3173767906
 20
169.9886474776
 10
57.2748875585
 20
170.0201641457
 10
59.3864551074
 20
170.0517018035
 10
61.6161580076
 20
170.0832555568
 10
63.9252467408
 20
170.1148201262
 10
66.2746451959
 20
170.1463901877
 10
68.6241784148
 20
170.1779602675
 10
70.9333446378
 20
170.2095248475
 10
73.1627295549
 20
170.2410785575
 10
75.2746561843
 20
170.2726162642
 10
77.2320561634
 20
170.3041329171
 10
79.002239334
 20
170.3356240624
 10
80.5549716801
 20
170.3670855808
 10
81.8625332285
 20
170.3985136954
 10
82.9042574828
 20
170.4299055906
 10
83.6610126227
 20
170.4612586597
 10
84.1200095189
 20
170.4925711602
 10
84.2745914924
 20
170.5238421852
 10
84.2744673346
 20
170.5238672791
  0
ARC
  5
442
330
1F
100
AcDbEntity
  8
0
  6
Continuous
 62
     7
370
    25
100
AcDbCircle
 10
50.5276191044
 20
150.450939228
 30
0.0
 40
20.94392746125743
100
AcDbArc
 50
89.565653412
 51
96.0480649999
  0
ARC
  5
443
330
1F
100
AcDbEntity
  8
0
  6
Continuous
 62
     7
370
    25
100
AcDbCircle
 10
50.7728492309
 20
145.9975734817
 30
0.0
 40
26.99682907725582
100
AcDbArc
 50
90.181724043
 51
95.2616423159
  0
ARC
  5
444
330
1F
100
AcDbEntity
  8
0
  6
Continuous
 62
     7
370
    25
100
AcDbCircle
 10
50.7728628212
 20
145.8975771522
 30
0.0
 40
26.99682839077301
100
AcDbArc
 50
90.1817240175
 51
95.2616423818
  0
LINE
  5
445
330
1F
100
AcDbEntity
  8
0
  6
Continuous
 62
     7
370
    25
100
AcDbLine
 10
48.2962722781
 20
172.7806492682
 30
0.0
 11
48.2962586535
 21
172.8806492672
 31
0.0
  0
LWPOLYLINE
  5
446
330
1F
100
AcDbEntity
  8
0
  6
Continuous
 62
     7
370
    25
100
AcDbPolyline
 90
        5
 70
   128
 43
0.0
 10
50.6865801543
 20
168.4942666413
 10
49.438803887
 20
168.4554001381
 10
48.6316984045
 20
168.4165936749
 10
48.288040746
 20
168.3778503549
 10
48.3174468771
 20
168.3688814907
  0
LWPOLYLINE
  5
447
330
1F
100
AcDbEntity
  8
0
  6
Continuous
 62
     7
370
    25
100
AcDbPolyline
 90
        5
 70
   128
 43
0.0
 10
48.301572233
 20
168.273725499
 10
48.2880543719
 20
168.2778484441
 10
48.6317120345
 20
168.3165917641
 10
49.4388175209
 20
168.3553982273
 10
50.6865937919
 20
168.3942647305
  0
LINE
  5
448
330
1F
100
AcDbEntity
  8
0
  6
Continuous
 62
     7
370
    25
100
AcDbLine
 10
83.7539540992
 20
160.0737718836
 30
0.0
 11
75.0260240804
 21
160.072582732
 31
0.0
  0
LINE
  5
449
330
1F
100
AcDbEntity
  8
0
  6
Continuous
 62
     7
370
    25
100
AcDbLine
 10
75.149050535
 20
174.5725996278
 30
0.0
 11
84.0240512235
 21
174.5738088172
 31
0.0
  0
LINE
  5
44A
330
1F
100
AcDbEntity
  8
0
  6
Continuous
 62
     7
370
    25
100
AcDbLine
 10
75.1487780416
 20
176.5725996097
 30
0.0
 11
84.0237787302
 21
176.5738087992
 31
0.0
  0
LINE
  5
44B
330
1F
100
AcDbEntity
  8
0
  6
Continuous
 62
     7
370
    25
100
AcDbLine
 10
48.523779059
 20
176.5689720417
 30
0.0
 11
75.1487780416
 21
176.5725996097
 31
0.0
  0
LWPOLYLINE
  5
44C
330
1F
100
AcDbEntity
  8
0
  6
Continuous
 62
     7
370
    25
100
AcDbPolyline
 90
        3
 70
   128
 43
0.0
 10
50.6858220265
 20
172.8942665804
 10
49.1567840413
 20
172.6733274362
 10
47.6445470227
 20
172.1160533834
  0
LWPOLYLINE
  5
44D
330
1F
100
AcDbEntity
  8
0
  6
Continuous
 62
     7
370
    25
100
AcDbPolyline
 90
        3
 70
   128
 43
0.0
 10
50.6864215119
 20
168.4942666197
 10
49.2098835897
 20
168.6236837943
 10
47.6449557628
 20
169.1160534112
  0
LWPOLYLINE
  5
44E
330
1F
100
AcDbEntity
  8
0
  6
Continuous
 62
     7
370
    25
100
AcDbPolyline
 90
        3
 70
   128
 43
0.0
 10
47.6451601328
 20
167.6160534251
 10
49.2090932056
 20
168.1865921343
 10
50.6864351366
 20
168.3942666221
  0
LWPOLYLINE
  5
44F
330
1F
100
AcDbEntity
  8
0
  6
Continuous
 62
     7
370
    25
100
AcDbPolyline
 90
        3
 70
   128
 43
0.0
 10
50.6858084018
 20
172.9942665779
 10
49.2209912588
 20
173.121341973
 10
47.6951334301
 20
173.5946790338
  0
ARC
  5
450
330
1F
100
AcDbEntity
  8
0
  6
Continuous
 62
     7
370
    25
100
AcDbCircle
 10
66.3884053259
 20
95.0875547241
 30
0.0
 40
72.47426029693185
100
AcDbArc
 50
90.0894574794
 51
96.0347131291
  0
ARC
  5
451
330
1F
100
AcDbEntity
  8
0
  6
Continuous
 62
     7
370
    25
100
AcDbCircle
 10
55.307776628
 20
195.4759884482
 30
0.0
 40
28.52657146668633
100
AcDbArc
 50
263.0195268768
 51
276.96929082
  0
ARC
  5
452
330
1F
100
AcDbEntity
  8
0
  6
Continuous
 62
     7
370
    25
100
AcDbCircle
 10
48.0125102355
 20
149.1682861118
 30
0.0
 40
18.39536925105658
100
AcDbArc
 50
77.9879333861
 51
89.7656526134
  0
LWPOLYLINE
  5
453
330
1F
100
AcDbEntity
  8
0
  6
Continuous
 62
     7
370
    25
100
AcDbPolyline
 90
       13
 70
   128
 43
0.0
 10
48.0887160079
 20
167.5638452917
 10
49.0819466025
 20
167.5633116769
 10
50.2079601204
 20
167.5628404466
 10
51.5015334779
 20
167.5624233871
 10
52.9167840548
 20
167.562080173
 10
54.3084946695
 20
167.5618335603
 10
55.7827206124
 20
167.5616528395
 10
57.3754939072
 20
167.5615372134
 10
59.0332453659
 20
167.56149352
 10
60.7662882613
 20
167.5615231837
 10
62.5405880355
 20
167.5616267366
 10
64.4004471411
 20
167.5618104823
 10
66.2752492577
 20
167.5620705769
  0
LWPOLYLINE
  5
454
330
1F
100
AcDbEntity
  8
0
  6
Continuous
 62
     7
370
    25
100
AcDbPolyline
 90
        5
 70
   128
 43
0.0
 10
47.2393645229
 20
167.572305112
 10
46.5312822063
 20
167.571432231
 10
45.9655453017
 20
167.570537653
 10
45.5634280658
 20
167.5696427209
 10
45.347186199
 20
167.5688398958
  0
LWPOLYLINE
  5
455
330
1F
100
AcDbEntity
  8
0
  6
Continuous
 62
     7
370
    25
100
AcDbPolyline
 90
        8
 70
   128
 43
0.0
 10
45.2767584688
 20
167.5680711035
 10
45.2752512934
 20
167.5680546511
 10
45.3529298479
 20
167.5672707251
 10
45.5833647252
 20
167.5665168707
 10
45.9694110505
 20
167.565792391
 10
46.5112925055
 20
167.565104608
 10
47.2207683695
 20
167.5644497531
 10
48.0887160079
 20
167.5638452917
  0
LWPOLYLINE
  5
456
330
1F
100
AcDbEntity
  8
0
  6
Continuous
 62
     7
370
    25
100
AcDbPolyline
 90
        8
 70
   128
 43
0.0
 10
84.4617825079
 20
167.5696147778
 10
85.3111339931
 20
167.5704738733
 10
86.0192163098
 20
167.5713467543
 10
86.5849532144
 20
167.5722413323
 10
86.9870704502
 20
167.5731362644
 10
87.2029369148
 20
167.5739363528
 10
87.2750981486
 20
167.5747327687
 10
87.2750650084
 20
167.574733102
  0
LWPOLYLINE
  5
457
330
1F
100
AcDbEntity
  8
0
  6
Continuous
 62
     7
370
    25
100
AcDbPolyline
 90
       13
 70
   128
 43
0.0
 10
66.2752492577
 20
167.5620705769
 10
68.1207145093
 20
167.5623994278
 10
69.9519273352
 20
167.5627977085
 10
71.813071293
 20
167.5632789272
 10
73.6286054126
 20
167.5638269451
 10
75.2365578109
 20
167.5643831576
 10
76.7827185754
 20
167.5649876815
 10
78.2978132294
 20
167.5656559814
 10
79.7251297251
 20
167.5663661424
 10
81.0702373622
 20
167.5671229056
 10
82.3045446084
 20
167.5679116214
 10
83.4516152155
 20
167.5687526914
 10
84.4617825079
 20
167.5696147778
  0
LWPOLYLINE
  5
458
330
1F
100
AcDbEntity
  8
0
  6
Continuous
 62
     7
370
    25
100
AcDbPolyline
 90
       15
 70
   128
 43
0.0
 10
61.5437495355
 20
167.5624731981
 10
60.000243505
 20
167.5624358469
 10
58.5019490346
 20
167.5624630069
 10
57.0596613706
 20
167.5625544824
 10
55.6837722284
 20
167.5627096144
 10
54.3841949209
 20
167.5629272851
 10
53.1702929324
 20
167.5632059262
 10
52.0508124545
 20
167.56354353
 10
51.0338193697
 20
167.5639376642
 10
50.1266411366
 20
167.5643854891
 10
49.335813995
 20
167.5648837779
 10
48.6670358726
 20
167.5654289405
 10
48.1251253312
 20
167.5660170491
 10
47.7139868486
 20
167.5666438662
 10
47.6450136808
 20
167.5667790584
  0
LWPOLYLINE
  5
459
330
1F
100
AcDbEntity
  8
0
  6
Continuous
 62
     7
370
    25
100
AcDbPolyline
 90
       23
 70
   128
 43
0.0
 10
85.2752516649
 20
167.5743995271
 10
85.2605043356
 20
167.574068776
 10
85.1286325069
 20
167.5733345773
 10
84.8609216198
 20
167.5725863643
 10
84.4593005376
 20
167.5718295277
 10
83.9266629491
 20
167.5710695207
 10
83.2668465205
 20
167.5703118192
 10
82.4846052443
 20
167.5695618822
 10
81.5855751868
 20
167.5688251133
 10
80.5762338801
 20
167.5681068207
 10
79.4638536515
 20
167.5674121799
 10
78.2564492261
 20
167.5667461957
 10
76.9627199803
 20
167.5661136666
 10
75.5919872631
 20
167.5655191499
 10
74.154127235
 20
167.5649669292
 10
72.6594997106
 20
167.5644609832
 10
71.1188735154
 20
167.5640049572
 10
69.5433488964
 20
167.5636021371
 10
67.9442775446
 20
167.5632554249
 10
66.3331808058
 20
167.562967319
 10
64.7216666688
 20
167.5627398949
 10
63.12134613
 20
167.5625747915
 10
61.5437495355
 20
167.5624731981
  0
LWPOLYLINE
  5
45A
330
1F
100
AcDbEntity
  8
0
  6
Continuous
 62
     7
370
    25
100
AcDbPolyline
 90
        3
 70
   128
 43
0.0
 10
80.7097137099
 20
167.1654457004
 10
82.5811803538
 20
167.4646049069
 10
84.4627490831
 20
167.569271286
  0
ARC
  5
45B
330
1F
100
AcDbEntity
  8
0
  6
Continuous
 62
     7
370
    25
100
AcDbCircle
 10
77.2357213564
 20
191.0073605417
 30
0.0
 40
24.09368228753585
100
AcDbArc
 50
261.7573404696
 51
278.2901947961
  0
ARC
  5
45C
330
1F
100
AcDbEntity
  8
0
  6
Continuous
 62
     7
370
    25
100
AcDbCircle
 10
66.1853407267
 20
95.0923320373
 30
0.0
 40
72.46945041902532
100
AcDbArc
 50
83.9832658796
 51
89.9289164775
  0
ARC
  5
45D
330
1F
100
AcDbEntity
  8
0
  6
Continuous
 62
     7
370
    25
100
AcDbCircle
 10
77.520725327
 20
137.4769128505
 30
0.0
 40
27.2104167349022
100
AcDbArc
 50
84.7518840683
 51
95.2637286523
  0
ARC
  5
45E
330
1F
100
AcDbEntity
  8
0
  6
Continuous
 62
     7
370
    25
100
AcDbCircle
 10
55.0381729664
 20
137.4902478944
 30
0.0
 40
27.19353215328219
100
AcDbArc
 50
84.7614465826
 51
95.254166138
  0
ARC
  5
45F
330
1F
100
AcDbEntity
  8
0
  6
Continuous
 62
     7
370
    25
100
AcDbCircle
 10
84.4161020739
 20
149.1828483893
 30
0.0
 40
18.38648206916677
100
AcDbArc
 50
78.0731209169
 51
89.8546388802
  0
LWPOLYLINE
  5
460
330
1F
100
AcDbEntity
  8
0
  6
Continuous
 62
     7
370
    25
100
AcDbPolyline
 90
        3
 70
   128
 43
0.0
 10
44.3347141673
 20
167.1654452553
 10
46.2061808118
 20
167.4617275289
 10
48.0877495415
 20
167.5635014932
  0
LWPOLYLINE
  5
461
330
1F
100
AcDbEntity
  8
0
  6
Continuous
 62
     7
370
    25
100
AcDbPolyline
 90
        8
 70
   128
 43
0.0
 10
88.2159114631
 20
167.1724056792
 10
88.5178093626
 20
167.1104648489
 10
88.774511343
 20
167.0582850053
 10
88.9834718443
 20
167.0161620919
 10
89.1402541651
 20
166.9848052834
 10
89.21903348
 20
166.9691707526
 10
89.2845513109
 20
166.9563809745
 10
89.2810474885
 20
166.9571983324
  0
LWPOLYLINE
  5
462
330
1F
100
AcDbEntity
  8
0
  6
Continuous
 62
     7
370
    25
100
AcDbPolyline
 90
        8
 70
   128
 43
0.0
 10
43.2683353764
 20
166.9496366789
 10
43.2636857907
 20
166.9486399858
 10
43.3411058896
 20
166.9637635037
 10
43.5155069145
 20
166.9985746152
 10
43.7335613043
 20
167.0425211438
 10
43.9851430541
 20
167.0936639149
 10
44.1307893971
 20
167.1234710994
 10
44.3347141673
 20
167.1654452553
  0
ARC
  5
463
330
1F
100
AcDbEntity
  8
0
  6
Continuous
 62
     7
370
    25
100
AcDbCircle
 10
44.8420844261
 20
380.0267993008
 30
0.0
 40
219.8716947607197
100
AcDbArc
 50
281.5069940605
 51
281.661857727
  0
ARC
  5
464
330
1F
100
AcDbEntity
  8
0
  6
Continuous
 62
     7
370
    25
100
AcDbCircle
 10
91.3086375754
 20
397.9741121954
 30
0.0
 40
238.1832517884058
100
AcDbArc
 50
258.3631792396
 51
258.5049786587
  0
LINE
  5
465
330
1F
100
AcDbEntity
  8
0
  6
Continuous
 62
     7
370
    25
100
AcDbLine
 10
86.7757542813
 20
162.074183613
 30
0.0
 11
45.7757546619
 21
162.0685974987
 31
0.0
  0
LWPOLYLINE
  5
466
330
1F
100
AcDbEntity
  8
0
  6
Continuous
 62
     7
370
    25
100
AcDbPolyline
 90
       18
 70
   128
 43
0.0
 10
50.0864884165
 20
176.8162219688
 10
50.0915675567
 20
176.8163307966
 10
50.450751457
 20
176.8168149943
 10
50.807362488
 20
176.8171127767
 10
51.261318396
 20
176.8174311999
 10
52.494102013
 20
176.8181572407
 10
53.2755050285
 20
176.8185641401
 10
54.1235071596
 20
176.8189780425
 10
55.0622567229
 20
176.8194116822
 10
56.0909034922
 20
176.8198640708
 10
57.2090012297
 20
176.8203342123
 10
58.3554437763
 20
176.8207969297
 10
60.8356438121
 20
176.8217430524
 10
62.1643792335
 20
176.8222234311
 10
63.5871835414
 20
176.8227195324
 10
65.043547901
 20
176.8232088341
 10
66.5479479339
 20
176.8236952627
 10
68.063098315
 20
176.8241657945
  0
LINE
  5
467
330
1F
100
AcDbEntity
  8
0
  6
Continuous
 62
     7
370
    25
100
AcDbLine
 10
68.1437452442
 20
176.6764279173
 30
0.0
 11
68.063098315
 21
176.8241657945
 31
0.0
  0
LINE
  5
468
330
1F
100
AcDbEntity
  8
0
  6
Continuous
 62
     7
370
    25
100
AcDbLine
 10
68.4738066567
 20
176.8242899575
 30
0.0
 11
68.1437452442
 21
176.6764279173
 31
0.0
  0
LWPOLYLINE
  5
469
330
1F
100
AcDbEntity
  8
0
  6
Continuous
 62
     7
370
    25
100
AcDbPolyline
 90
        6
 70
   128
 43
0.0
 10
68.4738066567
 20
176.8242899575
 10
69.7944006399
 20
176.8246791703
 10
71.0997396233
 20
176.8250482902
 10
72.3987412225
 20
176.8253991509
 10
73.6623077912
 20
176.8257231628
 10
74.3728630005
 20
176.8258971009
  0
LWPOLYLINE
  5
46A
330
1F
100
AcDbEntity
  8
0
  6
Continuous
 62
     7
370
    25
100
AcDbPolyline
 90
       12
 70
   128
 43
0.0
 10
74.3728630005
 20
176.8258971009
 10
76.5830984117
 20
176.8263929194
 10
77.6094619641
 20
176.8265943238
 10
78.5601360828
 20
176.8267590084
 10
79.3916496455
 20
176.8268804242
 10
80.8009488775
 20
176.8270106331
 10
81.3621124776
 20
176.8270157155
 10
81.7995933821
 20
176.8269811383
 10
82.1317213068
 20
176.8269072895
 10
82.354504459
 20
176.8267933732
 10
82.4628906013
 20
176.8266382804
 10
82.4592684121
 20
176.8265606699
  0
LINE
  5
46B
330
1F
100
AcDbEntity
  8
0
  6
Continuous
 62
     7
370
    25
100
AcDbLine
 10
68.0637743295
 20
176.8229273971
 30
0.0
 11
68.4709835424
 21
176.8230252491
 31
0.0
  0
LWPOLYLINE
  5
46C
330
1F
100
AcDbEntity
  8
0
  6
Continuous
 62
     7
370
    25
100
AcDbPolyline
 90
       37
 70
   128
 43
0.0
 10
49.7528671629
 20
160.0688740261
 10
49.7699906236
 20
160.0684490091
 10
49.906765243
 20
160.0676182298
 10
50.1791810592
 20
160.0668187145
 10
50.5849807489
 20
160.0660570881
 10
51.120801728
 20
160.0653396617
 10
51.7822040152
 20
160.0646723801
 10
52.5637070229
 20
160.0640607727
 10
53.4588349709
 20
160.0635099074
 10
54.4601705472
 20
160.0630243488
 10
55.5594163698
 20
160.0626081205
 10
56.7474637417
 20
160.0622646714
 10
58.0144681283
 20
160.0619968475
 10
59.349930732
 20
160.061806868
 10
60.7427854892
 20
160.0616963071
 10
62.1814907667
 20
160.0616660811
 10
63.6541249995
 20
160.0617164404
 10
65.1484854766
 20
160.0618469677
 10
66.6521894563
 20
160.0620565813
 10
68.152776774
 20
160.0623435444
 10
69.6378130906
 20
160.0627054791
 10
71.0949929274
 20
160.0631393863
 10
72.5122416333
 20
160.0636416705
 10
73.8778154394
 20
160.0642081697
 10
75.1803987709
 20
160.0648341895
 10
76.4091980121
 20
160.0655145427
 10
77.5540309455
 20
160.0662435916
 10
78.6054111249
 20
160.0670152951
 10
79.554626483
 20
160.0678232586
 10
80.3938115224
 20
160.068660787
 10
81.1160124915
 20
160.0695209404
 10
81.7152450058
 20
160.0703965912
 10
82.1865436358
 20
160.0712804836
 10
82.5260030526
 20
160.0721652932
 10
82.7308103888
 20
160.0730436884
 10
82.799268546
 20
160.0739083903
 10
82.7992685458
 20
160.0739084374
  0
LINE
  5
46D
330
1F
100
AcDbEntity
  8
0
  6
Continuous
 62
     1
370
    25
100
AcDbLine
 10
55.9900279606
 20
163.4699891726
 30
0.0
 11
54.4900279746
 21
163.4697848026
 31
0.0
  0
LINE
  5
46E
330
1F
100
AcDbEntity
  8
0
  6
Continuous
 62
     1
370
    25
100
AcDbLine
 10
81.3203580555
 20
163.4734403463
 30
0.0
 11
79.8203580694
 21
163.4732359762
 31
0.0
  0
LINE
  5
46F
330
1F
100
AcDbEntity
  8
0
  6
Continuous
 62
     1
370
    25
100
AcDbLine
 10
64.7480842144
 20
163.4711824288
 30
0.0
 11
63.2480842283
 21
163.4709780588
 31
0.0
  0
LINE
  5
470
330
1F
100
AcDbEntity
  8
0
  6
Continuous
 62
     1
370
    25
100
AcDbLine
 10
76.1891336312
 20
163.4727412339
 30
0.0
 11
74.6891336451
 21
163.4725368639
 31
0.0
  0
LINE
  5
471
330
1F
100
AcDbEntity
  8
0
  6
Continuous
 62
     1
370
    25
100
AcDbLine
 10
50.6959075228
 20
163.4692678662
 30
0.0
 11
49.1959075367
 21
163.4690634962
 31
0.0
  0
LINE
  5
472
330
1F
100
AcDbEntity
  8
0
  6
Continuous
 62
     1
370
    25
100
AcDbLine
 10
47.0307472197
 20
163.4687685003
 30
0.0
 11
45.5307472336
 21
163.4685641302
 31
0.0
  0
LINE
  5
473
330
1F
100
AcDbEntity
  8
0
  6
Continuous
 62
     1
370
    25
100
AcDbLine
 10
58.7592601897
 20
163.4703664714
 30
0.0
 11
57.2592602036
 21
163.4701621013
 31
0.0
  0
LINE
  5
474
330
1F
100
AcDbEntity
  8
0
  6
Continuous
 62
     1
370
    25
100
AcDbLine
 10
67.7999889374
 20
163.4715982407
 30
0.0
 11
66.2999889513
 21
163.4713938707
 31
0.0
  0
LINE
  5
475
330
1F
100
AcDbEntity
  8
0
  6
Continuous
 62
     1
370
    25
100
AcDbLine
 10
83.8452462643
 20
163.4737843539
 30
0.0
 11
82.3452462783
 21
163.4735799839
 31
0.0
  0
LINE
  5
476
330
1F
100
AcDbEntity
  8
0
  6
Continuous
 62
     1
370
    25
100
AcDbLine
 10
73.5013494089
 20
163.4723750322
 30
0.0
 11
72.0013494228
 21
163.4721706622
 31
0.0
  0
LINE
  5
477
330
1F
100
AcDbEntity
  8
0
  6
Continuous
 62
     1
370
    25
100
AcDbLine
 10
73.7819214173
 20
164.5724132694
 30
0.0
 11
73.781510567
 21
167.1625717191
 31
0.0
  0
LINE
  5
478
330
1F
100
AcDbEntity
  8
0
  6
Continuous
 62
     1
370
    25
100
AcDbLine
 10
80.7097137099
 20
167.1654457004
 30
0.0
 11
80.7101248663
 21
164.5733572142
 31
0.0
  0
LINE
  5
479
330
1F
100
AcDbEntity
  8
0
  6
Continuous
 62
     1
370
    25
100
AcDbLine
 10
51.8413229746
 20
164.5694239355
 30
0.0
 11
51.8409119206
 21
167.1608665388
 31
0.0
  0
LINE
  5
47A
330
1F
100
AcDbEntity
  8
0
  6
Continuous
 62
     1
370
    25
100
AcDbLine
 10
58.7691150634
 20
167.160190457
 30
0.0
 11
58.7695258605
 21
164.5703678802
 31
0.0
  0
LINE
  5
47B
330
1F
100
AcDbEntity
  8
0
  6
Continuous
 62
     1
370
    25
100
AcDbLine
 10
88.2163235614
 20
164.574379909
 30
0.0
 11
88.2159114631
 21
167.1724056792
 31
0.0
  0
LINE
  5
47C
330
1F
100
AcDbEntity
  8
0
  6
Continuous
 62
     1
370
    25
100
AcDbLine
 10
44.3347141673
 20
167.1654452553
 30
0.0
 11
44.3351261098
 21
164.568401241
 31
0.0
  0
LINE
  5
47D
330
1F
100
AcDbEntity
  8
0
  6
Continuous
 62
     1
370
    25
100
AcDbLine
 10
74.4996721319
 20
176.5725111712
 30
0.0
 11
74.3728630005
 21
176.8258971009
 31
0.0
  0
DIMENSION
  5
47E
330
1F
100
AcDbEntity
  8
FORMAT
 62
     7
100
AcDbDimension
  2
_D_2
 10
35.2431175857
 20
160.0671624427
 30
0.0
 11
35.24400476
 21
153.5556328565
 31
0.0
 70
   160
  1
<>
 71
     2
 42
-1.0
  3
SLDDIMSTYLE1
100
AcDbAlignedDimension
 13
26.2755504728
 23
163.5659406743
 33
0.0
 14
48.7758960272
 24
160.069006239
 34
0.0
 50
-89.9921936397
100
AcDbRotatedDimension
  0
DIMENSION
  5
48A
330
1F
100
AcDbEntity
  8
FORMAT
 62
     7
100
AcDbDimension
  2
_D_3
 10
22.2945859889
 20
164.5653982904
 30
0.0
 11
22.2937512356
 21
170.6921765698
 31
0.0
 70
   160
  1
<>
 71
     2
 42
-1.0
  3
SLDDIMSTYLE2
100
AcDbAlignedDimension
 13
77.6699773523
 23
176.8264997905
 33
0.0
 14
26.2754142261
 24
164.5659406651
 34
0.0
 50
-89.9921936397
100
AcDbRotatedDimension
  0
DIMENSION
  5
497
330
1F
100
AcDbEntity
  8
FORMAT
 62
     7
100
AcDbDimension
  2
_D_4
 10
109.3444599535
 20
163.5772585383
 30
0.0
 11
109.3435077442
 21
170.5661203391
 31
0.0
 70
   160
  1
<>
 71
     2
 42
-1.0
  3
SLDDIMSTYLE1
100
AcDbAlignedDimension
 13
106.2754134836
 23
164.5768404002
 33
0.0
 14
106.2755497303
 24
163.5768404095
 34
0.0
 50
-89.9921936397
100
AcDbRotatedDimension
  0
LINE
  5
4A3
330
1F
100
AcDbEntity
  8
0
  6
Continuous
 62
     7
370
    25
100
AcDbLine
 10
66.2737788946
 20
85.4898808307
 30
0.0
 11
66.274051388
 21
85.4898808307
 31
0.0
  0
LINE
  5
4A4
330
1F
100
AcDbEntity
  8
0
  6
Continuous
 62
     7
370
    25
100
AcDbLine
 10
66.274051388
 20
120.9898808313
 30
0.0
 11
66.2737788946
 21
120.9898808313
 31
0.0
  0
LINE
  5
4A5
330
1F
100
AcDbEntity
  8
0
  6
Continuous
 62
     7
370
    25
100
AcDbLine
 10
88.8209381417
 20
100.5456958213
 30
0.0
 11
88.8213274571
 21
100.546784978
 31
0.0
  0
LINE
  5
4A6
330
1F
100
AcDbEntity
  8
0
  6
Continuous
 62
     7
370
    25
100
AcDbLine
 10
43.7301159186
 20
105.9322278776
 30
0.0
 11
43.7297265647
 21
105.9311386132
 31
0.0
  0
ARC
  5
4A7
330
1F
100
AcDbEntity
  8
0
  6
Continuous
 62
     7
370
    25
100
AcDbCircle
 10
31.7754141751
 20
137.7398808304
 30
0.0
 40
5.500000000000253
100
AcDbArc
 50
90.0
 51
179.9921936397
  0
LINE
  5
4A8
330
1F
100
AcDbEntity
  8
0
  6
Continuous
 62
     7
370
    25
100
AcDbLine
 10
100.7754135346
 20
143.2398808304
 30
0.0
 11
31.7754141751
 21
143.2398808304
 31
0.0
  0
ARC
  5
4A9
330
1F
100
AcDbEntity
  8
0
  6
Continuous
 62
     7
370
    25
100
AcDbCircle
 10
100.7754135346
 20
137.7398808304
 30
0.0
 40
5.500000000004945
100
AcDbArc
 50
0.0078063603
 51
90.0
  0
LINE
  5
4AA
330
1F
100
AcDbEntity
  8
0
  6
Continuous
 62
     7
370
    25
100
AcDbLine
 10
106.2754134836
 20
68.7398808315
 30
0.0
 11
106.2754134836
 21
137.7398808304
 31
0.0
  0
ARC
  5
4AB
330
1F
100
AcDbEntity
  8
0
  6
Continuous
 62
     7
370
    25
100
AcDbCircle
 10
100.7754135346
 20
68.7398808315
 30
0.0
 40
5.500000000000064
100
AcDbArc
 50
270.0
 51
0.0078063603
  0
LINE
  5
4AC
330
1F
100
AcDbEntity
  8
0
  6
Continuous
 62
     7
370
    25
100
AcDbLine
 10
31.7754141751
 20
63.2398808315
 30
0.0
 11
100.7754135346
 21
63.2398808315
 31
0.0
  0
ARC
  5
4AD
330
1F
100
AcDbEntity
  8
0
  6
Continuous
 62
     7
370
    25
100
AcDbCircle
 10
31.7754141751
 20
68.7398808315
 30
0.0
 40
5.500000000000253
100
AcDbArc
 50
179.9921936397
 51
270.0
  0
LINE
  5
4AE
330
1F
100
AcDbEntity
  8
0
  6
Continuous
 62
     7
370
    25
100
AcDbLine
 10
26.2754142261
 20
137.7398808304
 30
0.0
 11
26.2754142261
 21
68.7398808315
 31
0.0
  0
ARC
  5
4AF
330
1F
100
AcDbEntity
  8
0
  6
Continuous
 62
     7
370
    25
100
AcDbCircle
 10
96.2754135764
 20
103.2398808284
 30
0.0
 40
2.000000000000018
100
AcDbArc
 50
179.9921936397
 51
0.0078063603
  0
ARC
  5
4B0
330
1F
100
AcDbEntity
  8
0
  6
Continuous
 62
     7
370
    25
100
AcDbCircle
 10
96.2754135764
 20
103.2398808284
 30
0.0
 40
2.000000000000018
100
AcDbArc
 50
0.0078063603
 51
179.9921936397
  0
ARC
  5
4B1
330
1F
100
AcDbEntity
  8
0
  6
Continuous
 62
     7
370
    25
100
AcDbCircle
 10
36.2754141346
 20
103.2398808284
 30
0.0
 40
2.000000000000011
100
AcDbArc
 50
179.9921936397
 51
0.0078063603
  0
ARC
  5
4B2
330
1F
100
AcDbEntity
  8
0
  6
Continuous
 62
     7
370
    25
100
AcDbCircle
 10
36.2754141346
 20
103.2398808284
 30
0.0
 40
2.000000000000011
100
AcDbArc
 50
0.0078063603
 51
179.9921936397
  0
ARC
  5
4B3
330
1F
100
AcDbEntity
  8
0
  6
Continuous
 62
     7
370
    25
100
AcDbCircle
 10
100.7755497813
 20
137.7398808304
 30
0.0
 40
5.50000000000026
100
AcDbArc
 50
0.0078063603
 51
90.0
  0
LINE
  5
4B4
330
1F
100
AcDbEntity
  8
0
  6
Continuous
 62
     7
370
    25
100
AcDbLine
 10
106.2754134836
 20
137.7398808304
 30
0.0
 11
106.2755497303
 21
137.7398808304
 31
0.0
  0
LINE
  5
4B5
330
1F
100
AcDbEntity
  8
0
  6
Continuous
 62
     7
370
    25
100
AcDbLine
 10
100.7754135346
 20
143.2398808304
 30
0.0
 11
100.7755497813
 21
143.2398808304
 31
0.0
  0
LINE
  5
4B6
330
1F
100
AcDbEntity
  8
0
  6
Continuous
 62
     7
370
    25
100
AcDbLine
 10
106.2755497303
 20
68.7398808315
 30
0.0
 11
106.2755497303
 21
137.7398808304
 31
0.0
  0
LINE
  5
4B7
330
1F
100
AcDbEntity
  8
0
  6
Continuous
 62
     7
370
    25
100
AcDbLine
 10
106.2754134836
 20
68.7398808315
 30
0.0
 11
106.2755497303
 21
68.7398808315
 31
0.0
  0
ARC
  5
4B8
330
1F
100
AcDbEntity
  8
0
  6
Continuous
 62
     7
370
    25
100
AcDbCircle
 10
100.7755497813
 20
68.7398808315
 30
0.0
 40
5.500000000000064
100
AcDbArc
 50
270.0
 51
0.0078063603
  0
LINE
  5
4B9
330
1F
100
AcDbEntity
  8
0
  6
Continuous
 62
     7
370
    25
100
AcDbLine
 10
100.7754135346
 20
63.2398808315
 30
0.0
 11
100.7755497813
 21
63.2398808315
 31
0.0
  0
LINE
  5
4BA
330
1F
100
AcDbEntity
  8
0
  6
Continuous
 62
     7
370
    25
100
AcDbLine
 10
94.275413595
 20
103.2398808284
 30
0.0
 11
94.2754149574
 21
103.2398808284
 31
0.0
  0
ARC
  5
4BB
330
1F
100
AcDbEntity
  8
0
  6
Continuous
 62
     7
370
    25
100
AcDbCircle
 10
96.2754149389
 20
103.2398808284
 30
0.0
 40
2.000000000000014
100
AcDbArc
 50
179.9921936397
 51
269.9999999999
  0
ARC
  5
4BC
330
1F
100
AcDbEntity
  8
0
  6
Continuous
 62
     7
370
    25
100
AcDbCircle
 10
96.2754149389
 20
103.2398808284
 30
0.0
 40
2.000000000000004
100
AcDbArc
 50
90.0000000001
 51
179.9921936397
  0
ARC
  5
4BD
330
1F
100
AcDbEntity
  8
0
  6
Continuous
 62
     7
370
    25
100
AcDbCircle
 10
36.275415497
 20
103.2398808284
 30
0.0
 40
2.000000000000014
100
AcDbArc
 50
90.0000000001
 51
179.9921936397
  0
LINE
  5
4BE
330
1F
100
AcDbEntity
  8
0
  6
Continuous
 62
     7
370
    25
100
AcDbLine
 10
34.2754141531
 20
103.2398808284
 30
0.0
 11
34.2754155156
 21
103.2398808284
 31
0.0
  0
ARC
  5
4BF
330
1F
100
AcDbEntity
  8
0
  6
Continuous
 62
     7
370
    25
100
AcDbCircle
 10
36.275415497
 20
103.2398808284
 30
0.0
 40
2.000000000000014
100
AcDbArc
 50
179.9921936397
 51
269.9999999999
  0
CIRCLE
  5
4C0
330
1F
100
AcDbEntity
  8
0
  6
Continuous
 62
     7
370
    25
100
AcDbCircle
 10
66.2737788946
 20
103.239880831
 30
0.0
 40
17.75000000030999
  0
CIRCLE
  5
4C1
330
1F
100
AcDbEntity
  8
0
  6
Continuous
 62
     7
370
    25
100
AcDbCircle
 10
66.2737788946
 20
103.239880831
 30
0.0
 40
17.40000000181
  0
ARC
  5
4C2
330
1F
100
AcDbEntity
  8
0
  6
Continuous
 62
     7
370
    25
100
AcDbCircle
 10
66.274051388
 20
103.239880831
 30
0.0
 40
17.75000000031
100
AcDbArc
 50
269.9999971271
 51
299.9999968201
  0
ARC
  5
4C3
330
1F
100
AcDbEntity
  8
0
  6
Continuous
 62
     7
370
    25
100
AcDbCircle
 10
66.274051388
 20
103.239880831
 30
0.0
 40
17.75000000031002
100
AcDbArc
 50
299.9999968201
 51
89.9999971271
  0
ARC
  5
4C4
330
1F
100
AcDbEntity
  8
0
  6
Continuous
 62
     7
370
    25
100
AcDbCircle
 10
66.3918194275
 20
103.0194135835
 30
0.0
 40
18.41636886121134
100
AcDbArc
 50
300.0258887822
 51
119.9742237728
  0
LINE
  5
4C5
330
1F
100
AcDbEntity
  8
0
  6
Continuous
 62
     7
370
    25
100
AcDbLine
 10
75.149050535
 20
87.8679294685
 30
0.0
 11
75.6074837388
 21
87.0740728248
 31
0.0
  0
ARC
  5
4C6
330
1F
100
AcDbEntity
  8
0
  6
Continuous
 62
     7
370
    25
100
AcDbCircle
 10
65.4653698327
 20
105.484140813
 30
0.0
 40
18.32909712650174
100
AcDbArc
 50
187.0330823119
 51
211.4581839632
  0
ARC
  5
4C7
330
1F
100
AcDbEntity
  8
0
  6
Continuous
 62
     7
370
    25
100
AcDbCircle
 10
66.2740789456
 20
103.2398808285
 30
0.0
 40
18.00000014343562
100
AcDbArc
 50
179.9999965006
 51
203.9999962999
  0
LWPOLYLINE
  5
4C8
330
1F
100
AcDbEntity
  8
0
  6
Continuous
 62
     7
370
    25
100
AcDbPolyline
 90
        5
 70
   128
 43
0.0
 10
47.6951334301
 20
99.4197414751
 10
49.1615207185
 20
96.8797495488
 10
50.6068758853
 20
94.3762724077
 10
52.0513092787
 20
91.8744788287
 10
53.5145360683
 20
89.3402203858
  0
ARC
  5
4C9
330
1F
100
AcDbEntity
  8
0
  6
Continuous
 62
     7
370
    25
100
AcDbCircle
 10
66.3093040314
 20
103.4053704337
 30
0.0
 40
19.03562693541591
100
AcDbArc
 50
183.302292654
 51
192.0855619344
  0
LWPOLYLINE
  5
4CA
330
1F
100
AcDbEntity
  8
0
  6
Continuous
 62
     7
370
    25
100
AcDbPolyline
 90
        3
 70
   128
 43
0.0
 10
47.3049436857
 20
102.3088203571
 10
47.2839745286
 20
102.7741116711
 10
47.2743888606
 20
103.2398854739
  0
ARC
  5
4CB
330
1F
100
AcDbEntity
  8
0
  6
Continuous
 62
     7
370
    25
100
AcDbCircle
 10
66.3566859091
 20
103.3848976997
 30
0.0
 40
18.08288224703738
100
AcDbArc
 50
120.4563667665
 51
180.4594707968
  0
ARC
  5
4CC
330
1F
100
AcDbEntity
  8
0
  6
Continuous
 62
     7
370
    25
100
AcDbCircle
 10
66.1044247195
 20
103.2553456235
 30
0.0
 40
18.76506217645766
100
AcDbArc
 50
227.8623668684
 51
300.4251699233
  0
ARC
  5
4CD
330
1F
100
AcDbEntity
  8
0
  6
Continuous
 62
     7
370
    25
100
AcDbCircle
 10
66.2712407309
 20
103.2415401658
 30
0.0
 40
18.99685194194583
100
AcDbArc
 50
119.9947012032
 51
180.0049908041
  0
ARC
  5
4CE
330
1F
100
AcDbEntity
  8
0
  6
Continuous
 62
     7
370
    25
100
AcDbCircle
 10
66.2745279675
 20
103.2400034813
 30
0.0
 40
18.99982628948663
100
AcDbArc
 50
299.9992691257
 51
120.0009699112
  0
ARC
  5
4CF
330
1F
100
AcDbEntity
  8
0
  6
Continuous
 62
     7
370
    25
100
AcDbCircle
 10
66.2744165373
 20
103.2406390849
 30
0.0
 40
19.0004324575563
100
AcDbArc
 50
228.6730980915
 51
299.998601818
  0
LINE
  5
4D0
330
1F
100
AcDbEntity
  8
0
  6
Continuous
 62
     7
370
    25
100
AcDbLine
 10
53.5685170862
 20
89.2470402107
 30
0.0
 11
53.7272877756
 21
88.9720545777
 31
0.0
  0
LINE
  5
4D1
330
1F
100
AcDbEntity
  8
0
  6
Continuous
 62
     7
370
    25
100
AcDbLine
 10
47.2974118662
 20
102.3084418561
 30
0.0
 11
47.2989523566
 21
102.3882556892
 31
0.0
  0
LWPOLYLINE
  5
4D2
330
1F
100
AcDbEntity
  8
0
  6
Continuous
 62
     7
370
    25
100
AcDbPolyline
 90
        3
 70
   128
 43
0.0
 10
69.2982274153
 20
87.6644179821
 10
68.3505206329
 20
87.4759074301
 10
67.8864540803
 20
87.4454909244
  0
LWPOLYLINE
  5
4D3
330
1F
100
AcDbEntity
  8
0
  6
Continuous
 62
     7
370
    25
100
AcDbPolyline
 90
        5
 70
   128
 43
0.0
 10
73.781510567
 20
124.2394760031
 10
71.9123410515
 20
124.2393999804
 10
70.0384357474
 20
124.2393442823
 10
68.1582245141
 20
124.2393102453
 10
66.2752493128
 20
124.2392988749
  0
ARC
  5
4D4
330
1F
100
AcDbEntity
  8
0
  6
Continuous
 62
     7
370
    25
100
AcDbCircle
 10
73.7818820287
 20
116.2401196384
 30
0.0
 40
7.999356373333195
100
AcDbArc
 50
29.9973376032
 51
90.0026606125
  0
LWPOLYLINE
  5
4D5
330
1F
100
AcDbEntity
  8
0
  6
Continuous
 62
     7
370
    25
100
AcDbPolyline
 90
        5
 70
   128
 43
0.0
 10
84.4627490835
 20
113.7387406087
 10
83.5244784481
 20
115.3638914445
 10
82.5862158841
 20
116.989064861
 10
81.64733544
 20
118.6153438535
 10
80.7097137099
 20
120.2394759097
  0
ARC
  5
4D6
330
1F
100
AcDbEntity
  8
0
  6
Continuous
 62
     7
370
    25
100
AcDbCircle
 10
66.2747091107
 20
103.2372477608
 30
0.0
 40
21.00093492692393
100
AcDbArc
 50
30.0014718711
 51
89.9985263427
  0
ARC
  5
4D7
330
1F
100
AcDbEntity
  8
0
  6
Continuous
 62
     7
370
    25
100
AcDbCircle
 10
66.2757894053
 20
103.2391217361
 30
0.0
 40
21.00093492692498
100
AcDbArc
 50
210.0014718711
 51
269.9985263427
  0
ARC
  5
4D8
330
1F
100
AcDbEntity
  8
0
  6
Continuous
 62
     7
370
    25
100
AcDbCircle
 10
66.2752459329
 20
103.2381860285
 30
0.0
 40
20.99999640525928
100
AcDbArc
 50
149.9999975898
 51
210.0000024083
  0
ARC
  5
4D9
330
1F
100
AcDbEntity
  8
0
  6
Continuous
 62
     7
370
    25
100
AcDbCircle
 10
66.275785935
 20
103.2372512111
 30
0.0
 40
21.00093147646229
100
AcDbArc
 50
90.0014641876
 51
149.9985254959
  0
ARC
  5
4DA
330
1F
100
AcDbEntity
  8
0
  6
Continuous
 62
     7
370
    25
100
AcDbCircle
 10
66.2749226639
 20
103.2381834683
 30
0.0
 40
21.00028212444551
100
AcDbArc
 50
330.0004476549
 51
29.9995523432
  0
ARC
  5
4DB
330
1F
100
AcDbEntity
  8
0
  6
Continuous
 62
     7
370
    25
100
AcDbCircle
 10
66.2747125811
 20
103.2391182857
 30
0.0
 40
21.00093147646235
100
AcDbArc
 50
270.0014641876
 51
329.9985254959
  0
ARC
  5
4DC
330
1F
100
AcDbEntity
  8
0
  6
Continuous
 62
     7
370
    25
100
AcDbCircle
 10
66.2752489992
 20
103.2381868352
 30
0.0
 40
19.0000041053013
100
AcDbArc
 50
189.7560971498
 51
233.2201634742
  0
ARC
  5
4DD
330
1F
100
AcDbEntity
  8
0
  6
Continuous
 62
     7
370
    25
100
AcDbCircle
 10
66.2752473016
 20
103.2381839615
 30
0.0
 40
19.00000333556358
100
AcDbArc
 50
111.9477660193
 51
120.5968101254
  0
ARC
  5
4DE
330
1F
100
AcDbEntity
  8
0
  6
Continuous
 62
     7
370
    25
100
AcDbCircle
 10
66.2752515523
 20
103.2381849398
 30
0.0
 40
19.0000026509746
100
AcDbArc
 50
299.2984356523
 51
307.8932594994
  0
LWPOLYLINE
  5
4DF
330
1F
100
AcDbEntity
  8
0
  6
Continuous
 62
     7
370
    25
100
AcDbPolyline
 90
        3
 70
   128
 43
0.0
 10
63.6853660123
 20
84.4155228861
 10
63.12134613
 20
84.5017766356
 10
61.5437495355
 20
84.8367445199
  0
LWPOLYLINE
  5
4E0
330
1F
100
AcDbEntity
  8
0
  6
Continuous
 62
     7
370
    25
100
AcDbPolyline
 90
        5
 70
   128
 43
0.0
 10
51.8409119206
 20
120.2394779418
 10
50.9063135522
 20
118.6206772822
 10
49.969350922
 20
116.9977893426
 10
49.0292391984
 20
115.3694552642
 10
48.0877495419
 20
113.7387431696
  0
ARC
  5
4E1
330
1F
100
AcDbEntity
  8
0
  6
Continuous
 62
     7
370
    25
100
AcDbCircle
 10
58.7689153562
 20
116.2398222324
 30
0.0
 40
7.999654829879259
100
AcDbArc
 50
89.9985696405
 51
150.0014200449
  0
LWPOLYLINE
  5
4E2
330
1F
100
AcDbEntity
  8
0
  6
Continuous
 62
     7
370
    25
100
AcDbPolyline
 90
        5
 70
   128
 43
0.0
 10
66.2752493128
 20
124.2392988749
 10
64.3987039585
 20
124.2393104317
 10
62.5221666756
 20
124.2393445692
 10
60.6443858224
 20
124.2394005557
 10
58.7691150634
 20
124.2394770598
  0
LWPOLYLINE
  5
4E3
330
1F
100
AcDbEntity
  8
0
  6
Continuous
 62
     7
370
    25
100
AcDbPolyline
 90
        5
 70
   128
 43
0.0
 10
88.2159114631
 20
107.2383606196
 10
87.2813130945
 20
108.8570091026
 10
86.3443504641
 20
110.4797855146
 10
85.4042387402
 20
112.1080513869
 10
84.4627490835
 20
113.7387406087
  0
ARC
  5
4E4
330
1F
100
AcDbEntity
  8
0
  6
Continuous
 62
     7
370
    25
100
AcDbCircle
 10
81.2879813238
 20
103.238361013
 30
0.0
 40
7.999763300762525
100
AcDbArc
 50
329.9990244761
 51
30.0009755239
  0
LWPOLYLINE
  5
4E5
330
1F
100
AcDbEntity
  8
0
  6
Continuous
 62
     7
370
    25
100
AcDbPolyline
 90
        5
 70
   128
 43
0.0
 10
84.4627490831
 20
92.7376266319
 10
85.4010278862
 20
94.3627773361
 10
86.3393147606
 20
95.987950621
 10
87.2782351349
 20
97.6142294817
 10
88.2159114631
 20
99.2383614063
  0
LWPOLYLINE
  5
4E6
330
1F
100
AcDbEntity
  8
0
  6
Continuous
 62
     7
370
    25
100
AcDbPolyline
 90
        3
 70
   128
 43
0.0
 10
44.3347141673
 20
99.2383644951
 10
46.2061808118
 20
95.9966756317
 10
48.0877495415
 20
92.7376291929
  0
ARC
  5
4E7
330
1F
100
AcDbEntity
  8
0
  6
Continuous
 62
     7
370
    25
100
AcDbCircle
 10
51.2631530122
 20
103.2383641017
 30
0.0
 40
8.000203852385868
100
AcDbArc
 50
150.0008461509
 51
209.9991538491
  0
LWPOLYLINE
  5
4E8
330
1F
100
AcDbEntity
  8
0
  6
Continuous
 62
     7
370
    25
100
AcDbPolyline
 90
        5
 70
   128
 43
0.0
 10
48.0877495419
 20
113.7387431696
 10
47.1494789063
 20
112.1136153149
 10
46.2112163421
 20
110.4885100408
 10
45.2723358977
 20
108.8623428889
 10
44.3347141673
 20
107.2383637083
  0
LWPOLYLINE
  5
4E9
330
1F
100
AcDbEntity
  8
0
  6
Continuous
 62
     7
370
    25
100
AcDbPolyline
 90
        3
 70
   128
 43
0.0
 10
80.7097137099
 20
86.2372471729
 10
82.5811803538
 20
89.4786718036
 10
84.4627490831
 20
92.7376266319
  0
ARC
  5
4EA
330
1F
100
AcDbEntity
  8
0
  6
Continuous
 62
     7
370
    25
100
AcDbCircle
 10
73.7813125327
 20
90.2375917909
 30
0.0
 40
8.00034373851405
100
AcDbArc
 50
270.0014182552
 51
329.9985714302
  0
LWPOLYLINE
  5
4EB
330
1F
100
AcDbEntity
  8
0
  6
Continuous
 62
     7
370
    25
100
AcDbPolyline
 90
        5
 70
   128
 43
0.0
 10
66.2752493122
 20
82.2370709267
 10
68.1518028339
 20
82.2370822193
 10
70.0283644271
 20
82.2371160926
 10
71.9061852102
 20
82.2371718148
 10
73.781510567
 20
82.2372480549
  0
LWPOLYLINE
  5
4EC
330
1F
100
AcDbEntity
  8
0
  6
Continuous
 62
     7
370
    25
100
AcDbPolyline
 90
        5
 70
   128
 43
0.0
 10
58.7691150634
 20
82.2372491116
 10
60.6382301368
 20
82.2371728258
 10
62.5120955284
 20
82.2371168639
 10
64.3922823343
 20
82.2370825621
 10
66.2752493122
 20
82.2370709267
  0
ARC
  5
4ED
330
1F
100
AcDbEntity
  8
0
  6
Continuous
 62
     7
370
    25
100
AcDbCircle
 10
58.7694876775
 20
90.2378942532
 30
0.0
 40
8.000645150302717
100
AcDbArc
 50
210.0026666519
 51
269.9973315638
  0
LWPOLYLINE
  5
4EE
330
1F
100
AcDbEntity
  8
0
  6
Continuous
 62
     7
370
    25
100
AcDbPolyline
 90
        5
 70
   128
 43
0.0
 10
48.0877495415
 20
92.7376291929
 10
49.0260283444
 20
91.1125012065
 10
49.9643152185
 20
89.4873958008
 10
50.9032355926
 20
87.8612285171
 10
51.8409119206
 20
86.237249205
  0
ARC
  5
4EF
330
1F
100
AcDbEntity
  8
0
  6
Continuous
 62
     7
370
    25
100
AcDbCircle
 10
66.2353724948
 20
103.1223897227
 30
0.0
 40
18.84423631435028
100
AcDbArc
 50
191.847899768
 51
230.5001529869
  0
LINE
  5
4F0
330
1F
100
AcDbEntity
  8
0
  6
Continuous
 62
     7
370
    25
100
AcDbLine
 10
73.781510567
 20
124.2394760031
 30
0.0
 11
73.7819386217
 21
124.2406735378
 31
0.0
  0
LINE
  5
4F1
330
1F
100
AcDbEntity
  8
0
  6
Continuous
 62
     7
370
    25
100
AcDbLine
 10
58.7695431182
 20
124.2406745945
 30
0.0
 11
58.7691150634
 21
124.2394770598
 31
0.0
  0
LWPOLYLINE
  5
4F2
330
1F
100
AcDbEntity
  8
0
  6
Continuous
 62
     7
370
    25
100
AcDbPolyline
 90
        3
 70
   128
 43
0.0
 10
66.2758044275
 20
124.2408518751
 10
62.5803222871
 20
124.2408076738
 10
58.7695431182
 20
124.2406745945
  0
LWPOLYLINE
  5
4F3
330
1F
100
AcDbEntity
  8
0
  6
Continuous
 62
     7
370
    25
100
AcDbPolyline
 90
        3
 70
   128
 43
0.0
 10
73.7819386217
 20
124.2406735378
 10
69.9712547824
 20
124.2408071535
 10
66.2758044275
 20
124.2408518751
  0
ARC
  5
4F4
330
1F
100
AcDbEntity
  8
0
  6
Continuous
 62
     7
370
    25
100
AcDbCircle
 10
73.7912864277
 20
116.2686506426
 30
0.0
 40
7.972028375765792
100
AcDbArc
 50
37.0117048811
 51
90.0671836484
  0
ARC
  5
4F5
330
1F
100
AcDbEntity
  8
0
  6
Continuous
 62
     7
370
    25
100
AcDbCircle
 10
58.7614694304
 20
116.2646895402
 30
0.0
 40
7.975989140619595
100
AcDbArc
 50
89.9420023893
 51
142.9152017496
  0
ARC
  5
4F6
330
1F
100
AcDbEntity
  8
0
  6
Continuous
 62
     7
370
    25
100
AcDbCircle
 10
64.9506666241
 20
102.4739356499
 30
0.0
 40
16.98080741515474
100
AcDbArc
 50
195.9107705623
 51
224.0890478248
  0
ARC
  5
4F7
330
1F
100
AcDbEntity
  8
0
  6
Continuous
 62
     7
370
    25
100
AcDbCircle
 10
65.0577930795
 20
102.4399253262
 30
0.0
 40
17.06517625782971
100
AcDbArc
 50
195.8274185858
 51
224.1724460874
  0
ARC
  5
4F8
330
1F
100
AcDbEntity
  8
0
  6
Continuous
 62
     7
370
    25
100
AcDbCircle
 10
64.9489875915
 20
102.4733183593
 30
0.0
 40
16.97870192172552
100
AcDbArc
 50
195.9122503186
 51
224.0875765861
  0
ARC
  5
4F9
330
1F
100
AcDbEntity
  8
0
  6
Continuous
 62
     7
370
    25
100
AcDbCircle
 10
64.9327995858
 20
102.4668281917
 30
0.0
 40
16.96159751305507
100
AcDbArc
 50
195.9003756813
 51
224.099437027
  0
ARC
  5
4FA
330
1F
100
AcDbEntity
  8
0
  6
Continuous
 62
     7
370
    25
100
AcDbCircle
 10
63.7321365205
 20
101.7057274867
 30
0.0
 40
15.60885292513902
100
AcDbArc
 50
194.3507657633
 51
225.6490796699
  0
LINE
  5
4FB
330
1F
100
AcDbEntity
  8
0
  6
Continuous
 62
     7
370
    25
100
AcDbLine
 10
48.8903687382
 20
97.3518984274
 30
0.0
 11
52.7521207962
 21
90.6631478164
 31
0.0
  0
LINE
  5
4FC
330
1F
100
AcDbEntity
  8
0
  6
Continuous
 62
     7
370
    25
100
AcDbLine
 10
48.6202917741
 20
97.8200394193
 30
0.0
 11
52.752716122
 21
90.6624706611
 31
0.0
  0
ARC
  5
4FD
330
1F
100
AcDbEntity
  8
0
  6
Continuous
 62
     7
370
    25
100
AcDbCircle
 10
66.2728634299
 20
103.2382306356
 30
0.0
 40
16.19999939438257
100
AcDbArc
 50
277.8083928226
 51
299.999999483
  0
LINE
  5
4FE
330
1F
100
AcDbEntity
  8
0
  6
Continuous
 62
     7
370
    25
100
AcDbLine
 10
77.6699773523
 20
92.4978499401
 30
0.0
 11
68.4738066567
 21
87.1884384472
 31
0.0
  0
LINE
  5
4FF
330
1F
100
AcDbEntity
  8
0
  6
Continuous
 62
     7
370
    25
100
AcDbLine
 10
73.6699779837
 20
99.4260531775
 30
0.0
 11
77.6699773523
 21
92.4978499401
 31
0.0
  0
LINE
  5
500
330
1F
100
AcDbEntity
  8
0
  6
Continuous
 62
     7
370
    25
100
AcDbLine
 10
64.1436986884
 20
93.9260534006
 30
0.0
 11
73.6699779837
 21
99.4260531775
 31
0.0
  0
LINE
  5
501
330
1F
100
AcDbEntity
  8
0
  6
Continuous
 62
     7
370
    25
100
AcDbLine
 10
68.063098315
 20
87.1374530335
 30
0.0
 11
64.1436986884
 21
93.9260534006
 31
0.0
  0
ARC
  5
502
330
1F
100
AcDbEntity
  8
0
  6
Continuous
 62
     7
370
    25
100
AcDbCircle
 10
66.2728644299
 20
103.2382309419
 30
0.0
 40
16.19999958698816
100
AcDbArc
 50
119.9999962454
 51
276.3446157734
  0
ARC
  5
503
330
1F
100
AcDbEntity
  8
0
  6
Continuous
 62
     7
370
    25
100
AcDbCircle
 10
66.2728644944
 20
103.2382312258
 30
0.0
 40
16.19999937330778
100
AcDbArc
 50
299.999995179
 51
119.9999969452
  0
LINE
  5
504
330
1F
100
AcDbEntity
  8
0
  6
Continuous
 62
     7
370
    25
100
AcDbLine
 10
60.5072824034
 20
103.6045124941
 30
0.0
 11
57.5194948062
 21
101.879512564
 31
0.0
  0
LINE
  5
505
330
1F
100
AcDbEntity
  8
0
  6
Continuous
 62
     7
370
    25
100
AcDbLine
 10
60.5072824034
 20
103.6045124941
 30
0.0
 11
60.757282364
 21
103.1714997917
 31
0.0
  0
LINE
  5
506
330
1F
100
AcDbEntity
  8
0
  6
Continuous
 62
     7
370
    25
100
AcDbLine
 10
67.0619472067
 20
106.8114996441
 30
0.0
 11
60.757282364
 21
103.1714997917
 31
0.0
  0
LINE
  5
507
330
1F
100
AcDbEntity
  8
0
  6
Continuous
 62
     7
370
    25
100
AcDbLine
 10
67.0619472067
 20
106.8114996441
 30
0.0
 11
66.5119472935
 21
107.7641275893
 31
0.0
  0
LINE
  5
508
330
1F
100
AcDbEntity
  8
0
  6
Continuous
 62
     7
370
    25
100
AcDbLine
 10
72.3316379176
 20
111.124127453
 30
0.0
 11
66.5119472935
 21
107.7641275893
 31
0.0
  0
LINE
  5
509
330
1F
100
AcDbEntity
  8
0
  6
Continuous
 62
     7
370
    25
100
AcDbLine
 10
68.8316384701
 20
117.1863052858
 30
0.0
 11
72.3316379176
 21
111.124127453
 31
0.0
  0
LINE
  5
50A
330
1F
100
AcDbEntity
  8
0
  6
Continuous
 62
     7
370
    25
100
AcDbLine
 10
63.011947846
 20
113.826305422
 30
0.0
 11
68.8316384701
 21
117.1863052858
 31
0.0
  0
LINE
  5
50B
330
1F
100
AcDbEntity
  8
0
  6
Continuous
 62
     7
370
    25
100
AcDbLine
 10
63.011947846
 20
113.826305422
 30
0.0
 11
63.5619477592
 21
112.8736774769
 31
0.0
  0
LINE
  5
50C
330
1F
100
AcDbEntity
  8
0
  6
Continuous
 62
     7
370
    25
100
AcDbLine
 10
57.2572829164
 20
109.2336776245
 30
0.0
 11
63.5619477592
 21
112.8736774769
 31
0.0
  0
LINE
  5
50D
330
1F
100
AcDbEntity
  8
0
  6
Continuous
 62
     7
370
    25
100
AcDbLine
 10
57.2572829164
 20
109.2336776245
 30
0.0
 11
57.0072829586
 21
109.6666903222
 31
0.0
  0
LINE
  5
50E
330
1F
100
AcDbEntity
  8
0
  6
Continuous
 62
     7
370
    25
100
AcDbLine
 10
53.9761941709
 20
107.9166902563
 30
0.0
 11
57.0072829586
 21
109.6666903222
 31
0.0
  0
LINE
  5
50F
330
1F
100
AcDbEntity
  8
0
  6
Continuous
 62
     7
370
    25
100
AcDbLine
 10
55.9761937735
 20
104.4525887791
 30
0.0
 11
53.9761941709
 21
107.9166902563
 31
0.0
  0
LINE
  5
510
330
1F
100
AcDbEntity
  8
0
  6
Continuous
 62
     7
370
    25
100
AcDbLine
 10
51.6893680906
 20
101.9775888795
 30
0.0
 11
55.9761937735
 21
104.4525887791
 31
0.0
  0
LINE
  5
511
330
1F
100
AcDbEntity
  8
0
  6
Continuous
 62
     7
370
    25
100
AcDbLine
 10
57.8893671119
 20
91.2388738614
 30
0.0
 11
51.6893680906
 21
101.9775888795
 31
0.0
  0
LINE
  5
512
330
1F
100
AcDbEntity
  8
0
  6
Continuous
 62
     7
370
    25
100
AcDbLine
 10
62.2194940643
 20
93.73887376
 30
0.0
 11
57.8893671119
 21
91.2388738614
 31
0.0
  0
LINE
  5
513
330
1F
100
AcDbEntity
  8
0
  6
Continuous
 62
     7
370
    25
100
AcDbLine
 10
57.5194948062
 20
101.879512564
 30
0.0
 11
62.2194940643
 21
93.73887376
 31
0.0
  0
LINE
  5
514
330
1F
100
AcDbEntity
  8
0
  6
Continuous
 62
     7
370
    25
100
AcDbLine
 10
68.1437452442
 20
86.9978299412
 30
0.0
 11
68.063098315
 21
87.1374530335
 31
0.0
  0
LINE
  5
515
330
1F
100
AcDbEntity
  8
0
  6
Continuous
 62
     7
370
    25
100
AcDbLine
 10
68.4738066567
 20
87.1884384472
 30
0.0
 11
68.1437452442
 21
86.9978299412
 31
0.0
  0
LINE
  5
516
330
1F
100
AcDbEntity
  8
0
  6
Continuous
 62
     7
370
    25
100
AcDbLine
 10
64.145295194
 20
93.9253692243
 30
0.0
 11
73.6706733671
 21
99.4248487381
 31
0.0
  0
LINE
  5
517
330
1F
100
AcDbEntity
  8
0
  6
Continuous
 62
     7
370
    25
100
AcDbLine
 10
64.1436986884
 20
93.9260534006
 30
0.0
 11
64.145295194
 21
93.9253692243
 31
0.0
  0
LINE
  5
518
330
1F
100
AcDbEntity
  8
0
  6
Continuous
 62
     7
370
    25
100
AcDbLine
 10
68.1452945626
 20
86.9971659868
 30
0.0
 11
64.145295194
 21
93.9253692243
 31
0.0
  0
LINE
  5
519
330
1F
100
AcDbEntity
  8
0
  6
Continuous
 62
     7
370
    25
100
AcDbLine
 10
51.6893680906
 20
101.9775888795
 30
0.0
 11
51.6909645962
 21
101.9769047032
 31
0.0
  0
LINE
  5
51A
330
1F
100
AcDbEntity
  8
0
  6
Continuous
 62
     7
370
    25
100
AcDbLine
 10
54.890964091
 20
96.4343421133
 30
0.0
 11
51.6909645962
 21
101.9769047032
 31
0.0
  0
LINE
  5
51B
330
1F
100
AcDbEntity
  8
0
  6
Continuous
 62
     7
370
    25
100
AcDbLine
 10
54.890964091
 20
96.4343421133
 30
0.0
 11
54.8904851393
 21
96.4345473661
 31
0.0
  0
LINE
  5
51C
330
1F
100
AcDbEntity
  8
0
  6
Continuous
 62
     7
370
    25
100
AcDbLine
 10
57.8899978975
 20
91.2392380456
 30
0.0
 11
54.8904851393
 21
96.4345473661
 31
0.0
  0
LINE
  5
51D
330
1F
100
AcDbEntity
  8
0
  6
Continuous
 62
     7
370
    25
100
AcDbLine
 10
65.2045885894
 20
115.0906211944
 30
0.0
 11
68.8323338534
 21
117.1851008463
 31
0.0
  0
LINE
  5
51E
330
1F
100
AcDbEntity
  8
0
  6
Continuous
 62
     7
370
    25
100
AcDbLine
 10
65.2039499872
 20
115.0908948649
 30
0.0
 11
65.2045885894
 21
115.0906211944
 31
0.0
  0
LINE
  5
51F
330
1F
100
AcDbEntity
  8
0
  6
Continuous
 62
     7
370
    25
100
AcDbLine
 10
63.0129057493
 20
113.8258949163
 30
0.0
 11
65.2039499872
 21
115.0908948649
 31
0.0
  0
LINE
  5
520
330
1F
100
AcDbEntity
  8
0
  6
Continuous
 62
     7
370
    25
100
AcDbLine
 10
63.011947846
 20
113.826305422
 30
0.0
 11
63.0129057493
 21
113.8258949163
 31
0.0
  0
LINE
  5
521
330
1F
100
AcDbEntity
  8
0
  6
Continuous
 62
     7
370
    25
100
AcDbLine
 10
60.5072824034
 20
103.6045124941
 30
0.0
 11
60.508878909
 21
103.6038283178
 31
0.0
  0
LINE
  5
522
330
1F
100
AcDbEntity
  8
0
  6
Continuous
 62
     7
370
    25
100
AcDbLine
 10
60.508878909
 20
103.6038283178
 30
0.0
 11
60.7581834862
 21
103.1720200549
 31
0.0
  0
LINE
  5
523
330
1F
100
AcDbEntity
  8
0
  6
Continuous
 62
     7
370
    25
100
AcDbLine
 10
57.258879422
 20
109.2329934482
 30
0.0
 11
59.6924107692
 21
110.6379933912
 31
0.0
  0
LINE
  5
524
330
1F
100
AcDbEntity
  8
0
  6
Continuous
 62
     7
370
    25
100
AcDbLine
 10
57.2572829164
 20
109.2336776245
 30
0.0
 11
57.258879422
 21
109.2329934482
 31
0.0
  0
LINE
  5
525
330
1F
100
AcDbEntity
  8
0
  6
Continuous
 62
     7
370
    25
100
AcDbLine
 10
63.5629056625
 20
112.8732669711
 30
0.0
 11
63.5619477592
 21
112.8736774769
 31
0.0
  0
LINE
  5
526
330
1F
100
AcDbEntity
  8
0
  6
Continuous
 62
     7
370
    25
100
AcDbLine
 10
59.691772167
 20
110.6382670617
 30
0.0
 11
63.5629056625
 21
112.8732669711
 31
0.0
  0
LINE
  5
527
330
1F
100
AcDbEntity
  8
0
  6
Continuous
 62
     7
370
    25
100
AcDbLine
 10
59.6924107692
 20
110.6379933912
 30
0.0
 11
59.691772167
 21
110.6382670617
 31
0.0
  0
LINE
  5
528
330
1F
100
AcDbEntity
  8
0
  6
Continuous
 62
     7
370
    25
100
AcDbLine
 10
63.0129057493
 20
113.8258949163
 30
0.0
 11
63.5629056625
 21
112.8732669711
 31
0.0
  0
LINE
  5
529
330
1F
100
AcDbEntity
  8
0
  6
Continuous
 62
     7
370
    25
100
AcDbLine
 10
53.9761941709
 20
107.9166902563
 30
0.0
 11
53.9773118271
 21
107.9162111557
 31
0.0
  0
LINE
  5
52A
330
1F
100
AcDbEntity
  8
0
  6
Continuous
 62
     7
370
    25
100
AcDbLine
 10
55.9773113274
 20
104.4521098557
 30
0.0
 11
53.9773118271
 21
107.9162111557
 31
0.0
  0
LINE
  5
52B
330
1F
100
AcDbEntity
  8
0
  6
Continuous
 62
     7
370
    25
100
AcDbLine
 10
55.9761937735
 20
104.4525887791
 30
0.0
 11
55.9773113274
 21
104.4521098557
 31
0.0
  0
LINE
  5
52C
330
1F
100
AcDbEntity
  8
0
  6
Continuous
 62
     7
370
    25
100
AcDbLine
 10
51.6909645962
 20
101.9769047032
 30
0.0
 11
52.9553616662
 21
102.7069046735
 31
0.0
  0
LINE
  5
52D
330
1F
100
AcDbEntity
  8
0
  6
Continuous
 62
     7
370
    25
100
AcDbLine
 10
52.9548827145
 20
102.7071099264
 30
0.0
 11
55.9773113274
 21
104.4521098557
 31
0.0
  0
LINE
  5
52E
330
1F
100
AcDbEntity
  8
0
  6
Continuous
 62
     7
370
    25
100
AcDbLine
 10
52.9548827145
 20
102.7071099264
 30
0.0
 11
52.9553616662
 21
102.7069046735
 31
0.0
  0
LINE
  5
52F
330
1F
100
AcDbEntity
  8
0
  6
Continuous
 62
     7
370
    25
100
AcDbLine
 10
53.9775203947
 20
107.915849906
 30
0.0
 11
57.0079783733
 21
109.6654858283
 31
0.0
  0
LINE
  5
530
330
1F
100
AcDbEntity
  8
0
  6
Continuous
 62
     7
370
    25
100
AcDbLine
 10
59.6921326159
 20
110.638475167
 30
0.0
 11
59.6924107692
 21
110.6379933912
 31
0.0
  0
LINE
  5
531
330
1F
100
AcDbEntity
  8
0
  6
Continuous
 62
     7
370
    25
100
AcDbLine
 10
54.890964091
 20
96.4343421133
 30
0.0
 11
54.8906937543
 21
96.4341860343
 31
0.0
  0
LINE
  5
532
330
1F
100
AcDbEntity
  8
0
  6
Continuous
 62
     7
370
    25
100
AcDbLine
 10
52.9551530512
 20
102.7072660054
 30
0.0
 11
52.9553616662
 21
102.7069046735
 31
0.0
  0
ARC
  5
533
330
1F
100
AcDbEntity
  8
0
  6
Continuous
 62
     7
370
    25
100
AcDbCircle
 10
66.2758582606
 20
103.2415188139
 30
0.0
 40
12.98778145455511
100
AcDbArc
 50
269.952583606
 51
320.2522083749
  0
ARC
  5
534
330
1F
100
AcDbEntity
  8
0
  6
Continuous
 62
     7
370
    25
100
AcDbCircle
 10
66.2758582606
 20
103.2415188139
 30
0.0
 40
12.9877814545551
100
AcDbArc
 50
181.4977792088
 51
238.5206646044
  0
LWPOLYLINE
  5
535
330
1F
100
AcDbEntity
  8
0
  6
Continuous
 62
     7
370
    25
100
AcDbPolyline
 90
        3
 70
   128
 43
0.0
 10
54.0869597597
 20
107.7262953353
 10
54.0894410546
 20
107.7330333462
 10
54.2113271887
 20
108.0508386335
  0
LWPOLYLINE
  5
536
330
1F
100
AcDbEntity
  8
0
  6
Continuous
 62
     7
370
    25
100
AcDbPolyline
 90
        4
 70
   128
 43
0.0
 10
67.1283295005
 20
116.2012934993
 10
68.3362387844
 20
116.0648295879
 10
69.6373434546
 20
115.786752347
 10
69.6400967273
 20
115.786014286
  0
ARC
  5
537
330
1F
100
AcDbEntity
  8
0
  6
Continuous
 62
     7
370
    25
100
AcDbCircle
 10
66.2758582606
 20
103.2415188139
 30
0.0
 40
12.5
100
AcDbArc
 50
268.650592205
 51
321.0793777483
  0
ARC
  5
538
330
1F
100
AcDbEntity
  8
0
  6
Continuous
 62
     7
370
    25
100
AcDbCircle
 10
66.2758582606
 20
103.2415188139
 30
0.0
 40
12.50000000000002
100
AcDbArc
 50
72.7045200397
 51
89.7437650948
  0
ARC
  5
539
330
1F
100
AcDbEntity
  8
0
  6
Continuous
 62
     7
370
    25
100
AcDbCircle
 10
66.2758582606
 20
103.2415188139
 30
0.0
 40
12.5
100
AcDbArc
 50
180.2765534946
 51
239.7428391181
  0
LWPOLYLINE
  5
53A
330
1F
100
AcDbEntity
  8
0
  6
Continuous
 62
     7
370
    25
100
AcDbPolyline
 90
        3
 70
   128
 43
0.0
 10
54.4088271719
 20
107.1688045356
 10
54.5749399546
 20
107.639076181
 10
54.9162835696
 20
108.4578453795
  0
LINE
  5
53B
330
1F
100
AcDbEntity
  8
0
  6
Continuous
 62
     7
370
    25
100
AcDbLine
 10
66.6176179531
 20
107.8251365715
 30
0.0
 11
66.0169427397
 21
108.8655365601
 31
0.0
  0
LINE
  5
53C
330
1F
100
AcDbEntity
  8
0
  6
Continuous
 62
     7
370
    25
100
AcDbLine
 10
71.2342583039
 20
111.8777551055
 30
0.0
 11
71.8349335502
 21
110.83735506
 31
0.0
  0
ARC
  5
53D
330
1F
100
AcDbEntity
  8
0
  6
Continuous
 62
     7
370
    25
100
AcDbCircle
 10
69.9246386274
 20
111.1216458328
 30
0.0
 40
1.512218545451069
100
AcDbArc
 50
30.0
 51
120.0
  0
LINE
  5
53E
330
1F
100
AcDbEntity
  8
0
  6
Continuous
 62
     7
370
    25
100
AcDbLine
 10
66.5704531434
 20
110.9312655092
 30
0.0
 11
69.1685293547
 21
112.4312655092
 31
0.0
  0
ARC
  5
53F
330
1F
100
AcDbEntity
  8
0
  6
Continuous
 62
     7
370
    25
100
AcDbCircle
 10
67.3265624161
 20
109.6216458328
 30
0.0
 40
1.512218545450603
100
AcDbArc
 50
120.0
 51
210.0
  0
LINE
  5
540
330
1F
100
AcDbEntity
  8
0
  6
Continuous
 62
     7
370
    25
100
AcDbLine
 10
66.5704531434
 20
110.9312655092
 30
0.0
 11
66.5765624161
 21
110.9206839385
 31
0.0
  0
ARC
  5
541
330
1F
100
AcDbEntity
  8
0
  6
Continuous
 62
     7
370
    25
100
AcDbCircle
 10
67.3265624161
 20
109.6216458328
 30
0.0
 40
1.5000000000013
100
AcDbArc
 50
120.0
 51
210.0
  0
LINE
  5
542
330
1F
100
AcDbEntity
  8
0
  6
Continuous
 62
     7
370
    25
100
AcDbLine
 10
66.0169427397
 20
108.8655365601
 30
0.0
 11
66.0275243104
 21
108.8716458328
 31
0.0
  0
LINE
  5
543
330
1F
100
AcDbEntity
  8
0
  6
Continuous
 62
     7
370
    25
100
AcDbLine
 10
66.6281995239
 20
107.8312458441
 30
0.0
 11
66.0275243104
 21
108.8716458328
 31
0.0
  0
LINE
  5
544
330
1F
100
AcDbEntity
  8
0
  6
Continuous
 62
     7
370
    25
100
AcDbLine
 10
69.1746386274
 20
112.4206839385
 30
0.0
 11
69.1685293547
 21
112.4312655092
 31
0.0
  0
LINE
  5
545
330
1F
100
AcDbEntity
  8
0
  6
Continuous
 62
     7
370
    25
100
AcDbLine
 10
66.5765624161
 20
110.9206839385
 30
0.0
 11
69.1746386274
 21
112.4206839385
 31
0.0
  0
LINE
  5
546
330
1F
100
AcDbEntity
  8
0
  6
Continuous
 62
     7
370
    25
100
AcDbLine
 10
71.2236767331
 20
111.8716458328
 30
0.0
 11
71.8243519794
 21
110.8312457874
 31
0.0
  0
LINE
  5
547
330
1F
100
AcDbEntity
  8
0
  6
Continuous
 62
     7
370
    25
100
AcDbLine
 10
71.2342583039
 20
111.8777551055
 30
0.0
 11
71.2236767331
 21
111.8716458328
 31
0.0
  0
ARC
  5
548
330
1F
100
AcDbEntity
  8
0
  6
Continuous
 62
     7
370
    25
100
AcDbCircle
 10
69.9246386274
 20
111.1216458328
 30
0.0
 40
1.500000000002939
100
AcDbArc
 50
30.0
 51
120.0
  0
ARC
  5
549
330
1F
100
AcDbEntity
  8
0
  6
Continuous
 62
     7
370
    25
100
AcDbCircle
 10
66.275216215
 20
103.2391186845
 30
0.0
 40
12.98778091587561
100
AcDbArc
 50
269.9615316012
 51
320.2604669941
  0
ARC
  5
54A
330
1F
100
AcDbEntity
  8
0
  6
Continuous
 62
     7
370
    25
100
AcDbCircle
 10
66.2752135791
 20
103.2391128363
 30
0.0
 40
12.98778364429358
100
AcDbArc
 50
74.9764428292
 51
86.2505745044
  0
ARC
  5
54B
330
1F
100
AcDbEntity
  8
0
  6
Continuous
 62
     7
370
    25
100
AcDbCircle
 10
66.2752136341
 20
103.2391187746
 30
0.0
 40
12.9877802209232
100
AcDbArc
 50
181.4889599617
 51
238.511850465
  0
LWPOLYLINE
  5
54C
330
1F
100
AcDbEntity
  8
0
  6
Continuous
 62
     7
370
    25
100
AcDbPolyline
 90
        3
 70
   128
 43
0.0
 10
54.0871065756
 20
107.7260410427
 10
54.088975672
 20
107.731114926
 10
54.2117353588
 20
108.0510742906
  0
LINE
  5
54D
330
1F
100
AcDbEntity
  8
0
  6
Continuous
 62
     1
370
    25
100
AcDbLine
 10
57.1907643431
 20
118.9726761224
 30
0.0
 11
57.3989841296
 21
118.6119501916
 31
0.0
  0
LINE
  5
54E
330
1F
100
AcDbEntity
  8
0
  6
Continuous
 62
     1
370
    25
100
AcDbLine
 10
80.7101272597
 20
120.2406328653
 30
0.0
 11
80.7097137099
 21
120.2394759097
 31
0.0
  0
LINE
  5
54F
330
1F
100
AcDbEntity
  8
0
  6
Continuous
 62
     1
370
    25
100
AcDbLine
 10
88.2159114631
 20
107.2383606196
 30
0.0
 11
88.2163241245
 21
107.2395150895
 31
0.0
  0
LINE
  5
550
330
1F
100
AcDbEntity
  8
0
  6
Continuous
 62
     1
370
    25
100
AcDbLine
 10
51.8409119206
 20
120.2394779418
 30
0.0
 11
51.841325368
 21
120.2406346107
 31
0.0
  0
LINE
  5
551
330
1F
100
AcDbEntity
  8
0
  6
Continuous
 62
     1
370
    25
100
AcDbLine
 10
44.3351266729
 20
107.2395177426
 30
0.0
 11
44.3347141673
 21
107.2383637083
 31
0.0
  0
LINE
  5
552
330
1F
100
AcDbEntity
  8
0
  6
Continuous
 62
     1
370
    25
100
AcDbLine
 10
74.9725935306
 20
88.1703545416
 30
0.0
 11
74.3728630005
 21
89.2086195457
 31
0.0
  0
LINE
  5
553
330
1F
100
AcDbEntity
  8
0
  6
Continuous
 62
     1
370
    25
100
AcDbLine
 10
58.1728655557
 20
117.2678426563
 30
0.0
 11
57.5726286829
 21
118.3079835507
 31
0.0
  0
LINE
  5
554
330
1F
100
AcDbEntity
  8
FORMAT
 62
     7
370
    18
100
AcDbLine
 10
96.2747054023
 20
106.5655173627
 30
0.0
 11
96.2747054023
 21
99.4256778131
 31
0.0
  0
LINE
  5
555
330
1F
100
AcDbEntity
  8
FORMAT
 62
     7
370
    18
100
AcDbLine
 10
36.2747054023
 20
106.5655173627
 30
0.0
 11
36.2747054023
 21
99.4256778131
 31
0.0
  0
POINT
  5
556
330
1F
100
AcDbEntity
  8
FORMAT
 62
     7
370
    18
100
AcDbPoint
 10
73.781510567
 20
82.2372480549
 30
0.0
  0
POINT
  5
557
330
1F
100
AcDbEntity
  8
FORMAT
 62
     7
370
    18
100
AcDbPoint
 10
43.2864305775
 20
102.6257507316
 30
0.0
  0
POINT
  5
558
330
1F
100
AcDbEntity
  8
FORMAT
 62
     7
370
    18
100
AcDbPoint
 10
73.781510567
 20
124.2394760031
 30
0.0
  0
POINT
  5
559
330
1F
100
AcDbEntity
  8
FORMAT
 62
     7
370
    18
100
AcDbPoint
 10
89.2864305775
 20
103.3836208283
 30
0.0
  0
DIMENSION
  5
55A
330
1F
100
AcDbEntity
  8
FORMAT
 62
     7
100
AcDbDimension
  2
_D_5
 10
22.7769166788
 20
82.2372480549
 30
0.0
 11
22.7769166788
 21
103.238362029
 31
0.0
 70
   160
  1
<>
 71
     2
 42
-1.0
  3
SLDDIMSTYLE0
100
AcDbAlignedDimension
 13
73.781510567
 23
124.2394760031
 33
0.0
 14
73.781510567
 24
82.2372480549
 34
0.0
 50
90.0
100
AcDbRotatedDimension
  0
DIMENSION
  5
564
330
1F
100
AcDbEntity
  8
FORMAT
 62
     7
100
AcDbDimension
  2
_D_6
 10
89.2864305775
 20
136.5302423478
 30
0.0
 11
66.2864305775
 21
136.5302423478
 31
0.0
 70
   160
  1
<>
 71
     2
 42
-1.0
  3
SLDDIMSTYLE0
100
AcDbAlignedDimension
 13
43.2864305775
 23
102.6257507316
 33
0.0
 14
89.2864305775
 24
103.3836208283
 34
0.0
100
AcDbRotatedDimension
  0
DIMENSION
  5
56F
330
1F
100
AcDbEntity
  8
FORMAT
 62
     7
100
AcDbDimension
  2
_D_7
 10
96.2747054023
 20
67.1043537735
 30
0.0
 11
66.2747054023
 21
67.1043537735
 31
0.0
 70
   160
  1
<>
 71
     2
 42
-1.0
  3
SLDDIMSTYLE0
100
AcDbAlignedDimension
 13
36.2747054023
 23
99.4256778131
 33
0.0
 14
96.2747054023
 24
99.4256778131
 34
0.0
100
AcDbRotatedDimension
  0
DIMENSION
  5
579
330
1F
100
AcDbEntity
  8
FORMAT
 62
     7
100
AcDbDimension
  2
_D_8
 10
98.0900571196
 20
104.0394445406
 30
0.0
 11
112.0930392668
 21
110.2094036098
 31
0.0
 70
   160
  1
%%c<>
 71
     2
 42
-1.0
  3
SLDDIMSTYLE1
100
AcDbAlignedDimension
 13
94.4468819757
 23
102.434197795
 33
0.0
 14
98.1039451772
 24
104.0455638618
 34
0.0
 50
23.7791295701
100
AcDbRotatedDimension
  0
INSERT
  5
591
330
1F
100
AcDbEntity
  8
FORMAT
 62
     7
100
AcDbBlockReference
  2
SW_CENTERMARKSYMBOL_1
 10
66.2758582606
 20
103.2415188139
 30
0.0
  0
ENDSEC
  0
SECTION
  2
OBJECTS
  0
DICTIONARY
  5
C
330
0
100
AcDbDictionary
281
     1
  3
ACAD_GROUP
350
D
  3
ACAD_LAYOUT
350
1A
  3
ACAD_MLINESTYLE
350
17
  3
ACAD_PLOTSETTINGS
350
19
  3
ACAD_PLOTSTYLENAME
350
E
  3
ACAD_SCALELIST
350
47
  3
DWGPROPS
350
592
  0
DICTIONARY
  5
D
102
{ACAD_REACTORS
330
C
102
}
330
C
100
AcDbDictionary
281
     1
  0
DICTIONARY
  5
1A
102
{ACAD_REACTORS
330
C
102
}
330
C
100
AcDbDictionary
281
     1
  3
Layout1
350
1E
  3
Layout2
350
26
  3
Model
350
22
  0
DICTIONARY
  5
17
102
{ACAD_REACTORS
330
C
102
}
330
C
100
AcDbDictionary
281
     1
  3
Standard
350
18
  0
DICTIONARY
  5
19
102
{ACAD_REACTORS
330
C
102
}
330
C
100
AcDbDictionary
281
     1
  0
ACDBDICTIONARYWDFLT
  5
E
102
{ACAD_REACTORS
330
C
102
}
330
C
100
AcDbDictionary
281
     1
  3
Normal
350
F
100
AcDbDictionaryWithDefault
340
F
  0
DICTIONARY
  5
47
102
{ACAD_REACTORS
330
C
102
}
330
C
100
AcDbDictionary
281
     1
  3
A0
350
48
  3
A1
350
49
  3
A2
350
4A
  3
A3
350
4B
  3
A4
350
4C
  3
A5
350
4D
  3
A6
350
4E
  3
A7
350
4F
  3
A8
350
50
  3
A9
350
51
  3
B0
350
52
  3
B1
350
53
  3
B2
350
54
  3
B3
350
55
  3
B4
350
56
  3
B5
350
57
  3
B6
350
58
  3
B7
350
59
  3
B8
350
5A
  3
B9
350
5B
  3
C0
350
5C
  3
C1
350
5D
  3
C2
350
5E
  3
C3
350
5F
  3
C4
350
60
  3
C5
350
61
  3
C6
350
62
  3
C7
350
63
  3
C8
350
64
  3
C9
350
65
  3
D0
350
66
  3
D1
350
67
  3
D2
350
68
  0
XRECORD
  5
592
102
{ACAD_REACTORS
330
C
102
}
330
C
100
AcDbXrecord
280
     1
  1
DWGPROPS COOKIE
  2

  3

  4

  6

  7

  8
beland
  9

300
=
301
=
302
=
303
=
304
=
305
=
306
=
307
=
308
=
309
=
 40
0.0
 41
2459997.512750926
 42
2459997.512752917
  1

 90
        0
  0
LAYOUT
  5
1E
102
{ACAD_REACTORS
330
1A
102
}
330
1A
100
AcDbPlotSettings
  1

  2
none_device
  4

  6

 40
0.0
 41
0.0
 42
0.0
 43
0.0
 44
0.0
 45
0.0
 46
0.0
 47
0.0
 48
0.0
 49
0.0
140
0.0
141
0.0
142
1.0
143
1.0
 70
   688
 72
     1
 73
     0
 74
     5
  7

 75
    16
147
1.0
148
0.0
149
0.0
100
AcDbLayout
  1
Layout1
 70
     1
 71
     1
 10
0.0
 20
0.0
 11
420.0
 21
297.0
 12
0.0
 22
0.0
 32
0.0
 14
1.0000000000E+20
 24
1.0000000000E+20
 34
1.0000000000E+20
 15
-1.0000000000E+20
 25
-1.0000000000E+20
 35
-1.0000000000E+20
146
0.0
 13
0.0
 23
0.0
 33
0.0
 16
1.0
 26
0.0
 36
0.0
 17
0.0
 27
1.0
 37
0.0
 76
     0
330
1B
  0
LAYOUT
  5
26
102
{ACAD_REACTORS
330
1A
102
}
330
1A
100
AcDbPlotSettings
  1

  2
none_device
  4

  6

 40
0.0
 41
0.0
 42
0.0
 43
0.0
 44
0.0
 45
0.0
 46
0.0
 47
0.0
 48
0.0
 49
0.0
140
0.0
141
0.0
142
1.0
143
1.0
 70
   688
 72
     1
 73
     0
 74
     5
  7

 75
    16
147
1.0
148
0.0
149
0.0
100
AcDbLayout
  1
Layout2
 70
     1
 71
     2
 10
0.0
 20
0.0
 11
0.0
 21
0.0
 12
0.0
 22
0.0
 32
0.0
 14
0.0
 24
0.0
 34
0.0
 15
0.0
 25
0.0
 35
0.0
146
0.0
 13
0.0
 23
0.0
 33
0.0
 16
1.0
 26
0.0
 36
0.0
 17
0.0
 27
1.0
 37
0.0
 76
     0
330
23
  0
LAYOUT
  5
22
102
{ACAD_REACTORS
330
1A
102
}
330
1A
100
AcDbPlotSettings
  1

  2
none_device
  4
Letter_(8.50_x_11.00_Inches)
  6

 40
6.35
 41
6.35
 42
6.35000508
 43
6.35000508
 44
215.9
 45
279.4
 46
0.0
 47
0.0
 48
0.0
 49
0.0
140
0.0
141
0.0
142
1.0
143
1.0
 70
  1712
 72
     1
 73
     0
 74
     0
  7

 75
     0
147
1.0
148
0.0
149
0.0
100
AcDbLayout
  1
Model
 70
     1
 71
     0
 10
0.0
 20
0.0
 11
210.0
 21
297.0
 12
0.0
 22
0.0
 32
0.0
 14
0.0
 24
0.0
 34
0.0
 15
210.0
 25
297.0
 35
0.0
146
0.0
 13
0.0
 23
0.0
 33
0.0
 16
1.0
 26
0.0
 36
0.0
 17
0.0
 27
1.0
 37
0.0
 76
     0
330
1F
331
29
  0
MLINESTYLE
  5
18
102
{ACAD_REACTORS
330
17
102
}
330
17
100
AcDbMlineStyle
  2
Standard
 70
     0
  3

 62
   256
 51
90.0
 52
90.0
 71
     2
 49
0.5
 62
   256
  6
BYLAYER
 49
-0.5
 62
   256
  6
BYLAYER
  0
ACDBPLACEHOLDER
  5
F
102
{ACAD_REACTORS
330
E
102
}
330
E
  0
SCALE
  5
48
102
{ACAD_REACTORS
330
47
102
}
330
47
100
AcDbScale
 70
     0
300
1:1
140
1.0
141
1.0
290
     1
  0
SCALE
  5
49
102
{ACAD_REACTORS
330
47
102
}
330
47
100
AcDbScale
 70
     0
300
1:2
140
1.0
141
2.0
290
     0
  0
SCALE
  5
4A
102
{ACAD_REACTORS
330
47
102
}
330
47
100
AcDbScale
 70
     0
300
1:4
140
1.0
141
4.0
290
     0
  0
SCALE
  5
4B
102
{ACAD_REACTORS
330
47
102
}
330
47
100
AcDbScale
 70
     0
300
1:5
140
1.0
141
5.0
290
     0
  0
SCALE
  5
4C
102
{ACAD_REACTORS
330
47
102
}
330
47
100
AcDbScale
 70
     0
300
1:8
140
1.0
141
8.0
290
     0
  0
SCALE
  5
4D
102
{ACAD_REACTORS
330
47
102
}
330
47
100
AcDbScale
 70
     0
300
1:10
140
1.0
141
10.0
290
     0
  0
SCALE
  5
4E
102
{ACAD_REACTORS
330
47
102
}
330
47
100
AcDbScale
 70
     0
300
1:16
140
1.0
141
16.0
290
     0
  0
SCALE
  5
4F
102
{ACAD_REACTORS
330
47
102
}
330
47
100
AcDbScale
 70
     0
300
1:20
140
1.0
141
20.0
290
     0
  0
SCALE
  5
50
102
{ACAD_REACTORS
330
47
102
}
330
47
100
AcDbScale
 70
     0
300
1:30
140
1.0
141
30.0
290
     0
  0
SCALE
  5
51
102
{ACAD_REACTORS
330
47
102
}
330
47
100
AcDbScale
 70
     0
300
1:40
140
1.0
141
40.0
290
     0
  0
SCALE
  5
52
102
{ACAD_REACTORS
330
47
102
}
330
47
100
AcDbScale
 70
     0
300
1:50
140
1.0
141
50.0
290
     0
  0
SCALE
  5
53
102
{ACAD_REACTORS
330
47
102
}
330
47
100
AcDbScale
 70
     0
300
1:100
140
1.0
141
100.0
290
     0
  0
SCALE
  5
54
102
{ACAD_REACTORS
330
47
102
}
330
47
100
AcDbScale
 70
     0
300
2:1
140
2.0
141
1.0
290
     0
  0
SCALE
  5
55
102
{ACAD_REACTORS
330
47
102
}
330
47
100
AcDbScale
 70
     0
300
4:1
140
4.0
141
1.0
290
     0
  0
SCALE
  5
56
102
{ACAD_REACTORS
330
47
102
}
330
47
100
AcDbScale
 70
     0
300
8:1
140
8.0
141
1.0
290
     0
  0
SCALE
  5
57
102
{ACAD_REACTORS
330
47
102
}
330
47
100
AcDbScale
 70
     0
300
10:1
140
10.0
141
1.0
290
     0
  0
SCALE
  5
58
102
{ACAD_REACTORS
330
47
102
}
330
47
100
AcDbScale
 70
     0
300
100:1
140
100.0
141
1.0
290
     0
  0
SCALE
  5
59
102
{ACAD_REACTORS
330
47
102
}
330
47
100
AcDbScale
 70
     0
300
1/128" = 1'-0"
140
0.0078125
141
12.0
290
     0
  0
SCALE
  5
5A
102
{ACAD_REACTORS
330
47
102
}
330
47
100
AcDbScale
 70
     0
300
1/64" = 1'-0"
140
0.015625
141
12.0
290
     0
  0
SCALE
  5
5B
102
{ACAD_REACTORS
330
47
102
}
330
47
100
AcDbScale
 70
     0
300
1/32" = 1'-0"
140
0.03125
141
12.0
290
     0
  0
SCALE
  5
5C
102
{ACAD_REACTORS
330
47
102
}
330
47
100
AcDbScale
 70
     0
300
1/16" = 1'-0"
140
0.0625
141
12.0
290
     0
  0
SCALE
  5
5D
102
{ACAD_REACTORS
330
47
102
}
330
47
100
AcDbScale
 70
     0
300
3/32" = 1'-0"
140
0.09375
141
12.0
290
     0
  0
SCALE
  5
5E
102
{ACAD_REACTORS
330
47
102
}
330
47
100
AcDbScale
 70
     0
300
1/8" = 1'-0"
140
0.125
141
12.0
290
     0
  0
SCALE
  5
5F
102
{ACAD_REACTORS
330
47
102
}
330
47
100
AcDbScale
 70
     0
300
3/16" = 1'-0"
140
0.1875
141
12.0
290
     0
  0
SCALE
  5
60
102
{ACAD_REACTORS
330
47
102
}
330
47
100
AcDbScale
 70
     0
300
1/4" = 1'-0"
140
0.25
141
12.0
290
     0
  0
SCALE
  5
61
102
{ACAD_REACTORS
330
47
102
}
330
47
100
AcDbScale
 70
     0
300
3/8" = 1'-0"
140
0.375
141
12.0
290
     0
  0
SCALE
  5
62
102
{ACAD_REACTORS
330
47
102
}
330
47
100
AcDbScale
 70
     0
300
1/2" = 1'-0"
140
0.5
141
12.0
290
     0
  0
SCALE
  5
63
102
{ACAD_REACTORS
330
47
102
}
330
47
100
AcDbScale
 70
     0
300
3/4" = 1'-0"
140
0.75
141
12.0
290
     0
  0
SCALE
  5
64
102
{ACAD_REACTORS
330
47
102
}
330
47
100
AcDbScale
 70
     0
300
1" = 1'-0"
140
1.0
141
12.0
290
     0
  0
SCALE
  5
65
102
{ACAD_REACTORS
330
47
102
}
330
47
100
AcDbScale
 70
     0
300
1-1/2" = 1'-0"
140
1.5
141
12.0
290
     0
  0
SCALE
  5
66
102
{ACAD_REACTORS
330
47
102
}
330
47
100
AcDbScale
 70
     0
300
3" = 1'-0"
140
3.0
141
12.0
290
     0
  0
SCALE
  5
67
102
{ACAD_REACTORS
330
47
102
}
330
47
100
AcDbScale
 70
     0
300
6" = 1'-0"
140
6.0
141
12.0
290
     0
  0
SCALE
  5
68
102
{ACAD_REACTORS
330
47
102
}
330
47
100
AcDbScale
 70
     0
300
1'-0" = 1'-0"
140
12.0
141
12.0
290
     0
  0
ENDSEC
  0
EOF
