  0
SECTION
  2
HEADER
  9
$ACADVER
  1
AC1015
  9
$ACADMAINTVER
 70
     6
  9
$DWGCODEPAGE
  3
ANSI_1252
  9
$INSBASE
 10
0.0
 20
0.0
 30
0.0
  9
$EXTMIN
 10
0.0
 20
0.0
 30
0.0
  9
$EXTMAX
 10
210.0
 20
297.0
 30
0.0
  9
$LIMMIN
 10
0.0
 20
0.0
  9
$LIMMAX
 10
210.0
 20
297.0
  9
$ORTHOMODE
 70
     0
  9
$REGENMODE
 70
     1
  9
$FILLMODE
 70
     1
  9
$QTEXTMODE
 70
     0
  9
$MIRRTEXT
 70
     1
  9
$LTSCALE
 40
1.0
  9
$ATTMODE
 70
     1
  9
$TEXTSIZE
 40
3.5
  9
$TRACEWID
 40
1.0
  9
$TEXTSTYLE
  7
STANDARD
  9
$CLAYER
  8
0
  9
$CELTYPE
  6
ByLayer
  9
$CECOLOR
 62
   256
  9
$CELTSCALE
 40
1.0
  9
$DISPSILH
 70
     0
  9
$DIMSCALE
 40
1.0
  9
$DIMASZ
 40
3.302
  9
$DIMEXO
 40
1.0
  9
$DIMDLI
 40
3.75
  9
$DIMRND
 40
0.0
  9
$DIMDLE
 40
0.0
  9
$DIMEXE
 40
1.0
  9
$DIMTP
 40
0.0
  9
$DIMTM
 40
0.0
  9
$DIMTXT
 40
3.5
  9
$DIMCEN
 40
2.5
  9
$DIMTSZ
 40
0.0
  9
$DIMTOL
 70
     0
  9
$DIMLIM
 70
     0
  9
$DIMTIH
 70
     1
  9
$DIMTOH
 70
     1
  9
$DIMSE1
 70
     0
  9
$DIMSE2
 70
     0
  9
$DIMTAD
 70
     1
  9
$DIMZIN
 70
     0
  9
$DIMBLK
  1

  9
$DIMASO
 70
     1
  9
$DIMSHO
 70
     1
  9
$DIMPOST
  1

  9
$DIMAPOST
  1

  9
$DIMALT
 70
     0
  9
$DIMALTD
 70
     3
  9
$DIMALTF
 40
0.0393700787
  9
$DIMLFAC
 40
1.0
  9
$DIMTOFL
 70
     1
  9
$DIMTVP
 40
0.0
  9
$DIMTIX
 70
     0
  9
$DIMSOXD
 70
     0
  9
$DIMSAH
 70
     0
  9
$DIMBLK1
  1

  9
$DIMBLK2
  1

  9
$DIMSTYLE
  2
ISO-25
  9
$DIMCLRD
 70
     0
  9
$DIMCLRE
 70
     0
  9
$DIMCLRT
 70
     0
  9
$DIMTFAC
 40
1.0
  9
$DIMGAP
 40
3.0
  9
$DIMJUST
 70
     0
  9
$DIMSD1
 70
     0
  9
$DIMSD2
 70
     0
  9
$DIMTOLJ
 70
     0
  9
$DIMTZIN
 70
     0
  9
$DIMALTZ
 70
     0
  9
$DIMALTTZ
 70
     0
  9
$DIMUPT
 70
     0
  9
$DIMDEC
 70
     2
  9
$DIMTDEC
 70
     2
  9
$DIMALTU
 70
     2
  9
$DIMALTTD
 70
     3
  9
$DIMTXSTY
  7
STANDARD
  9
$DIMAUNIT
 70
     0
  9
$DIMADEC
 70
     2
  9
$DIMALTRND
 40
0.0
  9
$DIMAZIN
 70
     0
  9
$DIMDSEP
 70
    44
  9
$DIMATFIT
 70
     3
  9
$DIMFRAC
 70
     0
  9
$DIMLDRBLK
  1

  9
$DIMLUNIT
 70
     2
  9
$DIMLWD
 70
    -2
  9
$DIMLWE
 70
    -2
  9
$DIMTMOVE
 70
     0
  9
$LUNITS
 70
     2
  9
$LUPREC
 70
     2
  9
$SKETCHINC
 40
1.0
  9
$FILLETRAD
 40
10.0
  9
$AUNITS
 70
     0
  9
$AUPREC
 70
     2
  9
$MENU
  1
.
  9
$ELEVATION
 40
0.0
  9
$PELEVATION
 40
0.0
  9
$THICKNESS
 40
0.0
  9
$LIMCHECK
 70
     0
  9
$CHAMFERA
 40
0.0
  9
$CHAMFERB
 40
0.0
  9
$CHAMFERC
 40
0.0
  9
$CHAMFERD
 40
0.0
  9
$SKPOLY
 70
     0
  9
$TDCREATE
 40
2459892.578581227
  9
$TDUCREATE
 40
2459892.53691456
  9
$TDUPDATE
 40
2459892.578582813
  9
$TDUUPDATE
 40
2459892.536916146
  9
$TDINDWG
 40
0.0000000116
  9
$TDUSRTIMER
 40
0.0000000116
  9
$USRTIMER
 70
     1
  9
$ANGBASE
 50
0.0
  9
$ANGDIR
 70
     0
  9
$PDMODE
 70
     0
  9
$PDSIZE
 40
-1.0
  9
$PLINEWID
 40
0.0
  9
$SPLFRAME
 70
     0
  9
$SPLINETYPE
 70
     6
  9
$SPLINESEGS
 70
     8
  9
$HANDSEED
  5
293
  9
$SURFTAB1
 70
     6
  9
$SURFTAB2
 70
     6
  9
$SURFTYPE
 70
     6
  9
$SURFU
 70
     6
  9
$SURFV
 70
     6
  9
$UCSBASE
  2

  9
$UCSNAME
  2

  9
$UCSORG
 10
0.0
 20
0.0
 30
0.0
  9
$UCSXDIR
 10
1.0
 20
0.0
 30
0.0
  9
$UCSYDIR
 10
0.0
 20
1.0
 30
0.0
  9
$UCSORTHOREF
  2

  9
$UCSORTHOVIEW
 70
     0
  9
$UCSORGTOP
 10
0.0
 20
0.0
 30
0.0
  9
$UCSORGBOTTOM
 10
0.0
 20
0.0
 30
0.0
  9
$UCSORGLEFT
 10
0.0
 20
0.0
 30
0.0
  9
$UCSORGRIGHT
 10
0.0
 20
0.0
 30
0.0
  9
$UCSORGFRONT
 10
0.0
 20
0.0
 30
0.0
  9
$UCSORGBACK
 10
0.0
 20
0.0
 30
0.0
  9
$PUCSBASE
  2

  9
$PUCSNAME
  2

  9
$PUCSORG
 10
0.0
 20
0.0
 30
0.0
  9
$PUCSXDIR
 10
1.0
 20
0.0
 30
0.0
  9
$PUCSYDIR
 10
0.0
 20
1.0
 30
0.0
  9
$PUCSORTHOREF
  2

  9
$PUCSORTHOVIEW
 70
     0
  9
$PUCSORGTOP
 10
0.0
 20
0.0
 30
0.0
  9
$PUCSORGBOTTOM
 10
0.0
 20
0.0
 30
0.0
  9
$PUCSORGLEFT
 10
0.0
 20
0.0
 30
0.0
  9
$PUCSORGRIGHT
 10
0.0
 20
0.0
 30
0.0
  9
$PUCSORGFRONT
 10
0.0
 20
0.0
 30
0.0
  9
$PUCSORGBACK
 10
0.0
 20
0.0
 30
0.0
  9
$USERI1
 70
     0
  9
$USERI2
 70
     0
  9
$USERI3
 70
     0
  9
$USERI4
 70
     0
  9
$USERI5
 70
     0
  9
$USERR1
 40
0.0
  9
$USERR2
 40
0.0
  9
$USERR3
 40
0.0
  9
$USERR4
 40
0.0
  9
$USERR5
 40
0.0
  9
$WORLDVIEW
 70
     1
  9
$SHADEDGE
 70
     3
  9
$SHADEDIF
 70
    70
  9
$TILEMODE
 70
     1
  9
$MAXACTVP
 70
    64
  9
$PINSBASE
 10
0.0
 20
0.0
 30
0.0
  9
$PLIMCHECK
 70
     0
  9
$PEXTMIN
 10
1.0000000000E+20
 20
1.0000000000E+20
 30
1.0000000000E+20
  9
$PEXTMAX
 10
-1.0000000000E+20
 20
-1.0000000000E+20
 30
-1.0000000000E+20
  9
$PLIMMIN
 10
0.0
 20
0.0
  9
$PLIMMAX
 10
420.0
 20
297.0
  9
$UNITMODE
 70
     0
  9
$VISRETAIN
 70
     1
  9
$PLINEGEN
 70
     0
  9
$PSLTSCALE
 70
     1
  9
$TREEDEPTH
 70
  3020
  9
$CMLSTYLE
  2
Standard
  9
$CMLJUST
 70
     0
  9
$CMLSCALE
 40
20.0
  9
$PROXYGRAPHICS
 70
     1
  9
$MEASUREMENT
 70
     1
  9
$CELWEIGHT
370
    -1
  9
$ENDCAPS
280
     0
  9
$JOINSTYLE
280
     0
  9
$LWDISPLAY
290
     1
  9
$INSUNITS
 70
     4
  9
$HYPERLINKBASE
  1

  9
$STYLESHEET
  1

  9
$XEDIT
290
     1
  9
$CEPSNTYPE
380
     0
  9
$PSTYLEMODE
290
     1
  9
$FINGERPRINTGUID
  2
{67708081-3e19-40b1-976d-ab5059da141d}
  9
$VERSIONGUID
  2
{FAEB1C32-E019-11D5-929B-00C0DF256EC4}
  9
$EXTNAMES
290
     1
  9
$PSVPSCALE
 40
0.0
  9
$OLESTARTUP
290
     0
  0
ENDSEC
  0
SECTION
  2
CLASSES
  0
CLASS
  1
ACDBDICTIONARYWDFLT
  2
AcDbDictionaryWithDefault
  3
ObjectDBX Classes
 90
        0
280
     0
281
     0
  0
CLASS
  1
VISUALSTYLE
  2
AcDbVisualStyle
  3
ObjectDBX Classes
 90
     4095
280
     0
281
     0
  0
CLASS
  1
MATERIAL
  2
AcDbMaterial
  3
ObjectDBX Classes
 90
     1153
280
     0
281
     0
  0
CLASS
  1
SCALE
  2
AcDbScale
  3
ObjectDBX Classes
 90
     1153
280
     0
281
     0
  0
CLASS
  1
TABLESTYLE
  2
AcDbTableStyle
  3
ObjectDBX Classes
 90
     4095
280
     0
281
     0
  0
CLASS
  1
MLEADERSTYLE
  2
AcDbMLeaderStyle
  3
ACDB_MLEADERSTYLE_CLASS
 90
     4095
280
     0
281
     0
  0
CLASS
  1
SUN
  2
AcDbSun
  3
SCENEOE
 90
     1153
280
     0
281
     0
  0
CLASS
  1
ACDBPLACEHOLDER
  2
AcDbPlaceHolder
  3
ObjectDBX Classes
 90
        0
280
     0
281
     0
  0
CLASS
  1
LAYOUT
  2
AcDbLayout
  3
ObjectDBX Classes
 90
        0
280
     0
281
     0
  0
ENDSEC
  0
SECTION
  2
TABLES
  0
TABLE
  2
VPORT
  5
8
330
0
100
AcDbSymbolTable
 70
     1
  0
VPORT
  5
29
330
8
100
AcDbSymbolTableRecord
100
AcDbViewportTableRecord
  2
*Active
 70
     0
 10
0.0
 20
0.0
 11
1.0
 21
1.0
 12
105.0
 22
148.5
 13
0.0
 23
0.0
 14
10.0
 24
10.0
 15
10.0
 25
10.0
 16
0.0
 26
0.0
 36
1.0
 17
0.0
 27
0.0
 37
0.0
 40
297.0
 41
0.7070707071
 42
50.0
 43
0.0
 44
0.0
 50
0.0
 51
0.0
 71
     0
 72
  2000
 73
     1
 74
     3
 75
     0
 76
     0
 77
     0
 78
     0
281
     0
 65
     1
110
0.0
120
0.0
130
0.0
111
1.0
121
0.0
131
0.0
112
0.0
122
1.0
132
0.0
 79
     0
146
0.0
  0
ENDTAB
  0
TABLE
  2
LTYPE
  5
5
330
0
100
AcDbSymbolTable
 70
     6
  0
LTYPE
  5
14
330
5
100
AcDbSymbolTableRecord
100
AcDbLinetypeTableRecord
  2
ByBlock
 70
     0
  3

 72
    65
 73
     0
 40
0.0
  0
LTYPE
  5
15
330
5
100
AcDbSymbolTableRecord
100
AcDbLinetypeTableRecord
  2
ByLayer
 70
     0
  3

 72
    65
 73
     0
 40
0.0
  0
LTYPE
  5
16
330
5
100
AcDbSymbolTableRecord
100
AcDbLinetypeTableRecord
  2
Continuous
 70
     0
  3
Solid line
 72
    65
 73
     0
 40
0.0
  0
LTYPE
  5
6E
330
5
100
AcDbSymbolTableRecord
100
AcDbLinetypeTableRecord
  2
HIDDEN
 70
     0
  3
Hidden __ __ __ __ __ __ __ __ __ __ __ __ __ __
 72
    65
 73
     2
 40
1.905
 49
1.27
 74
     0
 49
-0.635
 74
     0
  0
LTYPE
  5
6F
330
5
100
AcDbSymbolTableRecord
100
AcDbLinetypeTableRecord
  2
PHANTOM
 70
     0
  3
Phantom ______  __  __  ______  __  __  ______
 72
    65
 73
     6
 40
12.7
 49
6.35
 74
     0
 49
-1.27
 74
     0
 49
1.27
 74
     0
 49
-1.27
 74
     0
 49
1.27
 74
     0
 49
-1.27
 74
     0
  0
LTYPE
  5
70
330
5
100
AcDbSymbolTableRecord
100
AcDbLinetypeTableRecord
  2
CENTER
 70
     0
  3
Center ____ _ ____ _ ____ _ ____ _ ____ _ ____
 72
    65
 73
     4
 40
10.16
 49
6.35
 74
     0
 49
-1.27
 74
     0
 49
1.27
 74
     0
 49
-1.27
 74
     0
  0
LTYPE
  5
71
330
5
100
AcDbSymbolTableRecord
100
AcDbLinetypeTableRecord
  2
CENTERX2
 70
     0
  3
Center (2x) ________  __  ________  __  _____
 72
    65
 73
     4
 40
20.32
 49
12.7
 74
     0
 49
-2.54
 74
     0
 49
2.54
 74
     0
 49
-2.54
 74
     0
  0
LTYPE
  5
72
330
5
100
AcDbSymbolTableRecord
100
AcDbLinetypeTableRecord
  2
DOT2
 70
     0
  3
Dot (.5x) ........................................
 72
    65
 73
     2
 40
0.635
 49
0.0
 74
     0
 49
-0.635
 74
     0
  0
ENDTAB
  0
TABLE
  2
LAYER
  5
2
330
0
100
AcDbSymbolTable
 70
     9
  0
LAYER
  5
10
330
2
100
AcDbSymbolTableRecord
100
AcDbLayerTableRecord
  2
0
 70
     0
 62
     7
  6
Continuous
370
    -3
390
F
  0
LAYER
  5
73
330
2
100
AcDbSymbolTableRecord
100
AcDbLayerTableRecord
  2
FORMAT
 70
     0
 62
     7
  6
Continuous
370
    -3
390
F
  0
LAYER
  5
74
330
2
100
AcDbSymbolTableRecord
100
AcDbLayerTableRecord
  2
VORLAGE
 70
     0
 62
     7
  6
Continuous
370
    -3
390
F
  0
LAYER
  5
75
330
2
100
AcDbSymbolTableRecord
100
AcDbLayerTableRecord
  2
1
 70
     0
 62
   179
  6
Continuous
370
    -3
390
F
  0
LAYER
  5
76
330
2
100
AcDbSymbolTableRecord
100
AcDbLayerTableRecord
  2
LAYER0
 70
     0
 62
     7
  6
Continuous
370
    -3
390
F
  0
LAYER
  5
77
330
2
100
AcDbSymbolTableRecord
100
AcDbLayerTableRecord
  2
BEMASSUNG
 70
     0
 62
     1
  6
Continuous
370
    -3
390
F
  0
LAYER
  5
78
330
2
100
AcDbSymbolTableRecord
100
AcDbLayerTableRecord
  2
ÄNDERUNG
 70
     0
 62
     1
  6
Continuous
370
    -3
390
F
  0
LAYER
  5
79
330
2
100
AcDbSymbolTableRecord
100
AcDbLayerTableRecord
  2
KENNZEICHNUNG
 70
     0
 62
     7
  6
Continuous
370
    -3
390
F
  0
LAYER
  5
7A
330
2
100
AcDbSymbolTableRecord
100
AcDbLayerTableRecord
  2
LOGOS
 70
     0
 62
     7
  6
Continuous
370
    -3
390
F
  0
ENDTAB
  0
TABLE
  2
STYLE
  5
3
330
0
100
AcDbSymbolTable
 70
     5
  0
STYLE
  5
11
330
3
100
AcDbSymbolTableRecord
100
AcDbTextStyleTableRecord
  2
STANDARD
 70
     0
 40
0.0
 41
1.0
 50
0.0
 71
     0
 42
3.5
  3
ARIAL.TTF
  4

1001
ACAD
1000
ARIAL
1071
       34
  0
STYLE
  5
8C
330
3
100
AcDbSymbolTableRecord
100
AcDbTextStyleTableRecord
  2
SLDTEXTSTYLE0
 70
     0
 40
0.0
 41
0.948
 50
0.0
 71
     0
 42
3.5
  3
ARIAL.TTF
  4

1001
ACAD
1000
Arial
1071
      290
  0
STYLE
  5
B3
330
3
100
AcDbSymbolTableRecord
100
AcDbTextStyleTableRecord
  2
SLDTEXTSTYLE1
 70
     0
 40
0.0
 41
1.0
 50
0.0
 71
     0
 42
3.5
  3
Arial Unicode MS
  4

1001
ACAD
1000
Arial Unicode MS
1071
 33554688
  0
STYLE
  5
B9
330
3
100
AcDbSymbolTableRecord
100
AcDbTextStyleTableRecord
  2
SLDTEXTSTYLE2
 70
     0
 40
0.0
 41
0.87
 50
0.0
 71
     0
 42
3.5
  3
ARIALN.TTF
  4

1001
ACAD
1000
Arial Narrow
1071
      290
  0
STYLE
  5
CE
330
3
100
AcDbSymbolTableRecord
100
AcDbTextStyleTableRecord
  2
SLDTEXTSTYLE3
 70
     0
 40
0.0
 41
0.948
 50
0.0
 71
     0
 42
3.5
  3
ARIALBD.TTF
  4

1001
ACAD
1000
Arial
1071
 33554722
  0
ENDTAB
  0
TABLE
  2
VIEW
  5
6
330
0
100
AcDbSymbolTable
 70
     0
  0
ENDTAB
  0
TABLE
  2
UCS
  5
7
330
0
100
AcDbSymbolTable
 70
     0
  0
ENDTAB
  0
TABLE
  2
APPID
  5
9
330
0
100
AcDbSymbolTable
 70
     1
  0
APPID
  5
12
330
9
100
AcDbSymbolTableRecord
100
AcDbRegAppTableRecord
  2
ACAD
 70
     0
  0
ENDTAB
  0
TABLE
  2
DIMSTYLE
  5
A
330
0
100
AcDbSymbolTable
 70
     3
100
AcDbDimStyleTable
  0
DIMSTYLE
105
27
330
A
100
AcDbSymbolTableRecord
100
AcDbDimStyleTableRecord
  2
ISO-25
 70
     0
 41
2.5
 42
0.625
 43
3.75
 44
1.25
 73
     0
 74
     0
 77
     1
 78
     8
140
2.5
141
2.5
143
0.0393700787
147
0.625
171
     3
172
     1
178
     0
271
     2
272
     2
274
     3
278
    44
283
     0
284
     8
340
11
  0
DIMSTYLE
105
14C
102
{ACAD_REACTORS
330
14B
330
262
330
26C
102
}
330
A
100
AcDbSymbolTableRecord
100
AcDbDimStyleTableRecord
  2
SLDDIMSTYLE0
 70
     0
 41
3.302
 44
0.0
 45
0.000000001
 73
     0
 74
     0
 77
     1
 78
    12
 79
     3
140
3.5
147
0.875
173
     1
178
     0
271
     2
272
     2
276
     2
284
    12
340
8C
  0
DIMSTYLE
105
277
102
{ACAD_REACTORS
330
276
330
283
102
}
330
A
100
AcDbSymbolTableRecord
100
AcDbDimStyleTableRecord
  2
SLDDIMSTYLE1
 70
     0
 41
3.302
 44
0.0
 45
0.000000001
 73
     0
 74
     0
 77
     1
 78
    12
 79
     3
140
3.5
147
0.875
172
     1
173
     1
178
     0
271
     2
272
     2
276
     2
284
    12
289
     0
340
8C
  0
ENDTAB
  0
TABLE
  2
BLOCK_RECORD
  5
1
330
0
100
AcDbSymbolTable
 70
    12
  0
BLOCK_RECORD
  5
1F
330
1
100
AcDbSymbolTableRecord
100
AcDbBlockTableRecord
  2
*Model_Space
340
22
  0
BLOCK_RECORD
  5
1B
330
1
100
AcDbSymbolTableRecord
100
AcDbBlockTableRecord
  2
*Paper_Space
340
1E
  0
BLOCK_RECORD
  5
23
330
1
100
AcDbSymbolTableRecord
100
AcDbBlockTableRecord
  2
*Paper_Space0
340
26
  0
BLOCK_RECORD
  5
7B
330
1
100
AcDbSymbolTableRecord
100
AcDbBlockTableRecord
  2
Block1
340
0
102
{BLKREFS
331
CC
102
}
  0
BLOCK_RECORD
  5
89
330
1
100
AcDbSymbolTableRecord
100
AcDbBlockTableRecord
  2
SW_NOTE_0
340
0
102
{BLKREFS
331
8F
102
}
  0
BLOCK_RECORD
  5
90
330
1
100
AcDbSymbolTableRecord
100
AcDbBlockTableRecord
  2
Block2
340
0
102
{BLKREFS
331
CD
102
}
  0
BLOCK_RECORD
  5
B0
330
1
100
AcDbSymbolTableRecord
100
AcDbBlockTableRecord
  2
SW_NOTE_0_1
340
0
102
{BLKREFS
331
B5
102
}
  0
BLOCK_RECORD
  5
B6
330
1
100
AcDbSymbolTableRecord
100
AcDbBlockTableRecord
  2
SW_NOTE_0_2
340
0
102
{BLKREFS
331
BD
102
}
  0
BLOCK_RECORD
  5
DF
330
1
100
AcDbSymbolTableRecord
100
AcDbBlockTableRecord
  2
SW_NOTE_0_3
340
0
102
{BLKREFS
331
EC
102
}
  0
BLOCK_RECORD
  5
14D
330
1
100
AcDbSymbolTableRecord
100
AcDbBlockTableRecord
  2
_D
340
0
  0
BLOCK_RECORD
  5
263
330
1
100
AcDbSymbolTableRecord
100
AcDbBlockTableRecord
  2
_D_1
340
0
  0
BLOCK_RECORD
  5
26D
330
1
100
AcDbSymbolTableRecord
100
AcDbBlockTableRecord
  2
_D_2
340
0
  0
BLOCK_RECORD
  5
278
330
1
100
AcDbSymbolTableRecord
100
AcDbBlockTableRecord
  2
_D_3
340
0
  0
BLOCK_RECORD
  5
284
330
1
100
AcDbSymbolTableRecord
100
AcDbBlockTableRecord
  2
_D_4
340
0
  0
ENDTAB
  0
ENDSEC
  0
SECTION
  2
BLOCKS
  0
BLOCK
  5
20
330
1F
100
AcDbEntity
  8
0
100
AcDbBlockBegin
  2
*Model_Space
 70
     0
 10
0.0
 20
0.0
 30
0.0
  3
*Model_Space
  1

  0
ENDBLK
  5
21
330
1F
100
AcDbEntity
  8
0
100
AcDbBlockEnd
  0
BLOCK
  5
1C
330
1B
100
AcDbEntity
 67
     1
  8
0
100
AcDbBlockBegin
  2
*Paper_Space
 70
     0
 10
0.0
 20
0.0
 30
0.0
  3
*Paper_Space
  1

  0
ENDBLK
  5
1D
330
1B
100
AcDbEntity
 67
     1
  8
0
100
AcDbBlockEnd
  0
BLOCK
  5
24
330
23
100
AcDbEntity
  8
0
100
AcDbBlockBegin
  2
*Paper_Space0
 70
     0
 10
0.0
 20
0.0
 30
0.0
  3
*Paper_Space0
  1

  0
ENDBLK
  5
25
330
23
100
AcDbEntity
  8
0
100
AcDbBlockEnd
  0
BLOCK
  5
7C
330
7B
100
AcDbEntity
  8
0
100
AcDbBlockBegin
  2
Block1
 70
     0
 10
0.0
 20
0.0
 30
0.0
  3
Block1
  1

  0
CIRCLE
  5
7E
330
7B
100
AcDbEntity
  8
0
  6
Continuous
 62
     7
370
    18
100
AcDbCircle
 10
11.6137544821
 20
9.0896586992
 30
0.0
 40
1.255909011058753
  0
CIRCLE
  5
7F
330
7B
100
AcDbEntity
  8
0
  6
Continuous
 62
     7
370
    18
100
AcDbCircle
 10
11.6137544821
 20
9.0896586992
 30
0.0
 40
2.216014863655655
  0
LINE
  5
80
330
7B
100
AcDbEntity
  8
0
  6
CENTERX2
 62
     7
370
    18
100
AcDbLine
 10
11.6137544821
 20
9.0896586992
 30
0.0
 11
7.8977396184
 21
9.0896586992
 31
0.0
  0
LINE
  5
81
330
7B
100
AcDbEntity
  8
0
  6
Continuous
 62
     7
370
    18
100
AcDbLine
 10
8.165753588
 20
6.8736438356
 30
0.0
 11
8.165753588
 21
11.3071584591
 31
0.0
  0
LINE
  5
82
330
7B
100
AcDbEntity
  8
0
  6
Continuous
 62
     7
370
    18
100
AcDbLine
 10
2.6797147895
 20
10.3455677103
 30
0.0
 11
2.6797147895
 21
7.8337496881
 31
0.0
  0
LINE
  5
83
330
7B
100
AcDbEntity
  8
0
  6
Continuous
 62
     7
370
    18
100
AcDbLine
 10
2.6797147895
 20
7.8337496881
 30
0.0
 11
8.165753588
 21
6.8736438356
 31
0.0
  0
LINE
  5
84
330
7B
100
AcDbEntity
  8
0
  6
CENTERX2
 62
     7
370
    18
100
AcDbLine
 10
9.665753588
 20
9.0896586992
 30
0.0
 11
1.1797147895
 21
9.0896586992
 31
0.0
  0
LINE
  5
85
330
7B
100
AcDbEntity
  8
0
  6
Continuous
 62
     7
370
    18
100
AcDbLine
 10
8.165753588
 20
11.3071584591
 30
0.0
 11
2.6797147895
 21
10.3455677103
 31
0.0
  0
LINE
  5
86
330
7B
100
AcDbEntity
  8
0
  6
CENTERX2
 62
     7
370
    18
100
AcDbLine
 10
11.6137544821
 20
9.0896586992
 30
0.0
 11
11.6137544821
 21
5.3736438356
 31
0.0
  0
LINE
  5
87
330
7B
100
AcDbEntity
  8
0
  6
CENTERX2
 62
     7
370
    18
100
AcDbLine
 10
11.6137544821
 20
9.0896586992
 30
0.0
 11
11.6137544821
 21
12.8056735629
 31
0.0
  0
LINE
  5
88
330
7B
100
AcDbEntity
  8
0
  6
CENTERX2
 62
     7
370
    18
100
AcDbLine
 10
11.6137544821
 20
9.0896586992
 30
0.0
 11
15.3297693458
 21
9.0896586992
 31
0.0
  0
INSERT
  5
8F
330
7B
100
AcDbEntity
  8
0
  6
Continuous
 62
     7
370
     0
100
AcDbBlockReference
  2
SW_NOTE_0
 10
2.1031832889
 20
2.3754472768
 30
0.0
  0
ENDBLK
  5
7D
330
7B
100
AcDbEntity
  8
0
100
AcDbBlockEnd
  0
BLOCK
  5
8A
330
89
100
AcDbEntity
  8
0
100
AcDbBlockBegin
  2
SW_NOTE_0
 70
     0
 10
0.0
 20
0.0
 30
0.0
  3
SW_NOTE_0
  1

  0
MTEXT
  5
8D
330
89
100
AcDbEntity
  8
0
  6
Continuous
 62
     0
370
     0
100
AcDbMText
 10
6.590625
 20
2.4492287056
 30
0.0
 40
1.9
 41
0.0
 71
     2
 72
     1
  1
DIN 6  T1 - 
  7
SLDTEXTSTYLE0
 73
     1
 44
1.0
  0
MTEXT
  5
8E
330
89
100
AcDbEntity
  8
0
  6
Continuous
 62
     0
370
     0
100
AcDbMText
 10
6.6569262624
 20
0.0003397443
 30
0.0
 40
1.9
 41
0.0
 71
     2
 72
     1
  1
Proj.methode 1
  7
SLDTEXTSTYLE0
 73
     1
 44
1.0
  0
ENDBLK
  5
8B
330
89
100
AcDbEntity
  8
0
100
AcDbBlockEnd
  0
BLOCK
  5
91
330
90
100
AcDbEntity
  8
0
100
AcDbBlockBegin
  2
Block2
 70
     0
 10
0.0
 20
0.0
 30
0.0
  3
Block2
  1

  0
ARC
  5
93
330
90
100
AcDbEntity
  8
FORMAT
100
AcDbCircle
 10
236.7496365382
 20
57.0990600997
 30
0.0
 40
3.75000000000001
100
AcDbArc
 50
93.8225537293
 51
266.1774462707
  0
ARC
  5
94
330
90
100
AcDbEntity
  8
FORMAT
100
AcDbCircle
 10
236.7496365382
 20
57.0990600997
 30
0.0
 40
3.000000000000012
100
AcDbArc
 50
94.7801918472
 51
265.2198081528
  0
ARC
  5
95
330
90
100
AcDbEntity
  8
FORMAT
100
AcDbCircle
 10
236.7496365382
 20
57.0990600997
 30
0.0
 40
3.75000000000001
100
AcDbArc
 50
273.8225537293
 51
86.1774462707
  0
ARC
  5
96
330
90
100
AcDbEntity
  8
FORMAT
100
AcDbCircle
 10
236.7496365382
 20
57.0990600997
 30
0.0
 40
3.000000000000012
100
AcDbArc
 50
274.7801918472
 51
85.2198081528
  0
ARC
  5
97
330
90
100
AcDbEntity
  8
FORMAT
100
AcDbCircle
 10
236.7496365382
 20
58.2320416436
 30
0.0
 40
0.8604027828068846
100
AcDbArc
 50
304.8395134495
 51
73.1084194601
  0
ARC
  5
98
330
90
100
AcDbEntity
  8
FORMAT
100
AcDbCircle
 10
236.7496365382
 20
58.2320416436
 30
0.0
 40
1.402314431660661
100
AcDbArc
 50
313.8988153445
 51
79.7306010333
  0
ARC
  5
99
330
90
100
AcDbEntity
  8
FORMAT
100
AcDbCircle
 10
236.7496365382
 20
55.4979572256
 30
0.0
 40
0.4915306686725103
100
AcDbArc
 50
300.5716370086
 51
0.0
  0
ARC
  5
9A
330
90
100
AcDbEntity
  8
FORMAT
100
AcDbCircle
 10
236.7496365382
 20
58.2320416436
 30
0.0
 40
1.402314431660661
100
AcDbArc
 50
100.2693989667
 51
226.1011846555
  0
ARC
  5
9B
330
90
100
AcDbEntity
  8
FORMAT
100
AcDbCircle
 10
236.7496365382
 20
55.4979572256
 30
0.0
 40
0.9723464985416115
100
AcDbArc
 50
180.0
 51
255.1013518888
  0
ARC
  5
9C
330
90
100
AcDbEntity
  8
FORMAT
100
AcDbCircle
 10
236.7496365382
 20
55.4979572256
 30
0.0
 40
0.9723464985416115
100
AcDbArc
 50
284.8986481112
 51
0.0
  0
ARC
  5
9D
330
90
100
AcDbEntity
  8
FORMAT
100
AcDbCircle
 10
236.7496365382
 20
55.4979572256
 30
0.0
 40
0.4915306686725099
100
AcDbArc
 50
180.0
 51
239.4283629914
  0
ARC
  5
9E
330
90
100
AcDbEntity
  8
FORMAT
100
AcDbCircle
 10
236.7496365382
 20
58.2320416436
 30
0.0
 40
0.8604027828068846
100
AcDbArc
 50
106.8915805399
 51
235.1604865505
  0
LINE
  5
9F
330
90
100
AcDbEntity
  8
FORMAT
100
AcDbLine
 10
232.5312401271
 20
52.8806636887
 30
0.0
 11
240.9680329492
 21
52.8806636887
 31
0.0
  0
LINE
  5
A0
330
90
100
AcDbEntity
  8
FORMAT
100
AcDbLine
 10
232.5312401271
 20
61.3174565107
 30
0.0
 11
240.9680329492
 21
61.3174565107
 31
0.0
  0
LINE
  5
A1
330
90
100
AcDbEntity
  8
FORMAT
100
AcDbLine
 10
232.5312401271
 20
61.3174565107
 30
0.0
 11
232.5312401271
 21
52.8806636887
 31
0.0
  0
LINE
  5
A2
330
90
100
AcDbEntity
  8
FORMAT
100
AcDbLine
 10
240.9680329492
 20
61.3174565107
 30
0.0
 11
240.9680329492
 21
52.8806636887
 31
0.0
  0
LINE
  5
A3
330
90
100
AcDbEntity
  8
FORMAT
100
AcDbLine
 10
236.4996365382
 20
60.8407174865
 30
0.0
 11
236.4996365382
 21
60.0886252855
 31
0.0
  0
LINE
  5
A4
330
90
100
AcDbEntity
  8
FORMAT
100
AcDbLine
 10
236.9996365382
 20
60.8407174865
 30
0.0
 11
236.9996365382
 21
60.0886252855
 31
0.0
  0
LINE
  5
A5
330
90
100
AcDbEntity
  8
FORMAT
100
AcDbLine
 10
236.4996365382
 20
54.1094949139
 30
0.0
 11
236.4996365382
 21
53.3574027129
 31
0.0
  0
LINE
  5
A6
330
90
100
AcDbEntity
  8
FORMAT
100
AcDbLine
 10
236.9996365382
 20
54.1094949139
 30
0.0
 11
236.9996365382
 21
53.3574027129
 31
0.0
  0
LINE
  5
A7
330
90
100
AcDbEntity
  8
FORMAT
100
AcDbLine
 10
236.9996365382
 20
59.6118915504
 30
0.0
 11
236.9996365382
 21
59.0553234597
 31
0.0
  0
LINE
  5
A8
330
90
100
AcDbEntity
  8
FORMAT
100
AcDbLine
 10
236.4996365382
 20
59.6118915504
 30
0.0
 11
236.4996365382
 21
59.0553234597
 31
0.0
  0
LINE
  5
A9
330
90
100
AcDbEntity
  8
FORMAT
100
AcDbLine
 10
235.7772900396
 20
55.4979572256
 30
0.0
 11
235.7772900396
 21
57.2215823164
 31
0.0
  0
LINE
  5
AA
330
90
100
AcDbEntity
  8
FORMAT
100
AcDbLine
 10
237.7219830367
 20
55.4979572256
 30
0.0
 11
237.7219830367
 21
57.2215823164
 31
0.0
  0
LINE
  5
AB
330
90
100
AcDbEntity
  8
FORMAT
100
AcDbLine
 10
237.2411672068
 20
55.4979572256
 30
0.0
 11
237.2411672068
 21
57.5258613901
 31
0.0
  0
LINE
  5
AC
330
90
100
AcDbEntity
  8
FORMAT
100
AcDbLine
 10
236.2581058695
 20
55.4979572256
 30
0.0
 11
236.2581058695
 21
57.5258613901
 31
0.0
  0
LINE
  5
AD
330
90
100
AcDbEntity
  8
FORMAT
100
AcDbLine
 10
236.4996365382
 20
55.0747523127
 30
0.0
 11
236.4996365382
 21
54.5582989296
 31
0.0
  0
LINE
  5
AE
330
90
100
AcDbEntity
  8
FORMAT
100
AcDbLine
 10
236.9996365382
 20
55.0747523127
 30
0.0
 11
236.9996365382
 21
54.5582989296
 31
0.0
  0
HATCH
  5
AF
330
90
100
AcDbEntity
  8
FORMAT
100
AcDbHatch
 10
0.0
 20
0.0
 30
0.0
210
0.0
220
0.0
230
1.0
  2
SOLID
 70
     1
 71
     0
 91
        5
 92
        0
 93
        4
 72
     1
 10
240.9680329492058
 20
61.31745651073599
 11
240.9680329492058
 21
52.88066368865002
 72
     1
 10
240.9680329492058
 20
52.88066368865002
 11
232.5312401271199
 21
52.88066368865002
 72
     1
 10
232.5312401271199
 20
52.88066368865002
 11
232.5312401271199
 21
61.31745651073599
 72
     1
 10
232.5312401271199
 20
61.31745651073599
 11
240.9680329492058
 21
61.31745651073599
 97
        0
 92
        0
 93
        4
 72
     2
 10
236.7496365381628
 20
57.09906009969301
 40
3.000000000000011
 50
94.78019184719915
 51
265.2198081528016
 73
     0
 72
     1
 10
236.4996365381628
 20
60.08862528546836
 11
236.4996365381628
 21
60.84071748646695
 72
     2
 10
236.7496365381628
 20
57.09906009969301
 40
3.750000000000007
 50
93.82255372927435
 51
266.1774462707265
 73
     1
 72
     1
 10
236.4996365381628
 20
53.35740271291905
 11
236.4996365381628
 21
54.10949491391764
 97
        0
 92
        0
 93
        8
 72
     1
 10
237.7219830367044
 20
55.49795722557887
 11
237.7219830367044
 21
57.22158231636488
 72
     2
 10
236.7496365381628
 20
58.23204164361047
 40
1.402314431660656
 50
313.8988153445118
 51
439.730601033339
 73
     1
 72
     1
 10
236.9996365381628
 20
59.61189155039155
 11
236.9996365381628
 21
59.05532345967459
 72
     2
 10
236.7496365381628
 20
58.23204164361047
 40
0.8604027828068782
 50
286.8915805399266
 51
415.1604865505413
 73
     0
 72
     1
 10
237.2411672068353
 20
57.52586139012261
 11
237.2411672068353
 21
55.49795722557887
 72
     2
 10
236.7496365381628
 20
55.49795722557887
 40
0.4915306686725041
 50
0.0
 51
59.42836299135124
 73
     0
 72
     1
 10
236.9996365381628
 20
55.07475231274628
 11
236.9996365381628
 21
54.55829892958712
 72
     2
 10
236.7496365381628
 20
55.49795722557887
 40
0.9723464985416097
 50
284.8986481111874
 51
360.0000000000008
 73
     1
 97
        0
 92
        0
 93
        8
 72
     2
 10
236.7496365381628
 20
55.49795722557887
 40
0.4915306686725041
 50
120.5716370086484
 51
180.0
 73
     0
 72
     1
 10
236.2581058694904
 20
55.49795722557887
 11
236.2581058694904
 21
57.52586139012261
 72
     2
 10
236.7496365381628
 20
58.23204164361047
 40
0.8604027828068782
 50
124.839513449458
 51
253.108419460075
 73
     0
 72
     1
 10
236.4996365381628
 20
59.05532345967459
 11
236.4996365381628
 21
59.61189155039155
 72
     2
 10
236.7496365381628
 20
58.23204164361047
 40
1.402314431660656
 50
100.2693989666618
 51
226.1011846554898
 73
     1
 72
     1
 10
235.7772900396212
 20
57.22158231636488
 11
235.7772900396212
 21
55.49795722557887
 72
     2
 10
236.7496365381628
 20
55.49795722557887
 40
0.9723464985416097
 50
180.0
 51
255.1013518888143
 73
     1
 72
     1
 10
236.4996365381628
 20
54.55829892958712
 11
236.4996365381628
 21
55.07475231274628
 97
        0
 92
        0
 93
        4
 72
     2
 10
236.7496365381628
 20
57.09906009969301
 40
3.000000000000011
 50
274.7801918471999
 51
445.2198081528016
 73
     0
 72
     1
 10
236.9996365381628
 20
54.10949491391764
 11
236.9996365381628
 21
53.35740271291905
 72
     2
 10
236.7496365381628
 20
57.09906009969301
 40
3.750000000000007
 50
273.8225537292751
 51
446.1774462707265
 73
     1
 72
     1
 10
236.9996365381628
 20
60.84071748646695
 11
236.9996365381628
 21
60.08862528546836
 97
        0
 75
     0
 76
     1
 98
        1
 10
0.0
 20
0.0
  0
INSERT
  5
B5
330
90
100
AcDbEntity
  8
FORMAT
 62
     7
100
AcDbBlockReference
  2
SW_NOTE_0_1
 10
232.2514665163
 20
47.7232938825
 30
0.0
  0
INSERT
  5
BD
330
90
100
AcDbEntity
  8
0
  6
Continuous
 62
     7
370
     0
100
AcDbBlockReference
  2
SW_NOTE_0_2
 10
244.0723034979
 20
57.1176018272
 30
0.0
  0
ENDBLK
  5
92
330
90
100
AcDbEntity
  8
0
100
AcDbBlockEnd
  0
BLOCK
  5
B1
330
B0
100
AcDbEntity
  8
0
100
AcDbBlockBegin
  2
SW_NOTE_0_1
 70
     0
 10
0.0
 20
0.0
 30
0.0
  3
SW_NOTE_0_1
  1

  0
MTEXT
  5
B4
330
B0
100
AcDbEntity
  8
FORMAT
 62
     0
100
AcDbMText
 10
0.0
 20
3.8651911469
 30
0.0
 40
3.0
 41
0.0
 71
     1
 72
     1
  1
ECO
  7
SLDTEXTSTYLE1
 73
     1
 44
1.0
  0
ENDBLK
  5
B2
330
B0
100
AcDbEntity
  8
0
100
AcDbBlockEnd
  0
BLOCK
  5
B7
330
B6
100
AcDbEntity
  8
0
100
AcDbBlockBegin
  2
SW_NOTE_0_2
 70
     0
 10
0.0
 20
0.0
 30
0.0
  3
SW_NOTE_0_2
  1

  0
MTEXT
  5
BA
330
B6
100
AcDbEntity
  8
0
  6
Continuous
 62
     0
370
     0
100
AcDbMText
 10
0.0
 20
3.2226693494
 30
0.0
 40
2.5
 41
0.0
 71
     1
 72
     1
  1
ECO Schulte GmbH & Co. KG
  7
SLDTEXTSTYLE2
 73
     1
 44
1.0
  0
MTEXT
  5
BB
330
B6
100
AcDbEntity
  8
0
  6
Continuous
 62
     0
370
     0
100
AcDbMText
 10
0.0
 20
-0.2773307586
 30
0.0
 40
2.5
 41
0.0
 71
     1
 72
     1
  1
Postfach 206
  7
SLDTEXTSTYLE2
 73
     1
 44
1.0
  0
MTEXT
  5
BC
330
B6
100
AcDbEntity
  8
0
  6
Continuous
 62
     0
370
     0
100
AcDbMText
 10
0.0
 20
-3.7773308666
 30
0.0
 40
2.5
 41
0.0
 71
     1
 72
     1
  1
58682 Menden
  7
SLDTEXTSTYLE2
 73
     1
 44
1.0
  0
ENDBLK
  5
B8
330
B6
100
AcDbEntity
  8
0
100
AcDbBlockEnd
  0
BLOCK
  5
E0
330
DF
100
AcDbEntity
  8
0
100
AcDbBlockBegin
  2
SW_NOTE_0_3
 70
     0
 10
0.0
 20
0.0
 30
0.0
  3
SW_NOTE_0_3
  1

  0
MTEXT
  5
E2
330
DF
100
AcDbEntity
  8
FORMAT
 62
     0
100
AcDbMText
 10
0.0
 20
2.5781354795
 30
0.0
 40
2.0
 41
0.0
 71
     1
 72
     1
  1
Technische Änderungen und Irrtümer vorbehalten. Aus dem Gebrauch 
  7
SLDTEXTSTYLE0
 73
     1
 44
1.0
  0
MTEXT
  5
E3
330
DF
100
AcDbEntity
  8
FORMAT
 62
     0
100
AcDbMText
 10
0.0
 20
-0.4218645465
 30
0.0
 40
2.0
 41
0.0
 71
     1
 72
     1
  1
der Zeichnung können keinerlei Ansprüche (inkl. Schadenersatz-
  7
SLDTEXTSTYLE0
 73
     1
 44
1.0
  0
MTEXT
  5
E4
330
DF
100
AcDbEntity
  8
FORMAT
 62
     0
100
AcDbMText
 10
0.0
 20
-3.4218645726
 30
0.0
 40
2.0
 41
0.0
 71
     1
 72
     1
  1
ansprüche) erhoben und gegen ECO Schulte geltend gemacht werden. 
  7
SLDTEXTSTYLE0
 73
     1
 44
1.0
  0
MTEXT
  5
E5
330
DF
100
AcDbEntity
  8
FORMAT
 62
     0
100
AcDbMText
 10
0.0
 20
-6.4218645987
 30
0.0
 40
2.0
 41
0.0
 71
     1
 72
     1
  1
Die Zeichnung bleibt unser Eigentum. Sämtliche sich aus der 
  7
SLDTEXTSTYLE0
 73
     1
 44
1.0
  0
MTEXT
  5
E6
330
DF
100
AcDbEntity
  8
FORMAT
 62
     0
100
AcDbMText
 10
0.0
 20
-9.4218646248
 30
0.0
 40
2.0
 41
0.0
 71
     1
 72
     1
  1
Zeichnung ergebenden Ansprüche stehen ausschließlich ECO Schulte 
  7
SLDTEXTSTYLE0
 73
     1
 44
1.0
  0
MTEXT
  5
E7
330
DF
100
AcDbEntity
  8
FORMAT
 62
     0
100
AcDbMText
 10
0.0
 20
-12.4218646508
 30
0.0
 40
2.0
 41
0.0
 71
     1
 72
     1
  1
zu. 
  7
SLDTEXTSTYLE0
 73
     1
 44
1.0
  0
MTEXT
  5
E8
330
DF
100
AcDbEntity
  8
FORMAT
 62
     0
100
AcDbMText
 10
0.0
 20
-18.421864703
 30
0.0
 40
2.0
 41
0.0
 71
     1
 72
     1
  1
Technical changes and errors excepted. No claims (including 
  7
SLDTEXTSTYLE0
 73
     1
 44
1.0
  0
MTEXT
  5
E9
330
DF
100
AcDbEntity
  8
FORMAT
 62
     0
100
AcDbMText
 10
0.0
 20
-21.4218647291
 30
0.0
 40
2.0
 41
0.0
 71
     1
 72
     1
  1
compensation claims) may be raised against ECO Schulte by using of 
  7
SLDTEXTSTYLE0
 73
     1
 44
1.0
  0
MTEXT
  5
EA
330
DF
100
AcDbEntity
  8
FORMAT
 62
     0
100
AcDbMText
 10
0.0
 20
-24.4218647551
 30
0.0
 40
2.0
 41
0.0
 71
     1
 72
     1
  1
this drawing. The drawing remains the property of ECO Schulte. All 
  7
SLDTEXTSTYLE0
 73
     1
 44
1.0
  0
MTEXT
  5
EB
330
DF
100
AcDbEntity
  8
FORMAT
 62
     0
100
AcDbMText
 10
0.0
 20
-27.4218647812
 30
0.0
 40
2.0
 41
0.0
 71
     1
 72
     1
  1
claims resulting from this drawing are solely entitled to ECO Schulte.
  7
SLDTEXTSTYLE0
 73
     1
 44
1.0
  0
ENDBLK
  5
E1
330
DF
100
AcDbEntity
  8
0
100
AcDbBlockEnd
  0
BLOCK
  5
14E
330
14D
100
AcDbEntity
  8
0
100
AcDbBlockBegin
  2
_D
 70
     0
 10
0.0
 20
0.0
 30
0.0
  3
_D
  1

  0
SOLID
  5
150
330
14D
100
AcDbEntity
  8
FORMAT
 62
     7
100
AcDbTrace
 10
44.1838069349
 20
140.7236770995
 30
0.0
 11
47.4858069349
 21
140.2156770995
 31
0.0
 12
47.4858069349
 22
141.2316770995
 32
0.0
 13
47.4858069349
 23
141.2316770995
 33
0.0
  0
SOLID
  5
151
330
14D
100
AcDbEntity
  8
FORMAT
 62
     7
100
AcDbTrace
 10
74.1838069349
 20
140.7236770995
 30
0.0
 11
70.8818069349
 21
141.2316770995
 31
0.0
 12
70.8818069349
 22
140.2156770995
 32
0.0
 13
70.8818069349
 23
140.2156770995
 33
0.0
  0
LINE
  5
152
330
14D
100
AcDbEntity
  8
FORMAT
 62
     7
100
AcDbLine
 10
44.1838069349
 20
161.7236770995
 30
0.0
 11
44.1838069349
 21
139.7236770995
 31
0.0
  0
LINE
  5
153
330
14D
100
AcDbEntity
  8
FORMAT
 62
     7
100
AcDbLine
 10
74.1838069349
 20
161.7236770995
 30
0.0
 11
74.1838069349
 21
139.7236770995
 31
0.0
  0
LINE
  5
154
330
14D
100
AcDbEntity
  8
FORMAT
 62
     7
100
AcDbLine
 10
44.1838069349
 20
140.7236770995
 30
0.0
 11
74.1838069349
 21
140.7236770995
 31
0.0
  0
MTEXT
  5
155
330
14D
100
AcDbEntity
  8
FORMAT
 62
     7
100
AcDbMText
 10
53.9587203503
 20
145.2354141887
 30
0.0
 40
3.5
 41
0.0
 71
     1
 72
     1
  1
%%c
  7
SLDTEXTSTYLE0
 73
     1
 44
1.0
  0
MTEXT
  5
156
330
14D
100
AcDbEntity
  8
FORMAT
 62
     7
100
AcDbMText
 10
59.0616718955
 20
145.2451364979
 30
0.0
 40
3.5
 41
0.0
 71
     1
 72
     1
  1
30
  7
SLDTEXTSTYLE0
 73
     1
 44
1.0
  0
ENDBLK
  5
14F
330
14D
100
AcDbEntity
  8
0
100
AcDbBlockEnd
  0
BLOCK
  5
264
330
263
100
AcDbEntity
  8
0
100
AcDbBlockBegin
  2
_D_1
 70
     0
 10
0.0
 20
0.0
 30
0.0
  3
_D_1
  1

  0
SOLID
  5
266
330
263
100
AcDbEntity
  8
FORMAT
 62
     7
100
AcDbTrace
 10
161.9814734824
 20
182.7236770995
 30
0.0
 11
161.4734734824
 21
179.4216770995
 31
0.0
 12
162.4894734824
 22
179.4216770995
 32
0.0
 13
162.4894734824
 23
179.4216770995
 33
0.0
  0
SOLID
  5
267
330
263
100
AcDbEntity
  8
FORMAT
 62
     7
100
AcDbTrace
 10
161.9814734824
 20
162.7236770995
 30
0.0
 11
162.4894734824
 21
166.0256770995
 31
0.0
 12
161.4734734824
 22
166.0256770995
 32
0.0
 13
161.4734734824
 23
166.0256770995
 33
0.0
  0
LINE
  5
268
330
263
100
AcDbEntity
  8
FORMAT
 62
     7
100
AcDbLine
 10
151.0754172957
 20
182.7236770995
 30
0.0
 11
162.9814734824
 21
182.7236770995
 31
0.0
  0
LINE
  5
269
330
263
100
AcDbEntity
  8
FORMAT
 62
     7
100
AcDbLine
 10
151.0754172957
 20
162.7236770995
 30
0.0
 11
162.9814734824
 21
162.7236770995
 31
0.0
  0
LINE
  5
26A
330
263
100
AcDbEntity
  8
FORMAT
 62
     7
100
AcDbLine
 10
161.9814734824
 20
182.7236770995
 30
0.0
 11
161.9814734824
 21
162.7236770995
 31
0.0
  0
MTEXT
  5
26B
330
263
100
AcDbEntity
  8
FORMAT
 62
     7
100
AcDbMText
 10
157.4697361604
 20
170.0500660546
 30
0.0
 40
3.5
 41
0.0
 71
     1
 72
     1
  1
20
  7
SLDTEXTSTYLE0
 11
-7.044195017643634E-15
 21
1.0
 31
0.0
 73
     1
 44
1.0
  0
ENDBLK
  5
265
330
263
100
AcDbEntity
  8
0
100
AcDbBlockEnd
  0
BLOCK
  5
26E
330
26D
100
AcDbEntity
  8
0
100
AcDbBlockBegin
  2
_D_2
 70
     0
 10
0.0
 20
0.0
 30
0.0
  3
_D_2
  1

  0
SOLID
  5
270
330
26D
100
AcDbEntity
  8
FORMAT
 62
     7
100
AcDbTrace
 10
170.9409909686
 20
192.7236770995
 30
0.0
 11
170.4329909686
 21
189.4216770995
 31
0.0
 12
171.4489909686
 22
189.4216770995
 32
0.0
 13
171.4489909686
 23
189.4216770995
 33
0.0
  0
SOLID
  5
271
330
26D
100
AcDbEntity
  8
FORMAT
 62
     7
100
AcDbTrace
 10
170.9409909686
 20
162.7236770995
 30
0.0
 11
171.4489909686
 21
166.0256770995
 31
0.0
 12
170.4329909686
 22
166.0256770995
 32
0.0
 13
170.4329909686
 23
166.0256770995
 33
0.0
  0
LINE
  5
272
330
26D
100
AcDbEntity
  8
FORMAT
 62
     7
100
AcDbLine
 10
140.1754172957
 20
192.7236770995
 30
0.0
 11
171.9409909686
 21
192.7236770995
 31
0.0
  0
LINE
  5
273
330
26D
100
AcDbEntity
  8
FORMAT
 62
     7
100
AcDbLine
 10
140.9480537634
 20
162.7236770995
 30
0.0
 11
171.9409909686
 21
162.7236770995
 31
0.0
  0
LINE
  5
274
330
26D
100
AcDbEntity
  8
FORMAT
 62
     7
100
AcDbLine
 10
170.9409909686
 20
192.7236770995
 30
0.0
 11
170.9409909686
 21
162.7236770995
 31
0.0
  0
MTEXT
  5
275
330
26D
100
AcDbEntity
  8
FORMAT
 62
     7
100
AcDbMText
 10
166.4292536465
 20
175.0500660546
 30
0.0
 40
3.5
 41
0.0
 71
     1
 72
     1
  1
30
  7
SLDTEXTSTYLE0
 11
-7.044195017643634E-15
 21
1.0
 31
0.0
 73
     1
 44
1.0
  0
ENDBLK
  5
26F
330
26D
100
AcDbEntity
  8
0
100
AcDbBlockEnd
  0
BLOCK
  5
279
330
278
100
AcDbEntity
  8
0
100
AcDbBlockBegin
  2
_D_3
 70
     0
 10
0.0
 20
0.0
 30
0.0
  3
_D_3
  1

  0
SOLID
  5
27B
330
278
100
AcDbEntity
  8
FORMAT
 62
     7
100
AcDbTrace
 10
114.9556387608
 20
173.2236770995
 30
0.0
 11
115.4636387608
 21
176.5256770995
 31
0.0
 12
114.4476387608
 22
176.5256770995
 32
0.0
 13
114.4476387608
 23
176.5256770995
 33
0.0
  0
SOLID
  5
27C
330
278
100
AcDbEntity
  8
FORMAT
 62
     7
100
AcDbTrace
 10
114.9556387608
 20
162.7236770995
 30
0.0
 11
114.4476387608
 21
159.4216770995
 31
0.0
 12
115.4636387608
 22
159.4216770995
 32
0.0
 13
115.4636387608
 23
159.4216770995
 33
0.0
  0
LINE
  5
27D
330
278
100
AcDbEntity
  8
FORMAT
 62
     7
100
AcDbLine
 10
129.8682376856
 20
173.2236770995
 30
0.0
 11
113.9556387608
 21
173.2236770995
 31
0.0
  0
LINE
  5
27E
330
278
100
AcDbEntity
  8
FORMAT
 62
     7
100
AcDbLine
 10
135.5547482751
 20
162.7236770995
 30
0.0
 11
113.9556387608
 21
162.7236770995
 31
0.0
  0
LINE
  5
27F
330
278
100
AcDbEntity
  8
FORMAT
 62
     7
100
AcDbLine
 10
114.9556387608
 20
173.2236770995
 30
0.0
 11
114.9556387608
 21
187.0485001931
 31
0.0
  0
LINE
  5
280
330
278
100
AcDbEntity
  8
FORMAT
 62
     7
100
AcDbLine
 10
114.9556387608
 20
173.2236770995
 30
0.0
 11
114.9556387608
 21
162.7236770995
 31
0.0
  0
LINE
  5
281
330
278
100
AcDbEntity
  8
FORMAT
 62
     7
100
AcDbLine
 10
114.9556387608
 20
162.7236770995
 30
0.0
 11
114.9556387608
 21
156.3736770995
 31
0.0
  0
MTEXT
  5
282
330
278
100
AcDbEntity
  8
FORMAT
 62
     7
100
AcDbMText
 10
110.4439014388
 20
177.690861536
 30
0.0
 40
3.5
 41
0.0
 71
     1
 72
     1
  1
10,5
  7
SLDTEXTSTYLE0
 11
-7.044195017643634E-15
 21
1.0
 31
0.0
 73
     1
 44
1.0
  0
ENDBLK
  5
27A
330
278
100
AcDbEntity
  8
0
100
AcDbBlockEnd
  0
BLOCK
  5
285
330
284
100
AcDbEntity
  8
0
100
AcDbBlockBegin
  2
_D_4
 70
     0
 10
0.0
 20
0.0
 30
0.0
  3
_D_4
  1

  0
SOLID
  5
287
330
284
100
AcDbEntity
  8
FORMAT
 62
     7
100
AcDbTrace
 10
130.9754172957
 20
202.7236770995
 30
0.0
 11
127.6734172957
 21
203.2316770995
 31
0.0
 12
127.6734172957
 22
202.2156770995
 32
0.0
 13
127.6734172957
 23
202.2156770995
 33
0.0
  0
SOLID
  5
288
330
284
100
AcDbEntity
  8
FORMAT
 62
     7
100
AcDbTrace
 10
139.1754172957
 20
202.7236770995
 30
0.0
 11
142.4774172957
 21
202.2156770995
 31
0.0
 12
142.4774172957
 22
203.2316770995
 32
0.0
 13
142.4774172957
 23
203.2316770995
 33
0.0
  0
LINE
  5
289
330
284
100
AcDbEntity
  8
FORMAT
 62
     7
100
AcDbLine
 10
130.9754172957
 20
193.7236770995
 30
0.0
 11
130.9754172957
 21
203.7236770995
 31
0.0
  0
LINE
  5
28A
330
284
100
AcDbEntity
  8
FORMAT
 62
     7
100
AcDbLine
 10
139.1754172957
 20
193.7236770995
 30
0.0
 11
139.1754172957
 21
203.7236770995
 31
0.0
  0
LINE
  5
28B
330
284
100
AcDbEntity
  8
FORMAT
 62
     7
100
AcDbLine
 10
130.9754172957
 20
202.7236770995
 30
0.0
 11
124.6254172957
 21
202.7236770995
 31
0.0
  0
LINE
  5
28C
330
284
100
AcDbEntity
  8
FORMAT
 62
     7
100
AcDbLine
 10
130.9754172957
 20
202.7236770995
 30
0.0
 11
139.1754172957
 21
202.7236770995
 31
0.0
  0
LINE
  5
28D
330
284
100
AcDbEntity
  8
FORMAT
 62
     7
100
AcDbLine
 10
139.1754172957
 20
202.7236770995
 30
0.0
 11
155.8657239149
 21
202.7236770995
 31
0.0
  0
MTEXT
  5
28E
330
284
100
AcDbEntity
  8
FORMAT
 62
     7
100
AcDbMText
 10
144.0787452231
 20
207.2354141887
 30
0.0
 40
3.5
 41
0.0
 71
     1
 72
     1
  1
%%c
  7
SLDTEXTSTYLE0
 73
     1
 44
1.0
  0
MTEXT
  5
28F
330
284
100
AcDbEntity
  8
FORMAT
 62
     7
100
AcDbMText
 10
149.1816967684
 20
207.2451364979
 30
0.0
 40
3.5
 41
0.0
 71
     1
 72
     1
  1
8,2
  7
SLDTEXTSTYLE0
 73
     1
 44
1.0
  0
ENDBLK
  5
286
330
284
100
AcDbEntity
  8
0
100
AcDbBlockEnd
  0
ENDSEC
  0
SECTION
  2
ENTITIES
  0
LINE
  5
BE
330
1F
100
AcDbEntity
  8
FORMAT
  6
Continuous
 62
     7
370
    18
100
AcDbLine
 10
168.2233544162
 20
35.6464717326
 30
0.0
 11
100.034011087
 21
35.6464717326
 31
0.0
  0
LINE
  5
BF
330
1F
100
AcDbEntity
  8
FORMAT
  6
Continuous
 62
     7
370
    18
100
AcDbLine
 10
168.2233544162
 20
48.7420674192
 30
0.0
 11
199.7748262501
 21
48.7420674192
 31
0.0
  0
LINE
  5
C0
330
1F
100
AcDbEntity
  8
FORMAT
  6
Continuous
 62
     7
370
    18
100
AcDbLine
 10
154.5410273733
 20
35.6464717326
 30
0.0
 11
154.5410273733
 21
25.9765524102
 31
0.0
  0
LINE
  5
C1
330
1F
100
AcDbEntity
  8
BEMASSUNG
  6
Continuous
 62
     7
370
    18
100
AcDbLine
 10
168.2233544162
 20
40.5638075942
 30
0.0
 11
199.7748262501
 21
40.5638075942
 31
0.0
  0
LINE
  5
C2
330
1F
100
AcDbEntity
  8
FORMAT
100
AcDbLine
 10
9.9438597858
 20
287.0
 30
0.0
 11
9.9438597858
 21
10.0
 31
0.0
  0
LINE
  5
C3
330
1F
100
AcDbEntity
  8
FORMAT
 62
     7
370
    18
100
AcDbLine
 10
100.034011087
 20
52.6963884738
 30
0.0
 11
100.034011087
 21
10.0
 31
0.0
  0
LINE
  5
C4
330
1F
100
AcDbEntity
  8
FORMAT
 62
     7
100
AcDbLine
 10
185.0302857672
 20
10.0
 30
0.0
 11
185.0302857672
 21
19.3470401503
 31
0.0
  0
LINE
  5
C5
330
1F
100
AcDbEntity
  8
FORMAT
 62
     7
100
AcDbLine
 10
100.034011087
 20
25.9765524102
 30
0.0
 11
199.7748262501
 21
25.9765524102
 31
0.0
  0
LINE
  5
C6
330
1F
100
AcDbEntity
  8
FORMAT
 62
     7
100
AcDbLine
 10
168.2233544162
 20
19.3470401503
 30
0.0
 11
199.7748262501
 21
19.3470401503
 31
0.0
  0
LINE
  5
C7
330
1F
100
AcDbEntity
  8
FORMAT
100
AcDbLine
 10
9.9438597858
 20
10.0
 30
0.0
 11
199.9438597858
 21
10.0
 31
0.0
  0
LINE
  5
C8
330
1F
100
AcDbEntity
  8
FORMAT
 62
     7
100
AcDbLine
 10
100.034011087
 20
52.6963884738
 30
0.0
 11
199.7882081366
 21
52.6963884738
 31
0.0
  0
LINE
  5
C9
330
1F
100
AcDbEntity
  8
FORMAT
 62
     7
100
AcDbLine
 10
168.2233544162
 20
10.0
 30
0.0
 11
168.2233544162
 21
52.6963884738
 31
0.0
  0
LINE
  5
CA
330
1F
100
AcDbEntity
  8
FORMAT
100
AcDbLine
 10
199.9438597858
 20
10.0
 30
0.0
 11
199.9438597858
 21
287.0
 31
0.0
  0
LINE
  5
CB
330
1F
100
AcDbEntity
  8
FORMAT
100
AcDbLine
 10
199.9438597858
 20
287.0
 30
0.0
 11
9.9438597858
 21
287.0
 31
0.0
  0
INSERT
  5
CC
330
1F
100
AcDbEntity
  8
FORMAT
100
AcDbBlockReference
  2
Block1
 10
175.6328999998
 20
27.0956685316
 30
0.0
  0
INSERT
  5
CD
330
1F
100
AcDbEntity
  8
FORMAT
100
AcDbBlockReference
  2
Block2
 10
-130.7567167495
 20
-36.9711154434
 30
0.0
  0
MTEXT
  5
CF
330
1F
100
AcDbEntity
  8
0
  6
Continuous
 62
     7
370
     0
100
AcDbMText
 10
101.379344253
 20
31.2497388993
 30
0.0
 40
3.175
 41
0.0
 71
     1
 72
     1
  1
D054-49156
  7
SLDTEXTSTYLE3
 73
     1
 44
1.0
  0
MTEXT
  5
D0
330
1F
100
AcDbEntity
  8
BEMASSUNG
 62
     7
100
AcDbMText
 10
169.1138237549
 20
47.9795870073
 30
0.0
 40
2.0
 41
0.0
 71
     1
 72
     1
  1
Ausführung:
  7
SLDTEXTSTYLE0
 73
     1
 44
1.0
  0
MTEXT
  5
D1
330
1F
100
AcDbEntity
  8
FORMAT
100
AcDbMText
 10
157.9048085267
 20
34.4345411691
 30
0.0
 40
2.0
 41
0.0
 71
     1
 72
     1
  1
Index:
  7
SLDTEXTSTYLE0
 73
     1
 44
1.0
  0
MTEXT
  5
D2
330
1F
100
AcDbEntity
  8
FORMAT
100
AcDbMText
 10
170.7771570289
 20
51.6009600552
 30
0.0
 40
1.8
 41
0.0
 71
     1
 72
     1
  1
KATALOGZEICHNUNG
  7
SLDTEXTSTYLE3
 73
     1
 44
1.0
  0
MTEXT
  5
D3
330
1F
100
AcDbEntity
  8
FORMAT
100
AcDbMText
 10
101.6738581533
 20
34.7696723378
 30
0.0
 40
2.0
 41
0.0
 71
     1
 72
     1
  1
Zeichnungsnummer:
  7
SLDTEXTSTYLE0
 73
     1
 44
1.0
  0
MTEXT
  5
D4
330
1F
100
AcDbEntity
  8
FORMAT
100
AcDbMText
 10
178.7654032586
 20
14.2806067945
 30
0.0
 40
2.1166666667
 41
0.0
 71
     1
 72
     1
  1
1
  7
SLDTEXTSTYLE0
 73
     1
 44
1.0
  0
MTEXT
  5
D5
330
1F
100
AcDbEntity
  8
FORMAT
100
AcDbMText
 10
172.6928815371
 20
14.2806067945
 30
0.0
 40
2.1166666667
 41
0.0
 71
     1
 72
     1
  1
1
  7
SLDTEXTSTYLE0
 73
     1
 44
1.0
  0
MTEXT
  5
D6
330
1F
100
AcDbEntity
  8
FORMAT
100
AcDbMText
 10
190.3665335114
 20
14.1724992936
 30
0.0
 40
2.1166666667
 41
0.0
 71
     1
 72
     1
  1
A4
  7
SLDTEXTSTYLE0
 73
     1
 44
1.0
  0
MTEXT
  5
D7
330
1F
100
AcDbEntity
  8
FORMAT
100
AcDbMText
 10
183.0445761222
 20
23.7012230636
 30
0.0
 40
2.1166666667
 41
0.0
 71
     1
 72
     1
  1
1:1
  7
SLDTEXTSTYLE0
 73
     1
 44
1.0
  0
MTEXT
  5
D8
330
1F
100
AcDbEntity
  8
FORMAT
100
AcDbMText
 10
176.4699079998
 20
14.3853488894
 30
0.0
 40
2.5
 41
0.0
 71
     2
 72
     1
  1
/
  7
SLDTEXTSTYLE0
 73
     1
 44
1.0
  0
MTEXT
  5
D9
330
1F
100
AcDbEntity
  8
FORMAT
100
AcDbMText
 10
170.4739006917
 20
17.8898077508
 30
0.0
 40
2.0
 41
0.0
 71
     1
 72
     1
  1
Blatt / von
  7
SLDTEXTSTYLE0
 73
     1
 44
1.0
  0
MTEXT
  5
DA
330
1F
100
AcDbEntity
  8
FORMAT
100
AcDbMText
 10
101.4386342429
 20
51.292111694
 30
0.0
 40
2.0
 41
0.0
 71
     1
 72
     1
  1
Benennung:
  7
SLDTEXTSTYLE0
 73
     1
 44
1.0
  0
MTEXT
  5
DB
330
1F
100
AcDbEntity
  8
FORMAT
100
AcDbMText
 10
187.8238638594
 20
17.8898077508
 30
0.0
 40
2.0
 41
0.0
 71
     1
 72
     1
  1
Format
  7
SLDTEXTSTYLE0
 73
     1
 44
1.0
  0
MTEXT
  5
DC
330
1F
100
AcDbEntity
  8
FORMAT
100
AcDbMText
 10
169.1523306895
 20
23.5727761737
 30
0.0
 40
2.0
 41
0.0
 71
     1
 72
     1
  1
Maßstab:
  7
SLDTEXTSTYLE0
 73
     1
 44
1.0
  0
MTEXT
  5
DD
330
1F
100
AcDbEntity
  8
FORMAT
100
AcDbMText
 10
101.3063537626
 20
47.9174905769
 30
0.0
 40
3.5
 41
0.0
 71
     1
 72
     1
  1
Achsverlängerung 20mm
  7
SLDTEXTSTYLE3
 73
     1
 44
1.0
  0
MTEXT
  5
DE
330
1F
100
AcDbEntity
  8
FORMAT
100
AcDbMText
 10
101.3063537626
 20
43.3217919868
 30
0.0
 40
2.5
 41
0.0
 71
     1
 72
     1
  1
AV 20-ER
  7
SLDTEXTSTYLE3
 73
     1
 44
1.0
  0
INSERT
  5
EC
330
1F
100
AcDbEntity
  8
FORMAT
100
AcDbBlockReference
  2
SW_NOTE_0_3
 10
11.7828650021
 20
40.9161213672
 30
0.0
  0
LINE
  5
ED
330
1F
100
AcDbEntity
  8
0
  6
Continuous
 62
     7
370
    25
100
AcDbLine
 10
74.1838069349
 20
162.7236770995
 30
0.0
 11
74.1838069349
 21
182.7236770995
 31
0.0
  0
LINE
  5
EE
330
1F
100
AcDbEntity
  8
0
  6
Continuous
 62
     7
370
    25
100
AcDbLine
 10
44.1838069349
 20
182.7236770995
 30
0.0
 11
44.1838069349
 21
162.7236770995
 31
0.0
  0
ARC
  5
EF
330
1F
100
AcDbEntity
  8
0
  6
Continuous
 62
     7
370
    25
100
AcDbCircle
 10
70.0277996326
 20
183.7236770995
 30
0.0
 40
1.0
100
AcDbArc
 50
192.2984589193
 51
270.0
  0
ARC
  5
F0
330
1F
100
AcDbEntity
  8
0
  6
Continuous
 62
     7
370
    25
100
AcDbCircle
 10
48.3398142373
 20
183.7236770995
 30
0.0
 40
1.0
100
AcDbArc
 50
270.0
 51
347.6520249574
  0
LINE
  5
F1
330
1F
100
AcDbEntity
  8
0
  6
Continuous
 62
     7
370
    25
100
AcDbLine
 10
69.0519791378
 20
183.5051036293
 30
0.0
 11
67.0571286912
 21
192.4111064875
 31
0.0
  0
ARC
  5
F2
330
1F
100
AcDbEntity
  8
0
  6
Continuous
 62
     7
370
    25
100
AcDbCircle
 10
66.6668004933
 20
192.3236770995
 30
0.0
 40
0.4000000000000142
100
AcDbArc
 50
12.6252598463
 51
90.0
  0
LINE
  5
F3
330
1F
100
AcDbEntity
  8
0
  6
Continuous
 62
     7
370
    25
100
AcDbLine
 10
51.3104851787
 20
192.4111064875
 30
0.0
 11
49.3156347321
 21
183.5051036293
 31
0.0
  0
ARC
  5
F4
330
1F
100
AcDbEntity
  8
0
  6
Continuous
 62
     7
370
    25
100
AcDbCircle
 10
51.7008133766
 20
192.3236770995
 30
0.0
 40
0.4000000000000057
100
AcDbArc
 50
90.0
 51
167.3747401537
  0
LINE
  5
F5
330
1F
100
AcDbEntity
  8
0
  6
Continuous
 62
     7
370
    25
100
AcDbLine
 10
59.1838069349
 20
162.7236770995
 30
0.0
 11
74.1838069349
 21
162.7236770995
 31
0.0
  0
LINE
  5
F6
330
1F
100
AcDbEntity
  8
0
  6
Continuous
 62
     7
370
    25
100
AcDbLine
 10
44.1838069349
 20
162.7236770995
 30
0.0
 11
59.1838069349
 21
162.7236770995
 31
0.0
  0
LINE
  5
F7
330
1F
100
AcDbEntity
  8
0
  6
Continuous
 62
     7
370
    25
100
AcDbLine
 10
59.1838069349
 20
182.7236770995
 30
0.0
 11
74.1838069349
 21
182.7236770995
 31
0.0
  0
LINE
  5
F8
330
1F
100
AcDbEntity
  8
0
  6
Continuous
 62
     7
370
    25
100
AcDbLine
 10
44.1838069349
 20
182.7236770995
 30
0.0
 11
59.1838069349
 21
182.7236770995
 31
0.0
  0
ELLIPSE
  5
F9
330
1F
100
AcDbEntity
  8
0
  6
Continuous
 62
     7
370
    25
100
AcDbEllipse
 10
59.1838069349
 20
183.7236770995
 30
0.0
 11
0.3999999999999986
 21
0.0
 31
0.0
210
0.0
220
0.0
230
1.0
 40
0.5464336754
 41
3.939227909517527
 42
5.485550051251884
  0
ARC
  5
FA
330
1F
100
AcDbEntity
  8
0
  6
Continuous
 62
     7
370
    25
100
AcDbCircle
 10
60.3017292539
 20
183.5506097611
 30
0.0
 40
0.8387268099340522
100
AcDbArc
 50
178.8636873101
 51
260.3800924999
  0
ARC
  5
FB
330
1F
100
AcDbEntity
  8
0
  6
Continuous
 62
     7
370
    25
100
AcDbCircle
 10
58.065884616
 20
183.5506097611
 30
0.0
 40
0.8387268099340522
100
AcDbArc
 50
279.6199075001
 51
1.1363126899
  0
LINE
  5
FC
330
1F
100
AcDbEntity
  8
0
  6
Continuous
 62
     7
370
    25
100
AcDbLine
 10
56.3655873012
 20
183.5672426344
 30
0.0
 11
58.9044464856
 21
183.5672426344
 31
0.0
  0
ELLIPSE
  5
FD
330
1F
100
AcDbEntity
  8
0
  6
Continuous
 62
     7
370
    25
100
AcDbEllipse
 10
55.8407585082
 20
183.7236770995
 30
0.0
 11
0.0
 21
1.0
 31
0.0
210
0.0
220
0.0
230
1.0
 40
0.5313708499
 41
3.14159265358978
 42
4.555309347705204
  0
LINE
  5
FE
330
1F
100
AcDbEntity
  8
0
  6
Continuous
 62
     7
370
    25
100
AcDbLine
 10
59.4631673843
 20
183.5672426344
 30
0.0
 11
62.0020265687
 21
183.5672426344
 31
0.0
  0
ELLIPSE
  5
FF
330
1F
100
AcDbEntity
  8
0
  6
Continuous
 62
     7
370
    25
100
AcDbEllipse
 10
62.5268553617
 20
183.7236770995
 30
0.0
 11
0.0
 21
1.0
 31
0.0
210
0.0
220
0.0
230
1.0
 40
0.5313708499
 41
1.727875959474389
 42
3.141592653589793
  0
ARC
  5
100
330
1F
100
AcDbEntity
  8
0
  6
Continuous
 62
     7
370
    25
100
AcDbCircle
 10
59.1838069349
 20
190.8716320655
 30
0.0
 40
1.54016636457948
100
AcDbArc
 50
79.5496568302
 51
100.4503431698
  0
LINE
  5
101
330
1F
100
AcDbEntity
  8
0
  6
Continuous
 62
     7
370
    25
100
AcDbLine
 10
59.4631673843
 20
192.3862508855
 30
0.0
 11
59.4631673843
 21
183.5672426344
 31
0.0
  0
LINE
  5
102
330
1F
100
AcDbEntity
  8
0
  6
Continuous
 62
     7
370
    25
100
AcDbLine
 10
58.9044464856
 20
183.5672426344
 30
0.0
 11
58.9044464856
 21
192.3862508855
 31
0.0
  0
LINE
  5
103
330
1F
100
AcDbEntity
  8
0
  6
Continuous
 62
     7
370
    25
100
AcDbLine
 10
58.9044464856
 20
192.3862508855
 30
0.0
 11
56.9441581898
 21
192.3862508855
 31
0.0
  0
LINE
  5
104
330
1F
100
AcDbEntity
  8
0
  6
Continuous
 62
     7
370
    25
100
AcDbLine
 10
56.9441581898
 20
192.3862508855
 30
0.0
 11
56.3655873012
 21
183.5672426344
 31
0.0
  0
LINE
  5
105
330
1F
100
AcDbEntity
  8
0
  6
Continuous
 62
     7
370
    25
100
AcDbLine
 10
61.4234556801
 20
192.3862508855
 30
0.0
 11
59.4631673843
 21
192.3862508855
 31
0.0
  0
LINE
  5
106
330
1F
100
AcDbEntity
  8
0
  6
Continuous
 62
     7
370
    25
100
AcDbLine
 10
62.0020265687
 20
183.5672426344
 30
0.0
 11
61.4234556801
 21
192.3862508855
 31
0.0
  0
LINE
  5
107
330
1F
100
AcDbEntity
  8
0
  6
Continuous
 62
     7
370
    25
100
AcDbLine
 10
65.8718761097
 20
183.5672426344
 30
0.0
 11
65.8718761097
 21
182.7236770995
 31
0.0
  0
ELLIPSE
  5
108
330
1F
100
AcDbEntity
  8
0
  6
Continuous
 62
     7
370
    25
100
AcDbEllipse
 10
65.8371886104
 20
183.7236770995
 30
0.0
 11
0.4272971872166806
 21
-0.1808886101656526
 31
0.0
210
0.0
220
0.0
230
1.0
 40
0.2871383489
 41
4.914023598964674
 42
6.460345740699035
  0
ARC
  5
109
330
1F
100
AcDbEntity
  8
0
  6
Continuous
 62
     7
370
    25
100
AcDbCircle
 10
67.2546397865
 20
183.7236770995
 30
0.0
 40
1.000000000000005
100
AcDbArc
 50
189.0
 51
270.0
  0
LINE
  5
10A
330
1F
100
AcDbEntity
  8
0
  6
Continuous
 62
     7
370
    25
100
AcDbLine
 10
62.2813870181
 20
183.5672426344
 30
0.0
 11
65.8718761097
 21
183.5672426344
 31
0.0
  0
ELLIPSE
  5
10B
330
1F
100
AcDbEntity
  8
0
  6
Continuous
 62
     7
370
    25
100
AcDbEllipse
 10
62.5268553617
 20
183.7236770995
 30
0.0
 11
0.0
 21
1.0
 31
0.0
210
0.0
220
0.0
230
1.0
 40
0.2485281374
 41
1.72787595947439
 42
3.141592653589793
  0
ARC
  5
10C
330
1F
100
AcDbEntity
  8
0
  6
Continuous
 62
     7
370
    25
100
AcDbCircle
 10
62.1417067934
 20
185.4878246753
 30
0.0
 40
1.925654678540437
100
AcDbArc
 50
265.8403122795
 51
274.1596877205
  0
ELLIPSE
  5
10D
330
1F
100
AcDbEntity
  8
0
  6
Continuous
 62
     7
370
    25
100
AcDbEllipse
 10
55.8407585082
 20
183.7236770995
 30
0.0
 11
0.0
 21
1.0
 31
0.0
210
0.0
220
0.0
230
1.0
 40
0.2485281374
 41
3.141592653589764
 42
4.555309347705196
  0
ARC
  5
10E
330
1F
100
AcDbEntity
  8
0
  6
Continuous
 62
     7
370
    25
100
AcDbCircle
 10
56.2259070765
 20
185.4878246753
 30
0.0
 40
1.925654678540408
100
AcDbArc
 50
265.8403122795
 51
274.1596877205
  0
LINE
  5
10F
330
1F
100
AcDbEntity
  8
0
  6
Continuous
 62
     7
370
    25
100
AcDbLine
 10
52.4957377602
 20
183.5672426344
 30
0.0
 11
56.0862268518
 21
183.5672426344
 31
0.0
  0
LINE
  5
110
330
1F
100
AcDbEntity
  8
0
  6
Continuous
 62
     7
370
    25
100
AcDbLine
 10
52.4957377602
 20
183.5672426344
 30
0.0
 11
52.4957377602
 21
182.7236770995
 31
0.0
  0
ELLIPSE
  5
111
330
1F
100
AcDbEntity
  8
0
  6
Continuous
 62
     7
370
    25
100
AcDbEllipse
 10
52.5304252595
 20
183.7236770995
 30
0.0
 11
0.4272971872166806
 21
0.1808886101656526
 31
0.0
210
0.0
220
0.0
230
1.0
 40
0.2871383489
 41
2.964432220070307
 42
4.510754361804699
  0
ARC
  5
112
330
1F
100
AcDbEntity
  8
0
  6
Continuous
 62
     7
370
    25
100
AcDbCircle
 10
51.1129740834
 20
183.7236770995
 30
0.0
 40
1.0
100
AcDbArc
 50
270.0
 51
351.0
  0
ARC
  5
113
330
1F
100
AcDbEntity
  8
0
  6
Continuous
 62
     7
370
    25
100
AcDbCircle
 10
59.2398712335
 20
192.3929040348
 30
0.0
 40
0.3354907239736202
100
AcDbArc
 50
99.6199075001
 51
181.13631269
  0
ARC
  5
114
330
1F
100
AcDbEntity
  8
0
  6
Continuous
 62
     7
370
    25
100
AcDbCircle
 10
59.1277426364
 20
192.3929040348
 30
0.0
 40
0.3354907239736273
100
AcDbArc
 50
358.86368731
 51
80.3800924999
  0
ARC
  5
115
330
1F
100
AcDbEntity
  8
0
  6
Continuous
 62
     7
370
    25
100
AcDbCircle
 10
57.2795829376
 20
192.3929040348
 30
0.0
 40
0.3354907239736344
100
AcDbArc
 50
99.6199075001
 51
181.13631269
  0
LINE
  5
116
330
1F
100
AcDbEntity
  8
0
  6
Continuous
 62
     7
370
    25
100
AcDbLine
 10
57.2235186391
 20
192.7236770995
 30
0.0
 11
59.1838069349
 21
192.7236770995
 31
0.0
  0
LINE
  5
117
330
1F
100
AcDbEntity
  8
0
  6
Continuous
 62
     7
370
    25
100
AcDbLine
 10
59.1838069349
 20
192.7236770995
 30
0.0
 11
61.1440952308
 21
192.7236770995
 31
0.0
  0
ARC
  5
118
330
1F
100
AcDbEntity
  8
0
  6
Continuous
 62
     7
370
    25
100
AcDbCircle
 10
61.0880309323
 20
192.3929040348
 30
0.0
 40
0.3354907239736273
100
AcDbArc
 50
358.86368731
 51
80.3800924999
  0
ELLIPSE
  5
119
330
1F
100
AcDbEntity
  8
0
  6
Continuous
 62
     7
370
    25
100
AcDbEllipse
 10
61.7110264338
 20
192.3236770995
 30
0.0
 11
0.4025764986539783
 21
-0.02746477246384415
 31
0.0
210
0.0
220
0.0
230
1.0
 40
0.1534013253
 41
1.601656058263199
 42
2.376865614607519
  0
LINE
  5
11A
330
1F
100
AcDbEntity
  8
0
  6
Continuous
 62
     7
370
    25
100
AcDbLine
 10
61.7028161295
 20
192.3862508855
 30
0.0
 11
62.2813870181
 21
183.5672426344
 31
0.0
  0
ELLIPSE
  5
11B
330
1F
100
AcDbEntity
  8
0
  6
Continuous
 62
     7
370
    25
100
AcDbEllipse
 10
56.6565874361
 20
192.3236770995
 30
0.0
 11
0.4025764986539855
 21
0.02746477246384416
 31
0.0
210
0.0
220
0.0
230
1.0
 40
0.1534013253
 41
0.7647270389822618
 42
1.539936595326577
  0
LINE
  5
11C
330
1F
100
AcDbEntity
  8
0
  6
Continuous
 62
     7
370
    25
100
AcDbLine
 10
56.0862268518
 20
183.5672426344
 30
0.0
 11
56.6647977404
 21
192.3862508855
 31
0.0
  0
ARC
  5
11D
330
1F
100
AcDbEntity
  8
0
  6
Continuous
 62
     7
370
    25
100
AcDbCircle
 10
64.6726200917
 20
191.7365006897
 30
0.0
 40
0.6791144581834645
100
AcDbArc
 50
73.0896296931
 51
106.9103703069
  0
LINE
  5
11E
330
1F
100
AcDbEntity
  8
0
  6
Continuous
 62
     7
370
    25
100
AcDbLine
 10
64.8701577599
 20
192.3862508855
 30
0.0
 11
66.2669514459
 21
183.5672426344
 31
0.0
  0
LINE
  5
11F
330
1F
100
AcDbEntity
  8
0
  6
Continuous
 62
     7
370
    25
100
AcDbLine
 10
65.8718761097
 20
183.5672426344
 30
0.0
 11
64.4750824236
 21
192.3862508855
 31
0.0
  0
ARC
  5
120
330
1F
100
AcDbEntity
  8
0
  6
Continuous
 62
     7
370
    25
100
AcDbCircle
 10
53.6949937781
 20
191.7365006897
 30
0.0
 40
0.6791144581833808
100
AcDbArc
 50
73.0896296931
 51
106.9103703069
  0
LINE
  5
121
330
1F
100
AcDbEntity
  8
0
  6
Continuous
 62
     7
370
    25
100
AcDbLine
 10
53.8925314463
 20
192.3862508855
 30
0.0
 11
52.4957377602
 21
183.5672426344
 31
0.0
  0
LINE
  5
122
330
1F
100
AcDbEntity
  8
0
  6
Continuous
 62
     7
370
    25
100
AcDbLine
 10
52.100662424
 20
183.5672426344
 30
0.0
 11
53.49745611
 21
192.3862508855
 31
0.0
  0
LINE
  5
123
330
1F
100
AcDbEntity
  8
0
  6
Continuous
 62
     7
370
    25
100
AcDbLine
 10
64.4750824236
 20
192.3862508855
 30
0.0
 11
61.7028161295
 21
192.3862508855
 31
0.0
  0
LINE
  5
124
330
1F
100
AcDbEntity
  8
0
  6
Continuous
 62
     7
370
    25
100
AcDbLine
 10
56.6647977404
 20
192.3862508855
 30
0.0
 11
53.8925314463
 21
192.3862508855
 31
0.0
  0
LINE
  5
125
330
1F
100
AcDbEntity
  8
0
  6
Continuous
 62
     7
370
    25
100
AcDbLine
 10
61.7028161295
 20
192.7236770995
 30
0.0
 11
61.7028161295
 21
192.3862508855
 31
0.0
  0
LINE
  5
126
330
1F
100
AcDbEntity
  8
0
  6
Continuous
 62
     7
370
    25
100
AcDbLine
 10
61.7028161295
 20
192.7236770995
 30
0.0
 11
61.1440952308
 21
192.7236770995
 31
0.0
  0
LINE
  5
127
330
1F
100
AcDbEntity
  8
0
  6
Continuous
 62
     7
370
    25
100
AcDbLine
 10
56.6647977404
 20
192.3862508855
 30
0.0
 11
56.6647977404
 21
192.7236770995
 31
0.0
  0
LINE
  5
128
330
1F
100
AcDbEntity
  8
0
  6
Continuous
 62
     7
370
    25
100
AcDbLine
 10
57.2235186391
 20
192.7236770995
 30
0.0
 11
56.6647977404
 21
192.7236770995
 31
0.0
  0
LINE
  5
129
330
1F
100
AcDbEntity
  8
0
  6
Continuous
 62
     7
370
    25
100
AcDbLine
 10
64.4750824236
 20
192.7236770995
 30
0.0
 11
64.4750824236
 21
192.3862508855
 31
0.0
  0
LINE
  5
12A
330
1F
100
AcDbEntity
  8
0
  6
Continuous
 62
     7
370
    25
100
AcDbLine
 10
61.7028161295
 20
192.7236770995
 30
0.0
 11
64.4750824236
 21
192.7236770995
 31
0.0
  0
ARC
  5
12B
330
1F
100
AcDbEntity
  8
0
  6
Continuous
 62
     7
370
    25
100
AcDbCircle
 10
64.4750824236
 20
192.3236770995
 30
0.0
 40
0.4000000000000093
100
AcDbArc
 50
9.0
 51
90.0
  0
ARC
  5
12C
330
1F
100
AcDbEntity
  8
0
  6
Continuous
 62
     7
370
    25
100
AcDbCircle
 10
53.8925314463
 20
192.3236770995
 30
0.0
 40
0.4000000000000057
100
AcDbArc
 50
90.0
 51
171.0
  0
LINE
  5
12D
330
1F
100
AcDbEntity
  8
0
  6
Continuous
 62
     7
370
    25
100
AcDbLine
 10
53.8925314463
 20
192.3862508855
 30
0.0
 11
53.8925314463
 21
192.7236770995
 31
0.0
  0
LINE
  5
12E
330
1F
100
AcDbEntity
  8
0
  6
Continuous
 62
     7
370
    25
100
AcDbLine
 10
53.8925314463
 20
192.7236770995
 30
0.0
 11
56.6647977404
 21
192.7236770995
 31
0.0
  0
ARC
  5
12F
330
1F
100
AcDbEntity
  8
0
  6
Continuous
 62
     7
370
    25
100
AcDbCircle
 10
66.3248088894
 20
183.8362592043
 30
0.0
 40
0.2751679462507274
100
AcDbArc
 50
257.8622762533
 51
282.1377237467
  0
ELLIPSE
  5
130
330
1F
100
AcDbEntity
  8
0
  6
Continuous
 62
     7
370
    25
100
AcDbEllipse
 10
67.2546397865
 20
183.7236770995
 30
0.0
 11
0.0
 21
1.0
 31
0.0
210
0.0
220
0.0
230
1.0
 40
0.8828427125
 41
1.727875959474388
 42
3.141592653589793
  0
LINE
  5
131
330
1F
100
AcDbEntity
  8
0
  6
Continuous
 62
     7
370
    25
100
AcDbLine
 10
66.3826663328
 20
183.5672426344
 30
0.0
 11
68.9215255173
 21
183.5672426344
 31
0.0
  0
ARC
  5
132
330
1F
100
AcDbEntity
  8
0
  6
Continuous
 62
     7
370
    25
100
AcDbCircle
 10
69.7600873869
 20
183.5506097611
 30
0.0
 40
0.8387268099340404
100
AcDbArc
 50
178.8636873101
 51
260.3800924999
  0
LINE
  5
133
330
1F
100
AcDbEntity
  8
0
  6
Continuous
 62
     7
370
    25
100
AcDbLine
 10
49.4460883526
 20
183.5672426344
 30
0.0
 11
51.9849475371
 21
183.5672426344
 31
0.0
  0
ELLIPSE
  5
134
330
1F
100
AcDbEntity
  8
0
  6
Continuous
 62
     7
370
    25
100
AcDbEllipse
 10
51.1129740834
 20
183.7236770995
 30
0.0
 11
0.0
 21
1.0
 31
0.0
210
0.0
220
0.0
230
1.0
 40
0.8828427125
 41
3.141592653589793
 42
4.555309347705208
  0
ARC
  5
135
330
1F
100
AcDbEntity
  8
0
  6
Continuous
 62
     7
370
    25
100
AcDbCircle
 10
48.607526483
 20
183.5506097611
 30
0.0
 40
0.8387268099340522
100
AcDbArc
 50
279.6199075001
 51
1.1363126899
  0
ARC
  5
136
330
1F
100
AcDbEntity
  8
0
  6
Continuous
 62
     7
370
    25
100
AcDbCircle
 10
52.0428049805
 20
183.8362592043
 30
0.0
 40
0.2751679462507259
100
AcDbArc
 50
257.8622762533
 51
282.1377237467
  0
ELLIPSE
  5
137
330
1F
100
AcDbEntity
  8
0
  6
Continuous
 62
     7
370
    25
100
AcDbEllipse
 10
65.2850545243
 20
192.3236770995
 30
0.0
 11
0.4148999663868551
 21
-0.06303997778363168
 31
0.0
210
0.0
220
0.0
230
1.0
 40
0.0587446133
 41
2.38506034479994
 42
3.160269901144185
  0
LINE
  5
138
330
1F
100
AcDbEntity
  8
0
  6
Continuous
 62
     7
370
    25
100
AcDbLine
 10
64.9858726468
 20
192.3862508855
 30
0.0
 11
66.3826663328
 21
183.5672426344
 31
0.0
  0
ELLIPSE
  5
139
330
1F
100
AcDbEntity
  8
0
  6
Continuous
 62
     7
370
    25
100
AcDbEllipse
 10
53.0825593456
 20
192.3236770995
 30
0.0
 11
0.4148999663868551
 21
0.06303997778366011
 31
0.0
210
0.0
220
0.0
230
1.0
 40
0.0587446133
 41
6.264508059624484
 42
7.039717615968812
  0
LINE
  5
13A
330
1F
100
AcDbEntity
  8
0
  6
Continuous
 62
     7
370
    25
100
AcDbLine
 10
51.9849475371
 20
183.5672426344
 30
0.0
 11
53.3817412231
 21
192.3862508855
 31
0.0
  0
LINE
  5
13B
330
1F
100
AcDbEntity
  8
0
  6
Continuous
 62
     7
370
    25
100
AcDbLine
 10
66.9461609426
 20
192.3862508855
 30
0.0
 11
64.9858726468
 21
192.3862508855
 31
0.0
  0
LINE
  5
13C
330
1F
100
AcDbEntity
  8
0
  6
Continuous
 62
     7
370
    25
100
AcDbLine
 10
68.9215255173
 20
183.5672426344
 30
0.0
 11
66.9461609426
 21
192.3862508855
 31
0.0
  0
LINE
  5
13D
330
1F
100
AcDbEntity
  8
0
  6
Continuous
 62
     7
370
    25
100
AcDbLine
 10
53.3817412231
 20
192.3862508855
 30
0.0
 11
51.4214529273
 21
192.3862508855
 31
0.0
  0
LINE
  5
13E
330
1F
100
AcDbEntity
  8
0
  6
Continuous
 62
     7
370
    25
100
AcDbLine
 10
51.4214529273
 20
192.3862508855
 30
0.0
 11
49.4460883526
 21
183.5672426344
 31
0.0
  0
ARC
  5
13F
330
1F
100
AcDbEntity
  8
0
  6
Continuous
 62
     7
370
    25
100
AcDbCircle
 10
64.6504478989
 20
192.3929040348
 30
0.0
 40
0.3354907239736273
100
AcDbArc
 50
358.86368731
 51
80.3800924999
  0
LINE
  5
140
330
1F
100
AcDbEntity
  8
0
  6
Continuous
 62
     7
370
    25
100
AcDbLine
 10
64.7065121974
 20
192.7236770995
 30
0.0
 11
64.4750824236
 21
192.7236770995
 31
0.0
  0
ARC
  5
141
330
1F
100
AcDbEntity
  8
0
  6
Continuous
 62
     7
370
    25
100
AcDbCircle
 10
53.717165971
 20
192.3929040348
 30
0.0
 40
0.3354907239736273
100
AcDbArc
 50
99.6199075001
 51
181.13631269
  0
LINE
  5
142
330
1F
100
AcDbEntity
  8
0
  6
Continuous
 62
     7
370
    25
100
AcDbLine
 10
53.8925314463
 20
192.7236770995
 30
0.0
 11
53.6611016725
 21
192.7236770995
 31
0.0
  0
ARC
  5
143
330
1F
100
AcDbEntity
  8
0
  6
Continuous
 62
     7
370
    25
100
AcDbCircle
 10
66.6107361948
 20
192.3929040348
 30
0.0
 40
0.3354907239736132
100
AcDbArc
 50
358.86368731
 51
80.3800924999
  0
LINE
  5
144
330
1F
100
AcDbEntity
  8
0
  6
Continuous
 62
     7
370
    25
100
AcDbLine
 10
64.7065121974
 20
192.7236770995
 30
0.0
 11
66.6668004933
 21
192.7236770995
 31
0.0
  0
ARC
  5
145
330
1F
100
AcDbEntity
  8
0
  6
Continuous
 62
     7
370
    25
100
AcDbCircle
 10
51.7568776751
 20
192.3929040348
 30
0.0
 40
0.3354907239736273
100
AcDbArc
 50
99.6199075001
 51
181.13631269
  0
LINE
  5
146
330
1F
100
AcDbEntity
  8
0
  6
Continuous
 62
     7
370
    25
100
AcDbLine
 10
51.7008133766
 20
192.7236770995
 30
0.0
 11
53.6611016725
 21
192.7236770995
 31
0.0
  0
LINE
  5
147
330
1F
100
AcDbEntity
  8
0
  6
Continuous
 62
     1
370
    25
100
AcDbLine
 10
68.9215255173
 20
183.5672426344
 30
0.0
 11
69.0519791378
 21
183.5051036293
 31
0.0
  0
LINE
  5
148
330
1F
100
AcDbEntity
  8
0
  6
Continuous
 62
     1
370
    25
100
AcDbLine
 10
49.3156401341
 20
183.5051062025
 30
0.0
 11
49.4460883526
 21
183.5672426344
 31
0.0
  0
LINE
  5
149
330
1F
100
AcDbEntity
  8
0
  6
Continuous
 62
     1
370
    25
100
AcDbLine
 10
66.9461609426
 20
192.3862508855
 30
0.0
 11
67.0571286912
 21
192.4111064875
 31
0.0
  0
LINE
  5
14A
330
1F
100
AcDbEntity
  8
0
  6
Continuous
 62
     1
370
    25
100
AcDbLine
 10
51.3104851787
 20
192.4111064875
 30
0.0
 11
51.4214529273
 21
192.3862508855
 31
0.0
  0
DIMENSION
  5
14B
330
1F
100
AcDbEntity
  8
FORMAT
 62
     7
100
AcDbDimension
  2
_D
 10
74.1838069349
 20
140.7236770995
 30
0.0
 11
59.1838069349
 21
140.7236770995
 31
0.0
 70
   160
  1
%%c<>
 71
     2
 42
-1.0
  3
SLDDIMSTYLE0
100
AcDbAlignedDimension
 13
44.1838069349
 23
162.7236770995
 33
0.0
 14
74.1838069349
 24
162.7236770995
 34
0.0
100
AcDbRotatedDimension
  0
LINE
  5
157
330
1F
100
AcDbEntity
  8
0
  6
CENTER
 62
     7
370
    18
100
AcDbLine
 10
59.1838069349
 20
196.3236770995
 30
0.0
 11
59.1838069349
 21
159.1236770995
 31
0.0
  0
LINE
  5
158
330
1F
100
AcDbEntity
  8
0
  6
Continuous
 62
     7
370
    18
100
AcDbLine
 10
46.4838069349
 20
194.3236770995
 30
0.0
 11
59.1838069349
 21
194.3236770995
 31
0.0
  0
SOLID
  5
159
330
1F
100
AcDbEntity
  8
0
  6
Continuous
 62
     7
370
    18
100
AcDbTrace
 10
59.1838069349
 20
194.3236770995
 30
0.0
 11
52.8338069349
 21
195.3396770995
 31
0.0
 12
52.8338069349
 22
193.3076770995
 32
0.0
 13
52.8338069349
 23
193.3076770995
 33
0.0
  0
LINE
  5
15A
330
1F
100
AcDbEntity
  8
0
  6
Continuous
 62
     7
370
    18
100
AcDbLine
 10
46.4838069349
 20
161.1236770995
 30
0.0
 11
59.1838069349
 21
161.1236770995
 31
0.0
  0
SOLID
  5
15B
330
1F
100
AcDbEntity
  8
0
  6
Continuous
 62
     7
370
    18
100
AcDbTrace
 10
59.1838069349
 20
161.1236770995
 30
0.0
 11
52.8338069349
 21
162.1396770995
 31
0.0
 12
52.8338069349
 22
160.1076770995
 32
0.0
 13
52.8338069349
 23
160.1076770995
 33
0.0
  0
MTEXT
  5
15C
330
1F
100
AcDbEntity
  8
0
  6
Continuous
 62
     7
100
AcDbMText
 10
57.1087942798
 20
203.8536524374
 30
0.0
 40
5.0
 41
0.0
 71
     1
 72
     1
  1
A
  7
SLDTEXTSTYLE0
 73
     1
 44
1.0
  0
MTEXT
  5
15D
330
1F
100
AcDbEntity
  8
0
  6
Continuous
 62
     7
100
AcDbMText
 10
57.1728002277
 20
156.5841163668
 30
0.0
 40
5.0
 41
0.0
 71
     1
 72
     1
  1
A
  7
SLDTEXTSTYLE0
 73
     1
 44
1.0
  0
LINE
  5
15E
330
1F
100
AcDbEntity
  8
0
  6
Continuous
 62
     7
370
    25
100
AcDbLine
 10
177.5525689275
 20
82.7894431481
 30
0.0
 11
177.5525689275
 21
99.1202593858
 31
0.0
  0
LINE
  5
15F
330
1F
100
AcDbEntity
  8
0
  6
Continuous
 62
     7
370
    25
100
AcDbLine
 10
147.5525689275
 20
99.1202593858
 30
0.0
 11
147.5525689275
 21
82.7894431481
 31
0.0
  0
LINE
  5
160
330
1F
100
AcDbEntity
  8
0
  6
Continuous
 62
     7
370
    25
100
AcDbLine
 10
172.4153585707
 20
99.7956842133
 30
0.0
 11
170.4213121176
 21
107.0648681047
 31
0.0
  0
LINE
  5
161
330
1F
100
AcDbEntity
  8
0
  6
Continuous
 62
     7
370
    25
100
AcDbLine
 10
154.6838257373
 20
107.0648681047
 30
0.0
 11
152.6897792843
 21
99.7956842133
 31
0.0
  0
ARC
  5
162
330
1F
100
AcDbEntity
  8
0
  6
Continuous
 62
     7
370
    25
100
AcDbCircle
 10
170.0355624858
 20
106.9590511799
 30
0.0
 40
0.4000000000000096
100
AcDbArc
 50
15.3397586804
 51
60.0026882663
  0
ARC
  5
163
330
1F
100
AcDbEntity
  8
0
  6
Continuous
 62
     7
370
    25
100
AcDbCircle
 10
155.0695753691
 20
106.9590511799
 30
0.0
 40
0.399999999999999
100
AcDbArc
 50
119.9973117337
 51
164.6602413196
  0
LINE
  5
164
330
1F
100
AcDbEntity
  8
0
  6
Continuous
 62
     7
370
    25
100
AcDbLine
 10
170.2355462324
 20
107.3054707249
 30
0.0
 11
168.2752579365
 21
108.4371210702
 31
0.0
  0
LINE
  5
165
330
1F
100
AcDbEntity
  8
0
  6
Continuous
 62
     7
370
    25
100
AcDbLine
 10
156.8298799185
 20
108.4371210702
 30
0.0
 11
154.8695916226
 21
107.3054707249
 31
0.0
  0
LWPOLYLINE
  5
166
330
1F
100
AcDbEntity
  8
0
  6
Continuous
 62
     7
370
    25
100
AcDbPolyline
 90
        3
 70
   128
 43
0.0
 10
156.8742685867
 20
108.4699384702
 10
156.8641427214
 20
108.4603756976
 10
156.8298799185
 20
108.4371210702
  0
LWPOLYLINE
  5
167
330
1F
100
AcDbEntity
  8
0
  6
Continuous
 62
     7
370
    25
100
AcDbPolyline
 90
        4
 70
   128
 43
0.0
 10
168.2752579365
 20
108.4371210702
 10
168.2464619122
 20
108.4560473231
 10
168.2288137601
 20
108.4720151247
 10
168.2288716532
 20
108.4718872973
  0
LINE
  5
168
330
1F
100
AcDbEntity
  8
0
  6
Continuous
 62
     7
370
    25
100
AcDbLine
 10
167.8438444162
 20
110.4136395008
 30
0.0
 11
165.071578122
 21
110.4136395008
 31
0.0
  0
LINE
  5
169
330
1F
100
AcDbEntity
  8
0
  6
Continuous
 62
     7
370
    25
100
AcDbLine
 10
160.033559733
 20
110.4136395008
 30
0.0
 11
157.2612934388
 21
110.4136395008
 31
0.0
  0
ARC
  5
16A
330
1F
100
AcDbEntity
  8
0
  6
Continuous
 62
     7
370
    25
100
AcDbCircle
 10
157.2612934388
 20
110.0136395008
 30
0.0
 40
0.3999999999999915
100
AcDbArc
 50
90.0
 51
167.6784696052
  0
ARC
  5
16B
330
1F
100
AcDbEntity
  8
0
  6
Continuous
 62
     7
370
    25
100
AcDbCircle
 10
167.8438444162
 20
110.0136395008
 30
0.0
 40
0.3999999999999915
100
AcDbArc
 50
12.3215303948
 51
90.0
  0
ARC
  5
16C
330
1F
100
AcDbEntity
  8
0
  6
Continuous
 62
     7
370
    25
100
AcDbCircle
 10
160.0562422315
 20
111.1560786715
 30
0.0
 40
0.7427855800663594
100
AcDbArc
 50
268.2500824783
 51
296.8993664791
  0
ARC
  5
16D
330
1F
100
AcDbEntity
  8
0
  6
Continuous
 62
     7
370
    25
100
AcDbCircle
 10
165.0476004487
 20
111.1502723621
 30
0.0
 40
0.7370229990430653
100
AcDbArc
 50
242.9862103865
 51
271.8643406562
  0
ARC
  5
16E
330
1F
100
AcDbEntity
  8
0
  6
Continuous
 62
     7
370
    25
100
AcDbCircle
 10
172.7552570547
 20
99.8647330723
 30
0.0
 40
0.3459732603534013
100
AcDbArc
 50
191.2698995999
 51
223.6913834038
  0
LWPOLYLINE
  5
16F
330
1F
100
AcDbEntity
  8
0
  6
Continuous
 62
     7
370
    25
100
AcDbPolyline
 90
        5
 70
   128
 43
0.0
 10
152.6867141967
 20
99.8010436267
 10
152.6804682332
 20
99.7654862181
 10
152.6295963367
 20
99.6623688277
 10
152.5976288114
 20
99.6236974646
 10
152.5995256327
 20
99.6248460238
  0
LINE
  5
170
330
1F
100
AcDbEntity
  8
0
  6
Continuous
 62
     7
370
    25
100
AcDbLine
 10
156.8705072573
 20
110.0989985095
 30
0.0
 11
156.460989397
 21
108.2241651051
 31
0.0
  0
LINE
  5
171
330
1F
100
AcDbEntity
  8
0
  6
Continuous
 62
     7
370
    25
100
AcDbLine
 10
168.644148458
 20
108.2241651051
 30
0.0
 11
168.2346305976
 21
110.0989985095
 31
0.0
  0
LINE
  5
172
330
1F
100
AcDbEntity
  8
0
  6
Continuous
 62
     7
370
    25
100
AcDbLine
 10
162.352585181
 20
111.6253109557
 30
0.0
 11
160.3922968851
 21
110.4936606104
 31
0.0
  0
LINE
  5
173
330
1F
100
AcDbEntity
  8
0
  6
Continuous
 62
     7
370
    25
100
AcDbLine
 10
164.7128409699
 20
110.4936606104
 30
0.0
 11
162.752552674
 21
111.6253109557
 31
0.0
  0
ARC
  5
174
330
1F
100
AcDbEntity
  8
0
  6
Continuous
 62
     7
370
    25
100
AcDbCircle
 10
162.5525689275
 20
111.2788914108
 30
0.0
 40
0.4000000000000077
100
AcDbArc
 50
60.0026882663
 51
119.9973117336
  0
LWPOLYLINE
  5
175
330
1F
100
AcDbEntity
  8
0
  6
Continuous
 62
     7
370
    25
100
AcDbPolyline
 90
       54
 70
   128
 43
0.0
 10
151.9459672097
 20
92.9971985472
 10
152.6473269158
 20
92.6174731775
 10
153.389389386
 20
92.2644691511
 10
154.1691053264
 20
91.9396370375
 10
154.983270717
 20
91.6443116412
 10
155.8285399775
 20
91.3797065179
 10
156.7014397153
 20
91.1469089866
 10
157.5983829982
 20
90.9468756624
 10
158.5156840936
 20
90.7804285251
 10
159.4495736148
 20
90.6482515417
 10
160.3962140093
 20
90.5508878558
 10
161.3517153286
 20
90.4887375556
 10
162.312151213
 20
90.46205603
 10
163.2735750254
 20
90.4709529193
 10
164.232036069
 20
90.515391664
 10
165.183595822
 20
90.595189656
 10
166.124344121
 20
90.7100189881
 10
167.0504152296
 20
90.859407802
 10
167.958003723
 20
91.042742227
 10
168.8433801254
 20
91.2592689027
 10
169.7029062352
 20
91.5080980744
 10
170.5330500752
 20
91.7882072497
 10
171.3304004064
 20
92.0984454
 10
172.0916807452
 20
92.4375376902
 10
172.8137628274
 20
92.8040907172
 10
173.4936794629
 20
93.1965982361
 10
174.1286367283
 20
93.6134473493
 10
174.716025448
 20
94.0529251343
 10
175.2534319159
 20
94.5132256827
 10
175.7386478134
 20
94.9924575208
 10
176.1696792844
 20
95.4886513822
 10
176.544755128
 20
95.9997682999
 10
176.8623340773
 20
96.5237079848
 10
177.1211111321
 20
97.0583174563
 10
177.320022922
 20
97.6013998895
 10
177.4582520759
 20
98.1507236422
 10
177.5352305804
 20
98.7040314252
 10
177.5506421145
 20
99.2590495782
 10
177.5044233487
 20
99.8134974125
 10
177.396764206
 20
100.365096583
 10
177.2281070808
 20
100.9115804505
 10
176.9991450214
 20
101.4507033955
 10
176.7108188821
 20
101.9802500462
 10
176.3643134568
 20
102.4980443818
 10
175.9610526106
 20
103.0019586744
 10
175.5026934288
 20
103.4899222319
 10
174.9911194077
 20
103.9599299075
 10
174.4284327146
 20
104.4100503388
 10
173.8169455498
 20
104.8384338844
 10
173.1591706453
 20
105.2433202245
 10
172.4578109392
 20
105.6230455942
 10
171.715748469
 20
105.9760496205
 10
170.9360325286
 20
106.3008817342
 10
170.5956040636
 20
106.4294966449
  0
LWPOLYLINE
  5
176
330
1F
100
AcDbEntity
  8
0
  6
Continuous
 62
     7
370
    25
100
AcDbPolyline
 90
       29
 70
   128
 43
0.0
 10
154.5095337914
 20
106.4294966449
 10
153.7747374486
 20
106.1420733716
 10
153.0134571098
 20
105.8029810815
 10
152.2913750275
 20
105.4364280545
 10
151.6114583921
 20
105.0439205356
 10
150.9765011267
 20
104.6270714224
 10
150.3891124069
 20
104.1875936374
 10
149.8517059391
 20
103.727293089
 10
149.3664900415
 20
103.2480612508
 10
148.9354585706
 20
102.7518673895
 10
148.5603827269
 20
102.2407504718
 10
148.2428037777
 20
101.7168107869
 10
147.9840267229
 20
101.1822013154
 10
147.785114933
 20
100.6391188822
 10
147.6468857791
 20
100.0897951295
 10
147.5699072745
 20
99.5364873465
 10
147.5544957405
 20
98.9814691935
 10
147.6007145062
 20
98.4270213592
 10
147.708373649
 20
97.8754221887
 10
147.8770307742
 20
97.3289383212
 10
148.1059928335
 20
96.7898153761
 10
148.3943189729
 20
96.2602687255
 10
148.7408243982
 20
95.7424743899
 10
149.1440852444
 20
95.2385600973
 10
149.6024444261
 20
94.7505965398
 10
150.1140184473
 20
94.2805888642
 10
150.6767051404
 20
93.8304684329
 10
151.2881923052
 20
93.4020848872
 10
151.9459672097
 20
92.9971985472
  0
LINE
  5
177
330
1F
100
AcDbEntity
  8
0
  6
Continuous
 62
     7
370
    25
100
AcDbLine
 10
169.2406381022
 20
94.4610667543
 30
0.0
 11
165.8956173543
 21
94.4610667543
 31
0.0
  0
ELLIPSE
  5
178
330
1F
100
AcDbEntity
  8
0
  6
Continuous
 62
     7
370
    25
100
AcDbEllipse
 10
169.205950603
 20
95.2793439008
 30
0.0
 11
1.417345370853468
 21
-0.03001803403269321
 31
0.0
210
0.0
220
0.0
230
1.0
 40
0.5769422052
 41
4.749081647443818
 42
6.295403789178189
  0
LINE
  5
179
330
1F
100
AcDbEntity
  8
0
  6
Continuous
 62
     7
370
    25
100
AcDbLine
 10
170.6234017791
 20
97.1903586082
 30
0.0
 11
170.6234017791
 21
95.2593192337
 31
0.0
  0
LINE
  5
17A
330
1F
100
AcDbEntity
  8
0
  6
Continuous
 62
     7
370
    25
100
AcDbLine
 10
172.9886886332
 20
98.5558096446
 30
0.0
 11
170.6234017791
 21
97.1903586082
 31
0.0
  0
ELLIPSE
  5
17B
330
1F
100
AcDbEntity
  8
0
  6
Continuous
 62
     7
370
    25
100
AcDbEllipse
 10
171.9618715286
 20
99.1202593858
 30
0.0
 11
1.434690096596711
 21
0.0
 31
0.0
210
0.0
220
0.0
230
1.0
 40
0.5633291809
 41
5.510024236312423
 42
7.056346378046765
  0
ELLIPSE
  5
17C
330
1F
100
AcDbEntity
  8
0
  6
Continuous
 62
     7
370
    25
100
AcDbEllipse
 10
153.1432663264
 20
99.1202593858
 30
0.0
 11
1.434690096596739
 21
0.0
 31
0.0
210
0.0
220
0.0
230
1.0
 40
0.5633291809
 41
2.368431582722591
 42
3.914753724456986
  0
LINE
  5
17D
330
1F
100
AcDbEntity
  8
0
  6
Continuous
 62
     7
370
    25
100
AcDbLine
 10
154.4817360759
 20
97.1903586082
 30
0.0
 11
152.1164492218
 21
98.5558096446
 31
0.0
  0
LINE
  5
17E
330
1F
100
AcDbEntity
  8
0
  6
Continuous
 62
     7
370
    25
100
AcDbLine
 10
154.4817360759
 20
95.2593192337
 30
0.0
 11
154.4817360759
 21
97.1903586082
 31
0.0
  0
ELLIPSE
  5
17F
330
1F
100
AcDbEntity
  8
0
  6
Continuous
 62
     7
370
    25
100
AcDbEllipse
 10
155.899187252
 20
95.2793439008
 30
0.0
 11
1.417345370853468
 21
0.03001803403269321
 31
0.0
210
0.0
220
0.0
230
1.0
 40
0.5769422052
 41
3.129374171591172
 42
4.675696313325558
  0
LINE
  5
180
330
1F
100
AcDbEntity
  8
0
  6
Continuous
 62
     7
370
    25
100
AcDbLine
 10
159.2095205007
 20
94.4610667543
 30
0.0
 11
155.8644997527
 21
94.4610667543
 31
0.0
  0
LINE
  5
181
330
1F
100
AcDbEntity
  8
0
  6
Continuous
 62
     7
370
    25
100
AcDbLine
 10
161.5748073548
 20
93.0956157179
 30
0.0
 11
159.2095205007
 21
94.4610667543
 31
0.0
  0
ELLIPSE
  5
182
330
1F
100
AcDbEntity
  8
0
  6
Continuous
 62
     7
370
    25
100
AcDbEllipse
 10
162.5525689275
 20
93.6883846149
 30
0.0
 11
1.399999999999977
 21
0.0
 31
0.0
210
0.0
220
0.0
230
1.0
 40
0.5915921167
 41
3.939227909517524
 42
5.485550051251886
  0
LINE
  5
183
330
1F
100
AcDbEntity
  8
0
  6
Continuous
 62
     7
370
    25
100
AcDbLine
 10
165.8956173543
 20
94.4610667543
 30
0.0
 11
163.5303305002
 21
93.0956157179
 31
0.0
  0
LWPOLYLINE
  5
184
330
1F
100
AcDbEntity
  8
0
  6
Continuous
 62
     7
370
    25
100
AcDbPolyline
 90
       38
 70
   128
 43
0.0
 10
151.9459672097
 20
76.6663823095
 10
152.6473269158
 20
76.2866569398
 10
153.389389386
 20
75.9336529134
 10
154.1691053264
 20
75.6088207997
 10
154.983270717
 20
75.3134954035
 10
155.8285399775
 20
75.0488902802
 10
156.7014397153
 20
74.8160927489
 10
157.5983829982
 20
74.6160594247
 10
158.5156840936
 20
74.4496122874
 10
159.4495736148
 20
74.317435304
 10
160.3962140093
 20
74.220071618
 10
161.3517153286
 20
74.1579213178
 10
162.312151213
 20
74.1312397923
 10
163.2735750254
 20
74.1401366815
 10
164.232036069
 20
74.1845754263
 10
165.183595822
 20
74.2643734183
 10
166.124344121
 20
74.3792027504
 10
167.0504152296
 20
74.5285915643
 10
167.958003723
 20
74.7119259893
 10
168.8433801254
 20
74.928452665
 10
169.7029062352
 20
75.1772818367
 10
170.5330500752
 20
75.457391012
 10
171.3304004064
 20
75.7676291623
 10
172.0916807452
 20
76.1067214525
 10
172.8137628274
 20
76.4732744795
 10
173.4936794629
 20
76.8657819984
 10
174.1286367283
 20
77.2826311115
 10
174.716025448
 20
77.7221088966
 10
175.2534319159
 20
78.182409445
 10
175.7386478134
 20
78.6616412831
 10
176.1696792844
 20
79.1578351445
 10
176.544755128
 20
79.6689520622
 10
176.8623340773
 20
80.192891747
 10
177.1211111321
 20
80.7275012186
 10
177.320022922
 20
81.2705836518
 10
177.4582520759
 20
81.8199074045
 10
177.5352305804
 20
82.3732151875
 10
177.5525689275
 20
82.7894431481
  0
ARC
  5
185
330
1F
100
AcDbEntity
  8
0
  6
Continuous
 62
     7
370
    25
100
AcDbCircle
 10
155.0305130349
 20
83.5172940814
 30
0.0
 40
7.513282575218663
100
AcDbArc
 50
185.559260147
 51
245.7608808106
  0
LINE
  5
186
330
1F
100
AcDbEntity
  8
0
  6
Continuous
 62
     7
370
    25
100
AcDbLine
 10
162.5525689275
 20
102.9658272739
 30
0.0
 11
164.5128572233
 21
104.0974776192
 31
0.0
  0
LINE
  5
187
330
1F
100
AcDbEntity
  8
0
  6
Continuous
 62
     7
370
    25
100
AcDbLine
 10
160.5922806316
 20
104.0974776192
 30
0.0
 11
162.5525689275
 21
102.9658272739
 31
0.0
  0
ELLIPSE
  5
188
330
1F
100
AcDbEntity
  8
0
  6
Continuous
 62
     7
370
    25
100
AcDbEllipse
 10
160.0253494286
 20
103.763492243
 30
0.0
 11
0.8017085891592899
 21
0.007256327649074024
 31
0.0
210
0.0
220
0.0
230
1.0
 40
0.5831677987
 41
0.7800674770253042
 42
1.555277033369686
  0
LINE
  5
189
330
1F
100
AcDbEntity
  8
0
  6
Continuous
 62
     7
370
    25
100
AcDbLine
 10
157.2612934388
 20
104.2310791838
 30
0.0
 11
160.033559733
 21
104.2310791838
 31
0.0
  0
LINE
  5
18A
330
1F
100
AcDbEntity
  8
0
  6
Continuous
 62
     7
370
    25
100
AcDbLine
 10
157.2612934388
 20
105.8314744501
 30
0.0
 11
157.2612934388
 21
104.2310791838
 31
0.0
  0
ELLIPSE
  5
18B
330
1F
100
AcDbEntity
  8
0
  6
Continuous
 62
     7
370
    25
100
AcDbEllipse
 10
156.4513213382
 20
105.8267347422
 30
0.0
 11
0.8099621222382893
 21
0.007036861233487458
 31
0.0
210
0.0
220
0.0
230
1.0
 40
0.5713470464
 41
6.278221548071855
 42
7.053431104416169
  0
LINE
  5
18C
330
1F
100
AcDbEntity
  8
0
  6
Continuous
 62
     7
370
    25
100
AcDbLine
 10
155.0695753691
 20
107.2856675047
 30
0.0
 11
157.029863665
 21
106.1540171594
 31
0.0
  0
LINE
  5
18D
330
1F
100
AcDbEntity
  8
0
  6
Continuous
 62
     7
370
    25
100
AcDbLine
 10
157.029863665
 20
108.41731785
 30
0.0
 11
155.0695753691
 21
107.2856675047
 31
0.0
  0
ELLIPSE
  5
18E
330
1F
100
AcDbEntity
  8
0
  6
Continuous
 62
     7
370
    25
100
AcDbEllipse
 10
156.4513213382
 20
108.7446002672
 30
0.0
 11
0.8099621222382609
 21
-0.007036861233473245
 31
0.0
210
0.0
220
0.0
230
1.0
 40
0.5713470464
 41
5.512939509942993
 42
6.288149066287343
  0
LINE
  5
18F
330
1F
100
AcDbEntity
  8
0
  6
Continuous
 62
     7
370
    25
100
AcDbLine
 10
157.2612934388
 20
110.3402558256
 30
0.0
 11
157.2612934388
 21
108.7398605593
 31
0.0
  0
LINE
  5
190
330
1F
100
AcDbEntity
  8
0
  6
Continuous
 62
     7
370
    25
100
AcDbLine
 10
160.033559733
 20
110.3402558256
 30
0.0
 11
157.2612934388
 21
110.3402558256
 31
0.0
  0
ELLIPSE
  5
191
330
1F
100
AcDbEntity
  8
0
  6
Continuous
 62
     7
370
    25
100
AcDbEllipse
 10
160.0253494286
 20
110.8078427664
 30
0.0
 11
0.8017085891592899
 21
-0.007256327649074024
 31
0.0
210
0.0
220
0.0
230
1.0
 40
0.5831677987
 41
4.72790827380998
 42
5.503117830154339
  0
LINE
  5
192
330
1F
100
AcDbEntity
  8
0
  6
Continuous
 62
     7
370
    25
100
AcDbLine
 10
162.5525689275
 20
111.6055077355
 30
0.0
 11
160.5922806316
 21
110.4738573902
 31
0.0
  0
LINE
  5
193
330
1F
100
AcDbEntity
  8
0
  6
Continuous
 62
     7
370
    25
100
AcDbLine
 10
164.5128572233
 20
110.4738573902
 30
0.0
 11
162.5525689275
 21
111.6055077355
 31
0.0
  0
ELLIPSE
  5
194
330
1F
100
AcDbEntity
  8
0
  6
Continuous
 62
     7
370
    25
100
AcDbEllipse
 10
165.0797884264
 20
110.8078427664
 30
0.0
 11
0.8017085891592899
 21
0.007256327649074024
 31
0.0
210
0.0
220
0.0
230
1.0
 40
0.5831677987
 41
3.921660130615098
 42
4.696869686959487
  0
LINE
  5
195
330
1F
100
AcDbEntity
  8
0
  6
Continuous
 62
     7
370
    25
100
AcDbLine
 10
167.8438444162
 20
110.3402558256
 30
0.0
 11
165.071578122
 21
110.3402558256
 31
0.0
  0
LINE
  5
196
330
1F
100
AcDbEntity
  8
0
  6
Continuous
 62
     7
370
    25
100
AcDbLine
 10
167.8438444162
 20
108.7398605593
 30
0.0
 11
167.8438444162
 21
110.3402558256
 31
0.0
  0
ELLIPSE
  5
197
330
1F
100
AcDbEntity
  8
0
  6
Continuous
 62
     7
370
    25
100
AcDbEllipse
 10
168.6538165168
 20
108.7446002672
 30
0.0
 11
0.8099621222382893
 21
0.007036861233487458
 31
0.0
210
0.0
220
0.0
230
1.0
 40
0.5713470464
 41
3.136628894482006
 42
3.911838450826392
  0
LINE
  5
198
330
1F
100
AcDbEntity
  8
0
  6
Continuous
 62
     7
370
    25
100
AcDbLine
 10
170.0355624858
 20
107.2856675047
 30
0.0
 11
168.07527419
 21
108.41731785
 31
0.0
  0
LINE
  5
199
330
1F
100
AcDbEntity
  8
0
  6
Continuous
 62
     7
370
    25
100
AcDbLine
 10
168.07527419
 20
106.1540171594
 30
0.0
 11
170.0355624858
 21
107.2856675047
 31
0.0
  0
ELLIPSE
  5
19A
330
1F
100
AcDbEntity
  8
0
  6
Continuous
 62
     7
370
    25
100
AcDbEllipse
 10
168.6538165168
 20
105.8267347422
 30
0.0
 11
0.8099621222382609
 21
-0.007036861233487456
 31
0.0
210
0.0
220
0.0
230
1.0
 40
0.5713470464
 41
2.371346856353213
 42
3.146556412697575
  0
LINE
  5
19B
330
1F
100
AcDbEntity
  8
0
  6
Continuous
 62
     7
370
    25
100
AcDbLine
 10
167.8438444162
 20
104.2310791838
 30
0.0
 11
167.8438444162
 21
105.8314744501
 31
0.0
  0
LINE
  5
19C
330
1F
100
AcDbEntity
  8
0
  6
Continuous
 62
     7
370
    25
100
AcDbLine
 10
165.071578122
 20
104.2310791838
 30
0.0
 11
167.8438444162
 21
104.2310791838
 31
0.0
  0
ELLIPSE
  5
19D
330
1F
100
AcDbEntity
  8
0
  6
Continuous
 62
     7
370
    25
100
AcDbEllipse
 10
165.0797884264
 20
103.763492243
 30
0.0
 11
0.8017085891592899
 21
-0.007256327649074024
 31
0.0
210
0.0
220
0.0
230
1.0
 40
0.5831677987
 41
1.586315620220107
 42
2.361525176564479
  0
LWPOLYLINE
  5
19E
330
1F
100
AcDbEntity
  8
0
  6
Continuous
 62
     7
370
    25
100
AcDbPolyline
 90
       52
 70
   128
 43
0.0
 10
159.6534311246
 20
105.6120308755
 10
160.0316752006
 20
105.4190458435
 10
160.4481334557
 20
105.2543568933
 10
160.8964928075
 20
105.1204605413
 10
161.3699565852
 20
105.0193865198
 10
161.8613475604
 20
104.9526670079
 10
162.363216747
 20
104.9213134053
 10
162.8679563197
 20
104.9258010009
 10
163.3679149409
 20
104.9660617671
 10
163.8555137478
 20
105.0414853919
 10
164.3233612393
 20
105.1509285298
 10
164.7643653244
 20
105.2927321346
 10
165.1718408307
 20
105.4647466082
 10
165.5396108448
 20
105.6643643863
 10
165.8621003484
 20
105.8885594671
 10
166.1344207291
 20
106.1339332816
 10
166.3524438877
 20
106.3967662129
 10
166.5128648153
 20
106.6730739817
 10
166.6132516941
 20
106.9586680439
 10
166.6520827614
 20
107.2492190845
 10
166.6287693778
 20
107.5403226461
 10
166.5436649504
 20
107.8275658953
 10
166.3980595756
 20
108.1065945172
 10
166.1941604824
 20
108.3731787225
 10
165.9350585733
 20
108.6232773663
 10
165.6246815691
 20
108.853099208
 10
165.2677344688
 20
109.0591603829
 10
164.8696282266
 20
109.2383372135
 10
164.4363977273
 20
109.3879135618
 10
163.9746103036
 20
109.5056220028
 10
163.4912661823
 20
109.5896781965
 10
162.9936923674
 20
109.6388079366
 10
162.4894315708
 20
109.6522664665
 10
161.9861278722
 20
109.6298497685
 10
161.4914108426
 20
109.5718976569
 10
161.0127798878
 20
109.4792886267
 10
160.5574905654
 20
109.3534265363
 10
160.1324445972
 20
109.1962193267
 10
159.7440852469
 20
109.0100500991
 10
159.3982996465
 20
108.797740989
 10
159.100329553
 20
108.5625103862
 10
158.8546918894
 20
108.3079241469
 10
158.6651102724
 20
108.037841539
 10
158.5344585658
 20
107.7563567394
 10
158.4647173166
 20
107.4677367708
 10
158.4569437308
 20
107.1763568177
 10
158.5112556481
 20
106.8866339032
 10
158.6268297553
 20
106.6029599313
 10
158.8019140667
 20
106.3296351104
 10
159.0338544825
 20
106.070802766
 10
159.3191350226
 20
105.8303865327
 10
159.6534311246
 20
105.6120308755
  0
ARC
  5
19F
330
1F
100
AcDbEntity
  8
0
  6
Continuous
 62
     7
370
    25
100
AcDbCircle
 10
162.5525689275
 20
103.3769831679
 30
0.0
 40
0.8927825350777431
100
AcDbArc
 50
251.7653206212
 51
288.2346793788
  0
LINE
  5
1A0
330
1F
100
AcDbEntity
  8
0
  6
Continuous
 62
     7
370
    25
100
AcDbLine
 10
162.8319293768
 20
102.5290336445
 30
0.0
 11
162.8319293768
 21
94.1875997913
 31
0.0
  0
ELLIPSE
  5
1A1
330
1F
100
AcDbEntity
  8
0
  6
Continuous
 62
     7
370
    25
100
AcDbEllipse
 10
162.5525689275
 20
94.5049254268
 30
0.0
 11
0.0
 21
0.4433739413197486
 31
0.0
210
0.0
220
0.0
230
1.0
 40
0.9021730028
 41
2.368431582722612
 42
3.914753724456989
  0
LINE
  5
1A2
330
1F
100
AcDbEntity
  8
0
  6
Continuous
 62
     7
370
    25
100
AcDbLine
 10
162.2732084782
 20
94.1875997913
 30
0.0
 11
162.2732084782
 21
102.5290336445
 31
0.0
  0
LINE
  5
1A3
330
1F
100
AcDbEntity
  8
0
  6
Continuous
 62
     7
370
    25
100
AcDbLine
 10
164.7922176727
 20
103.6606839898
 30
0.0
 11
162.8319293768
 21
102.5290336445
 31
0.0
  0
LINE
  5
1A4
330
1F
100
AcDbEntity
  8
0
  6
Continuous
 62
     7
370
    25
100
AcDbLine
 10
165.3707885613
 20
95.6532520012
 30
0.0
 11
164.7922176727
 21
103.6606839898
 31
0.0
  0
LINE
  5
1A5
330
1F
100
AcDbEntity
  8
0
  6
Continuous
 62
     7
370
    25
100
AcDbLine
 10
162.8319293768
 20
94.1875997913
 30
0.0
 11
165.3707885613
 21
95.6532520012
 31
0.0
  0
LINE
  5
1A6
330
1F
100
AcDbEntity
  8
0
  6
Continuous
 62
     7
370
    25
100
AcDbLine
 10
162.2732084782
 20
102.5290336445
 30
0.0
 11
160.3129201823
 21
103.6606839898
 31
0.0
  0
LINE
  5
1A7
330
1F
100
AcDbEntity
  8
0
  6
Continuous
 62
     7
370
    25
100
AcDbLine
 10
159.7343492937
 20
95.6532520012
 30
0.0
 11
162.2732084782
 21
94.1875997913
 31
0.0
  0
LINE
  5
1A8
330
1F
100
AcDbEntity
  8
0
  6
Continuous
 62
     7
370
    25
100
AcDbLine
 10
160.3129201823
 20
103.6606839898
 30
0.0
 11
159.7343492937
 21
95.6532520012
 31
0.0
  0
LINE
  5
1A9
330
1F
100
AcDbEntity
  8
0
  6
Continuous
 62
     7
370
    25
100
AcDbLine
 10
160.033559733
 20
103.7274847721
 30
0.0
 11
157.2612934388
 21
103.7274847721
 31
0.0
  0
LINE
  5
1AA
330
1F
100
AcDbEntity
  8
0
  6
Continuous
 62
     7
370
    25
100
AcDbLine
 10
159.4549888444
 20
95.7200527835
 30
0.0
 11
160.033559733
 21
103.7274847721
 31
0.0
  0
LINE
  5
1AB
330
1F
100
AcDbEntity
  8
0
  6
Continuous
 62
     7
370
    25
100
AcDbLine
 10
155.8644997527
 20
95.7200527835
 30
0.0
 11
159.4549888444
 21
95.7200527835
 31
0.0
  0
LINE
  5
1AC
330
1F
100
AcDbEntity
  8
0
  6
Continuous
 62
     7
370
    25
100
AcDbLine
 10
157.2612934388
 20
103.7274847721
 30
0.0
 11
155.8644997527
 21
95.7200527835
 31
0.0
  0
LINE
  5
1AD
330
1F
100
AcDbEntity
  8
0
  6
Continuous
 62
     7
370
    25
100
AcDbLine
 10
167.8438444162
 20
103.7274847721
 30
0.0
 11
165.071578122
 21
103.7274847721
 31
0.0
  0
LINE
  5
1AE
330
1F
100
AcDbEntity
  8
0
  6
Continuous
 62
     7
370
    25
100
AcDbLine
 10
169.2406381022
 20
95.7200527835
 30
0.0
 11
167.8438444162
 21
103.7274847721
 31
0.0
  0
LINE
  5
1AF
330
1F
100
AcDbEntity
  8
0
  6
Continuous
 62
     7
370
    25
100
AcDbLine
 10
165.6501490106
 20
95.7200527835
 30
0.0
 11
169.2406381022
 21
95.7200527835
 31
0.0
  0
LINE
  5
1B0
330
1F
100
AcDbEntity
  8
0
  6
Continuous
 62
     7
370
    25
100
AcDbLine
 10
165.071578122
 20
103.7274847721
 30
0.0
 11
165.6501490106
 21
95.7200527835
 31
0.0
  0
ARC
  5
1B1
330
1F
100
AcDbEntity
  8
0
  6
Continuous
 62
     7
370
    25
100
AcDbCircle
 10
162.2131538219
 20
102.4410150773
 30
0.0
 40
0.6250043643648667
100
AcDbArc
 50
8.0958037616
 51
57.1077840338
  0
ARC
  5
1B2
330
1F
100
AcDbEntity
  8
0
  6
Continuous
 62
     7
370
    25
100
AcDbCircle
 10
162.891984033
 20
102.4410150773
 30
0.0
 40
0.6250043643646477
100
AcDbArc
 50
122.8922159662
 51
171.9041962384
  0
ARC
  5
1B3
330
1F
100
AcDbEntity
  8
0
  6
Continuous
 62
     7
370
    25
100
AcDbCircle
 10
160.9316957372
 20
103.5726654227
 30
0.0
 40
0.6250043643647402
100
AcDbArc
 50
122.8922159662
 51
171.9041962384
  0
ARC
  5
1B4
330
1F
100
AcDbEntity
  8
0
  6
Continuous
 62
     7
370
    25
100
AcDbCircle
 10
164.1734421178
 20
103.5726654227
 30
0.0
 40
0.6250043643649269
100
AcDbArc
 50
8.0958037616
 51
57.1077840338
  0
LINE
  5
1B5
330
1F
100
AcDbEntity
  8
0
  6
Continuous
 62
     7
370
    25
100
AcDbLine
 10
160.033559733
 20
104.2310791838
 30
0.0
 11
160.033559733
 21
103.7274847721
 31
0.0
  0
LINE
  5
1B6
330
1F
100
AcDbEntity
  8
0
  6
Continuous
 62
     7
370
    25
100
AcDbLine
 10
157.2612934388
 20
103.7274847721
 30
0.0
 11
157.2612934388
 21
104.2310791838
 31
0.0
  0
LINE
  5
1B7
330
1F
100
AcDbEntity
  8
0
  6
Continuous
 62
     7
370
    25
100
AcDbLine
 10
167.8438444162
 20
104.2310791838
 30
0.0
 11
167.8438444162
 21
103.7274847721
 31
0.0
  0
LINE
  5
1B8
330
1F
100
AcDbEntity
  8
0
  6
Continuous
 62
     7
370
    25
100
AcDbLine
 10
165.071578122
 20
104.2310791838
 30
0.0
 11
165.071578122
 21
103.7274847721
 31
0.0
  0
ELLIPSE
  5
1B9
330
1F
100
AcDbEntity
  8
0
  6
Continuous
 62
     7
370
    25
100
AcDbEllipse
 10
165.0797884264
 20
103.4368759182
 30
0.0
 11
0.4003558838868457
 21
-0.05952972664179867
 31
0.0
210
0.0
220
0.0
230
1.0
 40
0.7128420405
 41
1.696790662448691
 42
2.472000218793062
  0
ARC
  5
1BA
330
1F
100
AcDbEntity
  8
0
  6
Continuous
 62
     7
370
    25
100
AcDbCircle
 10
165.6814378958
 20
94.971660656
 30
0.0
 40
0.7490459070949217
100
AcDbArc
 50
92.3940359358
 51
114.5021064338
  0
ELLIPSE
  5
1BB
330
1F
100
AcDbEntity
  8
0
  6
Continuous
 62
     7
370
    25
100
AcDbEllipse
 10
160.0253494286
 20
103.4368759182
 30
0.0
 11
0.4003558838868457
 21
0.05952972664179867
 31
0.0
210
0.0
220
0.0
230
1.0
 40
0.7128420405
 41
0.6695924347967244
 42
1.4448019911411
  0
ARC
  5
1BC
330
1F
100
AcDbEntity
  8
0
  6
Continuous
 62
     7
370
    25
100
AcDbCircle
 10
159.4236999592
 20
94.971660656
 30
0.0
 40
0.7490459070950499
100
AcDbArc
 50
65.4978935662
 51
87.6059640642
  0
ARC
  5
1BD
330
1F
100
AcDbEntity
  8
0
  6
Continuous
 62
     7
370
    25
100
AcDbCircle
 10
167.8569227438
 20
104.1610484117
 30
0.0
 40
0.4337608468193381
100
AcDbArc
 50
268.2722125262
 51
331.7224109411
  0
LINE
  5
1BE
330
1F
100
AcDbEntity
  8
0
  6
Continuous
 62
     7
370
    25
100
AcDbLine
 10
168.2389197524
 20
103.9555569091
 30
0.0
 11
169.6357134385
 21
95.9481249205
 31
0.0
  0
ELLIPSE
  5
1BF
330
1F
100
AcDbEntity
  8
0
  6
Continuous
 62
     7
370
    25
100
AcDbEllipse
 10
169.205950603
 20
96.0958847127
 30
0.0
 11
0.3794757683848787
 21
-0.3200420513890663
 31
0.0
210
0.0
220
0.0
230
1.0
 40
0.6348285795
 41
5.284628147384253
 42
6.830950289118757
  0
ARC
  5
1C0
330
1F
100
AcDbEntity
  8
0
  6
Continuous
 62
     7
370
    25
100
AcDbCircle
 10
157.2482151112
 20
104.1610484117
 30
0.0
 40
0.4337608468194367
100
AcDbArc
 50
208.2775890589
 51
271.7277874738
  0
ELLIPSE
  5
1C1
330
1F
100
AcDbEntity
  8
0
  6
Continuous
 62
     7
370
    25
100
AcDbEllipse
 10
155.899187252
 20
96.0958847127
 30
0.0
 11
0.3794757683848787
 21
0.3200420513890663
 31
0.0
210
0.0
220
0.0
230
1.0
 40
0.6348285795
 41
2.593827671650636
 42
4.140149813385038
  0
LINE
  5
1C2
330
1F
100
AcDbEntity
  8
0
  6
Continuous
 62
     7
370
    25
100
AcDbLine
 10
155.4694244165
 20
95.9481249205
 30
0.0
 11
156.8662181026
 21
103.9555569091
 31
0.0
  0
LINE
  5
1C3
330
1F
100
AcDbEntity
  8
0
  6
Continuous
 62
     7
370
    25
100
AcDbLine
 10
168.2389197524
 20
105.5559521754
 30
0.0
 11
168.2389197524
 21
103.9555569091
 31
0.0
  0
LINE
  5
1C4
330
1F
100
AcDbEntity
  8
0
  6
Continuous
 62
     7
370
    25
100
AcDbLine
 10
169.6357134385
 20
98.0208701534
 30
0.0
 11
168.2389197524
 21
105.5559521754
 31
0.0
  0
LINE
  5
1C5
330
1F
100
AcDbEntity
  8
0
  6
Continuous
 62
     7
370
    25
100
AcDbLine
 10
169.6357134385
 20
95.9481249205
 30
0.0
 11
169.6357134385
 21
98.0208701534
 31
0.0
  0
LINE
  5
1C6
330
1F
100
AcDbEntity
  8
0
  6
Continuous
 62
     7
370
    25
100
AcDbLine
 10
156.8662181026
 20
103.9555569091
 30
0.0
 11
156.8662181026
 21
105.5559521754
 31
0.0
  0
LINE
  5
1C7
330
1F
100
AcDbEntity
  8
0
  6
Continuous
 62
     7
370
    25
100
AcDbLine
 10
155.4694244165
 20
98.0208701534
 30
0.0
 11
155.4694244165
 21
95.9481249205
 31
0.0
  0
LINE
  5
1C8
330
1F
100
AcDbEntity
  8
0
  6
Continuous
 62
     7
370
    25
100
AcDbLine
 10
156.8662181026
 20
105.5559521754
 30
0.0
 11
155.4694244165
 21
98.0208701534
 31
0.0
  0
ARC
  5
1C9
330
1F
100
AcDbEntity
  8
0
  6
Continuous
 62
     7
370
    25
100
AcDbCircle
 10
167.870267653
 20
103.8479546124
 30
0.0
 40
0.3840346659529424
100
AcDbArc
 50
16.2714863297
 51
93.9453131291
  0
ARC
  5
1CA
330
1F
100
AcDbEntity
  8
0
  6
Continuous
 62
     7
370
    25
100
AcDbCircle
 10
157.234870202
 20
103.8479546124
 30
0.0
 40
0.3840346659528964
100
AcDbArc
 50
86.0546868709
 51
163.7285136703
  0
ARC
  5
1CB
330
1F
100
AcDbEntity
  8
0
  6
Continuous
 62
     7
370
    25
100
AcDbCircle
 10
167.870267653
 20
105.4483498787
 30
0.0
 40
0.3840346659528884
100
AcDbArc
 50
16.2714863297
 51
93.9453131291
  0
ARC
  5
1CC
330
1F
100
AcDbEntity
  8
0
  6
Continuous
 62
     7
370
    25
100
AcDbCircle
 10
157.234870202
 20
105.4483498787
 30
0.0
 40
0.3840346659529019
100
AcDbArc
 50
86.0546868709
 51
163.7285136703
  0
ARC
  5
1CD
330
1F
100
AcDbEntity
  8
0
  6
Continuous
 62
     7
370
    25
100
AcDbCircle
 10
160.726269591
 20
94.4076462092
 30
0.0
 40
1.562510910911974
100
AcDbArc
 50
302.8922159662
 51
351.9041962384
  0
ARC
  5
1CE
330
1F
100
AcDbEntity
  8
0
  6
Continuous
 62
     7
370
    25
100
AcDbCircle
 10
164.378868264
 20
94.4076462092
 30
0.0
 40
1.56251091091188
100
AcDbArc
 50
188.0958037616
 51
237.1077840338
  0
ELLIPSE
  5
1CF
330
1F
100
AcDbEntity
  8
0
  6
Continuous
 62
     7
370
    25
100
AcDbEllipse
 10
165.8956173543
 20
95.2776075662
 30
0.0
 11
-0.3467989943036116
 21
0.9512858509568929
 31
0.0
210
0.0
220
0.0
230
1.0
 40
0.4232149121
 41
1.016799629683609
 42
2.43051632379897
  0
ELLIPSE
  5
1D0
330
1F
100
AcDbEntity
  8
0
  6
Continuous
 62
     7
370
    25
100
AcDbEllipse
 10
159.2095205007
 20
95.2776075662
 30
0.0
 11
0.3467989943036116
 21
0.9512858509568929
 31
0.0
210
0.0
220
0.0
230
1.0
 40
0.4232149121
 41
3.852668983380607
 42
5.266385677496037
  0
ELLIPSE
  5
1D1
330
1F
100
AcDbEntity
  8
0
  6
Continuous
 62
     7
370
    25
100
AcDbEllipse
 10
168.6538165168
 20
105.5001184175
 30
0.0
 11
0.4114728256879232
 21
-0.0903025692247752
 31
0.0
210
0.0
220
0.0
230
1.0
 40
0.5907487896
 41
2.50506256865793
 42
3.280272125002289
  0
LINE
  5
1D2
330
1F
100
AcDbEntity
  8
0
  6
Continuous
 62
     7
370
    25
100
AcDbLine
 10
168.3546346393
 20
105.71722353
 30
0.0
 11
169.7514283254
 21
98.1821415081
 31
0.0
  0
ARC
  5
1D3
330
1F
100
AcDbEntity
  8
0
  6
Continuous
 62
     7
370
    25
100
AcDbCircle
 10
169.8532899105
 20
97.9869047637
 30
0.0
 40
0.2202116456998494
100
AcDbArc
 50
117.5525661164
 51
171.127292926
  0
ELLIPSE
  5
1D4
330
1F
100
AcDbEntity
  8
0
  6
Continuous
 62
     7
370
    25
100
AcDbEllipse
 10
156.4513213382
 20
105.5001184175
 30
0.0
 11
0.4114728256879517
 21
0.0903025692247752
 31
0.0
210
0.0
220
0.0
230
1.0
 40
0.5907487896
 41
6.144505835767156
 42
6.919715392111537
  0
ARC
  5
1D5
330
1F
100
AcDbEntity
  8
0
  6
Continuous
 62
     7
370
    25
100
AcDbCircle
 10
155.2518479444
 20
97.9869047637
 30
0.0
 40
0.2202116456997435
100
AcDbArc
 50
8.872707074
 51
62.4474338836
  0
LINE
  5
1D6
330
1F
100
AcDbEntity
  8
0
  6
Continuous
 62
     7
370
    25
100
AcDbLine
 10
155.3537095296
 20
98.1821415081
 30
0.0
 11
156.7505032157
 21
105.71722353
 31
0.0
  0
ELLIPSE
  5
1D7
330
1F
100
AcDbEntity
  8
0
  6
Continuous
 62
     7
370
    25
100
AcDbEllipse
 10
159.2095205007
 20
95.2776075662
 30
0.0
 11
0.1494337461712689
 21
0.9995592050542964
 31
0.0
210
0.0
220
0.0
230
1.0
 40
0.1986720408
 41
3.786688418078962
 42
5.200405112194352
  0
LINE
  5
1D8
330
1F
100
AcDbEntity
  8
0
  6
Continuous
 62
     7
370
    25
100
AcDbLine
 10
155.8644997527
 20
95.7200527835
 30
0.0
 11
155.8644997527
 21
94.4610667543
 31
0.0
  0
ELLIPSE
  5
1D9
330
1F
100
AcDbEntity
  8
0
  6
Continuous
 62
     7
370
    25
100
AcDbEllipse
 10
165.8956173543
 20
95.2776075662
 30
0.0
 11
-0.1494337461712405
 21
0.9995592050542966
 31
0.0
210
0.0
220
0.0
230
1.0
 40
0.1986720408
 41
1.082780194985361
 42
2.496496889100697
  0
LINE
  5
1DA
330
1F
100
AcDbEntity
  8
0
  6
Continuous
 62
     7
370
    25
100
AcDbLine
 10
169.2406381022
 20
94.4610667543
 30
0.0
 11
169.2406381022
 21
95.7200527835
 31
0.0
  0
LINE
  5
1DB
330
1F
100
AcDbEntity
  8
0
  6
Continuous
 62
     7
370
    25
100
AcDbLine
 10
170.3149229352
 20
106.8488738753
 30
0.0
 11
168.3546346393
 21
105.71722353
 31
0.0
  0
LINE
  5
1DC
330
1F
100
AcDbEntity
  8
0
  6
Continuous
 62
     7
370
    25
100
AcDbLine
 10
172.2902875098
 20
99.647793718
 30
0.0
 11
170.3149229352
 21
106.8488738753
 31
0.0
  0
LINE
  5
1DD
330
1F
100
AcDbEntity
  8
0
  6
Continuous
 62
     7
370
    25
100
AcDbLine
 10
169.7514283254
 20
98.1821415081
 30
0.0
 11
172.2902875098
 21
99.647793718
 31
0.0
  0
LINE
  5
1DE
330
1F
100
AcDbEntity
  8
0
  6
Continuous
 62
     7
370
    25
100
AcDbLine
 10
156.7505032157
 20
105.71722353
 30
0.0
 11
154.7902149198
 21
106.8488738753
 31
0.0
  0
LINE
  5
1DF
330
1F
100
AcDbEntity
  8
0
  6
Continuous
 62
     7
370
    25
100
AcDbLine
 10
152.8148503451
 20
99.647793718
 30
0.0
 11
155.3537095296
 21
98.1821415081
 31
0.0
  0
LINE
  5
1E0
330
1F
100
AcDbEntity
  8
0
  6
Continuous
 62
     7
370
    25
100
AcDbLine
 10
154.7902149198
 20
106.8488738753
 30
0.0
 11
152.8148503451
 21
99.647793718
 31
0.0
  0
ARC
  5
1E1
330
1F
100
AcDbEntity
  8
0
  6
Continuous
 62
     7
370
    25
100
AcDbCircle
 10
167.7358590844
 20
105.6292049628
 30
0.0
 40
0.6250043643650495
100
AcDbArc
 50
8.0958037616
 51
57.1077840338
  0
ARC
  5
1E2
330
1F
100
AcDbEntity
  8
0
  6
Continuous
 62
     7
370
    25
100
AcDbCircle
 10
157.3692787705
 20
105.6292049628
 30
0.0
 40
0.6250043643646445
100
AcDbArc
 50
122.8922159662
 51
171.9041962384
  0
ARC
  5
1E3
330
1F
100
AcDbEntity
  8
0
  6
Continuous
 62
     7
370
    25
100
AcDbCircle
 10
169.6961473803
 20
106.7608553082
 30
0.0
 40
0.6250043643647663
100
AcDbArc
 50
8.0958037616
 51
57.1077840338
  0
ARC
  5
1E4
330
1F
100
AcDbEntity
  8
0
  6
Continuous
 62
     7
370
    25
100
AcDbCircle
 10
155.4089904747
 20
106.7608553082
 30
0.0
 40
0.6250043643647683
100
AcDbArc
 50
122.8922159662
 51
171.9041962384
  0
ARC
  5
1E5
330
1F
100
AcDbEntity
  8
0
  6
Continuous
 62
     7
370
    25
100
AcDbCircle
 10
170.557343687
 20
96.2171306622
 30
0.0
 40
0.9600866648820742
100
AcDbArc
 50
196.2714863297
 51
273.9453131291
  0
ARC
  5
1E6
330
1F
100
AcDbEntity
  8
0
  6
Continuous
 62
     7
370
    25
100
AcDbCircle
 10
154.547794168
 20
96.2171306622
 30
0.0
 40
0.9600866648820156
100
AcDbArc
 50
266.0546868709
 51
343.7285136703
  0
ELLIPSE
  5
1E7
330
1F
100
AcDbEntity
  8
0
  6
Continuous
 62
     7
370
    25
100
AcDbEllipse
 10
170.6234017791
 20
98.00689942
 30
0.0
 11
0.9575439692247016
 21
-0.3727792952053477
 31
0.0
210
0.0
220
0.0
230
1.0
 40
0.7733456993
 41
3.591109965857086
 42
5.004826659972471
  0
ELLIPSE
  5
1E8
330
1F
100
AcDbEntity
  8
0
  6
Continuous
 62
     7
370
    25
100
AcDbEllipse
 10
154.4817360759
 20
98.00689942
 30
0.0
 11
0.9575439692247016
 21
0.3727792952053335
 31
0.0
210
0.0
220
0.0
230
1.0
 40
0.7733456993
 41
4.419951300796946
 42
5.833667994912338
  0
LINE
  5
1E9
330
1F
100
AcDbEntity
  8
0
  6
Continuous
 62
     7
370
    25
100
AcDbLine
 10
156.8247904949
 20
108.4340295348
 30
0.0
 11
156.8298799185
 21
108.4371210702
 31
0.0
  0
ARC
  5
1EA
330
1F
100
AcDbEntity
  8
0
  6
Continuous
 62
     7
370
    25
100
AcDbCircle
 10
157.234870202
 20
108.3567359879
 30
0.0
 40
0.3840346659527787
100
AcDbArc
 50
86.0546868709
 51
163.7285136703
  0
ARC
  5
1EB
330
1F
100
AcDbEntity
  8
0
  6
Continuous
 62
     7
370
    25
100
AcDbCircle
 10
167.870267653
 20
108.3567359879
 30
0.0
 40
0.3840346659529424
100
AcDbArc
 50
16.2714863297
 51
93.9453131291
  0
LINE
  5
1EC
330
1F
100
AcDbEntity
  8
0
  6
Continuous
 62
     7
370
    25
100
AcDbLine
 10
156.8662181026
 20
108.4643382846
 30
0.0
 11
156.8662181026
 21
110.0647335509
 31
0.0
  0
ARC
  5
1ED
330
1F
100
AcDbEntity
  8
0
  6
Continuous
 62
     7
370
    25
100
AcDbCircle
 10
157.234870202
 20
109.9571312542
 30
0.0
 40
0.3840346659528471
100
AcDbArc
 50
86.0546868709
 51
163.7285136703
  0
ARC
  5
1EE
330
1F
100
AcDbEntity
  8
0
  6
Continuous
 62
     7
370
    25
100
AcDbCircle
 10
167.870267653
 20
109.9571312542
 30
0.0
 40
0.3840346659529317
100
AcDbArc
 50
16.2714863297
 51
93.9453131291
  0
LINE
  5
1EF
330
1F
100
AcDbEntity
  8
0
  6
Continuous
 62
     7
370
    25
100
AcDbLine
 10
168.2389197524
 20
110.0647335509
 30
0.0
 11
168.2389197524
 21
108.4643382846
 31
0.0
  0
ELLIPSE
  5
1F0
330
1F
100
AcDbEntity
  8
0
  6
Continuous
 62
     7
370
    25
100
AcDbEllipse
 10
170.6234017791
 20
98.00689942
 30
0.0
 11
0.7337508469655917
 21
-0.7090192856055638
 31
0.0
210
0.0
220
0.0
230
1.0
 40
0.6924195928
 41
3.888344578392516
 42
5.302061272507931
  0
ELLIPSE
  5
1F1
330
1F
100
AcDbEntity
  8
0
  6
Continuous
 62
     7
370
    25
100
AcDbEllipse
 10
154.4817360759
 20
98.00689942
 30
0.0
 11
0.7337508469655916
 21
0.7090192856055779
 31
0.0
210
0.0
220
0.0
230
1.0
 40
0.6924195928
 41
4.122716688261476
 42
5.536433382376864
  0
ARC
  5
1F2
330
1F
100
AcDbEntity
  8
0
  6
Continuous
 62
     7
370
    25
100
AcDbCircle
 10
173.837226397
 20
99.8678401359
 30
0.0
 40
1.562510910912084
100
AcDbArc
 50
188.0958037616
 51
237.1077840338
  0
ARC
  5
1F3
330
1F
100
AcDbEntity
  8
0
  6
Continuous
 62
     7
370
    25
100
AcDbCircle
 10
151.267911458
 20
99.8678401359
 30
0.0
 40
1.5625109109119
100
AcDbArc
 50
302.8922159662
 51
351.9041962384
  0
LINE
  5
1F4
330
1F
100
AcDbEntity
  8
0
  6
Continuous
 62
     1
370
    25
100
AcDbLine
 10
172.3436538329
 20
100.0570797912
 30
0.0
 11
172.9886886332
 21
99.6847091271
 31
0.0
  0
LINE
  5
1F5
330
1F
100
AcDbEntity
  8
0
  6
Continuous
 62
     1
370
    25
100
AcDbLine
 10
152.1164492218
 20
99.6847091271
 30
0.0
 11
152.7614840221
 21
100.0570797912
 31
0.0
  0
ARC
  5
1F6
330
1F
100
AcDbEntity
  8
0
  6
Continuous
 62
     1
370
    25
100
AcDbCircle
 10
170.2066482329
 20
107.0364036062
 30
0.0
 40
0.2165428620415916
100
AcDbArc
 50
300.0009994669
 51
7.5533741144
  0
ELLIPSE
  5
1F7
330
1F
100
AcDbEntity
  8
0
  6
Continuous
 62
     1
370
    25
100
AcDbEllipse
 10
171.9618715286
 20
99.9368001977
 30
0.0
 11
0.449211584268312
 21
-0.2218446913205554
 31
0.0
210
0.0
220
0.0
230
1.0
 40
0.4221407643
 41
5.715556040758739
 42
6.642034079230241
  0
ARC
  5
1F8
330
1F
100
AcDbEntity
  8
0
  6
Continuous
 62
     1
370
    25
100
AcDbCircle
 10
154.9059068631
 20
107.0400570103
 30
0.0
 40
0.223462786186899
100
AcDbArc
 50
173.6253005492
 51
238.8203258695
  0
ELLIPSE
  5
1F9
330
1F
100
AcDbEntity
  8
0
  6
Continuous
 62
     1
370
    25
100
AcDbEllipse
 10
153.1432663264
 20
99.9368001977
 30
0.0
 11
0.4492115842683405
 21
0.2218446913205412
 31
0.0
210
0.0
220
0.0
230
1.0
 40
0.4221407643
 41
2.782743881539173
 42
3.709221920010757
  0
ARC
  5
1FA
330
1F
100
AcDbEntity
  8
0
  6
Continuous
 62
     1
370
    25
100
AcDbCircle
 10
170.1520667735
 20
107.1288177251
 30
0.0
 40
0.1953844988573205
100
AcDbArc
 50
64.7063712167
 51
126.6040872124
  0
ARC
  5
1FB
330
1F
100
AcDbEntity
  8
0
  6
Continuous
 62
     1
370
    25
100
AcDbCircle
 10
154.952480999
 20
107.1228587496
 30
0.0
 40
0.2005437165808624
100
AcDbArc
 50
54.2757750644
 51
114.4137665065
  0
ARC
  5
1FC
330
1F
100
AcDbEntity
  8
0
  6
Continuous
 62
     1
370
    25
100
AcDbCircle
 10
168.1917784776
 20
108.2604680704
 30
0.0
 40
0.1953844988570341
100
AcDbArc
 50
64.7063712167
 51
126.6040872124
  0
ARC
  5
1FD
330
1F
100
AcDbEntity
  8
0
  6
Continuous
 62
     1
370
    25
100
AcDbCircle
 10
156.9127692949
 20
108.2545090949
 30
0.0
 40
0.2005437165807665
100
AcDbArc
 50
54.2757750644
 51
114.4137665065
  0
LINE
  5
1FE
330
1F
100
AcDbEntity
  8
0
  6
Continuous
 62
     1
370
    25
100
AcDbLine
 10
156.8657139096
 20
108.4618595131
 30
0.0
 11
156.8662181026
 21
108.4643382846
 31
0.0
  0
LINE
  5
1FF
330
1F
100
AcDbEntity
  8
0
  6
Continuous
 62
     1
370
    25
100
AcDbLine
 10
168.2389197524
 20
108.4643382846
 30
0.0
 11
168.2392854286
 21
108.4625405052
 31
0.0
  0
LINE
  5
200
330
1F
100
AcDbEntity
  8
0
  6
Continuous
 62
     1
370
    25
100
AcDbLine
 10
156.8662181026
 20
110.0647335509
 30
0.0
 11
156.4646457538
 21
108.2262758749
 31
0.0
  0
LINE
  5
201
330
1F
100
AcDbEntity
  8
0
  6
Continuous
 62
     1
370
    25
100
AcDbLine
 10
168.6404921012
 20
108.2262758749
 30
0.0
 11
168.2389197524
 21
110.0647335509
 31
0.0
  0
LINE
  5
202
330
1F
100
AcDbEntity
  8
0
  6
Continuous
 62
     1
370
    25
100
AcDbLine
 10
165.071578122
 20
110.4136395008
 30
0.0
 11
165.071578122
 21
110.3402558256
 31
0.0
  0
LINE
  5
203
330
1F
100
AcDbEntity
  8
0
  6
Continuous
 62
     1
370
    25
100
AcDbLine
 10
167.8438444162
 20
110.3402558256
 30
0.0
 11
167.8438444162
 21
110.4136395008
 31
0.0
  0
LINE
  5
204
330
1F
100
AcDbEntity
  8
0
  6
Continuous
 62
     1
370
    25
100
AcDbLine
 10
160.033559733
 20
110.4136395008
 30
0.0
 11
160.033559733
 21
110.3402558256
 31
0.0
  0
LINE
  5
205
330
1F
100
AcDbEntity
  8
0
  6
Continuous
 62
     1
370
    25
100
AcDbLine
 10
157.2612934388
 20
110.4136395008
 30
0.0
 11
157.2612934388
 21
110.3402558256
 31
0.0
  0
LINE
  5
206
330
1F
100
AcDbEntity
  8
0
  6
Continuous
 62
     1
370
    25
100
AcDbLine
 10
156.8705072573
 20
110.0989985095
 30
0.0
 11
156.8662181026
 21
110.0647335509
 31
0.0
  0
LINE
  5
207
330
1F
100
AcDbEntity
  8
0
  6
Continuous
 62
     1
370
    25
100
AcDbLine
 10
168.2389197524
 20
110.0647335509
 30
0.0
 11
168.2346305976
 21
110.0989985095
 31
0.0
  0
ARC
  5
208
330
1F
100
AcDbEntity
  8
0
  6
Continuous
 62
     1
370
    25
100
AcDbCircle
 10
160.4747621119
 20
110.3098648042
 30
0.0
 40
0.2017527465691851
100
AcDbArc
 50
54.3742856682
 51
113.2828646982
  0
ARC
  5
209
330
1F
100
AcDbEntity
  8
0
  6
Continuous
 62
     1
370
    25
100
AcDbCircle
 10
164.630416945
 20
110.3097496946
 30
0.0
 40
0.201870314628299
100
AcDbArc
 50
66.8255438861
 51
125.6161893401
  0
ARC
  5
20A
330
1F
100
AcDbEntity
  8
0
  6
Continuous
 62
     1
370
    25
100
AcDbCircle
 10
172.6974659716
 20
100.0767160809
 30
0.0
 40
0.4883442335631146
100
AcDbArc
 50
244.6578663211
 51
306.6087226271
  0
ARC
  5
20B
330
1F
100
AcDbEntity
  8
0
  6
Continuous
 62
     1
370
    25
100
AcDbCircle
 10
152.4077687468
 20
100.0877863431
 30
0.0
 40
0.4973311851838154
100
AcDbArc
 50
234.1429018817
 51
295.9689189991
  0
ARC
  5
20C
330
1F
100
AcDbEntity
  8
0
  6
Continuous
 62
     1
370
    25
100
AcDbCircle
 10
162.4354745574
 20
111.4426989804
 30
0.0
 40
0.2005437165807434
100
AcDbArc
 50
54.2757750644
 51
114.4137665065
  0
ARC
  5
20D
330
1F
100
AcDbEntity
  8
0
  6
Continuous
 62
     1
370
    25
100
AcDbCircle
 10
162.6696632976
 20
111.4426989804
 30
0.0
 40
0.200543716580755
100
AcDbArc
 50
65.5862334935
 51
125.7242249356
  0
ARC
  5
20E
330
1F
100
AcDbEntity
  8
0
  6
Continuous
 62
     7
370
    25
100
AcDbCircle
 10
124.231424598
 20
183.7236770995
 30
0.0
 40
1.0
100
AcDbArc
 50
270.0
 51
347.3747401537
  0
ARC
  5
20F
330
1F
100
AcDbEntity
  8
0
  6
Continuous
 62
     7
370
    25
100
AcDbCircle
 10
127.5924237374
 20
192.3236770995
 30
0.0
 40
0.4000000000000057
100
AcDbArc
 50
90.0
 51
167.3747401537
  0
ARC
  5
210
330
1F
100
AcDbEntity
  8
0
  6
Continuous
 62
     7
370
    25
100
AcDbCircle
 10
142.5584108541
 20
192.3236770995
 30
0.0
 40
0.4000000000000142
100
AcDbArc
 50
12.6252598463
 51
90.0
  0
ARC
  5
211
330
1F
100
AcDbEntity
  8
0
  6
Continuous
 62
     7
370
    25
100
AcDbCircle
 10
145.9194099934
 20
183.7236770995
 30
0.0
 40
1.000000000000011
100
AcDbArc
 50
192.6252598463
 51
270.0
  0
LINE
  5
212
330
1F
100
AcDbEntity
  8
0
  6
Continuous
 62
     7
370
    25
100
AcDbLine
 10
120.0754172957
 20
162.7236770995
 30
0.0
 11
120.0754172957
 21
182.7236770995
 31
0.0
  0
LINE
  5
213
330
1F
100
AcDbEntity
  8
0
  6
Continuous
 62
     7
370
    25
100
AcDbLine
 10
150.0754172957
 20
182.7236770995
 30
0.0
 11
150.0754172957
 21
162.7236770995
 31
0.0
  0
LINE
  5
214
330
1F
100
AcDbEntity
  8
0
  6
Continuous
 62
     7
370
    25
100
AcDbLine
 10
127.2020955395
 20
192.4111064875
 30
0.0
 11
125.2072450929
 21
183.5051036293
 31
0.0
  0
LINE
  5
215
330
1F
100
AcDbEntity
  8
0
  6
Continuous
 62
     7
370
    25
100
AcDbLine
 10
130.9754172957
 20
192.7236770995
 30
0.0
 11
130.9754172957
 21
173.2236770995
 31
0.0
  0
LINE
  5
216
330
1F
100
AcDbEntity
  8
0
  6
Continuous
 62
     7
370
    25
100
AcDbLine
 10
130.9754172957
 20
173.2236770995
 30
0.0
 11
128.0591353571
 21
173.2236770995
 31
0.0
  0
ARC
  5
217
330
1F
100
AcDbEntity
  8
0
  6
Continuous
 62
     7
370
    25
100
AcDbCircle
 10
128.0591353571
 20
172.8236770995
 30
0.0
 40
0.4000000000000057
100
AcDbArc
 50
90.0
 51
167.1650407292
  0
LINE
  5
218
330
1F
100
AcDbEntity
  8
0
  6
Continuous
 62
     7
370
    25
100
AcDbLine
 10
127.6691297595
 20
172.9125344787
 30
0.0
 11
125.3477395813
 21
162.7236770995
 31
0.0
  0
LINE
  5
219
330
1F
100
AcDbEntity
  8
0
  6
Continuous
 62
     7
370
    25
100
AcDbLine
 10
125.3477395813
 20
162.7236770995
 30
0.0
 11
120.0754172957
 21
162.7236770995
 31
0.0
  0
LINE
  5
21A
330
1F
100
AcDbEntity
  8
0
  6
Continuous
 62
     7
370
    25
100
AcDbLine
 10
130.9754172957
 20
192.7236770995
 30
0.0
 11
127.5924237374
 21
192.7236770995
 31
0.0
  0
LINE
  5
21B
330
1F
100
AcDbEntity
  8
0
  6
Continuous
 62
     7
370
    25
100
AcDbLine
 10
124.231424598
 20
182.7236770995
 30
0.0
 11
120.0754172957
 21
182.7236770995
 31
0.0
  0
LINE
  5
21C
330
1F
100
AcDbEntity
  8
0
  6
Continuous
 62
     7
370
    25
100
AcDbLine
 10
127.7844915737
 20
172.8862508855
 30
0.0
 11
125.4690897485
 21
162.7236770995
 31
0.0
  0
LINE
  5
21D
330
1F
100
AcDbEntity
  8
0
  6
Continuous
 62
     7
370
    25
100
AcDbLine
 10
127.6691297595
 20
172.9125344787
 30
0.0
 11
127.7844915737
 21
172.8862508855
 31
0.0
  0
LINE
  5
21E
330
1F
100
AcDbEntity
  8
0
  6
Continuous
 62
     7
370
    25
100
AcDbLine
 10
125.4690897485
 20
162.7236770995
 30
0.0
 11
125.3477395813
 21
162.7236770995
 31
0.0
  0
ARC
  5
21F
330
1F
100
AcDbEntity
  8
0
  6
Continuous
 62
     7
370
    25
100
AcDbCircle
 10
128.1180719034
 20
172.8952219282
 30
0.0
 40
0.333700937980495
100
AcDbArc
 50
100.1726470198
 51
181.5404955812
  0
LINE
  5
220
330
1F
100
AcDbEntity
  8
0
  6
Continuous
 62
     7
370
    25
100
AcDbLine
 10
139.1754172957
 20
173.2236770995
 30
0.0
 11
139.1754172957
 21
192.7236770995
 31
0.0
  0
LINE
  5
221
330
1F
100
AcDbEntity
  8
0
  6
Continuous
 62
     7
370
    25
100
AcDbLine
 10
139.1754172957
 20
173.2236770995
 30
0.0
 11
130.9754172957
 21
173.2236770995
 31
0.0
  0
LINE
  5
222
330
1F
100
AcDbEntity
  8
0
  6
Continuous
 62
     7
370
    25
100
AcDbLine
 10
139.1754172957
 20
192.7236770995
 30
0.0
 11
130.9754172957
 21
192.7236770995
 31
0.0
  0
LINE
  5
223
330
1F
100
AcDbEntity
  8
0
  6
Continuous
 62
     7
370
    25
100
AcDbLine
 10
144.8030950102
 20
162.7236770995
 30
0.0
 11
142.481704832
 21
172.9125344787
 31
0.0
  0
ARC
  5
224
330
1F
100
AcDbEntity
  8
0
  6
Continuous
 62
     7
370
    25
100
AcDbCircle
 10
142.0916992344
 20
172.8236770995
 30
0.0
 40
0.4000000000000057
100
AcDbArc
 50
12.8349592708
 51
90.0
  0
LINE
  5
225
330
1F
100
AcDbEntity
  8
0
  6
Continuous
 62
     7
370
    25
100
AcDbLine
 10
144.9435894986
 20
183.5051036293
 30
0.0
 11
142.948739052
 21
192.4111064875
 31
0.0
  0
LINE
  5
226
330
1F
100
AcDbEntity
  8
0
  6
Continuous
 62
     7
370
    25
100
AcDbLine
 10
142.0916992344
 20
173.2236770995
 30
0.0
 11
139.1754172957
 21
173.2236770995
 31
0.0
  0
LINE
  5
227
330
1F
100
AcDbEntity
  8
0
  6
Continuous
 62
     7
370
    25
100
AcDbLine
 10
150.0754172957
 20
162.7236770995
 30
0.0
 11
144.8030950102
 21
162.7236770995
 31
0.0
  0
LINE
  5
228
330
1F
100
AcDbEntity
  8
0
  6
Continuous
 62
     7
370
    25
100
AcDbLine
 10
142.5584108541
 20
192.7236770995
 30
0.0
 11
139.1754172957
 21
192.7236770995
 31
0.0
  0
LINE
  5
229
330
1F
100
AcDbEntity
  8
0
  6
Continuous
 62
     7
370
    25
100
AcDbLine
 10
150.0754172957
 20
182.7236770995
 30
0.0
 11
145.9194099934
 21
182.7236770995
 31
0.0
  0
ARC
  5
22A
330
1F
100
AcDbEntity
  8
0
  6
Continuous
 62
     7
370
    25
100
AcDbCircle
 10
128.6060620377
 20
172.8356518133
 30
0.0
 40
0.3880547482972314
100
AcDbArc
 50
90.706034423
 51
172.5077791303
  0
LINE
  5
22B
330
1F
100
AcDbEntity
  8
0
  6
Continuous
 62
     7
370
    25
100
AcDbLine
 10
128.2213202782
 20
172.8862508855
 30
0.0
 11
127.7844915737
 21
172.8862508855
 31
0.0
  0
ARC
  5
22C
330
1F
100
AcDbEntity
  8
0
  6
Continuous
 62
     7
370
    25
100
AcDbCircle
 10
142.0327626881
 20
172.8952219282
 30
0.0
 40
0.3337009379804893
100
AcDbArc
 50
358.4595044188
 51
79.8273529802
  0
LINE
  5
22D
330
1F
100
AcDbEntity
  8
0
  6
Continuous
 62
     7
370
    25
100
AcDbLine
 10
142.3663430178
 20
172.8862508855
 30
0.0
 11
142.481704832
 21
172.9125344787
 31
0.0
  0
LINE
  5
22E
330
1F
100
AcDbEntity
  8
0
  6
Continuous
 62
     7
370
    25
100
AcDbLine
 10
144.681744843
 20
162.7236770995
 30
0.0
 11
142.3663430178
 21
172.8862508855
 31
0.0
  0
LINE
  5
22F
330
1F
100
AcDbEntity
  8
0
  6
Continuous
 62
     7
370
    25
100
AcDbLine
 10
144.8030950102
 20
162.7236770995
 30
0.0
 11
144.681744843
 21
162.7236770995
 31
0.0
  0
LINE
  5
230
330
1F
100
AcDbEntity
  8
0
  6
Continuous
 62
     7
370
    25
100
AcDbLine
 10
142.3663430178
 20
172.8862508855
 30
0.0
 11
141.9295143133
 21
172.8862508855
 31
0.0
  0
ARC
  5
231
330
1F
100
AcDbEntity
  8
0
  6
Continuous
 62
     7
370
    25
100
AcDbCircle
 10
141.5454147789
 20
172.8363749933
 30
0.0
 40
0.3873242272053522
100
AcDbArc
 50
7.398543704
 51
89.3876427426
  0
LINE
  5
232
330
1F
100
AcDbEntity
  8
0
  6
Continuous
 62
     7
370
    25
100
AcDbLine
 10
128.2213202782
 20
172.8862508855
 30
0.0
 11
126.7051377393
 21
162.7236770995
 31
0.0
  0
LINE
  5
233
330
1F
100
AcDbEntity
  8
0
  6
Continuous
 62
     7
370
    25
100
AcDbLine
 10
125.4690897485
 20
162.7236770995
 30
0.0
 11
126.7051377393
 21
162.7236770995
 31
0.0
  0
LINE
  5
234
330
1F
100
AcDbEntity
  8
0
  6
Continuous
 62
     7
370
    25
100
AcDbLine
 10
141.9295143133
 20
172.8862508855
 30
0.0
 11
143.4456968522
 21
162.7236770995
 31
0.0
  0
LINE
  5
235
330
1F
100
AcDbEntity
  8
0
  6
Continuous
 62
     7
370
    25
100
AcDbLine
 10
143.4456968522
 20
162.7236770995
 30
0.0
 11
144.681744843
 21
162.7236770995
 31
0.0
  0
ARC
  5
236
330
1F
100
AcDbEntity
  8
0
  6
Continuous
 62
     7
370
    25
100
AcDbCircle
 10
130.1258454255
 20
172.8219675328
 30
0.0
 40
0.4017106644537484
100
AcDbArc
 50
89.8660502498
 51
170.7917099641
  0
LINE
  5
237
330
1F
100
AcDbEntity
  8
0
  6
Continuous
 62
     7
370
    25
100
AcDbLine
 10
129.7293115575
 20
172.8862508855
 30
0.0
 11
128.2213202782
 21
172.8862508855
 31
0.0
  0
LINE
  5
238
330
1F
100
AcDbEntity
  8
0
  6
Continuous
 62
     7
370
    25
100
AcDbLine
 10
141.9295143133
 20
172.8862508855
 30
0.0
 11
140.421523034
 21
172.8862508855
 31
0.0
  0
ARC
  5
239
330
1F
100
AcDbEntity
  8
0
  6
Continuous
 62
     7
370
    25
100
AcDbCircle
 10
140.02476263
 20
172.8217006836
 30
0.0
 40
0.4019770475346782
100
AcDbArc
 50
9.240668162
 51
90.1015716241
  0
LINE
  5
23A
330
1F
100
AcDbEntity
  8
0
  6
Continuous
 62
     7
370
    25
100
AcDbLine
 10
129.7293115575
 20
172.8862508855
 30
0.0
 11
128.1106908938
 21
162.7236770995
 31
0.0
  0
LINE
  5
23B
330
1F
100
AcDbEntity
  8
0
  6
Continuous
 62
     7
370
    25
100
AcDbLine
 10
128.1106908938
 20
162.7236770995
 30
0.0
 11
126.7051377393
 21
162.7236770995
 31
0.0
  0
LINE
  5
23C
330
1F
100
AcDbEntity
  8
0
  6
Continuous
 62
     7
370
    25
100
AcDbLine
 10
140.421523034
 20
172.8862508855
 30
0.0
 11
142.0401436977
 21
162.7236770995
 31
0.0
  0
LINE
  5
23D
330
1F
100
AcDbEntity
  8
0
  6
Continuous
 62
     7
370
    25
100
AcDbLine
 10
143.4456968522
 20
162.7236770995
 30
0.0
 11
142.0401436977
 21
162.7236770995
 31
0.0
  0
LWPOLYLINE
  5
23E
330
1F
100
AcDbEntity
  8
0
  6
Continuous
 62
     7
370
    25
100
AcDbPolyline
 90
        7
 70
   128
 43
0.0
 10
139.2825969059
 20
173.2236770995
 10
139.2842562863
 20
173.2236505838
 10
139.2977147344
 20
173.2214626245
 10
139.3440343785
 20
173.18489309
 10
139.3815233813
 20
173.1112958779
 10
139.4082530094
 20
173.0093648501
 10
139.4224685175
 20
172.8862508855
  0
LINE
  5
23F
330
1F
100
AcDbEntity
  8
0
  6
Continuous
 62
     7
370
    25
100
AcDbLine
 10
139.4224685175
 20
172.8862508855
 30
0.0
 11
135.7818555191
 21
172.8862508855
 31
0.0
  0
LWPOLYLINE
  5
240
330
1F
100
AcDbEntity
  8
0
  6
Continuous
 62
     7
370
    25
100
AcDbPolyline
 90
        7
 70
   128
 43
0.0
 10
135.599703822
 20
173.2236770995
 10
135.6018072438
 20
173.2236505838
 10
135.6189180861
 20
173.2214626245
 10
135.6785024256
 20
173.18489309
 10
135.7275160024
 20
173.1112958779
 10
135.7628940994
 20
173.0093648501
 10
135.7818555191
 20
172.8862508855
  0
ARC
  5
241
330
1F
100
AcDbEntity
  8
0
  6
Continuous
 62
     7
370
    25
100
AcDbCircle
 10
144.7707009513
 20
172.9620921548
 30
0.0
 40
4.741244727396437
100
AcDbArc
 50
176.8372593467
 51
180.9165462294
  0
LINE
  5
242
330
1F
100
AcDbEntity
  8
0
  6
Continuous
 62
     7
370
    25
100
AcDbLine
 10
140.0300628437
 20
172.8862508855
 30
0.0
 11
139.4224685175
 21
172.8862508855
 31
0.0
  0
LWPOLYLINE
  5
243
330
1F
100
AcDbEntity
  8
0
  6
Continuous
 62
     7
370
    25
100
AcDbPolyline
 90
        7
 70
   128
 43
0.0
 10
130.8682376856
 20
173.2236770995
 10
130.8665783052
 20
173.2236505838
 10
130.853119857
 20
173.2214626245
 10
130.806800213
 20
173.18489309
 10
130.7693112101
 20
173.1112958779
 10
130.7425815821
 20
173.0093648501
 10
130.7283660739
 20
172.8862508855
  0
LINE
  5
244
330
1F
100
AcDbEntity
  8
0
  6
Continuous
 62
     7
370
    25
100
AcDbLine
 10
130.7283660739
 20
172.8862508855
 30
0.0
 11
130.1207717478
 21
172.8862508855
 31
0.0
  0
ARC
  5
245
330
1F
100
AcDbEntity
  8
0
  6
Continuous
 62
     7
370
    25
100
AcDbCircle
 10
125.3801336401
 20
172.9620921548
 30
0.0
 40
4.741244727474798
100
AcDbArc
 50
359.0834537706
 51
3.1627406532
  0
LWPOLYLINE
  5
246
330
1F
100
AcDbEntity
  8
0
  6
Continuous
 62
     7
370
    25
100
AcDbPolyline
 90
        7
 70
   128
 43
0.0
 10
134.5511307695
 20
173.2236770995
 10
134.5490273477
 20
173.2236505838
 10
134.5319165054
 20
173.2214626245
 10
134.4723321659
 20
173.18489309
 10
134.4233185891
 20
173.1112958779
 10
134.3879404921
 20
173.0093648501
 10
134.3689790724
 20
172.8862508855
  0
LINE
  5
247
330
1F
100
AcDbEntity
  8
0
  6
Continuous
 62
     7
370
    25
100
AcDbLine
 10
134.3689790724
 20
172.8862508855
 30
0.0
 11
130.7283660739
 21
172.8862508855
 31
0.0
  0
LINE
  5
248
330
1F
100
AcDbEntity
  8
0
  6
Continuous
 62
     7
370
    25
100
AcDbLine
 10
141.6672991754
 20
162.7236770995
 30
0.0
 11
140.0300628437
 21
172.8862508855
 31
0.0
  0
ARC
  5
249
330
1F
100
AcDbEntity
  8
0
  6
Continuous
 62
     7
370
    25
100
AcDbCircle
 10
140.2308803149
 20
172.2576738423
 30
0.0
 40
0.6598763187428696
100
AcDbArc
 50
72.2823854397
 51
107.7176145603
  0
LINE
  5
24A
330
1F
100
AcDbEntity
  8
0
  6
Continuous
 62
     7
370
    25
100
AcDbLine
 10
142.0401436977
 20
162.7236770995
 30
0.0
 11
141.6672991754
 21
162.7236770995
 31
0.0
  0
LINE
  5
24B
330
1F
100
AcDbEntity
  8
0
  6
Continuous
 62
     7
370
    25
100
AcDbLine
 10
130.1207717478
 20
172.8862508855
 30
0.0
 11
128.483535416
 21
162.7236770995
 31
0.0
  0
LINE
  5
24C
330
1F
100
AcDbEntity
  8
0
  6
Continuous
 62
     7
370
    25
100
AcDbLine
 10
128.483535416
 20
162.7236770995
 30
0.0
 11
128.1106908938
 21
162.7236770995
 31
0.0
  0
LINE
  5
24D
330
1F
100
AcDbEntity
  8
0
  6
Continuous
 62
     7
370
    25
100
AcDbLine
 10
135.7818555191
 20
172.8862508855
 30
0.0
 11
136.5547482751
 21
162.7236770995
 31
0.0
  0
LINE
  5
24E
330
1F
100
AcDbEntity
  8
0
  6
Continuous
 62
     7
370
    25
100
AcDbLine
 10
139.4224685175
 20
172.8862508855
 30
0.0
 11
139.9480537634
 21
162.7236770995
 31
0.0
  0
LINE
  5
24F
330
1F
100
AcDbEntity
  8
0
  6
Continuous
 62
     7
370
    25
100
AcDbLine
 10
139.9480537634
 20
162.7236770995
 30
0.0
 11
136.5547482751
 21
162.7236770995
 31
0.0
  0
LINE
  5
250
330
1F
100
AcDbEntity
  8
0
  6
Continuous
 62
     7
370
    25
100
AcDbLine
 10
139.9480537634
 20
162.7236770995
 30
0.0
 11
141.6672991754
 21
162.7236770995
 31
0.0
  0
LINE
  5
251
330
1F
100
AcDbEntity
  8
0
  6
Continuous
 62
     7
370
    25
100
AcDbLine
 10
130.7283660739
 20
172.8862508855
 30
0.0
 11
130.202780828
 21
162.7236770995
 31
0.0
  0
LINE
  5
252
330
1F
100
AcDbEntity
  8
0
  6
Continuous
 62
     7
370
    25
100
AcDbLine
 10
128.483535416
 20
162.7236770995
 30
0.0
 11
130.202780828
 21
162.7236770995
 31
0.0
  0
LINE
  5
253
330
1F
100
AcDbEntity
  8
0
  6
Continuous
 62
     7
370
    25
100
AcDbLine
 10
134.3689790724
 20
172.8862508855
 30
0.0
 11
133.5960863164
 21
162.7236770995
 31
0.0
  0
LINE
  5
254
330
1F
100
AcDbEntity
  8
0
  6
Continuous
 62
     7
370
    25
100
AcDbLine
 10
133.5960863164
 20
162.7236770995
 30
0.0
 11
130.202780828
 21
162.7236770995
 31
0.0
  0
ARC
  5
255
330
1F
100
AcDbEntity
  8
0
  6
Continuous
 62
     7
370
    25
100
AcDbCircle
 10
135.1287194211
 20
172.8905861414
 30
0.0
 40
0.3373287757076902
100
AcDbArc
 50
99.0915469014
 51
180.7363697467
  0
LINE
  5
256
330
1F
100
AcDbEntity
  8
0
  6
Continuous
 62
     7
370
    25
100
AcDbLine
 10
134.7914185043
 20
172.8862508855
 30
0.0
 11
134.3689790724
 21
172.8862508855
 31
0.0
  0
LINE
  5
257
330
1F
100
AcDbEntity
  8
0
  6
Continuous
 62
     7
370
    25
100
AcDbLine
 10
135.7818555191
 20
172.8862508855
 30
0.0
 11
135.3594160871
 21
172.8862508855
 31
0.0
  0
ARC
  5
258
330
1F
100
AcDbEntity
  8
0
  6
Continuous
 62
     7
370
    25
100
AcDbCircle
 10
135.0221151703
 20
172.8905861414
 30
0.0
 40
0.3373287757077351
100
AcDbArc
 50
359.2636302533
 51
80.9084530986
  0
LINE
  5
259
330
1F
100
AcDbEntity
  8
0
  6
Continuous
 62
     7
370
    25
100
AcDbLine
 10
134.7914185043
 20
162.7236770995
 30
0.0
 11
134.7914185043
 21
172.8862508855
 31
0.0
  0
LINE
  5
25A
330
1F
100
AcDbEntity
  8
0
  6
Continuous
 62
     7
370
    25
100
AcDbLine
 10
133.5960863164
 20
162.7236770995
 30
0.0
 11
134.7914185043
 21
162.7236770995
 31
0.0
  0
LINE
  5
25B
330
1F
100
AcDbEntity
  8
0
  6
Continuous
 62
     7
370
    25
100
AcDbLine
 10
135.3594160871
 20
172.8862508855
 30
0.0
 11
135.3594160871
 21
162.7236770995
 31
0.0
  0
LINE
  5
25C
330
1F
100
AcDbEntity
  8
0
  6
Continuous
 62
     7
370
    25
100
AcDbLine
 10
135.3594160871
 20
162.7236770995
 30
0.0
 11
136.5547482751
 21
162.7236770995
 31
0.0
  0
ARC
  5
25D
330
1F
100
AcDbEntity
  8
0
  6
Continuous
 62
     7
370
    25
100
AcDbCircle
 10
135.0754172957
 20
171.408946665
 30
0.0
 40
1.504354703343834
100
AcDbArc
 50
79.1181447838
 51
100.8818552162
  0
LINE
  5
25E
330
1F
100
AcDbEntity
  8
0
  6
Continuous
 62
     7
370
    25
100
AcDbLine
 10
135.3594160871
 20
162.7236770995
 30
0.0
 11
134.7914185043
 21
162.7236770995
 31
0.0
  0
ARC
  5
25F
330
1F
100
AcDbEntity
  8
0
  6
Continuous
 62
     1
370
    25
100
AcDbCircle
 10
129.9058121226
 20
172.1085778829
 30
0.0
 40
0.8068351377191431
100
AcDbArc
 50
74.548461354
 51
103.05082107
  0
HATCH
  5
260
330
1F
100
AcDbEntity
  8
FORMAT
  6
Continuous
370
    18
100
AcDbHatch
 10
0.0
 20
0.0
 30
0.0
210
0.0
220
0.0
230
1.0
  2
ANSI31
 70
     0
 71
     0
 91
        1
 92
        0
 93
       11
 72
     1
 10
150.0754172957345
 20
162.7236770994745
 11
150.0754172957345
 21
182.7236770994745
 72
     1
 10
150.0754172957345
 20
182.7236770994745
 11
145.9194099934289
 21
182.7236770994745
 72
     2
 10
145.9194099934289
 20
183.7236770994745
 40
1.0
 50
90.0
 51
167.3747401537368
 73
     0
 72
     1
 10
144.9435894985911
 20
183.5051036293223
 11
142.9487390520152
 21
192.4111064875354
 72
     2
 10
142.55841085408
 20
192.3236770994745
 40
0.4
 50
12.62525984626209
 51
90.0
 73
     1
 72
     1
 10
142.55841085408
 20
192.7236770994745
 11
139.1754172957345
 21
192.7236770994745
 72
     1
 10
139.1754172957345
 20
192.7236770994745
 11
139.1754172957345
 21
173.2236770994745
 72
     1
 10
139.1754172957345
 20
173.2236770994745
 11
142.0916992343636
 21
173.2236770994745
 72
     2
 10
142.0916992343636
 20
172.8236770994745
 40
0.4
 50
270.0000000000008
 51
347.1650407292102
 73
     0
 72
     1
 10
142.4817048319674
 20
172.9125344786711
 11
144.8030950101757
 21
162.7236770994745
 72
     1
 10
144.8030950101757
 20
162.7236770994745
 11
150.0754172957345
 21
162.7236770994745
 97
        0
 75
     0
 76
     1
 52
0.0
 41
1.0
 77
     0
 78
     1
 53
45.0
 43
0.0
 44
0.0
 45
-2.245064030267288
 46
2.245064030267288
 79
     0
 98
        1
 10
0.0
 20
0.0
  0
HATCH
  5
261
330
1F
100
AcDbEntity
  8
FORMAT
  6
Continuous
370
    18
100
AcDbHatch
 10
0.0
 20
0.0
 30
0.0
210
0.0
220
0.0
230
1.0
  2
ANSI31
 70
     0
 71
     0
 91
        1
 92
        0
 93
       11
 72
     2
 10
124.2314245980394
 20
183.7236770994745
 40
1.0
 50
12.62525984626342
 51
90.0
 73
     0
 72
     1
 10
124.2314245980394
 20
182.7236770994745
 11
120.0754172957346
 21
182.7236770994745
 72
     1
 10
120.0754172957346
 20
182.7236770994745
 11
120.0754172957346
 21
162.7236770994745
 72
     1
 10
120.0754172957346
 20
162.7236770994745
 11
125.3477395812934
 21
162.7236770994745
 72
     1
 10
125.3477395812934
 20
162.7236770994745
 11
127.6691297595017
 21
172.9125344786711
 72
     2
 10
128.0591353571055
 20
172.8236770994745
 40
0.4
 50
192.8349592707909
 51
270.0000000000008
 73
     0
 72
     1
 10
128.0591353571055
 20
173.2236770994745
 11
130.9754172957346
 21
173.2236770994745
 72
     1
 10
130.9754172957346
 20
173.2236770994745
 11
130.9754172957346
 21
192.7236770994745
 72
     1
 10
130.9754172957346
 20
192.7236770994745
 11
127.5924237373883
 21
192.7236770994745
 72
     2
 10
127.5924237373883
 20
192.3236770994745
 40
0.4
 50
90.0
 51
167.374740153737
 73
     1
 72
     1
 10
127.2020955394532
 20
192.4111064875354
 11
125.2072450928773
 21
183.5051036293223
 97
        0
 75
     0
 76
     1
 52
0.0
 41
1.0
 77
     0
 78
     1
 53
45.0
 43
0.0
 44
0.0
 45
-2.245064030267288
 46
2.245064030267288
 79
     0
 98
        1
 10
0.0
 20
0.0
  0
DIMENSION
  5
262
330
1F
100
AcDbEntity
  8
FORMAT
 62
     7
100
AcDbDimension
  2
_D_1
 10
161.9814734824
 20
162.7236770995
 30
0.0
 11
161.9814734824
 21
172.7236770995
 31
0.0
 70
   160
  1
<>
 71
     2
 42
-1.0
  3
SLDDIMSTYLE0
100
AcDbAlignedDimension
 13
150.0754172957
 23
182.7236770995
 33
0.0
 14
150.0754172957
 24
162.7236770995
 34
0.0
 50
90.0
100
AcDbRotatedDimension
  0
DIMENSION
  5
26C
330
1F
100
AcDbEntity
  8
FORMAT
 62
     7
100
AcDbDimension
  2
_D_2
 10
170.9409909686
 20
162.7236770995
 30
0.0
 11
170.9409909686
 21
177.7236770995
 31
0.0
 70
   160
  1
<>
 71
     2
 42
-1.0
  3
SLDDIMSTYLE0
100
AcDbAlignedDimension
 13
139.1754172957
 23
192.7236770995
 33
0.0
 14
139.9480537634
 24
162.7236770995
 34
0.0
 50
90.0
100
AcDbRotatedDimension
  0
DIMENSION
  5
276
330
1F
100
AcDbEntity
  8
FORMAT
 62
     7
100
AcDbDimension
  2
_D_3
 10
114.9556387608
 20
162.7236770995
 30
0.0
 11
114.9556387608
 21
182.3696808646
 31
0.0
 70
   160
  1
<>
 71
     2
 42
-1.0
  3
SLDDIMSTYLE1
100
AcDbAlignedDimension
 13
130.8682376856
 23
173.2236770995
 33
0.0
 14
136.5547482751
 24
162.7236770995
 34
0.0
 50
90.0
100
AcDbRotatedDimension
  0
DIMENSION
  5
283
330
1F
100
AcDbEntity
  8
FORMAT
 62
     7
100
AcDbDimension
  2
_D_4
 10
139.1754172957
 20
202.7236770995
 30
0.0
 11
149.972234569
 21
202.7236770995
 31
0.0
 70
   160
  1
%%c<>
 71
     2
 42
-1.0
  3
SLDDIMSTYLE1
100
AcDbAlignedDimension
 13
130.9754172957
 23
192.7236770995
 33
0.0
 14
139.1754172957
 24
192.7236770995
 34
0.0
100
AcDbRotatedDimension
  0
MTEXT
  5
290
330
1F
100
AcDbEntity
  8
FORMAT
100
AcDbMText
 10
135.1352400058
 20
215.6275244543
 30
0.0
 40
5.0
 41
0.0
 71
     2
 72
     1
  1
A-A
  7
SLDTEXTSTYLE0
 73
     1
 44
1.0
  0
LINE
  5
291
330
1F
100
AcDbEntity
  8
FORMAT
  6
CENTERX2
 62
     7
370
    18
100
AcDbLine
 10
135.0754172957
 20
195.5461402491
 30
0.0
 11
135.0754172957
 21
160.7236770995
 31
0.0
  0
ENDSEC
  0
SECTION
  2
OBJECTS
  0
DICTIONARY
  5
C
330
0
100
AcDbDictionary
281
     1
  3
ACAD_GROUP
350
D
  3
ACAD_LAYOUT
350
1A
  3
ACAD_MLINESTYLE
350
17
  3
ACAD_PLOTSETTINGS
350
19
  3
ACAD_PLOTSTYLENAME
350
E
  3
ACAD_SCALELIST
350
47
  3
DWGPROPS
350
292
  0
DICTIONARY
  5
D
102
{ACAD_REACTORS
330
C
102
}
330
C
100
AcDbDictionary
281
     1
  0
DICTIONARY
  5
1A
102
{ACAD_REACTORS
330
C
102
}
330
C
100
AcDbDictionary
281
     1
  3
Layout1
350
1E
  3
Layout2
350
26
  3
Model
350
22
  0
DICTIONARY
  5
17
102
{ACAD_REACTORS
330
C
102
}
330
C
100
AcDbDictionary
281
     1
  3
Standard
350
18
  0
DICTIONARY
  5
19
102
{ACAD_REACTORS
330
C
102
}
330
C
100
AcDbDictionary
281
     1
  0
ACDBDICTIONARYWDFLT
  5
E
102
{ACAD_REACTORS
330
C
102
}
330
C
100
AcDbDictionary
281
     1
  3
Normal
350
F
100
AcDbDictionaryWithDefault
340
F
  0
DICTIONARY
  5
47
102
{ACAD_REACTORS
330
C
102
}
330
C
100
AcDbDictionary
281
     1
  3
A0
350
48
  3
A1
350
49
  3
A2
350
4A
  3
A3
350
4B
  3
A4
350
4C
  3
A5
350
4D
  3
A6
350
4E
  3
A7
350
4F
  3
A8
350
50
  3
A9
350
51
  3
B0
350
52
  3
B1
350
53
  3
B2
350
54
  3
B3
350
55
  3
B4
350
56
  3
B5
350
57
  3
B6
350
58
  3
B7
350
59
  3
B8
350
5A
  3
B9
350
5B
  3
C0
350
5C
  3
C1
350
5D
  3
C2
350
5E
  3
C3
350
5F
  3
C4
350
60
  3
C5
350
61
  3
C6
350
62
  3
C7
350
63
  3
C8
350
64
  3
C9
350
65
  3
D0
350
66
  3
D1
350
67
  3
D2
350
68
  0
XRECORD
  5
292
102
{ACAD_REACTORS
330
C
102
}
330
C
100
AcDbXrecord
280
     1
  1
DWGPROPS COOKIE
  2

  3

  4

  6

  7

  8
beland
  9

300
=
301
=
302
=
303
=
304
=
305
=
306
=
307
=
308
=
309
=
 40
0.0
 41
2459892.53691456
 42
2459892.536916146
  1

 90
        0
  0
LAYOUT
  5
1E
102
{ACAD_REACTORS
330
1A
102
}
330
1A
100
AcDbPlotSettings
  1

  2
none_device
  4

  6

 40
0.0
 41
0.0
 42
0.0
 43
0.0
 44
0.0
 45
0.0
 46
0.0
 47
0.0
 48
0.0
 49
0.0
140
0.0
141
0.0
142
1.0
143
1.0
 70
   688
 72
     1
 73
     0
 74
     5
  7

 75
    16
147
1.0
148
0.0
149
0.0
100
AcDbLayout
  1
Layout1
 70
     1
 71
     1
 10
0.0
 20
0.0
 11
420.0
 21
297.0
 12
0.0
 22
0.0
 32
0.0
 14
1.0000000000E+20
 24
1.0000000000E+20
 34
1.0000000000E+20
 15
-1.0000000000E+20
 25
-1.0000000000E+20
 35
-1.0000000000E+20
146
0.0
 13
0.0
 23
0.0
 33
0.0
 16
1.0
 26
0.0
 36
0.0
 17
0.0
 27
1.0
 37
0.0
 76
     0
330
1B
  0
LAYOUT
  5
26
102
{ACAD_REACTORS
330
1A
102
}
330
1A
100
AcDbPlotSettings
  1

  2
none_device
  4

  6

 40
0.0
 41
0.0
 42
0.0
 43
0.0
 44
0.0
 45
0.0
 46
0.0
 47
0.0
 48
0.0
 49
0.0
140
0.0
141
0.0
142
1.0
143
1.0
 70
   688
 72
     1
 73
     0
 74
     5
  7

 75
    16
147
1.0
148
0.0
149
0.0
100
AcDbLayout
  1
Layout2
 70
     1
 71
     2
 10
0.0
 20
0.0
 11
0.0
 21
0.0
 12
0.0
 22
0.0
 32
0.0
 14
0.0
 24
0.0
 34
0.0
 15
0.0
 25
0.0
 35
0.0
146
0.0
 13
0.0
 23
0.0
 33
0.0
 16
1.0
 26
0.0
 36
0.0
 17
0.0
 27
1.0
 37
0.0
 76
     0
330
23
  0
LAYOUT
  5
22
102
{ACAD_REACTORS
330
1A
102
}
330
1A
100
AcDbPlotSettings
  1

  2
none_device
  4
Letter_(8.50_x_11.00_Inches)
  6

 40
6.35
 41
6.35
 42
6.35000508
 43
6.35000508
 44
215.9
 45
279.4
 46
0.0
 47
0.0
 48
0.0
 49
0.0
140
0.0
141
0.0
142
1.0
143
1.0
 70
  1712
 72
     1
 73
     0
 74
     0
  7

 75
     0
147
1.0
148
0.0
149
0.0
100
AcDbLayout
  1
Model
 70
     1
 71
     0
 10
0.0
 20
0.0
 11
210.0
 21
297.0
 12
0.0
 22
0.0
 32
0.0
 14
0.0
 24
0.0
 34
0.0
 15
210.0
 25
297.0
 35
0.0
146
0.0
 13
0.0
 23
0.0
 33
0.0
 16
1.0
 26
0.0
 36
0.0
 17
0.0
 27
1.0
 37
0.0
 76
     0
330
1F
331
29
  0
MLINESTYLE
  5
18
102
{ACAD_REACTORS
330
17
102
}
330
17
100
AcDbMlineStyle
  2
Standard
 70
     0
  3

 62
   256
 51
90.0
 52
90.0
 71
     2
 49
0.5
 62
   256
  6
BYLAYER
 49
-0.5
 62
   256
  6
BYLAYER
  0
ACDBPLACEHOLDER
  5
F
102
{ACAD_REACTORS
330
E
102
}
330
E
  0
SCALE
  5
48
102
{ACAD_REACTORS
330
47
102
}
330
47
100
AcDbScale
 70
     0
300
1:1
140
1.0
141
1.0
290
     1
  0
SCALE
  5
49
102
{ACAD_REACTORS
330
47
102
}
330
47
100
AcDbScale
 70
     0
300
1:2
140
1.0
141
2.0
290
     0
  0
SCALE
  5
4A
102
{ACAD_REACTORS
330
47
102
}
330
47
100
AcDbScale
 70
     0
300
1:4
140
1.0
141
4.0
290
     0
  0
SCALE
  5
4B
102
{ACAD_REACTORS
330
47
102
}
330
47
100
AcDbScale
 70
     0
300
1:5
140
1.0
141
5.0
290
     0
  0
SCALE
  5
4C
102
{ACAD_REACTORS
330
47
102
}
330
47
100
AcDbScale
 70
     0
300
1:8
140
1.0
141
8.0
290
     0
  0
SCALE
  5
4D
102
{ACAD_REACTORS
330
47
102
}
330
47
100
AcDbScale
 70
     0
300
1:10
140
1.0
141
10.0
290
     0
  0
SCALE
  5
4E
102
{ACAD_REACTORS
330
47
102
}
330
47
100
AcDbScale
 70
     0
300
1:16
140
1.0
141
16.0
290
     0
  0
SCALE
  5
4F
102
{ACAD_REACTORS
330
47
102
}
330
47
100
AcDbScale
 70
     0
300
1:20
140
1.0
141
20.0
290
     0
  0
SCALE
  5
50
102
{ACAD_REACTORS
330
47
102
}
330
47
100
AcDbScale
 70
     0
300
1:30
140
1.0
141
30.0
290
     0
  0
SCALE
  5
51
102
{ACAD_REACTORS
330
47
102
}
330
47
100
AcDbScale
 70
     0
300
1:40
140
1.0
141
40.0
290
     0
  0
SCALE
  5
52
102
{ACAD_REACTORS
330
47
102
}
330
47
100
AcDbScale
 70
     0
300
1:50
140
1.0
141
50.0
290
     0
  0
SCALE
  5
53
102
{ACAD_REACTORS
330
47
102
}
330
47
100
AcDbScale
 70
     0
300
1:100
140
1.0
141
100.0
290
     0
  0
SCALE
  5
54
102
{ACAD_REACTORS
330
47
102
}
330
47
100
AcDbScale
 70
     0
300
2:1
140
2.0
141
1.0
290
     0
  0
SCALE
  5
55
102
{ACAD_REACTORS
330
47
102
}
330
47
100
AcDbScale
 70
     0
300
4:1
140
4.0
141
1.0
290
     0
  0
SCALE
  5
56
102
{ACAD_REACTORS
330
47
102
}
330
47
100
AcDbScale
 70
     0
300
8:1
140
8.0
141
1.0
290
     0
  0
SCALE
  5
57
102
{ACAD_REACTORS
330
47
102
}
330
47
100
AcDbScale
 70
     0
300
10:1
140
10.0
141
1.0
290
     0
  0
SCALE
  5
58
102
{ACAD_REACTORS
330
47
102
}
330
47
100
AcDbScale
 70
     0
300
100:1
140
100.0
141
1.0
290
     0
  0
SCALE
  5
59
102
{ACAD_REACTORS
330
47
102
}
330
47
100
AcDbScale
 70
     0
300
1/128" = 1'-0"
140
0.0078125
141
12.0
290
     0
  0
SCALE
  5
5A
102
{ACAD_REACTORS
330
47
102
}
330
47
100
AcDbScale
 70
     0
300
1/64" = 1'-0"
140
0.015625
141
12.0
290
     0
  0
SCALE
  5
5B
102
{ACAD_REACTORS
330
47
102
}
330
47
100
AcDbScale
 70
     0
300
1/32" = 1'-0"
140
0.03125
141
12.0
290
     0
  0
SCALE
  5
5C
102
{ACAD_REACTORS
330
47
102
}
330
47
100
AcDbScale
 70
     0
300
1/16" = 1'-0"
140
0.0625
141
12.0
290
     0
  0
SCALE
  5
5D
102
{ACAD_REACTORS
330
47
102
}
330
47
100
AcDbScale
 70
     0
300
3/32" = 1'-0"
140
0.09375
141
12.0
290
     0
  0
SCALE
  5
5E
102
{ACAD_REACTORS
330
47
102
}
330
47
100
AcDbScale
 70
     0
300
1/8" = 1'-0"
140
0.125
141
12.0
290
     0
  0
SCALE
  5
5F
102
{ACAD_REACTORS
330
47
102
}
330
47
100
AcDbScale
 70
     0
300
3/16" = 1'-0"
140
0.1875
141
12.0
290
     0
  0
SCALE
  5
60
102
{ACAD_REACTORS
330
47
102
}
330
47
100
AcDbScale
 70
     0
300
1/4" = 1'-0"
140
0.25
141
12.0
290
     0
  0
SCALE
  5
61
102
{ACAD_REACTORS
330
47
102
}
330
47
100
AcDbScale
 70
     0
300
3/8" = 1'-0"
140
0.375
141
12.0
290
     0
  0
SCALE
  5
62
102
{ACAD_REACTORS
330
47
102
}
330
47
100
AcDbScale
 70
     0
300
1/2" = 1'-0"
140
0.5
141
12.0
290
     0
  0
SCALE
  5
63
102
{ACAD_REACTORS
330
47
102
}
330
47
100
AcDbScale
 70
     0
300
3/4" = 1'-0"
140
0.75
141
12.0
290
     0
  0
SCALE
  5
64
102
{ACAD_REACTORS
330
47
102
}
330
47
100
AcDbScale
 70
     0
300
1" = 1'-0"
140
1.0
141
12.0
290
     0
  0
SCALE
  5
65
102
{ACAD_REACTORS
330
47
102
}
330
47
100
AcDbScale
 70
     0
300
1-1/2" = 1'-0"
140
1.5
141
12.0
290
     0
  0
SCALE
  5
66
102
{ACAD_REACTORS
330
47
102
}
330
47
100
AcDbScale
 70
     0
300
3" = 1'-0"
140
3.0
141
12.0
290
     0
  0
SCALE
  5
67
102
{ACAD_REACTORS
330
47
102
}
330
47
100
AcDbScale
 70
     0
300
6" = 1'-0"
140
6.0
141
12.0
290
     0
  0
SCALE
  5
68
102
{ACAD_REACTORS
330
47
102
}
330
47
100
AcDbScale
 70
     0
300
1'-0" = 1'-0"
140
12.0
141
12.0
290
     0
  0
ENDSEC
  0
EOF
