  0
SECTION
  2
HEADER
  9
$ACADVER
  1
AC1015
  9
$ACADMAINTVER
 70
     6
  9
$DWGCODEPAGE
  3
ANSI_1252
  9
$INSBASE
 10
0.0
 20
0.0
 30
0.0
  9
$EXTMIN
 10
0.0
 20
0.0
 30
0.0
  9
$EXTMAX
 10
210.0
 20
297.0
 30
0.0
  9
$LIMMIN
 10
0.0
 20
0.0
  9
$LIMMAX
 10
210.0
 20
297.0
  9
$ORTHOMODE
 70
     0
  9
$REGENMODE
 70
     1
  9
$FILLMODE
 70
     1
  9
$QTEXTMODE
 70
     0
  9
$MIRRTEXT
 70
     1
  9
$LTSCALE
 40
1.0
  9
$ATTMODE
 70
     1
  9
$TEXTSIZE
 40
3.5
  9
$TRACEWID
 40
1.0
  9
$TEXTSTYLE
  7
STANDARD
  9
$CLAYER
  8
0
  9
$CELTYPE
  6
ByLayer
  9
$CECOLOR
 62
   256
  9
$CELTSCALE
 40
1.0
  9
$DISPSILH
 70
     0
  9
$DIMSCALE
 40
1.0
  9
$DIMASZ
 40
3.302
  9
$DIMEXO
 40
1.0
  9
$DIMDLI
 40
3.75
  9
$DIMRND
 40
0.0
  9
$DIMDLE
 40
0.0
  9
$DIMEXE
 40
1.0
  9
$DIMTP
 40
0.0
  9
$DIMTM
 40
0.0
  9
$DIMTXT
 40
3.5
  9
$DIMCEN
 40
2.5
  9
$DIMTSZ
 40
0.0
  9
$DIMTOL
 70
     0
  9
$DIMLIM
 70
     0
  9
$DIMTIH
 70
     1
  9
$DIMTOH
 70
     1
  9
$DIMSE1
 70
     0
  9
$DIMSE2
 70
     0
  9
$DIMTAD
 70
     1
  9
$DIMZIN
 70
     0
  9
$DIMBLK
  1

  9
$DIMASO
 70
     1
  9
$DIMSHO
 70
     1
  9
$DIMPOST
  1

  9
$DIMAPOST
  1

  9
$DIMALT
 70
     0
  9
$DIMALTD
 70
     3
  9
$DIMALTF
 40
0.0393700787
  9
$DIMLFAC
 40
1.0
  9
$DIMTOFL
 70
     1
  9
$DIMTVP
 40
0.0
  9
$DIMTIX
 70
     0
  9
$DIMSOXD
 70
     0
  9
$DIMSAH
 70
     0
  9
$DIMBLK1
  1

  9
$DIMBLK2
  1

  9
$DIMSTYLE
  2
ISO-25
  9
$DIMCLRD
 70
     0
  9
$DIMCLRE
 70
     0
  9
$DIMCLRT
 70
     0
  9
$DIMTFAC
 40
1.0
  9
$DIMGAP
 40
3.0
  9
$DIMJUST
 70
     0
  9
$DIMSD1
 70
     0
  9
$DIMSD2
 70
     0
  9
$DIMTOLJ
 70
     0
  9
$DIMTZIN
 70
     0
  9
$DIMALTZ
 70
     0
  9
$DIMALTTZ
 70
     0
  9
$DIMUPT
 70
     0
  9
$DIMDEC
 70
     2
  9
$DIMTDEC
 70
     2
  9
$DIMALTU
 70
     2
  9
$DIMALTTD
 70
     3
  9
$DIMTXSTY
  7
STANDARD
  9
$DIMAUNIT
 70
     0
  9
$DIMADEC
 70
     2
  9
$DIMALTRND
 40
0.0
  9
$DIMAZIN
 70
     0
  9
$DIMDSEP
 70
    44
  9
$DIMATFIT
 70
     3
  9
$DIMFRAC
 70
     0
  9
$DIMLDRBLK
  1

  9
$DIMLUNIT
 70
     2
  9
$DIMLWD
 70
    -2
  9
$DIMLWE
 70
    -2
  9
$DIMTMOVE
 70
     0
  9
$LUNITS
 70
     2
  9
$LUPREC
 70
     2
  9
$SKETCHINC
 40
1.0
  9
$FILLETRAD
 40
10.0
  9
$AUNITS
 70
     0
  9
$AUPREC
 70
     2
  9
$MENU
  1
.
  9
$ELEVATION
 40
0.0
  9
$PELEVATION
 40
0.0
  9
$THICKNESS
 40
0.0
  9
$LIMCHECK
 70
     0
  9
$CHAMFERA
 40
0.0
  9
$CHAMFERB
 40
0.0
  9
$CHAMFERC
 40
0.0
  9
$CHAMFERD
 40
0.0
  9
$SKPOLY
 70
     0
  9
$TDCREATE
 40
2459892.590101146
  9
$TDUCREATE
 40
2459892.548434479
  9
$TDUPDATE
 40
2459892.590102766
  9
$TDUUPDATE
 40
2459892.5484361
  9
$TDINDWG
 40
0.0000000116
  9
$TDUSRTIMER
 40
0.0000000116
  9
$USRTIMER
 70
     1
  9
$ANGBASE
 50
0.0
  9
$ANGDIR
 70
     0
  9
$PDMODE
 70
     0
  9
$PDSIZE
 40
-1.0
  9
$PLINEWID
 40
0.0
  9
$SPLFRAME
 70
     0
  9
$SPLINETYPE
 70
     6
  9
$SPLINESEGS
 70
     8
  9
$HANDSEED
  5
287
  9
$SURFTAB1
 70
     6
  9
$SURFTAB2
 70
     6
  9
$SURFTYPE
 70
     6
  9
$SURFU
 70
     6
  9
$SURFV
 70
     6
  9
$UCSBASE
  2

  9
$UCSNAME
  2

  9
$UCSORG
 10
0.0
 20
0.0
 30
0.0
  9
$UCSXDIR
 10
1.0
 20
0.0
 30
0.0
  9
$UCSYDIR
 10
0.0
 20
1.0
 30
0.0
  9
$UCSORTHOREF
  2

  9
$UCSORTHOVIEW
 70
     0
  9
$UCSORGTOP
 10
0.0
 20
0.0
 30
0.0
  9
$UCSORGBOTTOM
 10
0.0
 20
0.0
 30
0.0
  9
$UCSORGLEFT
 10
0.0
 20
0.0
 30
0.0
  9
$UCSORGRIGHT
 10
0.0
 20
0.0
 30
0.0
  9
$UCSORGFRONT
 10
0.0
 20
0.0
 30
0.0
  9
$UCSORGBACK
 10
0.0
 20
0.0
 30
0.0
  9
$PUCSBASE
  2

  9
$PUCSNAME
  2

  9
$PUCSORG
 10
0.0
 20
0.0
 30
0.0
  9
$PUCSXDIR
 10
1.0
 20
0.0
 30
0.0
  9
$PUCSYDIR
 10
0.0
 20
1.0
 30
0.0
  9
$PUCSORTHOREF
  2

  9
$PUCSORTHOVIEW
 70
     0
  9
$PUCSORGTOP
 10
0.0
 20
0.0
 30
0.0
  9
$PUCSORGBOTTOM
 10
0.0
 20
0.0
 30
0.0
  9
$PUCSORGLEFT
 10
0.0
 20
0.0
 30
0.0
  9
$PUCSORGRIGHT
 10
0.0
 20
0.0
 30
0.0
  9
$PUCSORGFRONT
 10
0.0
 20
0.0
 30
0.0
  9
$PUCSORGBACK
 10
0.0
 20
0.0
 30
0.0
  9
$USERI1
 70
     0
  9
$USERI2
 70
     0
  9
$USERI3
 70
     0
  9
$USERI4
 70
     0
  9
$USERI5
 70
     0
  9
$USERR1
 40
0.0
  9
$USERR2
 40
0.0
  9
$USERR3
 40
0.0
  9
$USERR4
 40
0.0
  9
$USERR5
 40
0.0
  9
$WORLDVIEW
 70
     1
  9
$SHADEDGE
 70
     3
  9
$SHADEDIF
 70
    70
  9
$TILEMODE
 70
     1
  9
$MAXACTVP
 70
    64
  9
$PINSBASE
 10
0.0
 20
0.0
 30
0.0
  9
$PLIMCHECK
 70
     0
  9
$PEXTMIN
 10
1.0000000000E+20
 20
1.0000000000E+20
 30
1.0000000000E+20
  9
$PEXTMAX
 10
-1.0000000000E+20
 20
-1.0000000000E+20
 30
-1.0000000000E+20
  9
$PLIMMIN
 10
0.0
 20
0.0
  9
$PLIMMAX
 10
420.0
 20
297.0
  9
$UNITMODE
 70
     0
  9
$VISRETAIN
 70
     1
  9
$PLINEGEN
 70
     0
  9
$PSLTSCALE
 70
     1
  9
$TREEDEPTH
 70
  3020
  9
$CMLSTYLE
  2
Standard
  9
$CMLJUST
 70
     0
  9
$CMLSCALE
 40
20.0
  9
$PROXYGRAPHICS
 70
     1
  9
$MEASUREMENT
 70
     1
  9
$CELWEIGHT
370
    -1
  9
$ENDCAPS
280
     0
  9
$JOINSTYLE
280
     0
  9
$LWDISPLAY
290
     1
  9
$INSUNITS
 70
     4
  9
$HYPERLINKBASE
  1

  9
$STYLESHEET
  1

  9
$XEDIT
290
     1
  9
$CEPSNTYPE
380
     0
  9
$PSTYLEMODE
290
     1
  9
$FINGERPRINTGUID
  2
{12dbe8e1-4acc-4630-89f0-a4808b912e76}
  9
$VERSIONGUID
  2
{FAEB1C32-E019-11D5-929B-00C0DF256EC4}
  9
$EXTNAMES
290
     1
  9
$PSVPSCALE
 40
0.0
  9
$OLESTARTUP
290
     0
  0
ENDSEC
  0
SECTION
  2
CLASSES
  0
CLASS
  1
ACDBDICTIONARYWDFLT
  2
AcDbDictionaryWithDefault
  3
ObjectDBX Classes
 90
        0
280
     0
281
     0
  0
CLASS
  1
VISUALSTYLE
  2
AcDbVisualStyle
  3
ObjectDBX Classes
 90
     4095
280
     0
281
     0
  0
CLASS
  1
MATERIAL
  2
AcDbMaterial
  3
ObjectDBX Classes
 90
     1153
280
     0
281
     0
  0
CLASS
  1
SCALE
  2
AcDbScale
  3
ObjectDBX Classes
 90
     1153
280
     0
281
     0
  0
CLASS
  1
TABLESTYLE
  2
AcDbTableStyle
  3
ObjectDBX Classes
 90
     4095
280
     0
281
     0
  0
CLASS
  1
MLEADERSTYLE
  2
AcDbMLeaderStyle
  3
ACDB_MLEADERSTYLE_CLASS
 90
     4095
280
     0
281
     0
  0
CLASS
  1
SUN
  2
AcDbSun
  3
SCENEOE
 90
     1153
280
     0
281
     0
  0
CLASS
  1
ACDBPLACEHOLDER
  2
AcDbPlaceHolder
  3
ObjectDBX Classes
 90
        0
280
     0
281
     0
  0
CLASS
  1
LAYOUT
  2
AcDbLayout
  3
ObjectDBX Classes
 90
        0
280
     0
281
     0
  0
ENDSEC
  0
SECTION
  2
TABLES
  0
TABLE
  2
VPORT
  5
8
330
0
100
AcDbSymbolTable
 70
     1
  0
VPORT
  5
29
330
8
100
AcDbSymbolTableRecord
100
AcDbViewportTableRecord
  2
*Active
 70
     0
 10
0.0
 20
0.0
 11
1.0
 21
1.0
 12
105.0
 22
148.5
 13
0.0
 23
0.0
 14
10.0
 24
10.0
 15
10.0
 25
10.0
 16
0.0
 26
0.0
 36
1.0
 17
0.0
 27
0.0
 37
0.0
 40
297.0
 41
0.7070707071
 42
50.0
 43
0.0
 44
0.0
 50
0.0
 51
0.0
 71
     0
 72
  2000
 73
     1
 74
     3
 75
     0
 76
     0
 77
     0
 78
     0
281
     0
 65
     1
110
0.0
120
0.0
130
0.0
111
1.0
121
0.0
131
0.0
112
0.0
122
1.0
132
0.0
 79
     0
146
0.0
  0
ENDTAB
  0
TABLE
  2
LTYPE
  5
5
330
0
100
AcDbSymbolTable
 70
     6
  0
LTYPE
  5
14
330
5
100
AcDbSymbolTableRecord
100
AcDbLinetypeTableRecord
  2
ByBlock
 70
     0
  3

 72
    65
 73
     0
 40
0.0
  0
LTYPE
  5
15
330
5
100
AcDbSymbolTableRecord
100
AcDbLinetypeTableRecord
  2
ByLayer
 70
     0
  3

 72
    65
 73
     0
 40
0.0
  0
LTYPE
  5
16
330
5
100
AcDbSymbolTableRecord
100
AcDbLinetypeTableRecord
  2
Continuous
 70
     0
  3
Solid line
 72
    65
 73
     0
 40
0.0
  0
LTYPE
  5
6E
330
5
100
AcDbSymbolTableRecord
100
AcDbLinetypeTableRecord
  2
HIDDEN
 70
     0
  3
Hidden __ __ __ __ __ __ __ __ __ __ __ __ __ __
 72
    65
 73
     2
 40
1.905
 49
1.27
 74
     0
 49
-0.635
 74
     0
  0
LTYPE
  5
6F
330
5
100
AcDbSymbolTableRecord
100
AcDbLinetypeTableRecord
  2
PHANTOM
 70
     0
  3
Phantom ______  __  __  ______  __  __  ______
 72
    65
 73
     6
 40
12.7
 49
6.35
 74
     0
 49
-1.27
 74
     0
 49
1.27
 74
     0
 49
-1.27
 74
     0
 49
1.27
 74
     0
 49
-1.27
 74
     0
  0
LTYPE
  5
70
330
5
100
AcDbSymbolTableRecord
100
AcDbLinetypeTableRecord
  2
CENTER
 70
     0
  3
Center ____ _ ____ _ ____ _ ____ _ ____ _ ____
 72
    65
 73
     4
 40
10.16
 49
6.35
 74
     0
 49
-1.27
 74
     0
 49
1.27
 74
     0
 49
-1.27
 74
     0
  0
LTYPE
  5
71
330
5
100
AcDbSymbolTableRecord
100
AcDbLinetypeTableRecord
  2
CENTERX2
 70
     0
  3
Center (2x) ________  __  ________  __  _____
 72
    65
 73
     4
 40
20.32
 49
12.7
 74
     0
 49
-2.54
 74
     0
 49
2.54
 74
     0
 49
-2.54
 74
     0
  0
LTYPE
  5
72
330
5
100
AcDbSymbolTableRecord
100
AcDbLinetypeTableRecord
  2
DOT2
 70
     0
  3
Dot (.5x) ........................................
 72
    65
 73
     2
 40
0.635
 49
0.0
 74
     0
 49
-0.635
 74
     0
  0
ENDTAB
  0
TABLE
  2
LAYER
  5
2
330
0
100
AcDbSymbolTable
 70
     9
  0
LAYER
  5
10
330
2
100
AcDbSymbolTableRecord
100
AcDbLayerTableRecord
  2
0
 70
     0
 62
     7
  6
Continuous
370
    -3
390
F
  0
LAYER
  5
73
330
2
100
AcDbSymbolTableRecord
100
AcDbLayerTableRecord
  2
FORMAT
 70
     0
 62
     7
  6
Continuous
370
    -3
390
F
  0
LAYER
  5
74
330
2
100
AcDbSymbolTableRecord
100
AcDbLayerTableRecord
  2
VORLAGE
 70
     0
 62
     7
  6
Continuous
370
    -3
390
F
  0
LAYER
  5
75
330
2
100
AcDbSymbolTableRecord
100
AcDbLayerTableRecord
  2
1
 70
     0
 62
   179
  6
Continuous
370
    -3
390
F
  0
LAYER
  5
76
330
2
100
AcDbSymbolTableRecord
100
AcDbLayerTableRecord
  2
LAYER0
 70
     0
 62
     7
  6
Continuous
370
    -3
390
F
  0
LAYER
  5
77
330
2
100
AcDbSymbolTableRecord
100
AcDbLayerTableRecord
  2
BEMASSUNG
 70
     0
 62
     1
  6
Continuous
370
    -3
390
F
  0
LAYER
  5
78
330
2
100
AcDbSymbolTableRecord
100
AcDbLayerTableRecord
  2
ÄNDERUNG
 70
     0
 62
     1
  6
Continuous
370
    -3
390
F
  0
LAYER
  5
79
330
2
100
AcDbSymbolTableRecord
100
AcDbLayerTableRecord
  2
KENNZEICHNUNG
 70
     0
 62
     7
  6
Continuous
370
    -3
390
F
  0
LAYER
  5
7A
330
2
100
AcDbSymbolTableRecord
100
AcDbLayerTableRecord
  2
LOGOS
 70
     0
 62
     7
  6
Continuous
370
    -3
390
F
  0
ENDTAB
  0
TABLE
  2
STYLE
  5
3
330
0
100
AcDbSymbolTable
 70
     5
  0
STYLE
  5
11
330
3
100
AcDbSymbolTableRecord
100
AcDbTextStyleTableRecord
  2
STANDARD
 70
     0
 40
0.0
 41
1.0
 50
0.0
 71
     0
 42
3.5
  3
ARIAL.TTF
  4

1001
ACAD
1000
ARIAL
1071
       34
  0
STYLE
  5
8C
330
3
100
AcDbSymbolTableRecord
100
AcDbTextStyleTableRecord
  2
SLDTEXTSTYLE0
 70
     0
 40
0.0
 41
0.948
 50
0.0
 71
     0
 42
3.5
  3
ARIAL.TTF
  4

1001
ACAD
1000
Arial
1071
      290
  0
STYLE
  5
B3
330
3
100
AcDbSymbolTableRecord
100
AcDbTextStyleTableRecord
  2
SLDTEXTSTYLE1
 70
     0
 40
0.0
 41
1.0
 50
0.0
 71
     0
 42
3.5
  3
Arial Unicode MS
  4

1001
ACAD
1000
Arial Unicode MS
1071
 33554688
  0
STYLE
  5
B9
330
3
100
AcDbSymbolTableRecord
100
AcDbTextStyleTableRecord
  2
SLDTEXTSTYLE2
 70
     0
 40
0.0
 41
0.87
 50
0.0
 71
     0
 42
3.5
  3
ARIALN.TTF
  4

1001
ACAD
1000
Arial Narrow
1071
      290
  0
STYLE
  5
CE
330
3
100
AcDbSymbolTableRecord
100
AcDbTextStyleTableRecord
  2
SLDTEXTSTYLE3
 70
     0
 40
0.0
 41
0.948
 50
0.0
 71
     0
 42
3.5
  3
ARIALBD.TTF
  4

1001
ACAD
1000
Arial
1071
 33554722
  0
ENDTAB
  0
TABLE
  2
VIEW
  5
6
330
0
100
AcDbSymbolTable
 70
     0
  0
ENDTAB
  0
TABLE
  2
UCS
  5
7
330
0
100
AcDbSymbolTable
 70
     0
  0
ENDTAB
  0
TABLE
  2
APPID
  5
9
330
0
100
AcDbSymbolTable
 70
     1
  0
APPID
  5
12
330
9
100
AcDbSymbolTableRecord
100
AcDbRegAppTableRecord
  2
ACAD
 70
     0
  0
ENDTAB
  0
TABLE
  2
DIMSTYLE
  5
A
330
0
100
AcDbSymbolTable
 70
     3
100
AcDbDimStyleTable
  0
DIMSTYLE
105
27
330
A
100
AcDbSymbolTableRecord
100
AcDbDimStyleTableRecord
  2
ISO-25
 70
     0
 41
2.5
 42
0.625
 43
3.75
 44
1.25
 73
     0
 74
     0
 77
     1
 78
     8
140
2.5
141
2.5
143
0.0393700787
147
0.625
171
     3
172
     1
178
     0
271
     2
272
     2
274
     3
278
    44
283
     0
284
     8
340
11
  0
DIMSTYLE
105
14C
102
{ACAD_REACTORS
330
14B
330
27A
102
}
330
A
100
AcDbSymbolTableRecord
100
AcDbDimStyleTableRecord
  2
SLDDIMSTYLE0
 70
     0
 41
3.302
 44
0.0
 45
0.000000001
 73
     0
 74
     0
 77
     1
 78
    12
 79
     3
140
3.5
147
0.875
173
     1
178
     0
271
     2
272
     2
276
     2
284
    12
340
8C
  0
DIMSTYLE
105
261
102
{ACAD_REACTORS
330
260
330
26D
102
}
330
A
100
AcDbSymbolTableRecord
100
AcDbDimStyleTableRecord
  2
SLDDIMSTYLE1
 70
     0
 41
3.302
 44
0.0
 45
0.000000001
 73
     0
 74
     0
 77
     1
 78
    12
 79
     3
140
3.5
147
0.875
172
     1
173
     1
178
     0
271
     2
272
     2
276
     2
284
    12
289
     0
340
8C
  0
ENDTAB
  0
TABLE
  2
BLOCK_RECORD
  5
1
330
0
100
AcDbSymbolTable
 70
    11
  0
BLOCK_RECORD
  5
1F
330
1
100
AcDbSymbolTableRecord
100
AcDbBlockTableRecord
  2
*Model_Space
340
22
  0
BLOCK_RECORD
  5
1B
330
1
100
AcDbSymbolTableRecord
100
AcDbBlockTableRecord
  2
*Paper_Space
340
1E
  0
BLOCK_RECORD
  5
23
330
1
100
AcDbSymbolTableRecord
100
AcDbBlockTableRecord
  2
*Paper_Space0
340
26
  0
BLOCK_RECORD
  5
7B
330
1
100
AcDbSymbolTableRecord
100
AcDbBlockTableRecord
  2
Block1
340
0
102
{BLKREFS
331
CD
102
}
  0
BLOCK_RECORD
  5
89
330
1
100
AcDbSymbolTableRecord
100
AcDbBlockTableRecord
  2
SW_NOTE_0
340
0
102
{BLKREFS
331
8F
102
}
  0
BLOCK_RECORD
  5
90
330
1
100
AcDbSymbolTableRecord
100
AcDbBlockTableRecord
  2
Block2
340
0
102
{BLKREFS
331
CC
102
}
  0
BLOCK_RECORD
  5
B0
330
1
100
AcDbSymbolTableRecord
100
AcDbBlockTableRecord
  2
SW_NOTE_0_1
340
0
102
{BLKREFS
331
B5
102
}
  0
BLOCK_RECORD
  5
B6
330
1
100
AcDbSymbolTableRecord
100
AcDbBlockTableRecord
  2
SW_NOTE_0_2
340
0
102
{BLKREFS
331
BD
102
}
  0
BLOCK_RECORD
  5
DF
330
1
100
AcDbSymbolTableRecord
100
AcDbBlockTableRecord
  2
SW_NOTE_0_3
340
0
102
{BLKREFS
331
EC
102
}
  0
BLOCK_RECORD
  5
14D
330
1
100
AcDbSymbolTableRecord
100
AcDbBlockTableRecord
  2
_D
340
0
  0
BLOCK_RECORD
  5
262
330
1
100
AcDbSymbolTableRecord
100
AcDbBlockTableRecord
  2
_D_1
340
0
  0
BLOCK_RECORD
  5
26E
330
1
100
AcDbSymbolTableRecord
100
AcDbBlockTableRecord
  2
_D_2
340
0
  0
BLOCK_RECORD
  5
27B
330
1
100
AcDbSymbolTableRecord
100
AcDbBlockTableRecord
  2
_D_3
340
0
  0
ENDTAB
  0
ENDSEC
  0
SECTION
  2
BLOCKS
  0
BLOCK
  5
20
330
1F
100
AcDbEntity
  8
0
100
AcDbBlockBegin
  2
*Model_Space
 70
     0
 10
0.0
 20
0.0
 30
0.0
  3
*Model_Space
  1

  0
ENDBLK
  5
21
330
1F
100
AcDbEntity
  8
0
100
AcDbBlockEnd
  0
BLOCK
  5
1C
330
1B
100
AcDbEntity
 67
     1
  8
0
100
AcDbBlockBegin
  2
*Paper_Space
 70
     0
 10
0.0
 20
0.0
 30
0.0
  3
*Paper_Space
  1

  0
ENDBLK
  5
1D
330
1B
100
AcDbEntity
 67
     1
  8
0
100
AcDbBlockEnd
  0
BLOCK
  5
24
330
23
100
AcDbEntity
  8
0
100
AcDbBlockBegin
  2
*Paper_Space0
 70
     0
 10
0.0
 20
0.0
 30
0.0
  3
*Paper_Space0
  1

  0
ENDBLK
  5
25
330
23
100
AcDbEntity
  8
0
100
AcDbBlockEnd
  0
BLOCK
  5
7C
330
7B
100
AcDbEntity
  8
0
100
AcDbBlockBegin
  2
Block1
 70
     0
 10
0.0
 20
0.0
 30
0.0
  3
Block1
  1

  0
CIRCLE
  5
7E
330
7B
100
AcDbEntity
  8
0
  6
Continuous
 62
     7
370
    18
100
AcDbCircle
 10
11.6137544821
 20
9.0896586992
 30
0.0
 40
1.255909011058753
  0
CIRCLE
  5
7F
330
7B
100
AcDbEntity
  8
0
  6
Continuous
 62
     7
370
    18
100
AcDbCircle
 10
11.6137544821
 20
9.0896586992
 30
0.0
 40
2.216014863655655
  0
LINE
  5
80
330
7B
100
AcDbEntity
  8
0
  6
CENTERX2
 62
     7
370
    18
100
AcDbLine
 10
11.6137544821
 20
9.0896586992
 30
0.0
 11
7.8977396184
 21
9.0896586992
 31
0.0
  0
LINE
  5
81
330
7B
100
AcDbEntity
  8
0
  6
Continuous
 62
     7
370
    18
100
AcDbLine
 10
8.165753588
 20
6.8736438356
 30
0.0
 11
8.165753588
 21
11.3071584591
 31
0.0
  0
LINE
  5
82
330
7B
100
AcDbEntity
  8
0
  6
Continuous
 62
     7
370
    18
100
AcDbLine
 10
2.6797147895
 20
10.3455677103
 30
0.0
 11
2.6797147895
 21
7.8337496881
 31
0.0
  0
LINE
  5
83
330
7B
100
AcDbEntity
  8
0
  6
Continuous
 62
     7
370
    18
100
AcDbLine
 10
2.6797147895
 20
7.8337496881
 30
0.0
 11
8.165753588
 21
6.8736438356
 31
0.0
  0
LINE
  5
84
330
7B
100
AcDbEntity
  8
0
  6
CENTERX2
 62
     7
370
    18
100
AcDbLine
 10
9.665753588
 20
9.0896586992
 30
0.0
 11
1.1797147895
 21
9.0896586992
 31
0.0
  0
LINE
  5
85
330
7B
100
AcDbEntity
  8
0
  6
Continuous
 62
     7
370
    18
100
AcDbLine
 10
8.165753588
 20
11.3071584591
 30
0.0
 11
2.6797147895
 21
10.3455677103
 31
0.0
  0
LINE
  5
86
330
7B
100
AcDbEntity
  8
0
  6
CENTERX2
 62
     7
370
    18
100
AcDbLine
 10
11.6137544821
 20
9.0896586992
 30
0.0
 11
11.6137544821
 21
5.3736438356
 31
0.0
  0
LINE
  5
87
330
7B
100
AcDbEntity
  8
0
  6
CENTERX2
 62
     7
370
    18
100
AcDbLine
 10
11.6137544821
 20
9.0896586992
 30
0.0
 11
11.6137544821
 21
12.8056735629
 31
0.0
  0
LINE
  5
88
330
7B
100
AcDbEntity
  8
0
  6
CENTERX2
 62
     7
370
    18
100
AcDbLine
 10
11.6137544821
 20
9.0896586992
 30
0.0
 11
15.3297693458
 21
9.0896586992
 31
0.0
  0
INSERT
  5
8F
330
7B
100
AcDbEntity
  8
0
  6
Continuous
 62
     7
370
     0
100
AcDbBlockReference
  2
SW_NOTE_0
 10
2.1031832889
 20
2.3754472768
 30
0.0
  0
ENDBLK
  5
7D
330
7B
100
AcDbEntity
  8
0
100
AcDbBlockEnd
  0
BLOCK
  5
8A
330
89
100
AcDbEntity
  8
0
100
AcDbBlockBegin
  2
SW_NOTE_0
 70
     0
 10
0.0
 20
0.0
 30
0.0
  3
SW_NOTE_0
  1

  0
MTEXT
  5
8D
330
89
100
AcDbEntity
  8
0
  6
Continuous
 62
     0
370
     0
100
AcDbMText
 10
6.590625
 20
2.4492287056
 30
0.0
 40
1.9
 41
0.0
 71
     2
 72
     1
  1
DIN 6  T1 - 
  7
SLDTEXTSTYLE0
 73
     1
 44
1.0
  0
MTEXT
  5
8E
330
89
100
AcDbEntity
  8
0
  6
Continuous
 62
     0
370
     0
100
AcDbMText
 10
6.6569262624
 20
0.0003397443
 30
0.0
 40
1.9
 41
0.0
 71
     2
 72
     1
  1
Proj.methode 1
  7
SLDTEXTSTYLE0
 73
     1
 44
1.0
  0
ENDBLK
  5
8B
330
89
100
AcDbEntity
  8
0
100
AcDbBlockEnd
  0
BLOCK
  5
91
330
90
100
AcDbEntity
  8
0
100
AcDbBlockBegin
  2
Block2
 70
     0
 10
0.0
 20
0.0
 30
0.0
  3
Block2
  1

  0
ARC
  5
93
330
90
100
AcDbEntity
  8
FORMAT
100
AcDbCircle
 10
236.7496365382
 20
57.0990600997
 30
0.0
 40
3.75000000000001
100
AcDbArc
 50
93.8225537293
 51
266.1774462707
  0
ARC
  5
94
330
90
100
AcDbEntity
  8
FORMAT
100
AcDbCircle
 10
236.7496365382
 20
57.0990600997
 30
0.0
 40
3.000000000000012
100
AcDbArc
 50
94.7801918472
 51
265.2198081528
  0
ARC
  5
95
330
90
100
AcDbEntity
  8
FORMAT
100
AcDbCircle
 10
236.7496365382
 20
57.0990600997
 30
0.0
 40
3.75000000000001
100
AcDbArc
 50
273.8225537293
 51
86.1774462707
  0
ARC
  5
96
330
90
100
AcDbEntity
  8
FORMAT
100
AcDbCircle
 10
236.7496365382
 20
57.0990600997
 30
0.0
 40
3.000000000000012
100
AcDbArc
 50
274.7801918472
 51
85.2198081528
  0
ARC
  5
97
330
90
100
AcDbEntity
  8
FORMAT
100
AcDbCircle
 10
236.7496365382
 20
58.2320416436
 30
0.0
 40
0.8604027828068846
100
AcDbArc
 50
304.8395134495
 51
73.1084194601
  0
ARC
  5
98
330
90
100
AcDbEntity
  8
FORMAT
100
AcDbCircle
 10
236.7496365382
 20
58.2320416436
 30
0.0
 40
1.402314431660661
100
AcDbArc
 50
313.8988153445
 51
79.7306010333
  0
ARC
  5
99
330
90
100
AcDbEntity
  8
FORMAT
100
AcDbCircle
 10
236.7496365382
 20
55.4979572256
 30
0.0
 40
0.4915306686725103
100
AcDbArc
 50
300.5716370086
 51
0.0
  0
ARC
  5
9A
330
90
100
AcDbEntity
  8
FORMAT
100
AcDbCircle
 10
236.7496365382
 20
58.2320416436
 30
0.0
 40
1.402314431660661
100
AcDbArc
 50
100.2693989667
 51
226.1011846555
  0
ARC
  5
9B
330
90
100
AcDbEntity
  8
FORMAT
100
AcDbCircle
 10
236.7496365382
 20
55.4979572256
 30
0.0
 40
0.9723464985416115
100
AcDbArc
 50
180.0
 51
255.1013518888
  0
ARC
  5
9C
330
90
100
AcDbEntity
  8
FORMAT
100
AcDbCircle
 10
236.7496365382
 20
55.4979572256
 30
0.0
 40
0.9723464985416115
100
AcDbArc
 50
284.8986481112
 51
0.0
  0
ARC
  5
9D
330
90
100
AcDbEntity
  8
FORMAT
100
AcDbCircle
 10
236.7496365382
 20
55.4979572256
 30
0.0
 40
0.4915306686725099
100
AcDbArc
 50
180.0
 51
239.4283629914
  0
ARC
  5
9E
330
90
100
AcDbEntity
  8
FORMAT
100
AcDbCircle
 10
236.7496365382
 20
58.2320416436
 30
0.0
 40
0.8604027828068846
100
AcDbArc
 50
106.8915805399
 51
235.1604865505
  0
LINE
  5
9F
330
90
100
AcDbEntity
  8
FORMAT
100
AcDbLine
 10
232.5312401271
 20
52.8806636887
 30
0.0
 11
240.9680329492
 21
52.8806636887
 31
0.0
  0
LINE
  5
A0
330
90
100
AcDbEntity
  8
FORMAT
100
AcDbLine
 10
232.5312401271
 20
61.3174565107
 30
0.0
 11
240.9680329492
 21
61.3174565107
 31
0.0
  0
LINE
  5
A1
330
90
100
AcDbEntity
  8
FORMAT
100
AcDbLine
 10
232.5312401271
 20
61.3174565107
 30
0.0
 11
232.5312401271
 21
52.8806636887
 31
0.0
  0
LINE
  5
A2
330
90
100
AcDbEntity
  8
FORMAT
100
AcDbLine
 10
240.9680329492
 20
61.3174565107
 30
0.0
 11
240.9680329492
 21
52.8806636887
 31
0.0
  0
LINE
  5
A3
330
90
100
AcDbEntity
  8
FORMAT
100
AcDbLine
 10
236.4996365382
 20
60.8407174865
 30
0.0
 11
236.4996365382
 21
60.0886252855
 31
0.0
  0
LINE
  5
A4
330
90
100
AcDbEntity
  8
FORMAT
100
AcDbLine
 10
236.9996365382
 20
60.8407174865
 30
0.0
 11
236.9996365382
 21
60.0886252855
 31
0.0
  0
LINE
  5
A5
330
90
100
AcDbEntity
  8
FORMAT
100
AcDbLine
 10
236.4996365382
 20
54.1094949139
 30
0.0
 11
236.4996365382
 21
53.3574027129
 31
0.0
  0
LINE
  5
A6
330
90
100
AcDbEntity
  8
FORMAT
100
AcDbLine
 10
236.9996365382
 20
54.1094949139
 30
0.0
 11
236.9996365382
 21
53.3574027129
 31
0.0
  0
LINE
  5
A7
330
90
100
AcDbEntity
  8
FORMAT
100
AcDbLine
 10
236.9996365382
 20
59.6118915504
 30
0.0
 11
236.9996365382
 21
59.0553234597
 31
0.0
  0
LINE
  5
A8
330
90
100
AcDbEntity
  8
FORMAT
100
AcDbLine
 10
236.4996365382
 20
59.6118915504
 30
0.0
 11
236.4996365382
 21
59.0553234597
 31
0.0
  0
LINE
  5
A9
330
90
100
AcDbEntity
  8
FORMAT
100
AcDbLine
 10
235.7772900396
 20
55.4979572256
 30
0.0
 11
235.7772900396
 21
57.2215823164
 31
0.0
  0
LINE
  5
AA
330
90
100
AcDbEntity
  8
FORMAT
100
AcDbLine
 10
237.7219830367
 20
55.4979572256
 30
0.0
 11
237.7219830367
 21
57.2215823164
 31
0.0
  0
LINE
  5
AB
330
90
100
AcDbEntity
  8
FORMAT
100
AcDbLine
 10
237.2411672068
 20
55.4979572256
 30
0.0
 11
237.2411672068
 21
57.5258613901
 31
0.0
  0
LINE
  5
AC
330
90
100
AcDbEntity
  8
FORMAT
100
AcDbLine
 10
236.2581058695
 20
55.4979572256
 30
0.0
 11
236.2581058695
 21
57.5258613901
 31
0.0
  0
LINE
  5
AD
330
90
100
AcDbEntity
  8
FORMAT
100
AcDbLine
 10
236.4996365382
 20
55.0747523127
 30
0.0
 11
236.4996365382
 21
54.5582989296
 31
0.0
  0
LINE
  5
AE
330
90
100
AcDbEntity
  8
FORMAT
100
AcDbLine
 10
236.9996365382
 20
55.0747523127
 30
0.0
 11
236.9996365382
 21
54.5582989296
 31
0.0
  0
HATCH
  5
AF
330
90
100
AcDbEntity
  8
FORMAT
100
AcDbHatch
 10
0.0
 20
0.0
 30
0.0
210
0.0
220
0.0
230
1.0
  2
SOLID
 70
     1
 71
     0
 91
        5
 92
        0
 93
        4
 72
     1
 10
240.9680329492058
 20
61.31745651073599
 11
240.9680329492058
 21
52.88066368865002
 72
     1
 10
240.9680329492058
 20
52.88066368865002
 11
232.5312401271199
 21
52.88066368865002
 72
     1
 10
232.5312401271199
 20
52.88066368865002
 11
232.5312401271199
 21
61.31745651073599
 72
     1
 10
232.5312401271199
 20
61.31745651073599
 11
240.9680329492058
 21
61.31745651073599
 97
        0
 92
        0
 93
        4
 72
     2
 10
236.7496365381628
 20
57.09906009969301
 40
3.000000000000011
 50
94.78019184719915
 51
265.2198081528016
 73
     0
 72
     1
 10
236.4996365381628
 20
60.08862528546836
 11
236.4996365381628
 21
60.84071748646695
 72
     2
 10
236.7496365381628
 20
57.09906009969301
 40
3.750000000000007
 50
93.82255372927435
 51
266.1774462707265
 73
     1
 72
     1
 10
236.4996365381628
 20
53.35740271291905
 11
236.4996365381628
 21
54.10949491391764
 97
        0
 92
        0
 93
        8
 72
     1
 10
237.7219830367044
 20
55.49795722557887
 11
237.7219830367044
 21
57.22158231636488
 72
     2
 10
236.7496365381628
 20
58.23204164361047
 40
1.402314431660656
 50
313.8988153445118
 51
439.730601033339
 73
     1
 72
     1
 10
236.9996365381628
 20
59.61189155039155
 11
236.9996365381628
 21
59.05532345967459
 72
     2
 10
236.7496365381628
 20
58.23204164361047
 40
0.8604027828068782
 50
286.8915805399266
 51
415.1604865505413
 73
     0
 72
     1
 10
237.2411672068353
 20
57.52586139012261
 11
237.2411672068353
 21
55.49795722557887
 72
     2
 10
236.7496365381628
 20
55.49795722557887
 40
0.4915306686725041
 50
0.0
 51
59.42836299135124
 73
     0
 72
     1
 10
236.9996365381628
 20
55.07475231274628
 11
236.9996365381628
 21
54.55829892958712
 72
     2
 10
236.7496365381628
 20
55.49795722557887
 40
0.9723464985416097
 50
284.8986481111874
 51
360.0000000000008
 73
     1
 97
        0
 92
        0
 93
        8
 72
     2
 10
236.7496365381628
 20
55.49795722557887
 40
0.4915306686725041
 50
120.5716370086484
 51
180.0
 73
     0
 72
     1
 10
236.2581058694904
 20
55.49795722557887
 11
236.2581058694904
 21
57.52586139012261
 72
     2
 10
236.7496365381628
 20
58.23204164361047
 40
0.8604027828068782
 50
124.839513449458
 51
253.108419460075
 73
     0
 72
     1
 10
236.4996365381628
 20
59.05532345967459
 11
236.4996365381628
 21
59.61189155039155
 72
     2
 10
236.7496365381628
 20
58.23204164361047
 40
1.402314431660656
 50
100.2693989666618
 51
226.1011846554898
 73
     1
 72
     1
 10
235.7772900396212
 20
57.22158231636488
 11
235.7772900396212
 21
55.49795722557887
 72
     2
 10
236.7496365381628
 20
55.49795722557887
 40
0.9723464985416097
 50
180.0
 51
255.1013518888143
 73
     1
 72
     1
 10
236.4996365381628
 20
54.55829892958712
 11
236.4996365381628
 21
55.07475231274628
 97
        0
 92
        0
 93
        4
 72
     2
 10
236.7496365381628
 20
57.09906009969301
 40
3.000000000000011
 50
274.7801918471999
 51
445.2198081528016
 73
     0
 72
     1
 10
236.9996365381628
 20
54.10949491391764
 11
236.9996365381628
 21
53.35740271291905
 72
     2
 10
236.7496365381628
 20
57.09906009969301
 40
3.750000000000007
 50
273.8225537292751
 51
446.1774462707265
 73
     1
 72
     1
 10
236.9996365381628
 20
60.84071748646695
 11
236.9996365381628
 21
60.08862528546836
 97
        0
 75
     0
 76
     1
 98
        1
 10
0.0
 20
0.0
  0
INSERT
  5
B5
330
90
100
AcDbEntity
  8
FORMAT
 62
     7
100
AcDbBlockReference
  2
SW_NOTE_0_1
 10
232.2514665163
 20
47.7232938825
 30
0.0
  0
INSERT
  5
BD
330
90
100
AcDbEntity
  8
0
  6
Continuous
 62
     7
370
     0
100
AcDbBlockReference
  2
SW_NOTE_0_2
 10
244.0723034979
 20
57.1176018272
 30
0.0
  0
ENDBLK
  5
92
330
90
100
AcDbEntity
  8
0
100
AcDbBlockEnd
  0
BLOCK
  5
B1
330
B0
100
AcDbEntity
  8
0
100
AcDbBlockBegin
  2
SW_NOTE_0_1
 70
     0
 10
0.0
 20
0.0
 30
0.0
  3
SW_NOTE_0_1
  1

  0
MTEXT
  5
B4
330
B0
100
AcDbEntity
  8
FORMAT
 62
     0
100
AcDbMText
 10
0.0
 20
3.8651911469
 30
0.0
 40
3.0
 41
0.0
 71
     1
 72
     1
  1
ECO
  7
SLDTEXTSTYLE1
 73
     1
 44
1.0
  0
ENDBLK
  5
B2
330
B0
100
AcDbEntity
  8
0
100
AcDbBlockEnd
  0
BLOCK
  5
B7
330
B6
100
AcDbEntity
  8
0
100
AcDbBlockBegin
  2
SW_NOTE_0_2
 70
     0
 10
0.0
 20
0.0
 30
0.0
  3
SW_NOTE_0_2
  1

  0
MTEXT
  5
BA
330
B6
100
AcDbEntity
  8
0
  6
Continuous
 62
     0
370
     0
100
AcDbMText
 10
0.0
 20
3.2226693494
 30
0.0
 40
2.5
 41
0.0
 71
     1
 72
     1
  1
ECO Schulte GmbH & Co. KG
  7
SLDTEXTSTYLE2
 73
     1
 44
1.0
  0
MTEXT
  5
BB
330
B6
100
AcDbEntity
  8
0
  6
Continuous
 62
     0
370
     0
100
AcDbMText
 10
0.0
 20
-0.2773307586
 30
0.0
 40
2.5
 41
0.0
 71
     1
 72
     1
  1
Postfach 206
  7
SLDTEXTSTYLE2
 73
     1
 44
1.0
  0
MTEXT
  5
BC
330
B6
100
AcDbEntity
  8
0
  6
Continuous
 62
     0
370
     0
100
AcDbMText
 10
0.0
 20
-3.7773308666
 30
0.0
 40
2.5
 41
0.0
 71
     1
 72
     1
  1
58682 Menden
  7
SLDTEXTSTYLE2
 73
     1
 44
1.0
  0
ENDBLK
  5
B8
330
B6
100
AcDbEntity
  8
0
100
AcDbBlockEnd
  0
BLOCK
  5
E0
330
DF
100
AcDbEntity
  8
0
100
AcDbBlockBegin
  2
SW_NOTE_0_3
 70
     0
 10
0.0
 20
0.0
 30
0.0
  3
SW_NOTE_0_3
  1

  0
MTEXT
  5
E2
330
DF
100
AcDbEntity
  8
FORMAT
 62
     0
100
AcDbMText
 10
0.0
 20
2.5781354795
 30
0.0
 40
2.0
 41
0.0
 71
     1
 72
     1
  1
Technische Änderungen und Irrtümer vorbehalten. Aus dem Gebrauch 
  7
SLDTEXTSTYLE0
 73
     1
 44
1.0
  0
MTEXT
  5
E3
330
DF
100
AcDbEntity
  8
FORMAT
 62
     0
100
AcDbMText
 10
0.0
 20
-0.4218645465
 30
0.0
 40
2.0
 41
0.0
 71
     1
 72
     1
  1
der Zeichnung können keinerlei Ansprüche (inkl. Schadenersatz-
  7
SLDTEXTSTYLE0
 73
     1
 44
1.0
  0
MTEXT
  5
E4
330
DF
100
AcDbEntity
  8
FORMAT
 62
     0
100
AcDbMText
 10
0.0
 20
-3.4218645726
 30
0.0
 40
2.0
 41
0.0
 71
     1
 72
     1
  1
ansprüche) erhoben und gegen ECO Schulte geltend gemacht werden. 
  7
SLDTEXTSTYLE0
 73
     1
 44
1.0
  0
MTEXT
  5
E5
330
DF
100
AcDbEntity
  8
FORMAT
 62
     0
100
AcDbMText
 10
0.0
 20
-6.4218645987
 30
0.0
 40
2.0
 41
0.0
 71
     1
 72
     1
  1
Die Zeichnung bleibt unser Eigentum. Sämtliche sich aus der 
  7
SLDTEXTSTYLE0
 73
     1
 44
1.0
  0
MTEXT
  5
E6
330
DF
100
AcDbEntity
  8
FORMAT
 62
     0
100
AcDbMText
 10
0.0
 20
-9.4218646248
 30
0.0
 40
2.0
 41
0.0
 71
     1
 72
     1
  1
Zeichnung ergebenden Ansprüche stehen ausschließlich ECO Schulte 
  7
SLDTEXTSTYLE0
 73
     1
 44
1.0
  0
MTEXT
  5
E7
330
DF
100
AcDbEntity
  8
FORMAT
 62
     0
100
AcDbMText
 10
0.0
 20
-12.4218646508
 30
0.0
 40
2.0
 41
0.0
 71
     1
 72
     1
  1
zu. 
  7
SLDTEXTSTYLE0
 73
     1
 44
1.0
  0
MTEXT
  5
E8
330
DF
100
AcDbEntity
  8
FORMAT
 62
     0
100
AcDbMText
 10
0.0
 20
-18.421864703
 30
0.0
 40
2.0
 41
0.0
 71
     1
 72
     1
  1
Technical changes and errors excepted. No claims (including 
  7
SLDTEXTSTYLE0
 73
     1
 44
1.0
  0
MTEXT
  5
E9
330
DF
100
AcDbEntity
  8
FORMAT
 62
     0
100
AcDbMText
 10
0.0
 20
-21.4218647291
 30
0.0
 40
2.0
 41
0.0
 71
     1
 72
     1
  1
compensation claims) may be raised against ECO Schulte by using of 
  7
SLDTEXTSTYLE0
 73
     1
 44
1.0
  0
MTEXT
  5
EA
330
DF
100
AcDbEntity
  8
FORMAT
 62
     0
100
AcDbMText
 10
0.0
 20
-24.4218647551
 30
0.0
 40
2.0
 41
0.0
 71
     1
 72
     1
  1
this drawing. The drawing remains the property of ECO Schulte. All 
  7
SLDTEXTSTYLE0
 73
     1
 44
1.0
  0
MTEXT
  5
EB
330
DF
100
AcDbEntity
  8
FORMAT
 62
     0
100
AcDbMText
 10
0.0
 20
-27.4218647812
 30
0.0
 40
2.0
 41
0.0
 71
     1
 72
     1
  1
claims resulting from this drawing are solely entitled to ECO Schulte.
  7
SLDTEXTSTYLE0
 73
     1
 44
1.0
  0
ENDBLK
  5
E1
330
DF
100
AcDbEntity
  8
0
100
AcDbBlockEnd
  0
BLOCK
  5
14E
330
14D
100
AcDbEntity
  8
0
100
AcDbBlockBegin
  2
_D
 70
     0
 10
0.0
 20
0.0
 30
0.0
  3
_D
  1

  0
SOLID
  5
150
330
14D
100
AcDbEntity
  8
FORMAT
 62
     7
100
AcDbTrace
 10
78.0108828468
 20
161.6222563957
 30
0.0
 11
74.7088828468
 21
162.1302563957
 31
0.0
 12
74.7088828468
 22
161.1142563957
 32
0.0
 13
74.7088828468
 23
161.1142563957
 33
0.0
  0
SOLID
  5
151
330
14D
100
AcDbEntity
  8
FORMAT
 62
     7
100
AcDbTrace
 10
48.0108828468
 20
161.6222563957
 30
0.0
 11
51.3128828468
 21
161.1142563957
 31
0.0
 12
51.3128828468
 22
162.1302563957
 32
0.0
 13
51.3128828468
 23
162.1302563957
 33
0.0
  0
LINE
  5
152
330
14D
100
AcDbEntity
  8
FORMAT
 62
     7
100
AcDbLine
 10
78.0108828468
 20
178.7828745894
 30
0.0
 11
78.0108828468
 21
160.6222563957
 31
0.0
  0
LINE
  5
153
330
14D
100
AcDbEntity
  8
FORMAT
 62
     7
100
AcDbLine
 10
48.0108828468
 20
178.7828745894
 30
0.0
 11
48.0108828468
 21
160.6222563957
 31
0.0
  0
LINE
  5
154
330
14D
100
AcDbEntity
  8
FORMAT
 62
     7
100
AcDbLine
 10
78.0108828468
 20
161.6222563957
 30
0.0
 11
48.0108828468
 21
161.6222563957
 31
0.0
  0
MTEXT
  5
155
330
14D
100
AcDbEntity
  8
FORMAT
 62
     7
100
AcDbMText
 10
57.7857962621
 20
166.1339934849
 30
0.0
 40
3.5
 41
0.0
 71
     1
 72
     1
  1
%%c
  7
SLDTEXTSTYLE0
 73
     1
 44
1.0
  0
MTEXT
  5
156
330
14D
100
AcDbEntity
  8
FORMAT
 62
     7
100
AcDbMText
 10
62.8887478073
 20
166.1437157941
 30
0.0
 40
3.5
 41
0.0
 71
     1
 72
     1
  1
30
  7
SLDTEXTSTYLE0
 73
     1
 44
1.0
  0
ENDBLK
  5
14F
330
14D
100
AcDbEntity
  8
0
100
AcDbBlockEnd
  0
BLOCK
  5
263
330
262
100
AcDbEntity
  8
0
100
AcDbBlockBegin
  2
_D_1
 70
     0
 10
0.0
 20
0.0
 30
0.0
  3
_D_1
  1

  0
SOLID
  5
265
330
262
100
AcDbEntity
  8
FORMAT
 62
     7
100
AcDbTrace
 10
163.1164264307
 20
191.7828745894
 30
0.0
 11
163.6244264307
 21
195.0848745894
 31
0.0
 12
162.6084264307
 22
195.0848745894
 32
0.0
 13
162.6084264307
 23
195.0848745894
 33
0.0
  0
SOLID
  5
266
330
262
100
AcDbEntity
  8
FORMAT
 62
     7
100
AcDbTrace
 10
163.1164264307
 20
179.7828745894
 30
0.0
 11
162.6084264307
 21
176.4808745894
 31
0.0
 12
163.6244264307
 22
176.4808745894
 32
0.0
 13
163.6244264307
 23
176.4808745894
 33
0.0
  0
LINE
  5
267
330
262
100
AcDbEntity
  8
FORMAT
 62
     7
100
AcDbLine
 10
151.9641788384
 20
191.7828745894
 30
0.0
 11
164.1164264307
 21
191.7828745894
 31
0.0
  0
LINE
  5
268
330
262
100
AcDbEntity
  8
FORMAT
 62
     7
100
AcDbLine
 10
151.9641788384
 20
179.7828745894
 30
0.0
 11
164.1164264307
 21
179.7828745894
 31
0.0
  0
LINE
  5
269
330
262
100
AcDbEntity
  8
FORMAT
 62
     7
100
AcDbLine
 10
163.1164264307
 20
191.7828745894
 30
0.0
 11
163.1164264307
 21
198.1328745894
 31
0.0
  0
LINE
  5
26A
330
262
100
AcDbEntity
  8
FORMAT
 62
     7
100
AcDbLine
 10
163.1164264307
 20
191.7828745894
 30
0.0
 11
163.1164264307
 21
179.7828745894
 31
0.0
  0
LINE
  5
26B
330
262
100
AcDbEntity
  8
FORMAT
 62
     7
100
AcDbLine
 10
163.1164264307
 20
179.7828745894
 30
0.0
 11
163.1164264307
 21
173.4328745894
 31
0.0
  0
MTEXT
  5
26C
330
262
100
AcDbEntity
  8
FORMAT
 62
     7
100
AcDbMText
 10
158.6046891087
 20
183.1092635445
 30
0.0
 40
3.5
 41
0.0
 71
     1
 72
     1
  1
12
  7
SLDTEXTSTYLE0
 11
-7.044195017643634E-15
 21
1.0
 31
0.0
 73
     1
 44
1.0
  0
ENDBLK
  5
264
330
262
100
AcDbEntity
  8
0
100
AcDbBlockEnd
  0
BLOCK
  5
26F
330
26E
100
AcDbEntity
  8
0
100
AcDbBlockBegin
  2
_D_2
 70
     0
 10
0.0
 20
0.0
 30
0.0
  3
_D_2
  1

  0
SOLID
  5
271
330
26E
100
AcDbEntity
  8
FORMAT
 62
     7
100
AcDbTrace
 10
140.0641788384
 20
208.1589815113
 30
0.0
 11
143.3661788384
 21
207.6509815113
 31
0.0
 12
143.3661788384
 22
208.6669815113
 32
0.0
 13
143.3661788384
 23
208.6669815113
 33
0.0
  0
SOLID
  5
272
330
26E
100
AcDbEntity
  8
FORMAT
 62
     7
100
AcDbTrace
 10
131.8641788384
 20
208.1589815113
 30
0.0
 11
128.5621788384
 21
208.6669815113
 31
0.0
 12
128.5621788384
 22
207.6509815113
 32
0.0
 13
128.5621788384
 23
207.6509815113
 33
0.0
  0
LINE
  5
273
330
26E
100
AcDbEntity
  8
FORMAT
 62
     7
100
AcDbLine
 10
140.0641788384
 20
202.7828745894
 30
0.0
 11
140.0641788384
 21
209.1589815113
 31
0.0
  0
LINE
  5
274
330
26E
100
AcDbEntity
  8
FORMAT
 62
     7
100
AcDbLine
 10
131.8641788384
 20
202.7828745894
 30
0.0
 11
131.8641788384
 21
209.1589815113
 31
0.0
  0
LINE
  5
275
330
26E
100
AcDbEntity
  8
FORMAT
 62
     7
100
AcDbLine
 10
140.0641788384
 20
208.1589815113
 30
0.0
 11
154.5074302017
 21
208.1589815113
 31
0.0
  0
LINE
  5
276
330
26E
100
AcDbEntity
  8
FORMAT
 62
     7
100
AcDbLine
 10
140.0641788384
 20
208.1589815113
 30
0.0
 11
131.8641788384
 21
208.1589815113
 31
0.0
  0
LINE
  5
277
330
26E
100
AcDbEntity
  8
FORMAT
 62
     7
100
AcDbLine
 10
131.8641788384
 20
208.1589815113
 30
0.0
 11
125.5141788384
 21
208.1589815113
 31
0.0
  0
MTEXT
  5
278
330
26E
100
AcDbEntity
  8
FORMAT
 62
     7
100
AcDbMText
 10
142.7204515099
 20
212.6707186005
 30
0.0
 40
3.5
 41
0.0
 71
     1
 72
     1
  1
%%c
  7
SLDTEXTSTYLE0
 73
     1
 44
1.0
  0
MTEXT
  5
279
330
26E
100
AcDbEntity
  8
FORMAT
 62
     7
100
AcDbMText
 10
147.8234030552
 20
212.6804409097
 30
0.0
 40
3.5
 41
0.0
 71
     1
 72
     1
  1
8,2
  7
SLDTEXTSTYLE0
 73
     1
 44
1.0
  0
ENDBLK
  5
270
330
26E
100
AcDbEntity
  8
0
100
AcDbBlockEnd
  0
BLOCK
  5
27C
330
27B
100
AcDbEntity
  8
0
100
AcDbBlockBegin
  2
_D_3
 70
     0
 10
0.0
 20
0.0
 30
0.0
  3
_D_3
  1

  0
SOLID
  5
27E
330
27B
100
AcDbEntity
  8
FORMAT
 62
     7
100
AcDbTrace
 10
172.9641788384
 20
201.7828745894
 30
0.0
 11
172.4561788384
 21
198.4808745894
 31
0.0
 12
173.4721788384
 22
198.4808745894
 32
0.0
 13
173.4721788384
 23
198.4808745894
 33
0.0
  0
SOLID
  5
27F
330
27B
100
AcDbEntity
  8
FORMAT
 62
     7
100
AcDbTrace
 10
172.9641788384
 20
179.7828745894
 30
0.0
 11
173.4721788384
 21
183.0848745894
 31
0.0
 12
172.4561788384
 22
183.0848745894
 32
0.0
 13
172.4561788384
 23
183.0848745894
 33
0.0
  0
LINE
  5
280
330
27B
100
AcDbEntity
  8
FORMAT
 62
     7
100
AcDbLine
 10
141.0641788384
 20
201.7828745894
 30
0.0
 11
173.9641788384
 21
201.7828745894
 31
0.0
  0
LINE
  5
281
330
27B
100
AcDbEntity
  8
FORMAT
 62
     7
100
AcDbLine
 10
135.484847859
 20
179.7828745894
 30
0.0
 11
173.9641788384
 21
179.7828745894
 31
0.0
  0
LINE
  5
282
330
27B
100
AcDbEntity
  8
FORMAT
 62
     7
100
AcDbLine
 10
172.9641788384
 20
201.7828745894
 30
0.0
 11
172.9641788384
 21
179.7828745894
 31
0.0
  0
MTEXT
  5
283
330
27B
100
AcDbEntity
  8
FORMAT
 62
     7
100
AcDbMText
 10
168.4524415163
 20
188.1092635445
 30
0.0
 40
3.5
 41
0.0
 71
     1
 72
     1
  1
22
  7
SLDTEXTSTYLE0
 11
-7.044195017643634E-15
 21
1.0
 31
0.0
 73
     1
 44
1.0
  0
ENDBLK
  5
27D
330
27B
100
AcDbEntity
  8
0
100
AcDbBlockEnd
  0
ENDSEC
  0
SECTION
  2
ENTITIES
  0
LINE
  5
BE
330
1F
100
AcDbEntity
  8
FORMAT
  6
Continuous
 62
     7
370
    18
100
AcDbLine
 10
168.2233544162
 20
35.6464717326
 30
0.0
 11
100.034011087
 21
35.6464717326
 31
0.0
  0
LINE
  5
BF
330
1F
100
AcDbEntity
  8
FORMAT
  6
Continuous
 62
     7
370
    18
100
AcDbLine
 10
168.2233544162
 20
48.7420674192
 30
0.0
 11
199.7748262501
 21
48.7420674192
 31
0.0
  0
LINE
  5
C0
330
1F
100
AcDbEntity
  8
FORMAT
  6
Continuous
 62
     7
370
    18
100
AcDbLine
 10
154.5410273733
 20
35.6464717326
 30
0.0
 11
154.5410273733
 21
25.9765524102
 31
0.0
  0
LINE
  5
C1
330
1F
100
AcDbEntity
  8
BEMASSUNG
  6
Continuous
 62
     7
370
    18
100
AcDbLine
 10
168.2233544162
 20
40.5638075942
 30
0.0
 11
199.7748262501
 21
40.5638075942
 31
0.0
  0
LINE
  5
C2
330
1F
100
AcDbEntity
  8
FORMAT
100
AcDbLine
 10
9.9438597858
 20
287.0
 30
0.0
 11
9.9438597858
 21
10.0
 31
0.0
  0
LINE
  5
C3
330
1F
100
AcDbEntity
  8
FORMAT
 62
     7
370
    18
100
AcDbLine
 10
100.034011087
 20
52.6963884738
 30
0.0
 11
100.034011087
 21
10.0
 31
0.0
  0
LINE
  5
C4
330
1F
100
AcDbEntity
  8
FORMAT
 62
     7
100
AcDbLine
 10
185.0302857672
 20
10.0
 30
0.0
 11
185.0302857672
 21
19.3470401503
 31
0.0
  0
LINE
  5
C5
330
1F
100
AcDbEntity
  8
FORMAT
 62
     7
100
AcDbLine
 10
100.034011087
 20
25.9765524102
 30
0.0
 11
199.7748262501
 21
25.9765524102
 31
0.0
  0
LINE
  5
C6
330
1F
100
AcDbEntity
  8
FORMAT
 62
     7
100
AcDbLine
 10
168.2233544162
 20
19.3470401503
 30
0.0
 11
199.7748262501
 21
19.3470401503
 31
0.0
  0
LINE
  5
C7
330
1F
100
AcDbEntity
  8
FORMAT
100
AcDbLine
 10
9.9438597858
 20
10.0
 30
0.0
 11
199.9438597858
 21
10.0
 31
0.0
  0
LINE
  5
C8
330
1F
100
AcDbEntity
  8
FORMAT
 62
     7
100
AcDbLine
 10
100.034011087
 20
52.6963884738
 30
0.0
 11
199.7882081366
 21
52.6963884738
 31
0.0
  0
LINE
  5
C9
330
1F
100
AcDbEntity
  8
FORMAT
 62
     7
100
AcDbLine
 10
168.2233544162
 20
10.0
 30
0.0
 11
168.2233544162
 21
52.6963884738
 31
0.0
  0
LINE
  5
CA
330
1F
100
AcDbEntity
  8
FORMAT
100
AcDbLine
 10
199.9438597858
 20
10.0
 30
0.0
 11
199.9438597858
 21
287.0
 31
0.0
  0
LINE
  5
CB
330
1F
100
AcDbEntity
  8
FORMAT
100
AcDbLine
 10
199.9438597858
 20
287.0
 30
0.0
 11
9.9438597858
 21
287.0
 31
0.0
  0
INSERT
  5
CC
330
1F
100
AcDbEntity
  8
FORMAT
100
AcDbBlockReference
  2
Block2
 10
-130.7567167495
 20
-36.9711154434
 30
0.0
  0
INSERT
  5
CD
330
1F
100
AcDbEntity
  8
FORMAT
100
AcDbBlockReference
  2
Block1
 10
175.6328999998
 20
27.0956685316
 30
0.0
  0
MTEXT
  5
CF
330
1F
100
AcDbEntity
  8
0
  6
Continuous
 62
     7
370
     0
100
AcDbMText
 10
101.379344253
 20
31.2497388993
 30
0.0
 40
3.175
 41
0.0
 71
     1
 72
     1
  1
D054-49160
  7
SLDTEXTSTYLE3
 73
     1
 44
1.0
  0
MTEXT
  5
D0
330
1F
100
AcDbEntity
  8
BEMASSUNG
 62
     7
100
AcDbMText
 10
169.1138237549
 20
47.9795870073
 30
0.0
 40
2.0
 41
0.0
 71
     1
 72
     1
  1
Ausführung:
  7
SLDTEXTSTYLE0
 73
     1
 44
1.0
  0
MTEXT
  5
D1
330
1F
100
AcDbEntity
  8
FORMAT
100
AcDbMText
 10
157.9048085267
 20
34.4345411691
 30
0.0
 40
2.0
 41
0.0
 71
     1
 72
     1
  1
Index:
  7
SLDTEXTSTYLE0
 73
     1
 44
1.0
  0
MTEXT
  5
D2
330
1F
100
AcDbEntity
  8
FORMAT
100
AcDbMText
 10
170.7771570289
 20
51.6009600552
 30
0.0
 40
1.8
 41
0.0
 71
     1
 72
     1
  1
KATALOGZEICHNUNG
  7
SLDTEXTSTYLE3
 73
     1
 44
1.0
  0
MTEXT
  5
D3
330
1F
100
AcDbEntity
  8
FORMAT
100
AcDbMText
 10
101.6738581533
 20
34.7696723378
 30
0.0
 40
2.0
 41
0.0
 71
     1
 72
     1
  1
Zeichnungsnummer:
  7
SLDTEXTSTYLE0
 73
     1
 44
1.0
  0
MTEXT
  5
D4
330
1F
100
AcDbEntity
  8
FORMAT
100
AcDbMText
 10
178.7654032586
 20
14.2806067945
 30
0.0
 40
2.1166666667
 41
0.0
 71
     1
 72
     1
  1
1
  7
SLDTEXTSTYLE0
 73
     1
 44
1.0
  0
MTEXT
  5
D5
330
1F
100
AcDbEntity
  8
FORMAT
100
AcDbMText
 10
172.6928815371
 20
14.2806067945
 30
0.0
 40
2.1166666667
 41
0.0
 71
     1
 72
     1
  1
1
  7
SLDTEXTSTYLE0
 73
     1
 44
1.0
  0
MTEXT
  5
D6
330
1F
100
AcDbEntity
  8
FORMAT
100
AcDbMText
 10
190.3665335114
 20
14.1724992936
 30
0.0
 40
2.1166666667
 41
0.0
 71
     1
 72
     1
  1
A4
  7
SLDTEXTSTYLE0
 73
     1
 44
1.0
  0
MTEXT
  5
D7
330
1F
100
AcDbEntity
  8
FORMAT
100
AcDbMText
 10
183.0445761222
 20
23.7012230636
 30
0.0
 40
2.1166666667
 41
0.0
 71
     1
 72
     1
  1
1:1
  7
SLDTEXTSTYLE0
 73
     1
 44
1.0
  0
MTEXT
  5
D8
330
1F
100
AcDbEntity
  8
FORMAT
100
AcDbMText
 10
176.4699079998
 20
14.3853488894
 30
0.0
 40
2.5
 41
0.0
 71
     2
 72
     1
  1
/
  7
SLDTEXTSTYLE0
 73
     1
 44
1.0
  0
MTEXT
  5
D9
330
1F
100
AcDbEntity
  8
FORMAT
100
AcDbMText
 10
170.4739006917
 20
17.8898077508
 30
0.0
 40
2.0
 41
0.0
 71
     1
 72
     1
  1
Blatt / von
  7
SLDTEXTSTYLE0
 73
     1
 44
1.0
  0
MTEXT
  5
DA
330
1F
100
AcDbEntity
  8
FORMAT
100
AcDbMText
 10
101.4386342429
 20
51.292111694
 30
0.0
 40
2.0
 41
0.0
 71
     1
 72
     1
  1
Benennung:
  7
SLDTEXTSTYLE0
 73
     1
 44
1.0
  0
MTEXT
  5
DB
330
1F
100
AcDbEntity
  8
FORMAT
100
AcDbMText
 10
187.8238638594
 20
17.8898077508
 30
0.0
 40
2.0
 41
0.0
 71
     1
 72
     1
  1
Format
  7
SLDTEXTSTYLE0
 73
     1
 44
1.0
  0
MTEXT
  5
DC
330
1F
100
AcDbEntity
  8
FORMAT
100
AcDbMText
 10
169.1523306895
 20
23.5727761737
 30
0.0
 40
2.0
 41
0.0
 71
     1
 72
     1
  1
Maßstab:
  7
SLDTEXTSTYLE0
 73
     1
 44
1.0
  0
MTEXT
  5
DD
330
1F
100
AcDbEntity
  8
FORMAT
100
AcDbMText
 10
101.3063537626
 20
47.9174905769
 30
0.0
 40
3.5
 41
0.0
 71
     1
 72
     1
  1
Achsverlängerung 12mm
  7
SLDTEXTSTYLE3
 73
     1
 44
1.0
  0
MTEXT
  5
DE
330
1F
100
AcDbEntity
  8
FORMAT
100
AcDbMText
 10
101.3063537626
 20
43.3217919868
 30
0.0
 40
2.5
 41
0.0
 71
     1
 72
     1
  1
AV 12-ER
  7
SLDTEXTSTYLE3
 73
     1
 44
1.0
  0
INSERT
  5
EC
330
1F
100
AcDbEntity
  8
FORMAT
100
AcDbBlockReference
  2
SW_NOTE_0_3
 10
11.7828650021
 20
40.9161213672
 30
0.0
  0
LINE
  5
ED
330
1F
100
AcDbEntity
  8
0
  6
Continuous
 62
     7
370
    25
100
AcDbLine
 10
78.0108828468
 20
179.7828745894
 30
0.0
 11
78.0108828468
 21
191.7828745894
 31
0.0
  0
LINE
  5
EE
330
1F
100
AcDbEntity
  8
0
  6
Continuous
 62
     7
370
    25
100
AcDbLine
 10
48.0108828468
 20
191.7828745894
 30
0.0
 11
48.0108828468
 21
179.7828745894
 31
0.0
  0
ARC
  5
EF
330
1F
100
AcDbEntity
  8
0
  6
Continuous
 62
     7
370
    25
100
AcDbCircle
 10
73.8548755444
 20
192.7828745894
 30
0.0
 40
1.00000000000001
100
AcDbArc
 50
192.2984589193
 51
270.0
  0
ARC
  5
F0
330
1F
100
AcDbEntity
  8
0
  6
Continuous
 62
     7
370
    25
100
AcDbCircle
 10
52.1668901491
 20
192.7828745894
 30
0.0
 40
1.0
100
AcDbArc
 50
270.0
 51
347.6520249574
  0
LINE
  5
F1
330
1F
100
AcDbEntity
  8
0
  6
Continuous
 62
     7
370
    25
100
AcDbLine
 10
72.8790550496
 20
192.5643011192
 30
0.0
 11
70.884204603
 21
201.4703039774
 31
0.0
  0
ARC
  5
F2
330
1F
100
AcDbEntity
  8
0
  6
Continuous
 62
     7
370
    25
100
AcDbCircle
 10
70.4938764051
 20
201.3828745894
 30
0.0
 40
0.4000000000000341
100
AcDbArc
 50
12.6252598463
 51
90.0
  0
LINE
  5
F3
330
1F
100
AcDbEntity
  8
0
  6
Continuous
 62
     7
370
    25
100
AcDbLine
 10
55.1375610905
 20
201.4703039774
 30
0.0
 11
53.1427106439
 21
192.5643011192
 31
0.0
  0
ARC
  5
F4
330
1F
100
AcDbEntity
  8
0
  6
Continuous
 62
     7
370
    25
100
AcDbCircle
 10
55.5278892884
 20
201.3828745894
 30
0.0
 40
0.4000000000000341
100
AcDbArc
 50
90.0
 51
167.3747401537
  0
LINE
  5
F5
330
1F
100
AcDbEntity
  8
0
  6
Continuous
 62
     7
370
    25
100
AcDbLine
 10
63.0108828468
 20
179.7828745894
 30
0.0
 11
78.0108828468
 21
179.7828745894
 31
0.0
  0
LINE
  5
F6
330
1F
100
AcDbEntity
  8
0
  6
Continuous
 62
     7
370
    25
100
AcDbLine
 10
48.0108828468
 20
179.7828745894
 30
0.0
 11
63.0108828468
 21
179.7828745894
 31
0.0
  0
LINE
  5
F7
330
1F
100
AcDbEntity
  8
0
  6
Continuous
 62
     7
370
    25
100
AcDbLine
 10
63.0108828468
 20
191.7828745894
 30
0.0
 11
78.0108828468
 21
191.7828745894
 31
0.0
  0
LINE
  5
F8
330
1F
100
AcDbEntity
  8
0
  6
Continuous
 62
     7
370
    25
100
AcDbLine
 10
48.0108828468
 20
191.7828745894
 30
0.0
 11
63.0108828468
 21
191.7828745894
 31
0.0
  0
ELLIPSE
  5
F9
330
1F
100
AcDbEntity
  8
0
  6
Continuous
 62
     7
370
    25
100
AcDbEllipse
 10
63.0108828468
 20
192.7828745894
 30
0.0
 11
0.3999999999999986
 21
0.0
 31
0.0
210
0.0
220
0.0
230
1.0
 40
0.5464336754
 41
3.939227909517515
 42
5.485550051251884
  0
ARC
  5
FA
330
1F
100
AcDbEntity
  8
0
  6
Continuous
 62
     7
370
    25
100
AcDbCircle
 10
64.1288051657
 20
192.609807251
 30
0.0
 40
0.8387268099340648
100
AcDbArc
 50
178.8636873101
 51
260.3800924999
  0
ARC
  5
FB
330
1F
100
AcDbEntity
  8
0
  6
Continuous
 62
     7
370
    25
100
AcDbCircle
 10
61.8929605278
 20
192.609807251
 30
0.0
 40
0.8387268099340386
100
AcDbArc
 50
279.6199075001
 51
1.13631269
  0
LINE
  5
FC
330
1F
100
AcDbEntity
  8
0
  6
Continuous
 62
     7
370
    25
100
AcDbLine
 10
60.192663213
 20
192.6264401243
 30
0.0
 11
62.7315223974
 21
192.6264401243
 31
0.0
  0
ELLIPSE
  5
FD
330
1F
100
AcDbEntity
  8
0
  6
Continuous
 62
     7
370
    25
100
AcDbEllipse
 10
59.66783442
 20
192.7828745894
 30
0.0
 11
0.0
 21
1.0
 31
0.0
210
0.0
220
0.0
230
1.0
 40
0.5313708499
 41
3.141592653589793
 42
4.555309347705204
  0
LINE
  5
FE
330
1F
100
AcDbEntity
  8
0
  6
Continuous
 62
     7
370
    25
100
AcDbLine
 10
63.2902432961
 20
192.6264401243
 30
0.0
 11
65.8291024805
 21
192.6264401243
 31
0.0
  0
ELLIPSE
  5
FF
330
1F
100
AcDbEntity
  8
0
  6
Continuous
 62
     7
370
    25
100
AcDbEllipse
 10
66.3539312735
 20
192.7828745894
 30
0.0
 11
0.0
 21
1.0
 31
0.0
210
0.0
220
0.0
230
1.0
 40
0.5313708499
 41
1.727875959474393
 42
3.141592653589793
  0
ARC
  5
100
330
1F
100
AcDbEntity
  8
0
  6
Continuous
 62
     7
370
    25
100
AcDbCircle
 10
63.0108828468
 20
199.9308295554
 30
0.0
 40
1.540166364581129
100
AcDbArc
 50
79.5496568302
 51
100.4503431698
  0
LINE
  5
101
330
1F
100
AcDbEntity
  8
0
  6
Continuous
 62
     7
370
    25
100
AcDbLine
 10
63.2902432961
 20
201.4454483754
 30
0.0
 11
63.2902432961
 21
192.6264401243
 31
0.0
  0
LINE
  5
102
330
1F
100
AcDbEntity
  8
0
  6
Continuous
 62
     7
370
    25
100
AcDbLine
 10
62.7315223974
 20
192.6264401243
 30
0.0
 11
62.7315223974
 21
201.4454483754
 31
0.0
  0
LINE
  5
103
330
1F
100
AcDbEntity
  8
0
  6
Continuous
 62
     7
370
    25
100
AcDbLine
 10
62.7315223974
 20
201.4454483754
 30
0.0
 11
60.7712341016
 21
201.4454483754
 31
0.0
  0
LINE
  5
104
330
1F
100
AcDbEntity
  8
0
  6
Continuous
 62
     7
370
    25
100
AcDbLine
 10
60.7712341016
 20
201.4454483754
 30
0.0
 11
60.192663213
 21
192.6264401243
 31
0.0
  0
LINE
  5
105
330
1F
100
AcDbEntity
  8
0
  6
Continuous
 62
     7
370
    25
100
AcDbLine
 10
65.2505315919
 20
201.4454483754
 30
0.0
 11
63.2902432961
 21
201.4454483754
 31
0.0
  0
LINE
  5
106
330
1F
100
AcDbEntity
  8
0
  6
Continuous
 62
     7
370
    25
100
AcDbLine
 10
65.8291024805
 20
192.6264401243
 30
0.0
 11
65.2505315919
 21
201.4454483754
 31
0.0
  0
LINE
  5
107
330
1F
100
AcDbEntity
  8
0
  6
Continuous
 62
     7
370
    25
100
AcDbLine
 10
69.6989520215
 20
192.6264401243
 30
0.0
 11
69.6989520215
 21
191.7828745894
 31
0.0
  0
ELLIPSE
  5
108
330
1F
100
AcDbEntity
  8
0
  6
Continuous
 62
     7
370
    25
100
AcDbEllipse
 10
69.6642645222
 20
192.7828745894
 30
0.0
 11
0.4272971872166665
 21
-0.1808886101656526
 31
0.0
210
0.0
220
0.0
230
1.0
 40
0.2871383489
 41
4.914023598964686
 42
6.460345740699038
  0
ARC
  5
109
330
1F
100
AcDbEntity
  8
0
  6
Continuous
 62
     7
370
    25
100
AcDbCircle
 10
71.0817156983
 20
192.7828745894
 30
0.0
 40
1.000000000000005
100
AcDbArc
 50
189.0
 51
270.0
  0
LINE
  5
10A
330
1F
100
AcDbEntity
  8
0
  6
Continuous
 62
     7
370
    25
100
AcDbLine
 10
66.1084629299
 20
192.6264401243
 30
0.0
 11
69.6989520215
 21
192.6264401243
 31
0.0
  0
ELLIPSE
  5
10B
330
1F
100
AcDbEntity
  8
0
  6
Continuous
 62
     7
370
    25
100
AcDbEllipse
 10
66.3539312735
 20
192.7828745894
 30
0.0
 11
0.0
 21
1.0
 31
0.0
210
0.0
220
0.0
230
1.0
 40
0.2485281374
 41
1.727875959474394
 42
3.141592653589793
  0
ARC
  5
10C
330
1F
100
AcDbEntity
  8
0
  6
Continuous
 62
     7
370
    25
100
AcDbCircle
 10
65.9687827052
 20
194.5470221652
 30
0.0
 40
1.925654678540351
100
AcDbArc
 50
265.8403122795
 51
274.1596877205
  0
ELLIPSE
  5
10D
330
1F
100
AcDbEntity
  8
0
  6
Continuous
 62
     7
370
    25
100
AcDbEllipse
 10
59.66783442
 20
192.7828745894
 30
0.0
 11
0.0
 21
1.0
 31
0.0
210
0.0
220
0.0
230
1.0
 40
0.2485281374
 41
3.141592653589793
 42
4.555309347705197
  0
ARC
  5
10E
330
1F
100
AcDbEntity
  8
0
  6
Continuous
 62
     7
370
    25
100
AcDbCircle
 10
60.0529829883
 20
194.5470221652
 30
0.0
 40
1.925654678540408
100
AcDbArc
 50
265.8403122795
 51
274.1596877205
  0
LINE
  5
10F
330
1F
100
AcDbEntity
  8
0
  6
Continuous
 62
     7
370
    25
100
AcDbLine
 10
56.322813672
 20
192.6264401243
 30
0.0
 11
59.9133027636
 21
192.6264401243
 31
0.0
  0
LINE
  5
110
330
1F
100
AcDbEntity
  8
0
  6
Continuous
 62
     7
370
    25
100
AcDbLine
 10
56.322813672
 20
192.6264401243
 30
0.0
 11
56.322813672
 21
191.7828745894
 31
0.0
  0
ELLIPSE
  5
111
330
1F
100
AcDbEntity
  8
0
  6
Continuous
 62
     7
370
    25
100
AcDbEllipse
 10
56.3575011713
 20
192.7828745894
 30
0.0
 11
0.4272971872166877
 21
0.1808886101656526
 31
0.0
210
0.0
220
0.0
230
1.0
 40
0.2871383489
 41
2.964432220070378
 42
4.510754361804684
  0
ARC
  5
112
330
1F
100
AcDbEntity
  8
0
  6
Continuous
 62
     7
370
    25
100
AcDbCircle
 10
54.9400499952
 20
192.7828745894
 30
0.0
 40
1.0
100
AcDbArc
 50
270.0
 51
351.0
  0
ARC
  5
113
330
1F
100
AcDbEntity
  8
0
  6
Continuous
 62
     7
370
    25
100
AcDbCircle
 10
63.0669471453
 20
201.4521015247
 30
0.0
 40
0.3354907239736891
100
AcDbArc
 50
99.6199075001
 51
181.1363126899
  0
ARC
  5
114
330
1F
100
AcDbEntity
  8
0
  6
Continuous
 62
     7
370
    25
100
AcDbCircle
 10
62.9548185482
 20
201.4521015247
 30
0.0
 40
0.335490723973654
100
AcDbArc
 50
358.8636873101
 51
80.3800924999
  0
ARC
  5
115
330
1F
100
AcDbEntity
  8
0
  6
Continuous
 62
     7
370
    25
100
AcDbCircle
 10
61.1066588494
 20
201.4521015247
 30
0.0
 40
0.3354907239736831
100
AcDbArc
 50
99.6199075001
 51
181.1363126899
  0
LINE
  5
116
330
1F
100
AcDbEntity
  8
0
  6
Continuous
 62
     7
370
    25
100
AcDbLine
 10
61.0505945509
 20
201.7828745894
 30
0.0
 11
63.0108828468
 21
201.7828745894
 31
0.0
  0
LINE
  5
117
330
1F
100
AcDbEntity
  8
0
  6
Continuous
 62
     7
370
    25
100
AcDbLine
 10
63.0108828468
 20
201.7828745894
 30
0.0
 11
64.9711711426
 21
201.7828745894
 31
0.0
  0
ARC
  5
118
330
1F
100
AcDbEntity
  8
0
  6
Continuous
 62
     7
370
    25
100
AcDbCircle
 10
64.9151068441
 20
201.4521015247
 30
0.0
 40
0.3354907239736784
100
AcDbArc
 50
358.8636873101
 51
80.3800924999
  0
ELLIPSE
  5
119
330
1F
100
AcDbEntity
  8
0
  6
Continuous
 62
     7
370
    25
100
AcDbEllipse
 10
65.5381023456
 20
201.3828745894
 30
0.0
 11
0.4025764986539571
 21
-0.02746477246384415
 31
0.0
210
0.0
220
0.0
230
1.0
 40
0.1534013253
 41
1.601656058263178
 42
2.376865614607041
  0
LINE
  5
11A
330
1F
100
AcDbEntity
  8
0
  6
Continuous
 62
     7
370
    25
100
AcDbLine
 10
65.5298920413
 20
201.4454483754
 30
0.0
 11
66.1084629299
 21
192.6264401243
 31
0.0
  0
ELLIPSE
  5
11B
330
1F
100
AcDbEntity
  8
0
  6
Continuous
 62
     7
370
    25
100
AcDbEllipse
 10
60.4836633479
 20
201.3828745894
 30
0.0
 11
0.4025764986539855
 21
0.02746477246384416
 31
0.0
210
0.0
220
0.0
230
1.0
 40
0.1534013253
 41
0.764727038982818
 42
1.5399365953266
  0
LINE
  5
11C
330
1F
100
AcDbEntity
  8
0
  6
Continuous
 62
     7
370
    25
100
AcDbLine
 10
59.9133027636
 20
192.6264401243
 30
0.0
 11
60.4918736522
 21
201.4454483754
 31
0.0
  0
ARC
  5
11D
330
1F
100
AcDbEntity
  8
0
  6
Continuous
 62
     7
370
    25
100
AcDbCircle
 10
68.4996960036
 20
200.7956981795
 30
0.0
 40
0.6791144581841171
100
AcDbArc
 50
73.0896296932
 51
106.9103703068
  0
LINE
  5
11E
330
1F
100
AcDbEntity
  8
0
  6
Continuous
 62
     7
370
    25
100
AcDbLine
 10
68.6972336717
 20
201.4454483754
 30
0.0
 11
70.0940273577
 21
192.6264401243
 31
0.0
  0
LINE
  5
11F
330
1F
100
AcDbEntity
  8
0
  6
Continuous
 62
     7
370
    25
100
AcDbLine
 10
69.6989520215
 20
192.6264401243
 30
0.0
 11
68.3021583354
 21
201.4454483754
 31
0.0
  0
ARC
  5
120
330
1F
100
AcDbEntity
  8
0
  6
Continuous
 62
     7
370
    25
100
AcDbCircle
 10
57.52206969
 20
200.7956981795
 30
0.0
 40
0.6791144581840586
100
AcDbArc
 50
73.0896296932
 51
106.9103703068
  0
LINE
  5
121
330
1F
100
AcDbEntity
  8
0
  6
Continuous
 62
     7
370
    25
100
AcDbLine
 10
57.7196073581
 20
201.4454483754
 30
0.0
 11
56.322813672
 21
192.6264401243
 31
0.0
  0
LINE
  5
122
330
1F
100
AcDbEntity
  8
0
  6
Continuous
 62
     7
370
    25
100
AcDbLine
 10
55.9277383358
 20
192.6264401243
 30
0.0
 11
57.3245320218
 21
201.4454483754
 31
0.0
  0
LINE
  5
123
330
1F
100
AcDbEntity
  8
0
  6
Continuous
 62
     7
370
    25
100
AcDbLine
 10
68.3021583354
 20
201.4454483754
 30
0.0
 11
65.5298920413
 21
201.4454483754
 31
0.0
  0
LINE
  5
124
330
1F
100
AcDbEntity
  8
0
  6
Continuous
 62
     7
370
    25
100
AcDbLine
 10
60.4918736522
 20
201.4454483754
 30
0.0
 11
57.7196073581
 21
201.4454483754
 31
0.0
  0
LINE
  5
125
330
1F
100
AcDbEntity
  8
0
  6
Continuous
 62
     7
370
    25
100
AcDbLine
 10
65.5298920413
 20
201.7828745894
 30
0.0
 11
65.5298920413
 21
201.4454483754
 31
0.0
  0
LINE
  5
126
330
1F
100
AcDbEntity
  8
0
  6
Continuous
 62
     7
370
    25
100
AcDbLine
 10
65.5298920413
 20
201.7828745894
 30
0.0
 11
64.9711711426
 21
201.7828745894
 31
0.0
  0
LINE
  5
127
330
1F
100
AcDbEntity
  8
0
  6
Continuous
 62
     7
370
    25
100
AcDbLine
 10
60.4918736522
 20
201.4454483754
 30
0.0
 11
60.4918736522
 21
201.7828745894
 31
0.0
  0
LINE
  5
128
330
1F
100
AcDbEntity
  8
0
  6
Continuous
 62
     7
370
    25
100
AcDbLine
 10
61.0505945509
 20
201.7828745894
 30
0.0
 11
60.4918736522
 21
201.7828745894
 31
0.0
  0
LINE
  5
129
330
1F
100
AcDbEntity
  8
0
  6
Continuous
 62
     7
370
    25
100
AcDbLine
 10
68.3021583354
 20
201.7828745894
 30
0.0
 11
68.3021583354
 21
201.4454483754
 31
0.0
  0
LINE
  5
12A
330
1F
100
AcDbEntity
  8
0
  6
Continuous
 62
     7
370
    25
100
AcDbLine
 10
65.5298920413
 20
201.7828745894
 30
0.0
 11
68.3021583354
 21
201.7828745894
 31
0.0
  0
ARC
  5
12B
330
1F
100
AcDbEntity
  8
0
  6
Continuous
 62
     7
370
    25
100
AcDbCircle
 10
68.3021583354
 20
201.3828745894
 30
0.0
 40
0.4000000000000341
100
AcDbArc
 50
9.0
 51
90.0
  0
ARC
  5
12C
330
1F
100
AcDbEntity
  8
0
  6
Continuous
 62
     7
370
    25
100
AcDbCircle
 10
57.7196073581
 20
201.3828745894
 30
0.0
 40
0.4000000000000341
100
AcDbArc
 50
90.0
 51
171.0
  0
LINE
  5
12D
330
1F
100
AcDbEntity
  8
0
  6
Continuous
 62
     7
370
    25
100
AcDbLine
 10
57.7196073581
 20
201.4454483754
 30
0.0
 11
57.7196073581
 21
201.7828745894
 31
0.0
  0
LINE
  5
12E
330
1F
100
AcDbEntity
  8
0
  6
Continuous
 62
     7
370
    25
100
AcDbLine
 10
57.7196073581
 20
201.7828745894
 30
0.0
 11
60.4918736522
 21
201.7828745894
 31
0.0
  0
ARC
  5
12F
330
1F
100
AcDbEntity
  8
0
  6
Continuous
 62
     7
370
    25
100
AcDbCircle
 10
70.1518848012
 20
192.8954566942
 30
0.0
 40
0.2751679462507552
100
AcDbArc
 50
257.8622762533
 51
282.1377237467
  0
ELLIPSE
  5
130
330
1F
100
AcDbEntity
  8
0
  6
Continuous
 62
     7
370
    25
100
AcDbEllipse
 10
71.0817156983
 20
192.7828745894
 30
0.0
 11
0.0
 21
1.0
 31
0.0
210
0.0
220
0.0
230
1.0
 40
0.8828427125
 41
1.727875959474391
 42
3.141592653589793
  0
LINE
  5
131
330
1F
100
AcDbEntity
  8
0
  6
Continuous
 62
     7
370
    25
100
AcDbLine
 10
70.2097422446
 20
192.6264401243
 30
0.0
 11
72.7486014291
 21
192.6264401243
 31
0.0
  0
ARC
  5
132
330
1F
100
AcDbEntity
  8
0
  6
Continuous
 62
     7
370
    25
100
AcDbCircle
 10
73.5871632987
 20
192.609807251
 30
0.0
 40
0.8387268099340244
100
AcDbArc
 50
178.86368731
 51
260.3800924999
  0
LINE
  5
133
330
1F
100
AcDbEntity
  8
0
  6
Continuous
 62
     7
370
    25
100
AcDbLine
 10
53.2731642644
 20
192.6264401243
 30
0.0
 11
55.8120234489
 21
192.6264401243
 31
0.0
  0
ELLIPSE
  5
134
330
1F
100
AcDbEntity
  8
0
  6
Continuous
 62
     7
370
    25
100
AcDbEllipse
 10
54.9400499952
 20
192.7828745894
 30
0.0
 11
0.0
 21
1.0
 31
0.0
210
0.0
220
0.0
230
1.0
 40
0.8828427125
 41
3.141592653589793
 42
4.555309347705208
  0
ARC
  5
135
330
1F
100
AcDbEntity
  8
0
  6
Continuous
 62
     7
370
    25
100
AcDbCircle
 10
52.4346023948
 20
192.609807251
 30
0.0
 40
0.8387268099340315
100
AcDbArc
 50
279.6199075001
 51
1.13631269
  0
ARC
  5
136
330
1F
100
AcDbEntity
  8
0
  6
Continuous
 62
     7
370
    25
100
AcDbCircle
 10
55.8698808923
 20
192.8954566942
 30
0.0
 40
0.2751679462507552
100
AcDbArc
 50
257.8622762533
 51
282.1377237467
  0
ELLIPSE
  5
137
330
1F
100
AcDbEntity
  8
0
  6
Continuous
 62
     7
370
    25
100
AcDbEllipse
 10
69.1121304361
 20
201.3828745894
 30
0.0
 11
0.4148999663868551
 21
-0.06303997778363168
 31
0.0
210
0.0
220
0.0
230
1.0
 40
0.0587446133
 41
2.385060344799118
 42
3.160269901143044
  0
LINE
  5
138
330
1F
100
AcDbEntity
  8
0
  6
Continuous
 62
     7
370
    25
100
AcDbLine
 10
68.8129485586
 20
201.4454483754
 30
0.0
 11
70.2097422446
 21
192.6264401243
 31
0.0
  0
ELLIPSE
  5
139
330
1F
100
AcDbEntity
  8
0
  6
Continuous
 62
     7
370
    25
100
AcDbEllipse
 10
56.9096352574
 20
201.3828745894
 30
0.0
 11
0.4148999663868551
 21
0.06303997778366011
 31
0.0
210
0.0
220
0.0
230
1.0
 40
0.0587446133
 41
6.264508059625618
 42
7.039717615969679
  0
LINE
  5
13A
330
1F
100
AcDbEntity
  8
0
  6
Continuous
 62
     7
370
    25
100
AcDbLine
 10
55.8120234489
 20
192.6264401243
 30
0.0
 11
57.2088171349
 21
201.4454483754
 31
0.0
  0
LINE
  5
13B
330
1F
100
AcDbEntity
  8
0
  6
Continuous
 62
     7
370
    25
100
AcDbLine
 10
70.7732368544
 20
201.4454483754
 30
0.0
 11
68.8129485586
 21
201.4454483754
 31
0.0
  0
LINE
  5
13C
330
1F
100
AcDbEntity
  8
0
  6
Continuous
 62
     7
370
    25
100
AcDbLine
 10
72.7486014291
 20
192.6264401243
 30
0.0
 11
70.7732368544
 21
201.4454483754
 31
0.0
  0
LINE
  5
13D
330
1F
100
AcDbEntity
  8
0
  6
Continuous
 62
     7
370
    25
100
AcDbLine
 10
57.2088171349
 20
201.4454483754
 30
0.0
 11
55.2485288391
 21
201.4454483754
 31
0.0
  0
LINE
  5
13E
330
1F
100
AcDbEntity
  8
0
  6
Continuous
 62
     7
370
    25
100
AcDbLine
 10
55.2485288391
 20
201.4454483754
 30
0.0
 11
53.2731642644
 21
192.6264401243
 31
0.0
  0
ARC
  5
13F
330
1F
100
AcDbEntity
  8
0
  6
Continuous
 62
     7
370
    25
100
AcDbCircle
 10
68.4775238107
 20
201.4521015247
 30
0.0
 40
0.3354907239736961
100
AcDbArc
 50
358.8636873101
 51
80.3800924999
  0
LINE
  5
140
330
1F
100
AcDbEntity
  8
0
  6
Continuous
 62
     7
370
    25
100
AcDbLine
 10
68.5335881092
 20
201.7828745894
 30
0.0
 11
68.3021583354
 21
201.7828745894
 31
0.0
  0
ARC
  5
141
330
1F
100
AcDbEntity
  8
0
  6
Continuous
 62
     7
370
    25
100
AcDbCircle
 10
57.5442418828
 20
201.4521015247
 30
0.0
 40
0.3354907239736819
100
AcDbArc
 50
99.6199075001
 51
181.1363126899
  0
LINE
  5
142
330
1F
100
AcDbEntity
  8
0
  6
Continuous
 62
     7
370
    25
100
AcDbLine
 10
57.7196073581
 20
201.7828745894
 30
0.0
 11
57.4881775843
 21
201.7828745894
 31
0.0
  0
ARC
  5
143
330
1F
100
AcDbEntity
  8
0
  6
Continuous
 62
     7
370
    25
100
AcDbCircle
 10
70.4378121066
 20
201.4521015247
 30
0.0
 40
0.335490723973648
100
AcDbArc
 50
358.8636873101
 51
80.3800924999
  0
LINE
  5
144
330
1F
100
AcDbEntity
  8
0
  6
Continuous
 62
     7
370
    25
100
AcDbLine
 10
68.5335881092
 20
201.7828745894
 30
0.0
 11
70.4938764051
 21
201.7828745894
 31
0.0
  0
ARC
  5
145
330
1F
100
AcDbEntity
  8
0
  6
Continuous
 62
     7
370
    25
100
AcDbCircle
 10
55.5839535869
 20
201.4521015247
 30
0.0
 40
0.335490723973648
100
AcDbArc
 50
99.6199075001
 51
181.1363126899
  0
LINE
  5
146
330
1F
100
AcDbEntity
  8
0
  6
Continuous
 62
     7
370
    25
100
AcDbLine
 10
55.5278892884
 20
201.7828745894
 30
0.0
 11
57.4881775843
 21
201.7828745894
 31
0.0
  0
LINE
  5
147
330
1F
100
AcDbEntity
  8
0
  6
Continuous
 62
     1
370
    25
100
AcDbLine
 10
72.7486014291
 20
192.6264401243
 30
0.0
 11
72.8790550496
 21
192.5643011192
 31
0.0
  0
LINE
  5
148
330
1F
100
AcDbEntity
  8
0
  6
Continuous
 62
     1
370
    25
100
AcDbLine
 10
53.1427160459
 20
192.5643036924
 30
0.0
 11
53.2731642644
 21
192.6264401243
 31
0.0
  0
LINE
  5
149
330
1F
100
AcDbEntity
  8
0
  6
Continuous
 62
     1
370
    25
100
AcDbLine
 10
70.7732368544
 20
201.4454483754
 30
0.0
 11
70.884204603
 21
201.4703039774
 31
0.0
  0
LINE
  5
14A
330
1F
100
AcDbEntity
  8
0
  6
Continuous
 62
     1
370
    25
100
AcDbLine
 10
55.1375610905
 20
201.4703039774
 30
0.0
 11
55.2485288391
 21
201.4454483754
 31
0.0
  0
DIMENSION
  5
14B
330
1F
100
AcDbEntity
  8
FORMAT
 62
     7
100
AcDbDimension
  2
_D
 10
48.0108828468
 20
161.6222563957
 30
0.0
 11
63.0108828468
 21
161.6222563957
 31
0.0
 70
   160
  1
%%c<>
 71
     2
 42
-1.0
  3
SLDDIMSTYLE0
100
AcDbAlignedDimension
 13
78.0108828468
 23
179.7828745894
 33
0.0
 14
48.0108828468
 24
179.7828745894
 34
0.0
100
AcDbRotatedDimension
  0
LINE
  5
157
330
1F
100
AcDbEntity
  8
0
  6
CENTER
 62
     7
370
    18
100
AcDbLine
 10
63.0108828468
 20
204.4228745894
 30
0.0
 11
63.0108828468
 21
177.1428745894
 31
0.0
  0
LINE
  5
158
330
1F
100
AcDbEntity
  8
0
  6
Continuous
 62
     7
370
    18
100
AcDbLine
 10
50.3108828468
 20
202.4228745894
 30
0.0
 11
63.0108828468
 21
202.4228745894
 31
0.0
  0
SOLID
  5
159
330
1F
100
AcDbEntity
  8
0
  6
Continuous
 62
     7
370
    18
100
AcDbTrace
 10
63.0108828468
 20
202.4228745894
 30
0.0
 11
56.6608828468
 21
203.4388745894
 31
0.0
 12
56.6608828468
 22
201.4068745894
 32
0.0
 13
56.6608828468
 23
201.4068745894
 33
0.0
  0
LINE
  5
15A
330
1F
100
AcDbEntity
  8
0
  6
Continuous
 62
     7
370
    18
100
AcDbLine
 10
50.3108828468
 20
179.1428745894
 30
0.0
 11
63.0108828468
 21
179.1428745894
 31
0.0
  0
SOLID
  5
15B
330
1F
100
AcDbEntity
  8
0
  6
Continuous
 62
     7
370
    18
100
AcDbTrace
 10
63.0108828468
 20
179.1428745894
 30
0.0
 11
56.6608828468
 21
180.1588745894
 31
0.0
 12
56.6608828468
 22
178.1268745894
 32
0.0
 13
56.6608828468
 23
178.1268745894
 33
0.0
  0
MTEXT
  5
15C
330
1F
100
AcDbEntity
  8
0
  6
Continuous
 62
     7
100
AcDbMText
 10
60.6561490305
 20
212.0744489156
 30
0.0
 40
5.0
 41
0.0
 71
     1
 72
     1
  1
A
  7
SLDTEXTSTYLE0
 73
     1
 44
1.0
  0
MTEXT
  5
15D
330
1F
100
AcDbEntity
  8
0
  6
Continuous
 62
     7
100
AcDbMText
 10
60.808285298
 20
175.5225443685
 30
0.0
 40
5.0
 41
0.0
 71
     1
 72
     1
  1
A
  7
SLDTEXTSTYLE0
 73
     1
 44
1.0
  0
LINE
  5
15E
330
1F
100
AcDbEntity
  8
0
  6
Continuous
 62
     7
370
    25
100
AcDbLine
 10
176.7536378877
 20
86.9542790659
 30
0.0
 11
176.7536378877
 21
96.7527688085
 31
0.0
  0
LINE
  5
15F
330
1F
100
AcDbEntity
  8
0
  6
Continuous
 62
     7
370
    25
100
AcDbLine
 10
146.7536378877
 20
96.7527688085
 30
0.0
 11
146.7536378877
 21
86.9542790659
 31
0.0
  0
LINE
  5
160
330
1F
100
AcDbEntity
  8
0
  6
Continuous
 62
     7
370
    25
100
AcDbLine
 10
171.6164275309
 20
97.428193636
 30
0.0
 11
169.6223810778
 21
104.6973775274
 31
0.0
  0
LINE
  5
161
330
1F
100
AcDbEntity
  8
0
  6
Continuous
 62
     7
370
    25
100
AcDbLine
 10
153.8848946975
 20
104.6973775274
 30
0.0
 11
151.8908482445
 21
97.428193636
 31
0.0
  0
ARC
  5
162
330
1F
100
AcDbEntity
  8
0
  6
Continuous
 62
     7
370
    25
100
AcDbCircle
 10
169.236631446
 20
104.5915606026
 30
0.0
 40
0.4000000000000096
100
AcDbArc
 50
15.3397586804
 51
60.0026882663
  0
ARC
  5
163
330
1F
100
AcDbEntity
  8
0
  6
Continuous
 62
     7
370
    25
100
AcDbCircle
 10
154.2706443293
 20
104.5915606026
 30
0.0
 40
0.4000000000000096
100
AcDbArc
 50
119.9973117337
 51
164.6602413196
  0
LINE
  5
164
330
1F
100
AcDbEntity
  8
0
  6
Continuous
 62
     7
370
    25
100
AcDbLine
 10
169.4366151926
 20
104.9379801476
 30
0.0
 11
167.4763268967
 21
106.0696304929
 31
0.0
  0
LINE
  5
165
330
1F
100
AcDbEntity
  8
0
  6
Continuous
 62
     7
370
    25
100
AcDbLine
 10
156.0309488787
 20
106.0696304929
 30
0.0
 11
154.0706605828
 21
104.9379801476
 31
0.0
  0
LWPOLYLINE
  5
166
330
1F
100
AcDbEntity
  8
0
  6
Continuous
 62
     7
370
    25
100
AcDbPolyline
 90
        3
 70
   128
 43
0.0
 10
156.0749019965
 20
106.1018594764
 10
156.0679725683
 20
106.095216983
 10
156.0309488787
 20
106.0696304929
  0
LWPOLYLINE
  5
167
330
1F
100
AcDbEntity
  8
0
  6
Continuous
 62
     7
370
    25
100
AcDbPolyline
 90
        4
 70
   128
 43
0.0
 10
167.4763268967
 20
106.0696304929
 10
167.448418395
 20
106.0878844578
 10
167.4298952213
 20
106.1045083215
 10
167.4301626052
 20
106.1039322172
  0
LINE
  5
168
330
1F
100
AcDbEntity
  8
0
  6
Continuous
 62
     7
370
    25
100
AcDbLine
 10
167.0449133764
 20
108.0461489235
 30
0.0
 11
164.2726470822
 21
108.0461489235
 31
0.0
  0
LINE
  5
169
330
1F
100
AcDbEntity
  8
0
  6
Continuous
 62
     7
370
    25
100
AcDbLine
 10
159.2346286932
 20
108.0461489235
 30
0.0
 11
156.462362399
 21
108.0461489235
 31
0.0
  0
ARC
  5
16A
330
1F
100
AcDbEntity
  8
0
  6
Continuous
 62
     7
370
    25
100
AcDbCircle
 10
156.462362399
 20
107.6461489235
 30
0.0
 40
0.4000000000000199
100
AcDbArc
 50
90.0
 51
167.6784696052
  0
ARC
  5
16B
330
1F
100
AcDbEntity
  8
0
  6
Continuous
 62
     7
370
    25
100
AcDbCircle
 10
167.0449133764
 20
107.6461489235
 30
0.0
 40
0.4000000000000057
100
AcDbArc
 50
12.3215303948
 51
90.0
  0
ARC
  5
16C
330
1F
100
AcDbEntity
  8
0
  6
Continuous
 62
     7
370
    25
100
AcDbCircle
 10
159.2579048867
 20
108.7859265404
 30
0.0
 40
0.7401437047552262
100
AcDbArc
 50
268.1978532423
 51
296.9515957151
  0
ARC
  5
16D
330
1F
100
AcDbEntity
  8
0
  6
Continuous
 62
     7
370
    25
100
AcDbCircle
 10
164.2499066593
 20
108.7883284174
 30
0.0
 40
0.7425277961220712
100
AcDbArc
 50
243.0955540923
 51
271.7549969503
  0
ARC
  5
16E
330
1F
100
AcDbEntity
  8
0
  6
Continuous
 62
     7
370
    25
100
AcDbCircle
 10
171.9813051268
 20
97.5053012538
 30
0.0
 40
0.369806900308127
100
AcDbArc
 50
191.5878658532
 51
221.9805025823
  0
ARC
  5
16F
330
1F
100
AcDbEntity
  8
0
  6
Continuous
 62
     7
370
    25
100
AcDbCircle
 10
151.5689418971
 20
97.4902881916
 30
0.0
 40
0.3280055638902455
100
AcDbArc
 50
314.6612881081
 51
349.6432404418
  0
LINE
  5
170
330
1F
100
AcDbEntity
  8
0
  6
Continuous
 62
     7
370
    25
100
AcDbLine
 10
156.0715762175
 20
107.7315079322
 30
0.0
 11
155.6620583571
 21
105.8566745278
 31
0.0
  0
LINE
  5
171
330
1F
100
AcDbEntity
  8
0
  6
Continuous
 62
     7
370
    25
100
AcDbLine
 10
167.8452174182
 20
105.8566745278
 30
0.0
 11
167.4356995578
 21
107.7315079322
 31
0.0
  0
LINE
  5
172
330
1F
100
AcDbEntity
  8
0
  6
Continuous
 62
     7
370
    25
100
AcDbLine
 10
161.5536541412
 20
109.2578203784
 30
0.0
 11
159.5933658453
 21
108.1261700331
 31
0.0
  0
LINE
  5
173
330
1F
100
AcDbEntity
  8
0
  6
Continuous
 62
     7
370
    25
100
AcDbLine
 10
163.9139099301
 20
108.1261700331
 30
0.0
 11
161.9536216342
 21
109.2578203784
 31
0.0
  0
ARC
  5
174
330
1F
100
AcDbEntity
  8
0
  6
Continuous
 62
     7
370
    25
100
AcDbCircle
 10
161.7536378877
 20
108.9114008335
 30
0.0
 40
0.4000000000000096
100
AcDbArc
 50
60.0026882663
 51
119.9973117337
  0
LWPOLYLINE
  5
175
330
1F
100
AcDbEntity
  8
0
  6
Continuous
 62
     7
370
    25
100
AcDbPolyline
 90
       57
 70
   128
 43
0.0
 10
151.1470361699
 20
90.6297079699
 10
151.8133853742
 20
90.2678109508
 10
152.5167129706
 20
89.9300384008
 10
153.2544025345
 20
89.6176468561
 10
154.0237098121
 20
89.3317984337
 10
154.8217729299
 20
89.0735565085
 10
155.6456230406
 20
88.8438817575
 10
156.4921953677
 20
88.6436285857
 10
157.3583406065
 20
88.4735419481
 10
158.24083664
 20
88.3342545783
 10
159.1364005247
 20
88.2262846343
 10
160.0417007044
 20
88.1500337715
 10
160.9533694028
 20
88.1057856481
 10
161.8680151526
 20
88.0937048699
 10
162.7822354114
 20
88.1138363783
 10
163.6926292199
 20
88.1661052828
 10
164.5958098532
 20
88.2503171395
 10
165.4884174202
 20
88.3661586749
 10
166.367131362
 20
88.5131989509
 10
167.2286828051
 20
88.6908909679
 10
168.0698667215
 20
88.8985736999
 10
168.8875538518
 20
89.1354745536
 10
169.6787023461
 20
89.4007122423
 10
170.4403690801
 20
89.6933000643
 10
171.1697206035
 20
90.0121495736
 10
171.8640436808
 20
90.3560746293
 10
172.5207553845
 20
90.7237958074
 10
173.1374127039
 20
91.1139451611
 10
173.7117216333
 20
91.5250713091
 10
174.2415457058
 20
91.9556448352
 10
174.7249139409
 20
92.4040639775
 10
175.1600281772
 20
92.8686605874
 10
175.5452697611
 20
93.347706335
 10
175.8792055686
 20
93.8394191386
 10
176.1605933365
 20
94.3419697944
 10
176.3883862839
 20
94.8534887809
 10
176.5617370061
 20
95.3720732138
 10
176.6800006269
 20
95.895793925
 10
176.742737198
 20
96.422702639
 10
176.7497133351
 20
96.9508392209
 10
176.7009030867
 20
97.4782389678
 10
176.59648803
 20
98.0029399181
 10
176.4368565958
 20
98.5229901497
 10
176.2226026237
 20
99.0364550417
 10
175.9545231524
 20
99.5414244709
 10
175.6336154553
 20
100.0360199179
 10
175.2610733299
 20
100.5184014552
 10
174.8382826575
 20
100.9867745916
 10
174.3668162472
 20
101.4393969484
 10
173.8484279849
 20
101.8745847408
 10
173.2850463091
 20
102.2907190415
 10
172.6787670366
 20
102.6862518035
 10
172.0318455661
 20
103.0597116191
 10
171.3466884879
 20
103.4097091933
 10
170.6258446314
 20
103.7349425119
 10
169.8719955831
 20
104.0342016858
 10
169.7966730238
 20
104.0620060676
  0
LWPOLYLINE
  5
176
330
1F
100
AcDbEntity
  8
0
  6
Continuous
 62
     7
370
    25
100
AcDbPolyline
 90
       31
 70
   128
 43
0.0
 10
153.7106027516
 20
104.0620060676
 10
153.4438750555
 20
103.9618845416
 10
152.6980190169
 20
103.656023615
 10
151.9858504753
 20
103.3244821271
 10
151.3100187444
 20
102.968493434
 10
150.6730379627
 20
102.5893818371
 10
150.0772777404
 20
102.1885576564
 10
149.5249543448
 20
101.7675119841
 10
149.0181224552
 20
101.3278111379
 10
148.5586675195
 20
100.8710908336
 10
148.1482987402
 20
100.399050101
 10
147.7885427161
 20
99.9134449625
 10
147.4807377632
 20
99.4160819011
 10
147.2260289363
 20
98.90881114
 10
147.0253637689
 20
98.3935197599
 10
146.8794887485
 20
97.8721246785
 10
146.7889465399
 20
97.3465655197
 10
146.754073966
 20
96.8187973981
 10
146.775000755
 20
96.2907836459
 10
146.851649058
 20
95.7644885088
 10
146.9837337382
 20
95.2418698393
 10
147.1707634319
 20
94.7248718132
 10
147.4120423764
 20
94.2154176972
 10
147.7066729981
 20
93.7154026939
 10
148.0535592519
 20
93.2266868921
 10
148.451410698
 20
92.7510883466
 10
148.8987473029
 20
92.2903763152
 10
149.3939049451
 20
91.846264677
 10
149.9350416057
 20
91.4204055565
 10
150.5201442206
 20
91.0143831774
 10
151.1470361699
 20
90.6297079699
  0
LINE
  5
177
330
1F
100
AcDbEntity
  8
0
  6
Continuous
 62
     7
370
    25
100
AcDbLine
 10
168.4417070624
 20
92.093576177
 30
0.0
 11
165.0966863144
 21
92.093576177
 31
0.0
  0
ELLIPSE
  5
178
330
1F
100
AcDbEntity
  8
0
  6
Continuous
 62
     7
370
    25
100
AcDbEllipse
 10
168.4070195631
 20
92.9118533235
 30
0.0
 11
1.417345370853468
 21
-0.03001803403269321
 31
0.0
210
0.0
220
0.0
230
1.0
 40
0.5769422052
 41
4.749081647443818
 42
6.295403789178189
  0
LINE
  5
179
330
1F
100
AcDbEntity
  8
0
  6
Continuous
 62
     7
370
    25
100
AcDbLine
 10
169.8244707393
 20
94.8228680309
 30
0.0
 11
169.8244707393
 21
92.8918286564
 31
0.0
  0
LINE
  5
17A
330
1F
100
AcDbEntity
  8
0
  6
Continuous
 62
     7
370
    25
100
AcDbLine
 10
172.1897575934
 20
96.1883190673
 30
0.0
 11
169.8244707393
 21
94.8228680309
 31
0.0
  0
ELLIPSE
  5
17B
330
1F
100
AcDbEntity
  8
0
  6
Continuous
 62
     7
370
    25
100
AcDbEllipse
 10
171.1629404888
 20
96.7527688085
 30
0.0
 11
1.434690096596711
 21
-1.421085471520200E-14
 31
0.0
210
0.0
220
0.0
230
1.0
 40
0.5633291809
 41
5.510024236312431
 42
7.056346378046742
  0
ELLIPSE
  5
17C
330
1F
100
AcDbEntity
  8
0
  6
Continuous
 62
     7
370
    25
100
AcDbEllipse
 10
152.3443352866
 20
96.7527688085
 30
0.0
 11
1.434690096596711
 21
0.0
 31
0.0
210
0.0
220
0.0
230
1.0
 40
0.5633291809
 41
2.368431582722622
 42
3.914753724456993
  0
LINE
  5
17D
330
1F
100
AcDbEntity
  8
0
  6
Continuous
 62
     7
370
    25
100
AcDbLine
 10
153.6828050361
 20
94.8228680309
 30
0.0
 11
151.317518182
 21
96.1883190673
 31
0.0
  0
LINE
  5
17E
330
1F
100
AcDbEntity
  8
0
  6
Continuous
 62
     7
370
    25
100
AcDbLine
 10
153.6828050361
 20
92.8918286564
 30
0.0
 11
153.6828050361
 21
94.8228680309
 31
0.0
  0
ELLIPSE
  5
17F
330
1F
100
AcDbEntity
  8
0
  6
Continuous
 62
     7
370
    25
100
AcDbEllipse
 10
155.1002562122
 20
92.9118533235
 30
0.0
 11
1.417345370853468
 21
0.030018034032679
 31
0.0
210
0.0
220
0.0
230
1.0
 40
0.5769422052
 41
3.129374171591206
 42
4.675696313325544
  0
LINE
  5
180
330
1F
100
AcDbEntity
  8
0
  6
Continuous
 62
     7
370
    25
100
AcDbLine
 10
158.4105894609
 20
92.093576177
 30
0.0
 11
155.0655687129
 21
92.093576177
 31
0.0
  0
LINE
  5
181
330
1F
100
AcDbEntity
  8
0
  6
Continuous
 62
     7
370
    25
100
AcDbLine
 10
160.775876315
 20
90.7281251406
 30
0.0
 11
158.4105894609
 21
92.093576177
 31
0.0
  0
ELLIPSE
  5
182
330
1F
100
AcDbEntity
  8
0
  6
Continuous
 62
     7
370
    25
100
AcDbEllipse
 10
161.7536378877
 20
91.3208940376
 30
0.0
 11
1.399999999999977
 21
0.0
 31
0.0
210
0.0
220
0.0
230
1.0
 40
0.5915921167
 41
3.93922790951751
 42
5.485550051251886
  0
LINE
  5
183
330
1F
100
AcDbEntity
  8
0
  6
Continuous
 62
     7
370
    25
100
AcDbLine
 10
165.0966863144
 20
92.093576177
 30
0.0
 11
162.7313994603
 21
90.7281251406
 31
0.0
  0
LWPOLYLINE
  5
184
330
1F
100
AcDbEntity
  8
0
  6
Continuous
 62
     7
370
    25
100
AcDbPolyline
 90
       40
 70
   128
 43
0.0
 10
151.1470361699
 20
80.8312182272
 10
151.8133853742
 20
80.4693212081
 10
152.5167129706
 20
80.1315486582
 10
153.2544025345
 20
79.8191571135
 10
154.0237098121
 20
79.5333086911
 10
154.8217729299
 20
79.2750667659
 10
155.6456230406
 20
79.0453920148
 10
156.4921953677
 20
78.8451388431
 10
157.3583406065
 20
78.6750522055
 10
158.24083664
 20
78.5357648357
 10
159.1364005247
 20
78.4277948917
 10
160.0417007044
 20
78.3515440289
 10
160.9533694028
 20
78.3072959054
 10
161.8680151526
 20
78.2952151273
 10
162.7822354114
 20
78.3153466357
 10
163.6926292199
 20
78.3676155401
 10
164.5958098532
 20
78.4518273969
 10
165.4884174202
 20
78.5676689323
 10
166.367131362
 20
78.7147092082
 10
167.2286828051
 20
78.8924012252
 10
168.0698667215
 20
79.1000839573
 10
168.8875538518
 20
79.336984811
 10
169.6787023461
 20
79.6022224997
 10
170.4403690801
 20
79.8948103216
 10
171.1697206035
 20
80.213659831
 10
171.8640436808
 20
80.5575848867
 10
172.5207553845
 20
80.9253060648
 10
173.1374127039
 20
81.3154554185
 10
173.7117216333
 20
81.7265815665
 10
174.2415457058
 20
82.1571550925
 10
174.7249139409
 20
82.6055742349
 10
175.1600281772
 20
83.0701708448
 10
175.5452697611
 20
83.5492165924
 10
175.8792055686
 20
84.040929396
 10
176.1605933365
 20
84.5434800518
 10
176.3883862839
 20
85.0549990382
 10
176.5617370061
 20
85.5735834711
 10
176.6800006269
 20
86.0973041823
 10
176.742737198
 20
86.6242128964
 10
176.7536378877
 20
86.9542790659
  0
ARC
  5
185
330
1F
100
AcDbEntity
  8
0
  6
Continuous
 62
     7
370
    25
100
AcDbCircle
 10
154.2894438255
 20
87.7236468276
 30
0.0
 40
7.574978408198856
100
AcDbArc
 50
185.8294119165
 51
245.4907290411
  0
LINE
  5
186
330
1F
100
AcDbEntity
  8
0
  6
Continuous
 62
     7
370
    25
100
AcDbLine
 10
161.7536378877
 20
100.5983366965
 30
0.0
 11
163.7139261835
 21
101.7299870419
 31
0.0
  0
LINE
  5
187
330
1F
100
AcDbEntity
  8
0
  6
Continuous
 62
     7
370
    25
100
AcDbLine
 10
159.7933495918
 20
101.7299870419
 30
0.0
 11
161.7536378877
 21
100.5983366965
 31
0.0
  0
ELLIPSE
  5
188
330
1F
100
AcDbEntity
  8
0
  6
Continuous
 62
     7
370
    25
100
AcDbEllipse
 10
159.2264183888
 20
101.3960016657
 30
0.0
 11
0.8017085891592899
 21
0.007256327649074024
 31
0.0
210
0.0
220
0.0
230
1.0
 40
0.5831677987
 41
0.780067477025289
 42
1.555277033369686
  0
LINE
  5
189
330
1F
100
AcDbEntity
  8
0
  6
Continuous
 62
     7
370
    25
100
AcDbLine
 10
156.462362399
 20
101.8635886065
 30
0.0
 11
159.2346286932
 21
101.8635886065
 31
0.0
  0
LINE
  5
18A
330
1F
100
AcDbEntity
  8
0
  6
Continuous
 62
     7
370
    25
100
AcDbLine
 10
156.462362399
 20
103.4639838728
 30
0.0
 11
156.462362399
 21
101.8635886065
 31
0.0
  0
ELLIPSE
  5
18B
330
1F
100
AcDbEntity
  8
0
  6
Continuous
 62
     7
370
    25
100
AcDbEllipse
 10
155.6523902984
 20
103.4592441649
 30
0.0
 11
0.8099621222382893
 21
0.007036861233473248
 31
0.0
210
0.0
220
0.0
230
1.0
 40
0.5713470464
 41
6.278221548071855
 42
7.053431104416204
  0
LINE
  5
18C
330
1F
100
AcDbEntity
  8
0
  6
Continuous
 62
     7
370
    25
100
AcDbLine
 10
154.2706443293
 20
104.9181769274
 30
0.0
 11
156.2309326252
 21
103.786526582
 31
0.0
  0
LINE
  5
18D
330
1F
100
AcDbEntity
  8
0
  6
Continuous
 62
     7
370
    25
100
AcDbLine
 10
156.2309326252
 20
106.0498272727
 30
0.0
 11
154.2706443293
 21
104.9181769274
 31
0.0
  0
ELLIPSE
  5
18E
330
1F
100
AcDbEntity
  8
0
  6
Continuous
 62
     7
370
    25
100
AcDbEllipse
 10
155.6523902984
 20
106.3771096898
 30
0.0
 11
0.8099621222382609
 21
-0.007036861233487456
 31
0.0
210
0.0
220
0.0
230
1.0
 40
0.5713470464
 41
5.512939509943013
 42
6.288149066287343
  0
LINE
  5
18F
330
1F
100
AcDbEntity
  8
0
  6
Continuous
 62
     7
370
    25
100
AcDbLine
 10
156.462362399
 20
107.9727652483
 30
0.0
 11
156.462362399
 21
106.372369982
 31
0.0
  0
LINE
  5
190
330
1F
100
AcDbEntity
  8
0
  6
Continuous
 62
     7
370
    25
100
AcDbLine
 10
159.2346286932
 20
107.9727652483
 30
0.0
 11
156.462362399
 21
107.9727652483
 31
0.0
  0
ELLIPSE
  5
191
330
1F
100
AcDbEntity
  8
0
  6
Continuous
 62
     7
370
    25
100
AcDbEllipse
 10
159.2264183888
 20
108.4403521891
 30
0.0
 11
0.8017085891592899
 21
-0.007256327649088234
 31
0.0
210
0.0
220
0.0
230
1.0
 40
0.5831677987
 41
4.727908273809989
 42
5.503117830154307
  0
LINE
  5
192
330
1F
100
AcDbEntity
  8
0
  6
Continuous
 62
     7
370
    25
100
AcDbLine
 10
161.7536378877
 20
109.2380171582
 30
0.0
 11
159.7933495918
 21
108.1063668129
 31
0.0
  0
LINE
  5
193
330
1F
100
AcDbEntity
  8
0
  6
Continuous
 62
     7
370
    25
100
AcDbLine
 10
163.7139261835
 20
108.1063668129
 30
0.0
 11
161.7536378877
 21
109.2380171582
 31
0.0
  0
ELLIPSE
  5
194
330
1F
100
AcDbEntity
  8
0
  6
Continuous
 62
     7
370
    25
100
AcDbEllipse
 10
164.2808573866
 20
108.4403521891
 30
0.0
 11
0.8017085891592898
 21
0.007256327649059812
 31
0.0
210
0.0
220
0.0
230
1.0
 40
0.5831677987
 41
3.921660130615155
 42
4.696869686959462
  0
LINE
  5
195
330
1F
100
AcDbEntity
  8
0
  6
Continuous
 62
     7
370
    25
100
AcDbLine
 10
167.0449133764
 20
107.9727652483
 30
0.0
 11
164.2726470822
 21
107.9727652483
 31
0.0
  0
LINE
  5
196
330
1F
100
AcDbEntity
  8
0
  6
Continuous
 62
     7
370
    25
100
AcDbLine
 10
167.0449133764
 20
106.372369982
 30
0.0
 11
167.0449133764
 21
107.9727652483
 31
0.0
  0
ELLIPSE
  5
197
330
1F
100
AcDbEntity
  8
0
  6
Continuous
 62
     7
370
    25
100
AcDbEllipse
 10
167.854885477
 20
106.3771096898
 30
0.0
 11
0.8099621222383178
 21
0.007036861233473246
 31
0.0
210
0.0
220
0.0
230
1.0
 40
0.5713470464
 41
3.136628894482068
 42
3.911838450826493
  0
LINE
  5
198
330
1F
100
AcDbEntity
  8
0
  6
Continuous
 62
     7
370
    25
100
AcDbLine
 10
169.236631446
 20
104.9181769274
 30
0.0
 11
167.2763431502
 21
106.0498272727
 31
0.0
  0
LINE
  5
199
330
1F
100
AcDbEntity
  8
0
  6
Continuous
 62
     7
370
    25
100
AcDbLine
 10
167.2763431502
 20
103.786526582
 30
0.0
 11
169.236631446
 21
104.9181769274
 31
0.0
  0
ELLIPSE
  5
19A
330
1F
100
AcDbEntity
  8
0
  6
Continuous
 62
     7
370
    25
100
AcDbEllipse
 10
167.854885477
 20
103.4592441649
 30
0.0
 11
0.8099621222382893
 21
-0.007036861233473248
 31
0.0
210
0.0
220
0.0
230
1.0
 40
0.5713470464
 41
2.371346856353128
 42
3.146556412697544
  0
LINE
  5
19B
330
1F
100
AcDbEntity
  8
0
  6
Continuous
 62
     7
370
    25
100
AcDbLine
 10
167.0449133764
 20
101.8635886065
 30
0.0
 11
167.0449133764
 21
103.4639838728
 31
0.0
  0
LINE
  5
19C
330
1F
100
AcDbEntity
  8
0
  6
Continuous
 62
     7
370
    25
100
AcDbLine
 10
164.2726470822
 20
101.8635886065
 30
0.0
 11
167.0449133764
 21
101.8635886065
 31
0.0
  0
ELLIPSE
  5
19D
330
1F
100
AcDbEntity
  8
0
  6
Continuous
 62
     7
370
    25
100
AcDbEllipse
 10
164.2808573866
 20
101.3960016657
 30
0.0
 11
0.8017085891592899
 21
-0.007256327649074024
 31
0.0
210
0.0
220
0.0
230
1.0
 40
0.5831677987
 41
1.586315620220143
 42
2.361525176564458
  0
LWPOLYLINE
  5
19E
330
1F
100
AcDbEntity
  8
0
  6
Continuous
 62
     7
370
    25
100
AcDbPolyline
 90
       54
 70
   128
 43
0.0
 10
158.8545000848
 20
103.2445402982
 10
159.2177390756
 20
103.0583410819
 10
159.6165765269
 20
102.898249884
 10
160.0454136352
 20
102.7665140341
 10
160.4982304676
 20
102.6649828148
 10
160.9686704683
 20
102.5950815017
 10
161.4501296908
 20
102.5577913561
 10
161.9358495032
 20
102.5536358499
 10
162.4190114638
 20
102.5826733172
 10
162.892833038
 20
102.6444961358
 10
163.3506628094
 20
102.7382364488
 10
163.7860738517
 20
102.8625783475
 10
164.1929539481
 20
103.0157763444
 10
164.5655913941
 20
103.1956798754
 10
164.8987551768
 20
103.3997634892
 10
165.1877684069
 20
103.6251622993
 10
165.4285739722
 20
103.8687122004
 10
165.6177914905
 20
104.1269942859
 10
165.7527647625
 20
104.3963828413
 10
165.8315990594
 20
104.6730962419
 10
165.8531877204
 20
104.9532500382
 10
165.8172276881
 20
105.2329114848
 10
165.7242237625
 20
105.5081547481
 10
165.5754815148
 20
105.7751160161
 10
165.3730889602
 20
106.0300477378
 10
165.1198872465
 20
106.2693712305
 10
164.8194307707
 20
106.489726917
 10
164.4759372831
 20
106.6880214866
 10
164.0942286794
 20
106.8614713181
 10
163.6796633116
 20
107.0076415561
 10
163.2380607687
 20
107.1244802909
 10
162.7756201825
 20
107.2103473627
 10
162.298833205
 20
107.2640373861
 10
161.8143928804
 20
107.2847966709
 10
161.3290996889
 20
107.2723338022
 10
160.8497660831
 20
107.2268237313
 10
160.3831208561
 20
107.1489053199
 10
159.935714684
 20
107.0396723717
 10
159.5138281688
 20
106.9006582778
 10
159.1233836723
 20
106.7338144915
 10
158.7698621794
 20
106.5414831336
 10
158.4582263569
 20
106.326364115
 10
158.1928508887
 20
106.091477235
 10
157.9774610646
 20
105.8401197906
 10
157.8150804856
 20
105.5758202894
 10
157.7079886191
 20
105.3022889169
 10
157.6576888002
 20
105.023365454
 10
157.664887128
 20
104.7429653748
 10
157.7294825539
 20
104.4650248818
 10
157.8505682996
 20
104.1934456501
 10
158.0264445866
 20
103.932040057
 10
158.2546424975
 20
103.6844776638
 10
158.5319586338
 20
103.4542337041
 10
158.8545000848
 20
103.2445402982
  0
ARC
  5
19F
330
1F
100
AcDbEntity
  8
0
  6
Continuous
 62
     7
370
    25
100
AcDbCircle
 10
161.7536378877
 20
101.0094925906
 30
0.0
 40
0.8927825350771673
100
AcDbArc
 50
251.7653206212
 51
288.2346793788
  0
LINE
  5
1A0
330
1F
100
AcDbEntity
  8
0
  6
Continuous
 62
     7
370
    25
100
AcDbLine
 10
162.032998337
 20
100.1615430672
 30
0.0
 11
162.032998337
 21
91.820109214
 31
0.0
  0
ELLIPSE
  5
1A1
330
1F
100
AcDbEntity
  8
0
  6
Continuous
 62
     7
370
    25
100
AcDbEllipse
 10
161.7536378877
 20
92.1374348495
 30
0.0
 11
0.0
 21
0.4433739413197628
 31
0.0
210
0.0
220
0.0
230
1.0
 40
0.9021730028
 41
2.368431582722573
 42
3.914753724457027
  0
LINE
  5
1A2
330
1F
100
AcDbEntity
  8
0
  6
Continuous
 62
     7
370
    25
100
AcDbLine
 10
161.4742774383
 20
91.820109214
 30
0.0
 11
161.4742774383
 21
100.1615430672
 31
0.0
  0
LINE
  5
1A3
330
1F
100
AcDbEntity
  8
0
  6
Continuous
 62
     7
370
    25
100
AcDbLine
 10
163.9932866329
 20
101.2931934125
 30
0.0
 11
162.032998337
 21
100.1615430672
 31
0.0
  0
LINE
  5
1A4
330
1F
100
AcDbEntity
  8
0
  6
Continuous
 62
     7
370
    25
100
AcDbLine
 10
164.5718575215
 20
93.2857614239
 30
0.0
 11
163.9932866329
 21
101.2931934125
 31
0.0
  0
LINE
  5
1A5
330
1F
100
AcDbEntity
  8
0
  6
Continuous
 62
     7
370
    25
100
AcDbLine
 10
162.032998337
 20
91.820109214
 30
0.0
 11
164.5718575215
 21
93.2857614239
 31
0.0
  0
LINE
  5
1A6
330
1F
100
AcDbEntity
  8
0
  6
Continuous
 62
     7
370
    25
100
AcDbLine
 10
161.4742774383
 20
100.1615430672
 30
0.0
 11
159.5139891425
 21
101.2931934125
 31
0.0
  0
LINE
  5
1A7
330
1F
100
AcDbEntity
  8
0
  6
Continuous
 62
     7
370
    25
100
AcDbLine
 10
158.9354182539
 20
93.2857614239
 30
0.0
 11
161.4742774383
 21
91.820109214
 31
0.0
  0
LINE
  5
1A8
330
1F
100
AcDbEntity
  8
0
  6
Continuous
 62
     7
370
    25
100
AcDbLine
 10
159.5139891425
 20
101.2931934125
 30
0.0
 11
158.9354182539
 21
93.2857614239
 31
0.0
  0
LINE
  5
1A9
330
1F
100
AcDbEntity
  8
0
  6
Continuous
 62
     7
370
    25
100
AcDbLine
 10
159.2346286932
 20
101.3599941948
 30
0.0
 11
156.462362399
 21
101.3599941948
 31
0.0
  0
LINE
  5
1AA
330
1F
100
AcDbEntity
  8
0
  6
Continuous
 62
     7
370
    25
100
AcDbLine
 10
158.6560578046
 20
93.3525622062
 30
0.0
 11
159.2346286932
 21
101.3599941948
 31
0.0
  0
LINE
  5
1AB
330
1F
100
AcDbEntity
  8
0
  6
Continuous
 62
     7
370
    25
100
AcDbLine
 10
155.0655687129
 20
93.3525622062
 30
0.0
 11
158.6560578046
 21
93.3525622062
 31
0.0
  0
LINE
  5
1AC
330
1F
100
AcDbEntity
  8
0
  6
Continuous
 62
     7
370
    25
100
AcDbLine
 10
156.462362399
 20
101.3599941948
 30
0.0
 11
155.0655687129
 21
93.3525622062
 31
0.0
  0
LINE
  5
1AD
330
1F
100
AcDbEntity
  8
0
  6
Continuous
 62
     7
370
    25
100
AcDbLine
 10
167.0449133764
 20
101.3599941948
 30
0.0
 11
164.2726470822
 21
101.3599941948
 31
0.0
  0
LINE
  5
1AE
330
1F
100
AcDbEntity
  8
0
  6
Continuous
 62
     7
370
    25
100
AcDbLine
 10
168.4417070624
 20
93.3525622062
 30
0.0
 11
167.0449133764
 21
101.3599941948
 31
0.0
  0
LINE
  5
1AF
330
1F
100
AcDbEntity
  8
0
  6
Continuous
 62
     7
370
    25
100
AcDbLine
 10
164.8512179708
 20
93.3525622062
 30
0.0
 11
168.4417070624
 21
93.3525622062
 31
0.0
  0
LINE
  5
1B0
330
1F
100
AcDbEntity
  8
0
  6
Continuous
 62
     7
370
    25
100
AcDbLine
 10
164.2726470822
 20
101.3599941948
 30
0.0
 11
164.8512179708
 21
93.3525622062
 31
0.0
  0
ARC
  5
1B1
330
1F
100
AcDbEntity
  8
0
  6
Continuous
 62
     7
370
    25
100
AcDbCircle
 10
161.4142227821
 20
100.0735245
 30
0.0
 40
0.6250043643648988
100
AcDbArc
 50
8.0958037616
 51
57.1077840338
  0
ARC
  5
1B2
330
1F
100
AcDbEntity
  8
0
  6
Continuous
 62
     7
370
    25
100
AcDbCircle
 10
162.0930529932
 20
100.0735245
 30
0.0
 40
0.6250043643646052
100
AcDbArc
 50
122.8922159662
 51
171.9041962384
  0
ARC
  5
1B3
330
1F
100
AcDbEntity
  8
0
  6
Continuous
 62
     7
370
    25
100
AcDbCircle
 10
160.1327646974
 20
101.2051748454
 30
0.0
 40
0.6250043643646517
100
AcDbArc
 50
122.8922159662
 51
171.9041962384
  0
ARC
  5
1B4
330
1F
100
AcDbEntity
  8
0
  6
Continuous
 62
     7
370
    25
100
AcDbCircle
 10
163.374511078
 20
101.2051748454
 30
0.0
 40
0.6250043643650395
100
AcDbArc
 50
8.0958037616
 51
57.1077840338
  0
LINE
  5
1B5
330
1F
100
AcDbEntity
  8
0
  6
Continuous
 62
     7
370
    25
100
AcDbLine
 10
159.2346286932
 20
101.8635886065
 30
0.0
 11
159.2346286932
 21
101.3599941948
 31
0.0
  0
LINE
  5
1B6
330
1F
100
AcDbEntity
  8
0
  6
Continuous
 62
     7
370
    25
100
AcDbLine
 10
156.462362399
 20
101.3599941948
 30
0.0
 11
156.462362399
 21
101.8635886065
 31
0.0
  0
LINE
  5
1B7
330
1F
100
AcDbEntity
  8
0
  6
Continuous
 62
     7
370
    25
100
AcDbLine
 10
167.0449133764
 20
101.8635886065
 30
0.0
 11
167.0449133764
 21
101.3599941948
 31
0.0
  0
LINE
  5
1B8
330
1F
100
AcDbEntity
  8
0
  6
Continuous
 62
     7
370
    25
100
AcDbLine
 10
164.2726470822
 20
101.8635886065
 30
0.0
 11
164.2726470822
 21
101.3599941948
 31
0.0
  0
ELLIPSE
  5
1B9
330
1F
100
AcDbEntity
  8
0
  6
Continuous
 62
     7
370
    25
100
AcDbEllipse
 10
164.2808573866
 20
101.0693853409
 30
0.0
 11
0.4003558838868457
 21
-0.05952972664179867
 31
0.0
210
0.0
220
0.0
230
1.0
 40
0.7128420405
 41
1.696790662448762
 42
2.472000218793062
  0
ARC
  5
1BA
330
1F
100
AcDbEntity
  8
0
  6
Continuous
 62
     7
370
    25
100
AcDbCircle
 10
164.882506856
 20
92.6041700786
 30
0.0
 40
0.7490459070950473
100
AcDbArc
 50
92.3940359358
 51
114.5021064338
  0
ELLIPSE
  5
1BB
330
1F
100
AcDbEntity
  8
0
  6
Continuous
 62
     7
370
    25
100
AcDbEllipse
 10
159.2264183888
 20
101.0693853409
 30
0.0
 11
0.4003558838868173
 21
0.05952972664181289
 31
0.0
210
0.0
220
0.0
230
1.0
 40
0.7128420405
 41
0.6695924347967004
 42
1.444801991141067
  0
ARC
  5
1BC
330
1F
100
AcDbEntity
  8
0
  6
Continuous
 62
     7
370
    25
100
AcDbCircle
 10
158.6247689194
 20
92.6041700786
 30
0.0
 40
0.7490459070948547
100
AcDbArc
 50
65.4978935662
 51
87.6059640642
  0
ARC
  5
1BD
330
1F
100
AcDbEntity
  8
0
  6
Continuous
 62
     7
370
    25
100
AcDbCircle
 10
167.057991704
 20
101.7935578344
 30
0.0
 40
0.4337608468192963
100
AcDbArc
 50
268.2722125262
 51
331.7224109411
  0
LINE
  5
1BE
330
1F
100
AcDbEntity
  8
0
  6
Continuous
 62
     7
370
    25
100
AcDbLine
 10
167.4399887126
 20
101.5880663318
 30
0.0
 11
168.8367823987
 21
93.5806343432
 31
0.0
  0
ELLIPSE
  5
1BF
330
1F
100
AcDbEntity
  8
0
  6
Continuous
 62
     7
370
    25
100
AcDbEllipse
 10
168.4070195631
 20
93.7283941354
 30
0.0
 11
0.3794757683848786
 21
-0.320042051389052
 31
0.0
210
0.0
220
0.0
230
1.0
 40
0.6348285795
 41
5.284628147384246
 42
6.830950289118682
  0
ARC
  5
1C0
330
1F
100
AcDbEntity
  8
0
  6
Continuous
 62
     7
370
    25
100
AcDbCircle
 10
156.4492840714
 20
101.7935578344
 30
0.0
 40
0.4337608468194367
100
AcDbArc
 50
208.2775890589
 51
271.7277874738
  0
ELLIPSE
  5
1C1
330
1F
100
AcDbEntity
  8
0
  6
Continuous
 62
     7
370
    25
100
AcDbEllipse
 10
155.1002562122
 20
93.7283941354
 30
0.0
 11
0.3794757683848786
 21
0.320042051389052
 31
0.0
210
0.0
220
0.0
230
1.0
 40
0.6348285795
 41
2.593827671650696
 42
4.140149813384997
  0
LINE
  5
1C2
330
1F
100
AcDbEntity
  8
0
  6
Continuous
 62
     7
370
    25
100
AcDbLine
 10
154.6704933767
 20
93.5806343432
 30
0.0
 11
156.0672870628
 21
101.5880663318
 31
0.0
  0
LINE
  5
1C3
330
1F
100
AcDbEntity
  8
0
  6
Continuous
 62
     7
370
    25
100
AcDbLine
 10
167.4399887126
 20
103.188461598
 30
0.0
 11
167.4399887126
 21
101.5880663318
 31
0.0
  0
LINE
  5
1C4
330
1F
100
AcDbEntity
  8
0
  6
Continuous
 62
     7
370
    25
100
AcDbLine
 10
168.8367823987
 20
95.6533795761
 30
0.0
 11
167.4399887126
 21
103.188461598
 31
0.0
  0
LINE
  5
1C5
330
1F
100
AcDbEntity
  8
0
  6
Continuous
 62
     7
370
    25
100
AcDbLine
 10
168.8367823987
 20
93.5806343432
 30
0.0
 11
168.8367823987
 21
95.6533795761
 31
0.0
  0
LINE
  5
1C6
330
1F
100
AcDbEntity
  8
0
  6
Continuous
 62
     7
370
    25
100
AcDbLine
 10
156.0672870628
 20
101.5880663318
 30
0.0
 11
156.0672870628
 21
103.188461598
 31
0.0
  0
LINE
  5
1C7
330
1F
100
AcDbEntity
  8
0
  6
Continuous
 62
     7
370
    25
100
AcDbLine
 10
154.6704933767
 20
95.6533795761
 30
0.0
 11
154.6704933767
 21
93.5806343432
 31
0.0
  0
LINE
  5
1C8
330
1F
100
AcDbEntity
  8
0
  6
Continuous
 62
     7
370
    25
100
AcDbLine
 10
156.0672870628
 20
103.188461598
 30
0.0
 11
154.6704933767
 21
95.6533795761
 31
0.0
  0
ARC
  5
1C9
330
1F
100
AcDbEntity
  8
0
  6
Continuous
 62
     7
370
    25
100
AcDbCircle
 10
167.0713366132
 20
101.4804640351
 30
0.0
 40
0.3840346659528188
100
AcDbArc
 50
16.2714863297
 51
93.9453131291
  0
ARC
  5
1CA
330
1F
100
AcDbEntity
  8
0
  6
Continuous
 62
     7
370
    25
100
AcDbCircle
 10
156.4359391622
 20
101.4804640351
 30
0.0
 40
0.3840346659529237
100
AcDbArc
 50
86.0546868709
 51
163.7285136703
  0
ARC
  5
1CB
330
1F
100
AcDbEntity
  8
0
  6
Continuous
 62
     7
370
    25
100
AcDbCircle
 10
167.0713366132
 20
103.0808593014
 30
0.0
 40
0.3840346659527787
100
AcDbArc
 50
16.2714863297
 51
93.9453131291
  0
ARC
  5
1CC
330
1F
100
AcDbEntity
  8
0
  6
Continuous
 62
     7
370
    25
100
AcDbCircle
 10
156.4359391622
 20
103.0808593014
 30
0.0
 40
0.3840346659528897
100
AcDbArc
 50
86.0546868709
 51
163.7285136703
  0
ARC
  5
1CD
330
1F
100
AcDbEntity
  8
0
  6
Continuous
 62
     7
370
    25
100
AcDbCircle
 10
159.9273385512
 20
92.0401556319
 30
0.0
 40
1.56251091091202
100
AcDbArc
 50
302.8922159662
 51
351.9041962384
  0
ARC
  5
1CE
330
1F
100
AcDbEntity
  8
0
  6
Continuous
 62
     7
370
    25
100
AcDbCircle
 10
163.5799372242
 20
92.0401556319
 30
0.0
 40
1.56251091091184
100
AcDbArc
 50
188.0958037616
 51
237.1077840338
  0
ELLIPSE
  5
1CF
330
1F
100
AcDbEntity
  8
0
  6
Continuous
 62
     7
370
    25
100
AcDbEllipse
 10
165.0966863144
 20
92.9101169889
 30
0.0
 11
-0.3467989943035832
 21
0.9512858509569072
 31
0.0
210
0.0
220
0.0
230
1.0
 40
0.4232149121
 41
1.016799629683588
 42
2.430516323799048
  0
ELLIPSE
  5
1D0
330
1F
100
AcDbEntity
  8
0
  6
Continuous
 62
     7
370
    25
100
AcDbEllipse
 10
158.4105894609
 20
92.9101169889
 30
0.0
 11
0.3467989943035832
 21
0.9512858509569072
 31
0.0
210
0.0
220
0.0
230
1.0
 40
0.4232149121
 41
3.85266898338056
 42
5.266385677496012
  0
ELLIPSE
  5
1D1
330
1F
100
AcDbEntity
  8
0
  6
Continuous
 62
     7
370
    25
100
AcDbEllipse
 10
167.854885477
 20
103.1326278402
 30
0.0
 11
0.4114728256879517
 21
-0.0903025692247752
 31
0.0
210
0.0
220
0.0
230
1.0
 40
0.5907487896
 41
2.505062568657782
 42
3.280272125002285
  0
LINE
  5
1D2
330
1F
100
AcDbEntity
  8
0
  6
Continuous
 62
     7
370
    25
100
AcDbLine
 10
167.5557035995
 20
103.3497329527
 30
0.0
 11
168.9524972856
 21
95.8146509308
 31
0.0
  0
ARC
  5
1D3
330
1F
100
AcDbEntity
  8
0
  6
Continuous
 62
     7
370
    25
100
AcDbCircle
 10
169.0543588707
 20
95.6194141864
 30
0.0
 40
0.2202116456997563
100
AcDbArc
 50
117.5525661164
 51
171.127292926
  0
ELLIPSE
  5
1D4
330
1F
100
AcDbEntity
  8
0
  6
Continuous
 62
     7
370
    25
100
AcDbEllipse
 10
155.6523902984
 20
103.1326278402
 30
0.0
 11
0.4114728256879232
 21
0.0903025692247752
 31
0.0
210
0.0
220
0.0
230
1.0
 40
0.5907487896
 41
6.144505835767197
 42
6.919715392111528
  0
ARC
  5
1D5
330
1F
100
AcDbEntity
  8
0
  6
Continuous
 62
     7
370
    25
100
AcDbCircle
 10
154.4529169046
 20
95.6194141864
 30
0.0
 40
0.2202116456998591
100
AcDbArc
 50
8.872707074
 51
62.4474338836
  0
LINE
  5
1D6
330
1F
100
AcDbEntity
  8
0
  6
Continuous
 62
     7
370
    25
100
AcDbLine
 10
154.5547784898
 20
95.8146509308
 30
0.0
 11
155.9515721759
 21
103.3497329527
 31
0.0
  0
ELLIPSE
  5
1D7
330
1F
100
AcDbEntity
  8
0
  6
Continuous
 62
     7
370
    25
100
AcDbEllipse
 10
158.4105894609
 20
92.9101169889
 30
0.0
 11
0.1494337461712689
 21
0.9995592050542964
 31
0.0
210
0.0
220
0.0
230
1.0
 40
0.1986720408
 41
3.786688418078957
 42
5.200405112194435
  0
LINE
  5
1D8
330
1F
100
AcDbEntity
  8
0
  6
Continuous
 62
     7
370
    25
100
AcDbLine
 10
155.0655687129
 20
93.3525622062
 30
0.0
 11
155.0655687129
 21
92.093576177
 31
0.0
  0
ELLIPSE
  5
1D9
330
1F
100
AcDbEntity
  8
0
  6
Continuous
 62
     7
370
    25
100
AcDbEllipse
 10
165.0966863144
 20
92.9101169889
 30
0.0
 11
-0.1494337461712405
 21
0.9995592050543111
 31
0.0
210
0.0
220
0.0
230
1.0
 40
0.1986720408
 41
1.082780194985215
 42
2.496496889100764
  0
LINE
  5
1DA
330
1F
100
AcDbEntity
  8
0
  6
Continuous
 62
     7
370
    25
100
AcDbLine
 10
168.4417070624
 20
92.093576177
 30
0.0
 11
168.4417070624
 21
93.3525622062
 31
0.0
  0
LINE
  5
1DB
330
1F
100
AcDbEntity
  8
0
  6
Continuous
 62
     7
370
    25
100
AcDbLine
 10
169.5159918954
 20
104.481383298
 30
0.0
 11
167.5557035995
 21
103.3497329527
 31
0.0
  0
LINE
  5
1DC
330
1F
100
AcDbEntity
  8
0
  6
Continuous
 62
     7
370
    25
100
AcDbLine
 10
171.49135647
 20
97.2803031407
 30
0.0
 11
169.5159918954
 21
104.481383298
 31
0.0
  0
LINE
  5
1DD
330
1F
100
AcDbEntity
  8
0
  6
Continuous
 62
     7
370
    25
100
AcDbLine
 10
168.9524972856
 20
95.8146509308
 30
0.0
 11
171.49135647
 21
97.2803031407
 31
0.0
  0
LINE
  5
1DE
330
1F
100
AcDbEntity
  8
0
  6
Continuous
 62
     7
370
    25
100
AcDbLine
 10
155.9515721759
 20
103.3497329527
 30
0.0
 11
153.99128388
 21
104.481383298
 31
0.0
  0
LINE
  5
1DF
330
1F
100
AcDbEntity
  8
0
  6
Continuous
 62
     7
370
    25
100
AcDbLine
 10
152.0159193053
 20
97.2803031407
 30
0.0
 11
154.5547784898
 21
95.8146509308
 31
0.0
  0
LINE
  5
1E0
330
1F
100
AcDbEntity
  8
0
  6
Continuous
 62
     7
370
    25
100
AcDbLine
 10
153.99128388
 20
104.481383298
 30
0.0
 11
152.0159193053
 21
97.2803031407
 31
0.0
  0
ARC
  5
1E1
330
1F
100
AcDbEntity
  8
0
  6
Continuous
 62
     7
370
    25
100
AcDbCircle
 10
166.9369280446
 20
103.2617143855
 30
0.0
 40
0.6250043643651181
100
AcDbArc
 50
8.0958037616
 51
57.1077840338
  0
ARC
  5
1E2
330
1F
100
AcDbEntity
  8
0
  6
Continuous
 62
     7
370
    25
100
AcDbCircle
 10
156.5703477307
 20
103.2617143855
 30
0.0
 40
0.6250043643647146
100
AcDbArc
 50
122.8922159662
 51
171.9041962384
  0
ARC
  5
1E3
330
1F
100
AcDbEntity
  8
0
  6
Continuous
 62
     7
370
    25
100
AcDbCircle
 10
168.8972163405
 20
104.3933647309
 30
0.0
 40
0.6250043643647663
100
AcDbArc
 50
8.0958037616
 51
57.1077840338
  0
ARC
  5
1E4
330
1F
100
AcDbEntity
  8
0
  6
Continuous
 62
     7
370
    25
100
AcDbCircle
 10
154.6100594349
 20
104.3933647309
 30
0.0
 40
0.6250043643648003
100
AcDbArc
 50
122.8922159662
 51
171.9041962384
  0
ARC
  5
1E5
330
1F
100
AcDbEntity
  8
0
  6
Continuous
 62
     7
370
    25
100
AcDbCircle
 10
169.7584126472
 20
93.8496400849
 30
0.0
 40
0.9600866648821134
100
AcDbArc
 50
196.2714863297
 51
273.9453131291
  0
ARC
  5
1E6
330
1F
100
AcDbEntity
  8
0
  6
Continuous
 62
     7
370
    25
100
AcDbCircle
 10
153.7488631282
 20
93.8496400849
 30
0.0
 40
0.9600866648821254
100
AcDbArc
 50
266.0546868709
 51
343.7285136703
  0
ELLIPSE
  5
1E7
330
1F
100
AcDbEntity
  8
0
  6
Continuous
 62
     7
370
    25
100
AcDbEllipse
 10
169.8244707393
 20
95.6394088427
 30
0.0
 11
0.9575439692246732
 21
-0.3727792952053477
 31
0.0
210
0.0
220
0.0
230
1.0
 40
0.7733456993
 41
3.591109965857098
 42
5.00482665997249
  0
ELLIPSE
  5
1E8
330
1F
100
AcDbEntity
  8
0
  6
Continuous
 62
     7
370
    25
100
AcDbEllipse
 10
153.6828050361
 20
95.6394088427
 30
0.0
 11
0.9575439692246732
 21
0.3727792952053477
 31
0.0
210
0.0
220
0.0
230
1.0
 40
0.7733456993
 41
4.419951300796921
 42
5.833667994912336
  0
LINE
  5
1E9
330
1F
100
AcDbEntity
  8
0
  6
Continuous
 62
     7
370
    25
100
AcDbLine
 10
156.0259994928
 20
106.066628236
 30
0.0
 11
156.0309488787
 21
106.0696304929
 31
0.0
  0
ARC
  5
1EA
330
1F
100
AcDbEntity
  8
0
  6
Continuous
 62
     7
370
    25
100
AcDbCircle
 10
156.4359391622
 20
105.9892454106
 30
0.0
 40
0.3840346659528066
100
AcDbArc
 50
86.0546868709
 51
163.7285136703
  0
ARC
  5
1EB
330
1F
100
AcDbEntity
  8
0
  6
Continuous
 62
     7
370
    25
100
AcDbCircle
 10
167.0713366132
 20
105.9892454106
 30
0.0
 40
0.3840346659528188
100
AcDbArc
 50
16.2714863297
 51
93.9453131291
  0
LINE
  5
1EC
330
1F
100
AcDbEntity
  8
0
  6
Continuous
 62
     7
370
    25
100
AcDbLine
 10
156.0672870628
 20
106.0968477073
 30
0.0
 11
156.0672870628
 21
107.6972429735
 31
0.0
  0
ARC
  5
1ED
330
1F
100
AcDbEntity
  8
0
  6
Continuous
 62
     7
370
    25
100
AcDbCircle
 10
156.4359391622
 20
107.5896406769
 30
0.0
 40
0.3840346659528066
100
AcDbArc
 50
86.0546868709
 51
163.7285136703
  0
ARC
  5
1EE
330
1F
100
AcDbEntity
  8
0
  6
Continuous
 62
     7
370
    25
100
AcDbCircle
 10
167.0713366132
 20
107.5896406769
 30
0.0
 40
0.3840346659528188
100
AcDbArc
 50
16.2714863297
 51
93.9453131291
  0
LINE
  5
1EF
330
1F
100
AcDbEntity
  8
0
  6
Continuous
 62
     7
370
    25
100
AcDbLine
 10
167.4399887126
 20
107.6972429735
 30
0.0
 11
167.4399887126
 21
106.0968477073
 31
0.0
  0
ELLIPSE
  5
1F0
330
1F
100
AcDbEntity
  8
0
  6
Continuous
 62
     7
370
    25
100
AcDbEllipse
 10
169.8244707393
 20
95.6394088427
 30
0.0
 11
0.7337508469655916
 21
-0.7090192856055779
 31
0.0
210
0.0
220
0.0
230
1.0
 40
0.6924195928
 41
3.888344578392542
 42
5.302061272507943
  0
ELLIPSE
  5
1F1
330
1F
100
AcDbEntity
  8
0
  6
Continuous
 62
     7
370
    25
100
AcDbEllipse
 10
153.6828050361
 20
95.6394088427
 30
0.0
 11
0.7337508469655916
 21
0.7090192856055779
 31
0.0
210
0.0
220
0.0
230
1.0
 40
0.6924195928
 41
4.122716688261476
 42
5.536433382376881
  0
ARC
  5
1F2
330
1F
100
AcDbEntity
  8
0
  6
Continuous
 62
     7
370
    25
100
AcDbCircle
 10
173.0382953572
 20
97.5003495586
 30
0.0
 40
1.562510910912024
100
AcDbArc
 50
188.0958037616
 51
237.1077840338
  0
ARC
  5
1F3
330
1F
100
AcDbEntity
  8
0
  6
Continuous
 62
     7
370
    25
100
AcDbCircle
 10
150.4689804181
 20
97.5003495586
 30
0.0
 40
1.562510910912056
100
AcDbArc
 50
302.8922159662
 51
351.9041962384
  0
LINE
  5
1F4
330
1F
100
AcDbEntity
  8
0
  6
Continuous
 62
     1
370
    25
100
AcDbLine
 10
171.5447227931
 20
97.6895892139
 30
0.0
 11
172.1897575934
 21
97.3172185498
 31
0.0
  0
LINE
  5
1F5
330
1F
100
AcDbEntity
  8
0
  6
Continuous
 62
     1
370
    25
100
AcDbLine
 10
151.317518182
 20
97.3172185498
 30
0.0
 11
151.9625529823
 21
97.6895892139
 31
0.0
  0
ARC
  5
1F6
330
1F
100
AcDbEntity
  8
0
  6
Continuous
 62
     1
370
    25
100
AcDbCircle
 10
169.4077171931
 20
104.6689130289
 30
0.0
 40
0.2165428620416724
100
AcDbArc
 50
300.0009994669
 51
7.5533741144
  0
ELLIPSE
  5
1F7
330
1F
100
AcDbEntity
  8
0
  6
Continuous
 62
     1
370
    25
100
AcDbEllipse
 10
171.1629404888
 20
97.5693096204
 30
0.0
 11
0.4492115842682836
 21
-0.2218446913205554
 31
0.0
210
0.0
220
0.0
230
1.0
 40
0.4221407643
 41
5.715556040758806
 42
6.642034079230276
  0
ARC
  5
1F8
330
1F
100
AcDbEntity
  8
0
  6
Continuous
 62
     1
370
    25
100
AcDbCircle
 10
154.1069758233
 20
104.6725664329
 30
0.0
 40
0.2234627861869138
100
AcDbArc
 50
173.6253005492
 51
238.8203258695
  0
ELLIPSE
  5
1F9
330
1F
100
AcDbEntity
  8
0
  6
Continuous
 62
     1
370
    25
100
AcDbEllipse
 10
152.3443352866
 20
97.5693096204
 30
0.0
 11
0.4492115842683405
 21
0.2218446913205554
 31
0.0
210
0.0
220
0.0
230
1.0
 40
0.4221407643
 41
2.782743881539094
 42
3.709221920010661
  0
ARC
  5
1FA
330
1F
100
AcDbEntity
  8
0
  6
Continuous
 62
     1
370
    25
100
AcDbCircle
 10
169.3531357337
 20
104.7613271478
 30
0.0
 40
0.195384498857217
100
AcDbArc
 50
64.7063712167
 51
126.6040872124
  0
ARC
  5
1FB
330
1F
100
AcDbEntity
  8
0
  6
Continuous
 62
     1
370
    25
100
AcDbCircle
 10
154.1535499592
 20
104.7553681723
 30
0.0
 40
0.2005437165808871
100
AcDbArc
 50
54.2757750644
 51
114.4137665065
  0
ARC
  5
1FC
330
1F
100
AcDbEntity
  8
0
  6
Continuous
 62
     1
370
    25
100
AcDbCircle
 10
167.3928474378
 20
105.8929774931
 30
0.0
 40
0.1953844988571149
100
AcDbArc
 50
64.7063712167
 51
126.6040872124
  0
ARC
  5
1FD
330
1F
100
AcDbEntity
  8
0
  6
Continuous
 62
     1
370
    25
100
AcDbCircle
 10
156.1138382551
 20
105.8870185176
 30
0.0
 40
0.2005437165807499
100
AcDbArc
 50
54.2757750644
 51
114.4137665065
  0
LINE
  5
1FE
330
1F
100
AcDbEntity
  8
0
  6
Continuous
 62
     1
370
    25
100
AcDbLine
 10
156.0672870628
 20
107.6972429735
 30
0.0
 11
155.665714714
 21
105.8587852976
 31
0.0
  0
LINE
  5
1FF
330
1F
100
AcDbEntity
  8
0
  6
Continuous
 62
     1
370
    25
100
AcDbLine
 10
167.8415610614
 20
105.8587852976
 30
0.0
 11
167.4399887126
 21
107.6972429735
 31
0.0
  0
LINE
  5
200
330
1F
100
AcDbEntity
  8
0
  6
Continuous
 62
     1
370
    25
100
AcDbLine
 10
164.2726470822
 20
108.0461489235
 30
0.0
 11
164.2726470822
 21
107.9727652483
 31
0.0
  0
LINE
  5
201
330
1F
100
AcDbEntity
  8
0
  6
Continuous
 62
     1
370
    25
100
AcDbLine
 10
167.0449133764
 20
107.9727652483
 30
0.0
 11
167.0449133764
 21
108.0461489235
 31
0.0
  0
LINE
  5
202
330
1F
100
AcDbEntity
  8
0
  6
Continuous
 62
     1
370
    25
100
AcDbLine
 10
159.2346286932
 20
108.0461489235
 30
0.0
 11
159.2346286932
 21
107.9727652483
 31
0.0
  0
LINE
  5
203
330
1F
100
AcDbEntity
  8
0
  6
Continuous
 62
     1
370
    25
100
AcDbLine
 10
156.462362399
 20
108.0461489235
 30
0.0
 11
156.462362399
 21
107.9727652483
 31
0.0
  0
LINE
  5
204
330
1F
100
AcDbEntity
  8
0
  6
Continuous
 62
     1
370
    25
100
AcDbLine
 10
156.0715762175
 20
107.7315079322
 30
0.0
 11
156.0672870628
 21
107.6972429735
 31
0.0
  0
LINE
  5
205
330
1F
100
AcDbEntity
  8
0
  6
Continuous
 62
     1
370
    25
100
AcDbLine
 10
167.4399887126
 20
107.6972429735
 30
0.0
 11
167.4356995578
 21
107.7315079322
 31
0.0
  0
ARC
  5
206
330
1F
100
AcDbEntity
  8
0
  6
Continuous
 62
     1
370
    25
100
AcDbCircle
 10
159.6758534927
 20
107.9424368574
 30
0.0
 40
0.2016887791090312
100
AcDbArc
 50
54.3690991896
 51
113.3419625492
  0
ARC
  5
207
330
1F
100
AcDbEntity
  8
0
  6
Continuous
 62
     1
370
    25
100
AcDbCircle
 10
163.8314253859
 20
107.9424281889
 30
0.0
 40
0.2016976326282758
100
AcDbArc
 50
66.666221787
 51
125.6301827978
  0
ARC
  5
208
330
1F
100
AcDbEntity
  8
0
  6
Continuous
 62
     1
370
    25
100
AcDbCircle
 10
171.8985345316
 20
97.709226739
 30
0.0
 40
0.4883454638808388
100
AcDbArc
 50
244.658376612
 51
306.6086738789
  0
ARC
  5
209
330
1F
100
AcDbEntity
  8
0
  6
Continuous
 62
     1
370
    25
100
AcDbCircle
 10
151.6087547159
 20
97.720064955
 30
0.0
 40
0.4970955087969033
100
AcDbArc
 50
234.1350712369
 51
296.0617018567
  0
ARC
  5
20A
330
1F
100
AcDbEntity
  8
0
  6
Continuous
 62
     1
370
    25
100
AcDbCircle
 10
161.6365435176
 20
109.0752084031
 30
0.0
 40
0.2005437165808523
100
AcDbArc
 50
54.2757750644
 51
114.4137665065
  0
ARC
  5
20B
330
1F
100
AcDbEntity
  8
0
  6
Continuous
 62
     1
370
    25
100
AcDbCircle
 10
161.8707322578
 20
109.0752084031
 30
0.0
 40
0.2005437165808062
100
AcDbArc
 50
65.5862334935
 51
125.7242249356
  0
ARC
  5
20C
330
1F
100
AcDbEntity
  8
0
  6
Continuous
 62
     7
370
    25
100
AcDbCircle
 10
125.1201861407
 20
192.7828745894
 30
0.0
 40
1.0
100
AcDbArc
 50
270.0
 51
347.3747401537
  0
ARC
  5
20D
330
1F
100
AcDbEntity
  8
0
  6
Continuous
 62
     7
370
    25
100
AcDbCircle
 10
128.48118528
 20
201.3828745894
 30
0.0
 40
0.4000000000000341
100
AcDbArc
 50
90.0
 51
167.3747401537
  0
ARC
  5
20E
330
1F
100
AcDbEntity
  8
0
  6
Continuous
 62
     7
370
    25
100
AcDbCircle
 10
143.4471723967
 20
201.3828745894
 30
0.0
 40
0.4000000000000341
100
AcDbArc
 50
12.6252598463
 51
90.0
  0
ARC
  5
20F
330
1F
100
AcDbEntity
  8
0
  6
Continuous
 62
     7
370
    25
100
AcDbCircle
 10
146.8081715361
 20
192.7828745894
 30
0.0
 40
1.000000000000011
100
AcDbArc
 50
192.6252598463
 51
270.0
  0
LINE
  5
210
330
1F
100
AcDbEntity
  8
0
  6
Continuous
 62
     7
370
    25
100
AcDbLine
 10
120.9641788384
 20
179.7828745894
 30
0.0
 11
120.9641788384
 21
191.7828745894
 31
0.0
  0
LINE
  5
211
330
1F
100
AcDbEntity
  8
0
  6
Continuous
 62
     7
370
    25
100
AcDbLine
 10
150.9641788384
 20
191.7828745894
 30
0.0
 11
150.9641788384
 21
179.7828745894
 31
0.0
  0
LINE
  5
212
330
1F
100
AcDbEntity
  8
0
  6
Continuous
 62
     7
370
    25
100
AcDbLine
 10
128.0908570821
 20
201.4703039774
 30
0.0
 11
126.0960066355
 21
192.5643011192
 31
0.0
  0
LINE
  5
213
330
1F
100
AcDbEntity
  8
0
  6
Continuous
 62
     7
370
    25
100
AcDbLine
 10
131.8641788384
 20
201.7828745894
 30
0.0
 11
131.8641788384
 21
190.2828745894
 31
0.0
  0
LINE
  5
214
330
1F
100
AcDbEntity
  8
0
  6
Continuous
 62
     7
370
    25
100
AcDbLine
 10
131.8641788384
 20
190.2828745894
 30
0.0
 11
128.9478968997
 21
190.2828745894
 31
0.0
  0
ARC
  5
215
330
1F
100
AcDbEntity
  8
0
  6
Continuous
 62
     7
370
    25
100
AcDbCircle
 10
128.9478968997
 20
189.8828745894
 30
0.0
 40
0.3999999999999773
100
AcDbArc
 50
90.0
 51
167.1650407292
  0
LINE
  5
216
330
1F
100
AcDbEntity
  8
0
  6
Continuous
 62
     7
370
    25
100
AcDbLine
 10
128.5578913021
 20
189.9717319686
 30
0.0
 11
126.2365011239
 21
179.7828745894
 31
0.0
  0
LINE
  5
217
330
1F
100
AcDbEntity
  8
0
  6
Continuous
 62
     7
370
    25
100
AcDbLine
 10
126.2365011239
 20
179.7828745894
 30
0.0
 11
120.9641788384
 21
179.7828745894
 31
0.0
  0
LINE
  5
218
330
1F
100
AcDbEntity
  8
0
  6
Continuous
 62
     7
370
    25
100
AcDbLine
 10
131.8641788384
 20
201.7828745894
 30
0.0
 11
128.48118528
 21
201.7828745894
 31
0.0
  0
LINE
  5
219
330
1F
100
AcDbEntity
  8
0
  6
Continuous
 62
     7
370
    25
100
AcDbLine
 10
125.1201861407
 20
191.7828745894
 30
0.0
 11
120.9641788384
 21
191.7828745894
 31
0.0
  0
LINE
  5
21A
330
1F
100
AcDbEntity
  8
0
  6
Continuous
 62
     7
370
    25
100
AcDbLine
 10
128.6732531163
 20
189.9454483754
 30
0.0
 11
126.3578512911
 21
179.7828745894
 31
0.0
  0
LINE
  5
21B
330
1F
100
AcDbEntity
  8
0
  6
Continuous
 62
     7
370
    25
100
AcDbLine
 10
128.5578913021
 20
189.9717319686
 30
0.0
 11
128.6732531163
 21
189.9454483754
 31
0.0
  0
LINE
  5
21C
330
1F
100
AcDbEntity
  8
0
  6
Continuous
 62
     7
370
    25
100
AcDbLine
 10
126.3578512911
 20
179.7828745894
 30
0.0
 11
126.2365011239
 21
179.7828745894
 31
0.0
  0
ARC
  5
21D
330
1F
100
AcDbEntity
  8
0
  6
Continuous
 62
     7
370
    25
100
AcDbCircle
 10
129.006833446
 20
189.9544194181
 30
0.0
 40
0.3337009379804793
100
AcDbArc
 50
100.1726470198
 51
181.5404955812
  0
LINE
  5
21E
330
1F
100
AcDbEntity
  8
0
  6
Continuous
 62
     7
370
    25
100
AcDbLine
 10
140.0641788384
 20
190.2828745894
 30
0.0
 11
140.0641788384
 21
201.7828745894
 31
0.0
  0
LINE
  5
21F
330
1F
100
AcDbEntity
  8
0
  6
Continuous
 62
     7
370
    25
100
AcDbLine
 10
140.0641788384
 20
190.2828745894
 30
0.0
 11
131.8641788384
 21
190.2828745894
 31
0.0
  0
LINE
  5
220
330
1F
100
AcDbEntity
  8
0
  6
Continuous
 62
     7
370
    25
100
AcDbLine
 10
140.0641788384
 20
201.7828745894
 30
0.0
 11
131.8641788384
 21
201.7828745894
 31
0.0
  0
LINE
  5
221
330
1F
100
AcDbEntity
  8
0
  6
Continuous
 62
     7
370
    25
100
AcDbLine
 10
145.6918565528
 20
179.7828745894
 30
0.0
 11
143.3704663746
 21
189.9717319686
 31
0.0
  0
ARC
  5
222
330
1F
100
AcDbEntity
  8
0
  6
Continuous
 62
     7
370
    25
100
AcDbCircle
 10
142.980460777
 20
189.8828745894
 30
0.0
 40
0.3999999999999773
100
AcDbArc
 50
12.8349592708
 51
90.0
  0
LINE
  5
223
330
1F
100
AcDbEntity
  8
0
  6
Continuous
 62
     7
370
    25
100
AcDbLine
 10
145.8323510412
 20
192.5643011192
 30
0.0
 11
143.8375005946
 21
201.4703039774
 31
0.0
  0
LINE
  5
224
330
1F
100
AcDbEntity
  8
0
  6
Continuous
 62
     7
370
    25
100
AcDbLine
 10
142.980460777
 20
190.2828745894
 30
0.0
 11
140.0641788384
 21
190.2828745894
 31
0.0
  0
LINE
  5
225
330
1F
100
AcDbEntity
  8
0
  6
Continuous
 62
     7
370
    25
100
AcDbLine
 10
150.9641788384
 20
179.7828745894
 30
0.0
 11
145.6918565528
 21
179.7828745894
 31
0.0
  0
LINE
  5
226
330
1F
100
AcDbEntity
  8
0
  6
Continuous
 62
     7
370
    25
100
AcDbLine
 10
143.4471723967
 20
201.7828745894
 30
0.0
 11
140.0641788384
 21
201.7828745894
 31
0.0
  0
LINE
  5
227
330
1F
100
AcDbEntity
  8
0
  6
Continuous
 62
     7
370
    25
100
AcDbLine
 10
150.9641788384
 20
191.7828745894
 30
0.0
 11
146.8081715361
 21
191.7828745894
 31
0.0
  0
ARC
  5
228
330
1F
100
AcDbEntity
  8
0
  6
Continuous
 62
     7
370
    25
100
AcDbCircle
 10
129.4948235804
 20
189.8948493032
 30
0.0
 40
0.3880547482973271
100
AcDbArc
 50
90.7060344231
 51
172.5077791303
  0
LINE
  5
229
330
1F
100
AcDbEntity
  8
0
  6
Continuous
 62
     7
370
    25
100
AcDbLine
 10
129.1100818208
 20
189.9454483754
 30
0.0
 11
128.6732531163
 21
189.9454483754
 31
0.0
  0
ARC
  5
22A
330
1F
100
AcDbEntity
  8
0
  6
Continuous
 62
     7
370
    25
100
AcDbCircle
 10
142.9215242307
 20
189.9544194181
 30
0.0
 40
0.3337009379805123
100
AcDbArc
 50
358.4595044188
 51
79.8273529802
  0
LINE
  5
22B
330
1F
100
AcDbEntity
  8
0
  6
Continuous
 62
     7
370
    25
100
AcDbLine
 10
143.2551045604
 20
189.9454483754
 30
0.0
 11
143.3704663746
 21
189.9717319686
 31
0.0
  0
LINE
  5
22C
330
1F
100
AcDbEntity
  8
0
  6
Continuous
 62
     7
370
    25
100
AcDbLine
 10
145.5705063856
 20
179.7828745894
 30
0.0
 11
143.2551045604
 21
189.9454483754
 31
0.0
  0
LINE
  5
22D
330
1F
100
AcDbEntity
  8
0
  6
Continuous
 62
     7
370
    25
100
AcDbLine
 10
145.6918565528
 20
179.7828745894
 30
0.0
 11
145.5705063856
 21
179.7828745894
 31
0.0
  0
LINE
  5
22E
330
1F
100
AcDbEntity
  8
0
  6
Continuous
 62
     7
370
    25
100
AcDbLine
 10
143.2551045604
 20
189.9454483754
 30
0.0
 11
142.8182758559
 21
189.9454483754
 31
0.0
  0
ARC
  5
22F
330
1F
100
AcDbEntity
  8
0
  6
Continuous
 62
     7
370
    25
100
AcDbCircle
 10
142.4341763215
 20
189.8955724832
 30
0.0
 40
0.38732422720432
100
AcDbArc
 50
7.3985437039
 51
89.3876427428
  0
LINE
  5
230
330
1F
100
AcDbEntity
  8
0
  6
Continuous
 62
     7
370
    25
100
AcDbLine
 10
129.1100818208
 20
189.9454483754
 30
0.0
 11
127.5938992819
 21
179.7828745894
 31
0.0
  0
LINE
  5
231
330
1F
100
AcDbEntity
  8
0
  6
Continuous
 62
     7
370
    25
100
AcDbLine
 10
126.3578512911
 20
179.7828745894
 30
0.0
 11
127.5938992819
 21
179.7828745894
 31
0.0
  0
LINE
  5
232
330
1F
100
AcDbEntity
  8
0
  6
Continuous
 62
     7
370
    25
100
AcDbLine
 10
142.8182758559
 20
189.9454483754
 30
0.0
 11
144.3344583948
 21
179.7828745894
 31
0.0
  0
LINE
  5
233
330
1F
100
AcDbEntity
  8
0
  6
Continuous
 62
     7
370
    25
100
AcDbLine
 10
144.3344583948
 20
179.7828745894
 30
0.0
 11
145.5705063856
 21
179.7828745894
 31
0.0
  0
ARC
  5
234
330
1F
100
AcDbEntity
  8
0
  6
Continuous
 62
     7
370
    25
100
AcDbCircle
 10
131.0147189555
 20
189.8810331066
 30
0.0
 40
0.4018423340668503
100
AcDbArc
 50
89.8820616415
 51
170.7756985724
  0
LINE
  5
235
330
1F
100
AcDbEntity
  8
0
  6
Continuous
 62
     7
370
    25
100
AcDbLine
 10
130.6180731001
 20
189.9454483754
 30
0.0
 11
129.1100818208
 21
189.9454483754
 31
0.0
  0
LINE
  5
236
330
1F
100
AcDbEntity
  8
0
  6
Continuous
 62
     7
370
    25
100
AcDbLine
 10
142.8182758559
 20
189.9454483754
 30
0.0
 11
141.3102845766
 21
189.9454483754
 31
0.0
  0
ARC
  5
237
330
1F
100
AcDbEntity
  8
0
  6
Continuous
 62
     7
370
    25
100
AcDbCircle
 10
140.9135241726
 20
189.8808981735
 30
0.0
 40
0.4019770475336723
100
AcDbArc
 50
9.2406681619
 51
90.1015716242
  0
LINE
  5
238
330
1F
100
AcDbEntity
  8
0
  6
Continuous
 62
     7
370
    25
100
AcDbLine
 10
130.6180731001
 20
189.9454483754
 30
0.0
 11
128.9994524364
 21
179.7828745894
 31
0.0
  0
LINE
  5
239
330
1F
100
AcDbEntity
  8
0
  6
Continuous
 62
     7
370
    25
100
AcDbLine
 10
128.9994524364
 20
179.7828745894
 30
0.0
 11
127.5938992819
 21
179.7828745894
 31
0.0
  0
LINE
  5
23A
330
1F
100
AcDbEntity
  8
0
  6
Continuous
 62
     7
370
    25
100
AcDbLine
 10
141.3102845766
 20
189.9454483754
 30
0.0
 11
142.9289052403
 21
179.7828745894
 31
0.0
  0
LINE
  5
23B
330
1F
100
AcDbEntity
  8
0
  6
Continuous
 62
     7
370
    25
100
AcDbLine
 10
144.3344583948
 20
179.7828745894
 30
0.0
 11
142.9289052403
 21
179.7828745894
 31
0.0
  0
LWPOLYLINE
  5
23C
330
1F
100
AcDbEntity
  8
0
  6
Continuous
 62
     7
370
    25
100
AcDbPolyline
 90
        7
 70
   128
 43
0.0
 10
140.1713584485
 20
190.2828745894
 10
140.1730178289
 20
190.2828480736
 10
140.1864762771
 20
190.2806601144
 10
140.2327959211
 20
190.2440905799
 10
140.270284924
 20
190.1704933678
 10
140.297014552
 20
190.06856234
 10
140.3112300602
 20
189.9454483754
  0
LINE
  5
23D
330
1F
100
AcDbEntity
  8
0
  6
Continuous
 62
     7
370
    25
100
AcDbLine
 10
140.3112300602
 20
189.9454483754
 30
0.0
 11
136.6706170617
 21
189.9454483754
 31
0.0
  0
LWPOLYLINE
  5
23E
330
1F
100
AcDbEntity
  8
0
  6
Continuous
 62
     7
370
    25
100
AcDbPolyline
 90
        7
 70
   128
 43
0.0
 10
136.4884653646
 20
190.2828745894
 10
136.4905687864
 20
190.2828480736
 10
136.5076796287
 20
190.2806601144
 10
136.5672639682
 20
190.2440905799
 10
136.616277545
 20
190.1704933678
 10
136.651655642
 20
190.06856234
 10
136.6706170617
 20
189.9454483754
  0
ARC
  5
23F
330
1F
100
AcDbEntity
  8
0
  6
Continuous
 62
     7
370
    25
100
AcDbCircle
 10
145.6594624939
 20
190.0212896447
 30
0.0
 40
4.741244727463625
100
AcDbArc
 50
176.8372593468
 51
180.9165462294
  0
LINE
  5
240
330
1F
100
AcDbEntity
  8
0
  6
Continuous
 62
     7
370
    25
100
AcDbLine
 10
140.9188243863
 20
189.9454483754
 30
0.0
 11
140.3112300602
 21
189.9454483754
 31
0.0
  0
LWPOLYLINE
  5
241
330
1F
100
AcDbEntity
  8
0
  6
Continuous
 62
     7
370
    25
100
AcDbPolyline
 90
        7
 70
   128
 43
0.0
 10
131.7569992282
 20
190.2828745894
 10
131.7553398478
 20
190.2828480736
 10
131.7418813997
 20
190.2806601144
 10
131.6955617556
 20
190.2440905799
 10
131.6580727527
 20
190.1704933678
 10
131.6313431247
 20
190.06856234
 10
131.6171276166
 20
189.9454483754
  0
LINE
  5
242
330
1F
100
AcDbEntity
  8
0
  6
Continuous
 62
     7
370
    25
100
AcDbLine
 10
131.6171276166
 20
189.9454483754
 30
0.0
 11
131.0095332904
 21
189.9454483754
 31
0.0
  0
ARC
  5
243
330
1F
100
AcDbEntity
  8
0
  6
Continuous
 62
     7
370
    25
100
AcDbCircle
 10
126.2688951827
 20
190.0212896447
 30
0.0
 40
4.741244727512801
100
AcDbArc
 50
359.0834537706
 51
3.1627406532
  0
LWPOLYLINE
  5
244
330
1F
100
AcDbEntity
  8
0
  6
Continuous
 62
     7
370
    25
100
AcDbPolyline
 90
        7
 70
   128
 43
0.0
 10
135.4398923121
 20
190.2828745894
 10
135.4377888903
 20
190.2828480736
 10
135.420678048
 20
190.2806601144
 10
135.3610937085
 20
190.2440905799
 10
135.3120801317
 20
190.1704933678
 10
135.2767020347
 20
190.06856234
 10
135.257740615
 20
189.9454483754
  0
LINE
  5
245
330
1F
100
AcDbEntity
  8
0
  6
Continuous
 62
     7
370
    25
100
AcDbLine
 10
135.257740615
 20
189.9454483754
 30
0.0
 11
131.6171276166
 21
189.9454483754
 31
0.0
  0
LINE
  5
246
330
1F
100
AcDbEntity
  8
0
  6
Continuous
 62
     7
370
    25
100
AcDbLine
 10
142.5560607181
 20
179.7828745894
 30
0.0
 11
140.9188243863
 21
189.9454483754
 31
0.0
  0
ARC
  5
247
330
1F
100
AcDbEntity
  8
0
  6
Continuous
 62
     7
370
    25
100
AcDbCircle
 10
141.1196418576
 20
189.3168713321
 30
0.0
 40
0.6598763187427884
100
AcDbArc
 50
72.2823854397
 51
107.7176145603
  0
LINE
  5
248
330
1F
100
AcDbEntity
  8
0
  6
Continuous
 62
     7
370
    25
100
AcDbLine
 10
142.9289052403
 20
179.7828745894
 30
0.0
 11
142.5560607181
 21
179.7828745894
 31
0.0
  0
ARC
  5
249
330
1F
100
AcDbEntity
  8
0
  6
Continuous
 62
     7
370
    25
100
AcDbCircle
 10
130.8087158192
 20
189.3168713321
 30
0.0
 40
0.6598763187428782
100
AcDbArc
 50
72.2823854397
 51
107.7176145603
  0
LINE
  5
24A
330
1F
100
AcDbEntity
  8
0
  6
Continuous
 62
     7
370
    25
100
AcDbLine
 10
131.0095332904
 20
189.9454483754
 30
0.0
 11
129.3722969587
 21
179.7828745894
 31
0.0
  0
LINE
  5
24B
330
1F
100
AcDbEntity
  8
0
  6
Continuous
 62
     7
370
    25
100
AcDbLine
 10
129.3722969587
 20
179.7828745894
 30
0.0
 11
128.9994524364
 21
179.7828745894
 31
0.0
  0
LINE
  5
24C
330
1F
100
AcDbEntity
  8
0
  6
Continuous
 62
     7
370
    25
100
AcDbLine
 10
136.6706170617
 20
189.9454483754
 30
0.0
 11
137.4435098177
 21
179.7828745894
 31
0.0
  0
LINE
  5
24D
330
1F
100
AcDbEntity
  8
0
  6
Continuous
 62
     7
370
    25
100
AcDbLine
 10
140.3112300602
 20
189.9454483754
 30
0.0
 11
140.836815306
 21
179.7828745894
 31
0.0
  0
LINE
  5
24E
330
1F
100
AcDbEntity
  8
0
  6
Continuous
 62
     7
370
    25
100
AcDbLine
 10
140.836815306
 20
179.7828745894
 30
0.0
 11
137.4435098177
 21
179.7828745894
 31
0.0
  0
LINE
  5
24F
330
1F
100
AcDbEntity
  8
0
  6
Continuous
 62
     7
370
    25
100
AcDbLine
 10
140.836815306
 20
179.7828745894
 30
0.0
 11
142.5560607181
 21
179.7828745894
 31
0.0
  0
LINE
  5
250
330
1F
100
AcDbEntity
  8
0
  6
Continuous
 62
     7
370
    25
100
AcDbLine
 10
131.6171276166
 20
189.9454483754
 30
0.0
 11
131.0915423707
 21
179.7828745894
 31
0.0
  0
LINE
  5
251
330
1F
100
AcDbEntity
  8
0
  6
Continuous
 62
     7
370
    25
100
AcDbLine
 10
129.3722969587
 20
179.7828745894
 30
0.0
 11
131.0915423707
 21
179.7828745894
 31
0.0
  0
LINE
  5
252
330
1F
100
AcDbEntity
  8
0
  6
Continuous
 62
     7
370
    25
100
AcDbLine
 10
135.257740615
 20
189.9454483754
 30
0.0
 11
134.484847859
 21
179.7828745894
 31
0.0
  0
LINE
  5
253
330
1F
100
AcDbEntity
  8
0
  6
Continuous
 62
     7
370
    25
100
AcDbLine
 10
134.484847859
 20
179.7828745894
 30
0.0
 11
131.0915423707
 21
179.7828745894
 31
0.0
  0
ARC
  5
254
330
1F
100
AcDbEntity
  8
0
  6
Continuous
 62
     7
370
    25
100
AcDbCircle
 10
136.0174809638
 20
189.9497836313
 30
0.0
 40
0.3373287757077348
100
AcDbArc
 50
99.0915469014
 51
180.7363697467
  0
LINE
  5
255
330
1F
100
AcDbEntity
  8
0
  6
Continuous
 62
     7
370
    25
100
AcDbLine
 10
135.680180047
 20
189.9454483754
 30
0.0
 11
135.257740615
 21
189.9454483754
 31
0.0
  0
LINE
  5
256
330
1F
100
AcDbEntity
  8
0
  6
Continuous
 62
     7
370
    25
100
AcDbLine
 10
136.6706170617
 20
189.9454483754
 30
0.0
 11
136.2481776298
 21
189.9454483754
 31
0.0
  0
ARC
  5
257
330
1F
100
AcDbEntity
  8
0
  6
Continuous
 62
     7
370
    25
100
AcDbCircle
 10
135.910876713
 20
189.9497836313
 30
0.0
 40
0.3373287757077348
100
AcDbArc
 50
359.2636302533
 51
80.9084530986
  0
LINE
  5
258
330
1F
100
AcDbEntity
  8
0
  6
Continuous
 62
     7
370
    25
100
AcDbLine
 10
135.680180047
 20
179.7828745894
 30
0.0
 11
135.680180047
 21
189.9454483754
 31
0.0
  0
LINE
  5
259
330
1F
100
AcDbEntity
  8
0
  6
Continuous
 62
     7
370
    25
100
AcDbLine
 10
134.484847859
 20
179.7828745894
 30
0.0
 11
135.680180047
 21
179.7828745894
 31
0.0
  0
LINE
  5
25A
330
1F
100
AcDbEntity
  8
0
  6
Continuous
 62
     7
370
    25
100
AcDbLine
 10
136.2481776298
 20
189.9454483754
 30
0.0
 11
136.2481776298
 21
179.7828745894
 31
0.0
  0
LINE
  5
25B
330
1F
100
AcDbEntity
  8
0
  6
Continuous
 62
     7
370
    25
100
AcDbLine
 10
136.2481776298
 20
179.7828745894
 30
0.0
 11
137.4435098177
 21
179.7828745894
 31
0.0
  0
ARC
  5
25C
330
1F
100
AcDbEntity
  8
0
  6
Continuous
 62
     7
370
    25
100
AcDbCircle
 10
135.9641788384
 20
188.4681441549
 30
0.0
 40
1.504354703343806
100
AcDbArc
 50
79.1181447838
 51
100.8818552162
  0
LINE
  5
25D
330
1F
100
AcDbEntity
  8
0
  6
Continuous
 62
     7
370
    25
100
AcDbLine
 10
136.2481776298
 20
179.7828745894
 30
0.0
 11
135.680180047
 21
179.7828745894
 31
0.0
  0
HATCH
  5
25E
330
1F
100
AcDbEntity
  8
FORMAT
  6
Continuous
370
    18
100
AcDbHatch
 10
0.0
 20
0.0
 30
0.0
210
0.0
220
0.0
230
1.0
  2
ANSI31
 70
     0
 71
     0
 91
        1
 92
        0
 93
       11
 72
     1
 10
150.964178838357
 20
179.7828745893606
 11
150.964178838357
 21
191.7828745893606
 72
     1
 10
150.964178838357
 20
191.7828745893606
 11
146.8081715360514
 21
191.7828745893606
 72
     2
 10
146.8081715360514
 20
192.7828745893606
 40
1.0
 50
90.0
 51
167.3747401537368
 73
     0
 72
     1
 10
145.8323510412135
 20
192.5643011192084
 11
143.8375005946376
 21
201.4703039774215
 72
     2
 10
143.4471723967025
 20
201.3828745893606
 40
0.4
 50
12.62525984626607
 51
90.0
 73
     1
 72
     1
 10
143.4471723967025
 20
201.7828745893606
 11
140.064178838357
 21
201.7828745893606
 72
     1
 10
140.064178838357
 20
201.7828745893606
 11
140.064178838357
 21
190.2828745893606
 72
     1
 10
140.064178838357
 20
190.2828745893606
 11
142.980460776986
 21
190.2828745893606
 72
     2
 10
142.980460776986
 20
189.8828745893606
 40
0.4
 50
270.0000000000008
 51
347.1650407292142
 73
     0
 72
     1
 10
143.3704663745898
 20
189.9717319685572
 11
145.6918565527982
 21
179.7828745893606
 72
     1
 10
145.6918565527982
 20
179.7828745893606
 11
150.964178838357
 21
179.7828745893606
 97
        0
 75
     0
 76
     1
 52
0.0
 41
1.0
 77
     0
 78
     1
 53
45.0
 43
0.0
 44
0.0
 45
-2.245064030267288
 46
2.245064030267288
 79
     0
 98
        1
 10
0.0
 20
0.0
  0
HATCH
  5
25F
330
1F
100
AcDbEntity
  8
FORMAT
  6
Continuous
370
    18
100
AcDbHatch
 10
0.0
 20
0.0
 30
0.0
210
0.0
220
0.0
230
1.0
  2
ANSI31
 70
     0
 71
     0
 91
        1
 92
        0
 93
       11
 72
     2
 10
125.1201861406619
 20
192.7828745893606
 40
1.0
 50
12.6252598462636
 51
90.0
 73
     0
 72
     1
 10
125.1201861406619
 20
191.7828745893606
 11
120.964178838357
 21
191.7828745893606
 72
     1
 10
120.964178838357
 20
191.7828745893606
 11
120.964178838357
 21
179.7828745893606
 72
     1
 10
120.964178838357
 20
179.7828745893606
 11
126.2365011239158
 21
179.7828745893606
 72
     1
 10
126.2365011239158
 20
179.7828745893606
 11
128.5578913021241
 21
189.9717319685572
 72
     2
 10
128.9478968997279
 20
189.8828745893606
 40
0.4
 50
192.8349592707874
 51
270.0000000000008
 73
     0
 72
     1
 10
128.9478968997279
 20
190.2828745893606
 11
131.864178838357
 21
190.2828745893606
 72
     1
 10
131.864178838357
 20
190.2828745893606
 11
131.864178838357
 21
201.7828745893606
 72
     1
 10
131.864178838357
 20
201.7828745893606
 11
128.4811852800107
 21
201.7828745893606
 72
     2
 10
128.4811852800107
 20
201.3828745893606
 40
0.4
 50
90.0
 51
167.3747401537331
 73
     1
 72
     1
 10
128.0908570820756
 20
201.4703039774215
 11
126.0960066354997
 21
192.5643011192084
 97
        0
 75
     0
 76
     1
 52
0.0
 41
1.0
 77
     0
 78
     1
 53
45.0
 43
0.0
 44
0.0
 45
-2.245064030267288
 46
2.245064030267288
 79
     0
 98
        1
 10
0.0
 20
0.0
  0
DIMENSION
  5
260
330
1F
100
AcDbEntity
  8
FORMAT
 62
     7
100
AcDbDimension
  2
_D_1
 10
163.1164264307
 20
179.7828745894
 30
0.0
 11
163.1164264307
 21
185.7828745894
 31
0.0
 70
   160
  1
<>
 71
     2
 42
-1.0
  3
SLDDIMSTYLE1
100
AcDbAlignedDimension
 13
150.9641788384
 23
191.7828745894
 33
0.0
 14
150.9641788384
 24
179.7828745894
 34
0.0
 50
90.0
100
AcDbRotatedDimension
  0
DIMENSION
  5
26D
330
1F
100
AcDbEntity
  8
FORMAT
 62
     7
100
AcDbDimension
  2
_D_2
 10
131.8641788384
 20
208.1589815113
 30
0.0
 11
148.6139408558
 21
208.1589815113
 31
0.0
 70
   160
  1
%%c<>
 71
     2
 42
-1.0
  3
SLDDIMSTYLE1
100
AcDbAlignedDimension
 13
140.0641788384
 23
201.7828745894
 33
0.0
 14
131.8641788384
 24
201.7828745894
 34
0.0
100
AcDbRotatedDimension
  0
DIMENSION
  5
27A
330
1F
100
AcDbEntity
  8
FORMAT
 62
     7
100
AcDbDimension
  2
_D_3
 10
172.9641788384
 20
179.7828745894
 30
0.0
 11
172.9641788384
 21
190.7828745894
 31
0.0
 70
   160
  1
<>
 71
     2
 42
-1.0
  3
SLDDIMSTYLE0
100
AcDbAlignedDimension
 13
140.0641788384
 23
201.7828745894
 33
0.0
 14
134.484847859
 24
179.7828745894
 34
0.0
 50
90.0
100
AcDbRotatedDimension
  0
MTEXT
  5
284
330
1F
100
AcDbEntity
  8
FORMAT
100
AcDbMText
 10
135.8634849494
 20
220.2198800604
 30
0.0
 40
5.0
 41
0.0
 71
     2
 72
     1
  1
A-A
  7
SLDTEXTSTYLE0
 73
     1
 44
1.0
  0
LINE
  5
285
330
1F
100
AcDbEntity
  8
FORMAT
  6
CENTERX2
 62
     7
370
    18
100
AcDbLine
 10
135.9641788384
 20
177.3561815712
 30
0.0
 11
135.9641788384
 21
203.7828745894
 31
0.0
  0
ENDSEC
  0
SECTION
  2
OBJECTS
  0
DICTIONARY
  5
C
330
0
100
AcDbDictionary
281
     1
  3
ACAD_GROUP
350
D
  3
ACAD_LAYOUT
350
1A
  3
ACAD_MLINESTYLE
350
17
  3
ACAD_PLOTSETTINGS
350
19
  3
ACAD_PLOTSTYLENAME
350
E
  3
ACAD_SCALELIST
350
47
  3
DWGPROPS
350
286
  0
DICTIONARY
  5
D
102
{ACAD_REACTORS
330
C
102
}
330
C
100
AcDbDictionary
281
     1
  0
DICTIONARY
  5
1A
102
{ACAD_REACTORS
330
C
102
}
330
C
100
AcDbDictionary
281
     1
  3
Layout1
350
1E
  3
Layout2
350
26
  3
Model
350
22
  0
DICTIONARY
  5
17
102
{ACAD_REACTORS
330
C
102
}
330
C
100
AcDbDictionary
281
     1
  3
Standard
350
18
  0
DICTIONARY
  5
19
102
{ACAD_REACTORS
330
C
102
}
330
C
100
AcDbDictionary
281
     1
  0
ACDBDICTIONARYWDFLT
  5
E
102
{ACAD_REACTORS
330
C
102
}
330
C
100
AcDbDictionary
281
     1
  3
Normal
350
F
100
AcDbDictionaryWithDefault
340
F
  0
DICTIONARY
  5
47
102
{ACAD_REACTORS
330
C
102
}
330
C
100
AcDbDictionary
281
     1
  3
A0
350
48
  3
A1
350
49
  3
A2
350
4A
  3
A3
350
4B
  3
A4
350
4C
  3
A5
350
4D
  3
A6
350
4E
  3
A7
350
4F
  3
A8
350
50
  3
A9
350
51
  3
B0
350
52
  3
B1
350
53
  3
B2
350
54
  3
B3
350
55
  3
B4
350
56
  3
B5
350
57
  3
B6
350
58
  3
B7
350
59
  3
B8
350
5A
  3
B9
350
5B
  3
C0
350
5C
  3
C1
350
5D
  3
C2
350
5E
  3
C3
350
5F
  3
C4
350
60
  3
C5
350
61
  3
C6
350
62
  3
C7
350
63
  3
C8
350
64
  3
C9
350
65
  3
D0
350
66
  3
D1
350
67
  3
D2
350
68
  0
XRECORD
  5
286
102
{ACAD_REACTORS
330
C
102
}
330
C
100
AcDbXrecord
280
     1
  1
DWGPROPS COOKIE
  2

  3

  4

  6

  7

  8
beland
  9

300
=
301
=
302
=
303
=
304
=
305
=
306
=
307
=
308
=
309
=
 40
0.0
 41
2459892.548434479
 42
2459892.5484361
  1

 90
        0
  0
LAYOUT
  5
1E
102
{ACAD_REACTORS
330
1A
102
}
330
1A
100
AcDbPlotSettings
  1

  2
none_device
  4

  6

 40
0.0
 41
0.0
 42
0.0
 43
0.0
 44
0.0
 45
0.0
 46
0.0
 47
0.0
 48
0.0
 49
0.0
140
0.0
141
0.0
142
1.0
143
1.0
 70
   688
 72
     1
 73
     0
 74
     5
  7

 75
    16
147
1.0
148
0.0
149
0.0
100
AcDbLayout
  1
Layout1
 70
     1
 71
     1
 10
0.0
 20
0.0
 11
420.0
 21
297.0
 12
0.0
 22
0.0
 32
0.0
 14
1.0000000000E+20
 24
1.0000000000E+20
 34
1.0000000000E+20
 15
-1.0000000000E+20
 25
-1.0000000000E+20
 35
-1.0000000000E+20
146
0.0
 13
0.0
 23
0.0
 33
0.0
 16
1.0
 26
0.0
 36
0.0
 17
0.0
 27
1.0
 37
0.0
 76
     0
330
1B
  0
LAYOUT
  5
26
102
{ACAD_REACTORS
330
1A
102
}
330
1A
100
AcDbPlotSettings
  1

  2
none_device
  4

  6

 40
0.0
 41
0.0
 42
0.0
 43
0.0
 44
0.0
 45
0.0
 46
0.0
 47
0.0
 48
0.0
 49
0.0
140
0.0
141
0.0
142
1.0
143
1.0
 70
   688
 72
     1
 73
     0
 74
     5
  7

 75
    16
147
1.0
148
0.0
149
0.0
100
AcDbLayout
  1
Layout2
 70
     1
 71
     2
 10
0.0
 20
0.0
 11
0.0
 21
0.0
 12
0.0
 22
0.0
 32
0.0
 14
0.0
 24
0.0
 34
0.0
 15
0.0
 25
0.0
 35
0.0
146
0.0
 13
0.0
 23
0.0
 33
0.0
 16
1.0
 26
0.0
 36
0.0
 17
0.0
 27
1.0
 37
0.0
 76
     0
330
23
  0
LAYOUT
  5
22
102
{ACAD_REACTORS
330
1A
102
}
330
1A
100
AcDbPlotSettings
  1

  2
none_device
  4
Letter_(8.50_x_11.00_Inches)
  6

 40
6.35
 41
6.35
 42
6.35000508
 43
6.35000508
 44
215.9
 45
279.4
 46
0.0
 47
0.0
 48
0.0
 49
0.0
140
0.0
141
0.0
142
1.0
143
1.0
 70
  1712
 72
     1
 73
     0
 74
     0
  7

 75
     0
147
1.0
148
0.0
149
0.0
100
AcDbLayout
  1
Model
 70
     1
 71
     0
 10
0.0
 20
0.0
 11
210.0
 21
297.0
 12
0.0
 22
0.0
 32
0.0
 14
0.0
 24
0.0
 34
0.0
 15
210.0
 25
297.0
 35
0.0
146
0.0
 13
0.0
 23
0.0
 33
0.0
 16
1.0
 26
0.0
 36
0.0
 17
0.0
 27
1.0
 37
0.0
 76
     0
330
1F
331
29
  0
MLINESTYLE
  5
18
102
{ACAD_REACTORS
330
17
102
}
330
17
100
AcDbMlineStyle
  2
Standard
 70
     0
  3

 62
   256
 51
90.0
 52
90.0
 71
     2
 49
0.5
 62
   256
  6
BYLAYER
 49
-0.5
 62
   256
  6
BYLAYER
  0
ACDBPLACEHOLDER
  5
F
102
{ACAD_REACTORS
330
E
102
}
330
E
  0
SCALE
  5
48
102
{ACAD_REACTORS
330
47
102
}
330
47
100
AcDbScale
 70
     0
300
1:1
140
1.0
141
1.0
290
     1
  0
SCALE
  5
49
102
{ACAD_REACTORS
330
47
102
}
330
47
100
AcDbScale
 70
     0
300
1:2
140
1.0
141
2.0
290
     0
  0
SCALE
  5
4A
102
{ACAD_REACTORS
330
47
102
}
330
47
100
AcDbScale
 70
     0
300
1:4
140
1.0
141
4.0
290
     0
  0
SCALE
  5
4B
102
{ACAD_REACTORS
330
47
102
}
330
47
100
AcDbScale
 70
     0
300
1:5
140
1.0
141
5.0
290
     0
  0
SCALE
  5
4C
102
{ACAD_REACTORS
330
47
102
}
330
47
100
AcDbScale
 70
     0
300
1:8
140
1.0
141
8.0
290
     0
  0
SCALE
  5
4D
102
{ACAD_REACTORS
330
47
102
}
330
47
100
AcDbScale
 70
     0
300
1:10
140
1.0
141
10.0
290
     0
  0
SCALE
  5
4E
102
{ACAD_REACTORS
330
47
102
}
330
47
100
AcDbScale
 70
     0
300
1:16
140
1.0
141
16.0
290
     0
  0
SCALE
  5
4F
102
{ACAD_REACTORS
330
47
102
}
330
47
100
AcDbScale
 70
     0
300
1:20
140
1.0
141
20.0
290
     0
  0
SCALE
  5
50
102
{ACAD_REACTORS
330
47
102
}
330
47
100
AcDbScale
 70
     0
300
1:30
140
1.0
141
30.0
290
     0
  0
SCALE
  5
51
102
{ACAD_REACTORS
330
47
102
}
330
47
100
AcDbScale
 70
     0
300
1:40
140
1.0
141
40.0
290
     0
  0
SCALE
  5
52
102
{ACAD_REACTORS
330
47
102
}
330
47
100
AcDbScale
 70
     0
300
1:50
140
1.0
141
50.0
290
     0
  0
SCALE
  5
53
102
{ACAD_REACTORS
330
47
102
}
330
47
100
AcDbScale
 70
     0
300
1:100
140
1.0
141
100.0
290
     0
  0
SCALE
  5
54
102
{ACAD_REACTORS
330
47
102
}
330
47
100
AcDbScale
 70
     0
300
2:1
140
2.0
141
1.0
290
     0
  0
SCALE
  5
55
102
{ACAD_REACTORS
330
47
102
}
330
47
100
AcDbScale
 70
     0
300
4:1
140
4.0
141
1.0
290
     0
  0
SCALE
  5
56
102
{ACAD_REACTORS
330
47
102
}
330
47
100
AcDbScale
 70
     0
300
8:1
140
8.0
141
1.0
290
     0
  0
SCALE
  5
57
102
{ACAD_REACTORS
330
47
102
}
330
47
100
AcDbScale
 70
     0
300
10:1
140
10.0
141
1.0
290
     0
  0
SCALE
  5
58
102
{ACAD_REACTORS
330
47
102
}
330
47
100
AcDbScale
 70
     0
300
100:1
140
100.0
141
1.0
290
     0
  0
SCALE
  5
59
102
{ACAD_REACTORS
330
47
102
}
330
47
100
AcDbScale
 70
     0
300
1/128" = 1'-0"
140
0.0078125
141
12.0
290
     0
  0
SCALE
  5
5A
102
{ACAD_REACTORS
330
47
102
}
330
47
100
AcDbScale
 70
     0
300
1/64" = 1'-0"
140
0.015625
141
12.0
290
     0
  0
SCALE
  5
5B
102
{ACAD_REACTORS
330
47
102
}
330
47
100
AcDbScale
 70
     0
300
1/32" = 1'-0"
140
0.03125
141
12.0
290
     0
  0
SCALE
  5
5C
102
{ACAD_REACTORS
330
47
102
}
330
47
100
AcDbScale
 70
     0
300
1/16" = 1'-0"
140
0.0625
141
12.0
290
     0
  0
SCALE
  5
5D
102
{ACAD_REACTORS
330
47
102
}
330
47
100
AcDbScale
 70
     0
300
3/32" = 1'-0"
140
0.09375
141
12.0
290
     0
  0
SCALE
  5
5E
102
{ACAD_REACTORS
330
47
102
}
330
47
100
AcDbScale
 70
     0
300
1/8" = 1'-0"
140
0.125
141
12.0
290
     0
  0
SCALE
  5
5F
102
{ACAD_REACTORS
330
47
102
}
330
47
100
AcDbScale
 70
     0
300
3/16" = 1'-0"
140
0.1875
141
12.0
290
     0
  0
SCALE
  5
60
102
{ACAD_REACTORS
330
47
102
}
330
47
100
AcDbScale
 70
     0
300
1/4" = 1'-0"
140
0.25
141
12.0
290
     0
  0
SCALE
  5
61
102
{ACAD_REACTORS
330
47
102
}
330
47
100
AcDbScale
 70
     0
300
3/8" = 1'-0"
140
0.375
141
12.0
290
     0
  0
SCALE
  5
62
102
{ACAD_REACTORS
330
47
102
}
330
47
100
AcDbScale
 70
     0
300
1/2" = 1'-0"
140
0.5
141
12.0
290
     0
  0
SCALE
  5
63
102
{ACAD_REACTORS
330
47
102
}
330
47
100
AcDbScale
 70
     0
300
3/4" = 1'-0"
140
0.75
141
12.0
290
     0
  0
SCALE
  5
64
102
{ACAD_REACTORS
330
47
102
}
330
47
100
AcDbScale
 70
     0
300
1" = 1'-0"
140
1.0
141
12.0
290
     0
  0
SCALE
  5
65
102
{ACAD_REACTORS
330
47
102
}
330
47
100
AcDbScale
 70
     0
300
1-1/2" = 1'-0"
140
1.5
141
12.0
290
     0
  0
SCALE
  5
66
102
{ACAD_REACTORS
330
47
102
}
330
47
100
AcDbScale
 70
     0
300
3" = 1'-0"
140
3.0
141
12.0
290
     0
  0
SCALE
  5
67
102
{ACAD_REACTORS
330
47
102
}
330
47
100
AcDbScale
 70
     0
300
6" = 1'-0"
140
6.0
141
12.0
290
     0
  0
SCALE
  5
68
102
{ACAD_REACTORS
330
47
102
}
330
47
100
AcDbScale
 70
     0
300
1'-0" = 1'-0"
140
12.0
141
12.0
290
     0
  0
ENDSEC
  0
EOF
