  0
SECTION
  2
HEADER
  9
$ACADVER
  1
AC1015
  9
$ACADMAINTVER
 70
     6
  9
$DWGCODEPAGE
  3
ANSI_1252
  9
$INSBASE
 10
0.0
 20
0.0
 30
0.0
  9
$EXTMIN
 10
0.0
 20
0.0
 30
0.0
  9
$EXTMAX
 10
594.0
 20
420.0
 30
0.0
  9
$LIMMIN
 10
0.0
 20
0.0
  9
$LIMMAX
 10
594.0
 20
420.0
  9
$ORTHOMODE
 70
     0
  9
$REGENMODE
 70
     1
  9
$FILLMODE
 70
     1
  9
$QTEXTMODE
 70
     0
  9
$MIRRTEXT
 70
     1
  9
$LTSCALE
 40
1.0
  9
$ATTMODE
 70
     1
  9
$TEXTSIZE
 40
3.5
  9
$TRACEWID
 40
1.0
  9
$TEXTSTYLE
  7
STANDARD
  9
$CLAYER
  8
0
  9
$CELTYPE
  6
ByLayer
  9
$CECOLOR
 62
   256
  9
$CELTSCALE
 40
1.0
  9
$DISPSILH
 70
     0
  9
$DIMSCALE
 40
1.0
  9
$DIMASZ
 40
3.302
  9
$DIMEXO
 40
1.0
  9
$DIMDLI
 40
3.75
  9
$DIMRND
 40
0.0
  9
$DIMDLE
 40
0.0
  9
$DIMEXE
 40
1.0
  9
$DIMTP
 40
0.0
  9
$DIMTM
 40
0.0
  9
$DIMTXT
 40
3.5
  9
$DIMCEN
 40
2.5
  9
$DIMTSZ
 40
0.0
  9
$DIMTOL
 70
     0
  9
$DIMLIM
 70
     0
  9
$DIMTIH
 70
     1
  9
$DIMTOH
 70
     1
  9
$DIMSE1
 70
     0
  9
$DIMSE2
 70
     0
  9
$DIMTAD
 70
     1
  9
$DIMZIN
 70
     0
  9
$DIMBLK
  1

  9
$DIMASO
 70
     1
  9
$DIMSHO
 70
     1
  9
$DIMPOST
  1

  9
$DIMAPOST
  1

  9
$DIMALT
 70
     0
  9
$DIMALTD
 70
     3
  9
$DIMALTF
 40
0.0393700787
  9
$DIMLFAC
 40
1.0
  9
$DIMTOFL
 70
     1
  9
$DIMTVP
 40
0.0
  9
$DIMTIX
 70
     0
  9
$DIMSOXD
 70
     0
  9
$DIMSAH
 70
     0
  9
$DIMBLK1
  1

  9
$DIMBLK2
  1

  9
$DIMSTYLE
  2
ISO-25
  9
$DIMCLRD
 70
     0
  9
$DIMCLRE
 70
     0
  9
$DIMCLRT
 70
     0
  9
$DIMTFAC
 40
1.0
  9
$DIMGAP
 40
3.0
  9
$DIMJUST
 70
     0
  9
$DIMSD1
 70
     0
  9
$DIMSD2
 70
     0
  9
$DIMTOLJ
 70
     0
  9
$DIMTZIN
 70
     0
  9
$DIMALTZ
 70
     0
  9
$DIMALTTZ
 70
     0
  9
$DIMUPT
 70
     0
  9
$DIMDEC
 70
     2
  9
$DIMTDEC
 70
     2
  9
$DIMALTU
 70
     2
  9
$DIMALTTD
 70
     3
  9
$DIMTXSTY
  7
STANDARD
  9
$DIMAUNIT
 70
     0
  9
$DIMADEC
 70
     2
  9
$DIMALTRND
 40
0.0
  9
$DIMAZIN
 70
     0
  9
$DIMDSEP
 70
    44
  9
$DIMATFIT
 70
     3
  9
$DIMFRAC
 70
     0
  9
$DIMLDRBLK
  1

  9
$DIMLUNIT
 70
     2
  9
$DIMLWD
 70
    -2
  9
$DIMLWE
 70
    -2
  9
$DIMTMOVE
 70
     0
  9
$LUNITS
 70
     2
  9
$LUPREC
 70
     2
  9
$SKETCHINC
 40
1.0
  9
$FILLETRAD
 40
10.0
  9
$AUNITS
 70
     0
  9
$AUPREC
 70
     2
  9
$MENU
  1
.
  9
$ELEVATION
 40
0.0
  9
$PELEVATION
 40
0.0
  9
$THICKNESS
 40
0.0
  9
$LIMCHECK
 70
     0
  9
$CHAMFERA
 40
0.0
  9
$CHAMFERB
 40
0.0
  9
$CHAMFERC
 40
0.0
  9
$CHAMFERD
 40
0.0
  9
$SKPOLY
 70
     0
  9
$TDCREATE
 40
2459551.45559419
  9
$TDUCREATE
 40
2459551.413927523
  9
$TDUPDATE
 40
2459551.455598935
  9
$TDUUPDATE
 40
2459551.413932269
  9
$TDINDWG
 40
0.0000000116
  9
$TDUSRTIMER
 40
0.0000000116
  9
$USRTIMER
 70
     1
  9
$ANGBASE
 50
0.0
  9
$ANGDIR
 70
     0
  9
$PDMODE
 70
     0
  9
$PDSIZE
 40
-1.0
  9
$PLINEWID
 40
0.0
  9
$SPLFRAME
 70
     0
  9
$SPLINETYPE
 70
     6
  9
$SPLINESEGS
 70
     8
  9
$HANDSEED
  5
6AE
  9
$SURFTAB1
 70
     6
  9
$SURFTAB2
 70
     6
  9
$SURFTYPE
 70
     6
  9
$SURFU
 70
     6
  9
$SURFV
 70
     6
  9
$UCSBASE
  2

  9
$UCSNAME
  2

  9
$UCSORG
 10
0.0
 20
0.0
 30
0.0
  9
$UCSXDIR
 10
1.0
 20
0.0
 30
0.0
  9
$UCSYDIR
 10
0.0
 20
1.0
 30
0.0
  9
$UCSORTHOREF
  2

  9
$UCSORTHOVIEW
 70
     0
  9
$UCSORGTOP
 10
0.0
 20
0.0
 30
0.0
  9
$UCSORGBOTTOM
 10
0.0
 20
0.0
 30
0.0
  9
$UCSORGLEFT
 10
0.0
 20
0.0
 30
0.0
  9
$UCSORGRIGHT
 10
0.0
 20
0.0
 30
0.0
  9
$UCSORGFRONT
 10
0.0
 20
0.0
 30
0.0
  9
$UCSORGBACK
 10
0.0
 20
0.0
 30
0.0
  9
$PUCSBASE
  2

  9
$PUCSNAME
  2

  9
$PUCSORG
 10
0.0
 20
0.0
 30
0.0
  9
$PUCSXDIR
 10
1.0
 20
0.0
 30
0.0
  9
$PUCSYDIR
 10
0.0
 20
1.0
 30
0.0
  9
$PUCSORTHOREF
  2

  9
$PUCSORTHOVIEW
 70
     0
  9
$PUCSORGTOP
 10
0.0
 20
0.0
 30
0.0
  9
$PUCSORGBOTTOM
 10
0.0
 20
0.0
 30
0.0
  9
$PUCSORGLEFT
 10
0.0
 20
0.0
 30
0.0
  9
$PUCSORGRIGHT
 10
0.0
 20
0.0
 30
0.0
  9
$PUCSORGFRONT
 10
0.0
 20
0.0
 30
0.0
  9
$PUCSORGBACK
 10
0.0
 20
0.0
 30
0.0
  9
$USERI1
 70
     0
  9
$USERI2
 70
     0
  9
$USERI3
 70
     0
  9
$USERI4
 70
     0
  9
$USERI5
 70
     0
  9
$USERR1
 40
0.0
  9
$USERR2
 40
0.0
  9
$USERR3
 40
0.0
  9
$USERR4
 40
0.0
  9
$USERR5
 40
0.0
  9
$WORLDVIEW
 70
     1
  9
$SHADEDGE
 70
     3
  9
$SHADEDIF
 70
    70
  9
$TILEMODE
 70
     1
  9
$MAXACTVP
 70
    64
  9
$PINSBASE
 10
0.0
 20
0.0
 30
0.0
  9
$PLIMCHECK
 70
     0
  9
$PEXTMIN
 10
1.0000000000E+20
 20
1.0000000000E+20
 30
1.0000000000E+20
  9
$PEXTMAX
 10
-1.0000000000E+20
 20
-1.0000000000E+20
 30
-1.0000000000E+20
  9
$PLIMMIN
 10
0.0
 20
0.0
  9
$PLIMMAX
 10
420.0
 20
297.0
  9
$UNITMODE
 70
     0
  9
$VISRETAIN
 70
     1
  9
$PLINEGEN
 70
     0
  9
$PSLTSCALE
 70
     1
  9
$TREEDEPTH
 70
  3020
  9
$CMLSTYLE
  2
Standard
  9
$CMLJUST
 70
     0
  9
$CMLSCALE
 40
20.0
  9
$PROXYGRAPHICS
 70
     1
  9
$MEASUREMENT
 70
     1
  9
$CELWEIGHT
370
    -1
  9
$ENDCAPS
280
     0
  9
$JOINSTYLE
280
     0
  9
$LWDISPLAY
290
     1
  9
$INSUNITS
 70
     4
  9
$HYPERLINKBASE
  1

  9
$STYLESHEET
  1

  9
$XEDIT
290
     1
  9
$CEPSNTYPE
380
     0
  9
$PSTYLEMODE
290
     1
  9
$FINGERPRINTGUID
  2
{b0f6453b-fbba-46a7-8f86-bf3806eea590}
  9
$VERSIONGUID
  2
{FAEB1C32-E019-11D5-929B-00C0DF256EC4}
  9
$EXTNAMES
290
     1
  9
$PSVPSCALE
 40
0.0
  9
$OLESTARTUP
290
     0
  0
ENDSEC
  0
SECTION
  2
CLASSES
  0
CLASS
  1
ACDBDICTIONARYWDFLT
  2
AcDbDictionaryWithDefault
  3
ObjectDBX Classes
 90
        0
280
     0
281
     0
  0
CLASS
  1
VISUALSTYLE
  2
AcDbVisualStyle
  3
ObjectDBX Classes
 90
     4095
280
     0
281
     0
  0
CLASS
  1
MATERIAL
  2
AcDbMaterial
  3
ObjectDBX Classes
 90
     1153
280
     0
281
     0
  0
CLASS
  1
SCALE
  2
AcDbScale
  3
ObjectDBX Classes
 90
     1153
280
     0
281
     0
  0
CLASS
  1
TABLESTYLE
  2
AcDbTableStyle
  3
ObjectDBX Classes
 90
     4095
280
     0
281
     0
  0
CLASS
  1
MLEADERSTYLE
  2
AcDbMLeaderStyle
  3
ACDB_MLEADERSTYLE_CLASS
 90
     4095
280
     0
281
     0
  0
CLASS
  1
SUN
  2
AcDbSun
  3
SCENEOE
 90
     1153
280
     0
281
     0
  0
CLASS
  1
ACDBPLACEHOLDER
  2
AcDbPlaceHolder
  3
ObjectDBX Classes
 90
        0
280
     0
281
     0
  0
CLASS
  1
LAYOUT
  2
AcDbLayout
  3
ObjectDBX Classes
 90
        0
280
     0
281
     0
  0
ENDSEC
  0
SECTION
  2
TABLES
  0
TABLE
  2
VPORT
  5
8
330
0
100
AcDbSymbolTable
 70
     1
  0
VPORT
  5
29
330
8
100
AcDbSymbolTableRecord
100
AcDbViewportTableRecord
  2
*Active
 70
     0
 10
0.0
 20
0.0
 11
1.0
 21
1.0
 12
297.0
 22
210.0
 13
0.0
 23
0.0
 14
10.0
 24
10.0
 15
10.0
 25
10.0
 16
0.0
 26
0.0
 36
1.0
 17
0.0
 27
0.0
 37
0.0
 40
420.0
 41
1.4142857143
 42
50.0
 43
0.0
 44
0.0
 50
0.0
 51
0.0
 71
     0
 72
  2000
 73
     1
 74
     3
 75
     0
 76
     0
 77
     0
 78
     0
281
     0
 65
     1
110
0.0
120
0.0
130
0.0
111
1.0
121
0.0
131
0.0
112
0.0
122
1.0
132
0.0
 79
     0
146
0.0
  0
ENDTAB
  0
TABLE
  2
LTYPE
  5
5
330
0
100
AcDbSymbolTable
 70
     6
  0
LTYPE
  5
14
330
5
100
AcDbSymbolTableRecord
100
AcDbLinetypeTableRecord
  2
ByBlock
 70
     0
  3

 72
    65
 73
     0
 40
0.0
  0
LTYPE
  5
15
330
5
100
AcDbSymbolTableRecord
100
AcDbLinetypeTableRecord
  2
ByLayer
 70
     0
  3

 72
    65
 73
     0
 40
0.0
  0
LTYPE
  5
16
330
5
100
AcDbSymbolTableRecord
100
AcDbLinetypeTableRecord
  2
Continuous
 70
     0
  3
Solid line
 72
    65
 73
     0
 40
0.0
  0
LTYPE
  5
6E
330
5
100
AcDbSymbolTableRecord
100
AcDbLinetypeTableRecord
  2
HIDDEN
 70
     0
  3
Hidden __ __ __ __ __ __ __ __ __ __ __ __ __ __
 72
    65
 73
     2
 40
1.905
 49
1.27
 74
     0
 49
-0.635
 74
     0
  0
LTYPE
  5
6F
330
5
100
AcDbSymbolTableRecord
100
AcDbLinetypeTableRecord
  2
PHANTOM
 70
     0
  3
Phantom ______  __  __  ______  __  __  ______
 72
    65
 73
     6
 40
12.7
 49
6.35
 74
     0
 49
-1.27
 74
     0
 49
1.27
 74
     0
 49
-1.27
 74
     0
 49
1.27
 74
     0
 49
-1.27
 74
     0
  0
LTYPE
  5
70
330
5
100
AcDbSymbolTableRecord
100
AcDbLinetypeTableRecord
  2
CENTER
 70
     0
  3
Center ____ _ ____ _ ____ _ ____ _ ____ _ ____
 72
    65
 73
     4
 40
10.16
 49
6.35
 74
     0
 49
-1.27
 74
     0
 49
1.27
 74
     0
 49
-1.27
 74
     0
  0
LTYPE
  5
71
330
5
100
AcDbSymbolTableRecord
100
AcDbLinetypeTableRecord
  2
CENTERX2
 70
     0
  3
Center (2x) ________  __  ________  __  _____
 72
    65
 73
     4
 40
20.32
 49
12.7
 74
     0
 49
-2.54
 74
     0
 49
2.54
 74
     0
 49
-2.54
 74
     0
  0
LTYPE
  5
72
330
5
100
AcDbSymbolTableRecord
100
AcDbLinetypeTableRecord
  2
DOT2
 70
     0
  3
Dot (.5x) ........................................
 72
    65
 73
     2
 40
0.635
 49
0.0
 74
     0
 49
-0.635
 74
     0
  0
ENDTAB
  0
TABLE
  2
LAYER
  5
2
330
0
100
AcDbSymbolTable
 70
     7
  0
LAYER
  5
10
330
2
100
AcDbSymbolTableRecord
100
AcDbLayerTableRecord
  2
0
 70
     0
 62
     7
  6
Continuous
370
    -3
390
F
  0
LAYER
  5
73
330
2
100
AcDbSymbolTableRecord
100
AcDbLayerTableRecord
  2
FORMAT
 70
     0
 62
     7
  6
Continuous
370
    -3
390
F
  0
LAYER
  5
74
330
2
100
AcDbSymbolTableRecord
100
AcDbLayerTableRecord
  2
VORLAGE
 70
     0
 62
     7
  6
Continuous
370
    -3
390
F
  0
LAYER
  5
75
330
2
100
AcDbSymbolTableRecord
100
AcDbLayerTableRecord
  2
1
 70
     0
 62
   179
  6
Continuous
370
    -3
390
F
  0
LAYER
  5
76
330
2
100
AcDbSymbolTableRecord
100
AcDbLayerTableRecord
  2
LAYER0
 70
     0
 62
     7
  6
Continuous
370
    -3
390
F
  0
LAYER
  5
77
330
2
100
AcDbSymbolTableRecord
100
AcDbLayerTableRecord
  2
BEMASSUNG
 70
     0
 62
     1
  6
Continuous
370
    -3
390
F
  0
LAYER
  5
78
330
2
100
AcDbSymbolTableRecord
100
AcDbLayerTableRecord
  2
ÄNDERUNG
 70
     0
 62
     1
  6
Continuous
370
    -3
390
F
  0
ENDTAB
  0
TABLE
  2
STYLE
  5
3
330
0
100
AcDbSymbolTable
 70
     5
  0
STYLE
  5
11
330
3
100
AcDbSymbolTableRecord
100
AcDbTextStyleTableRecord
  2
STANDARD
 70
     0
 40
0.0
 41
1.0
 50
0.0
 71
     0
 42
3.5
  3
ARIAL.TTF
  4

1001
ACAD
1000
ARIAL
1071
       34
  0
STYLE
  5
83
330
3
100
AcDbSymbolTableRecord
100
AcDbTextStyleTableRecord
  2
SLDTEXTSTYLE0
 70
     0
 40
0.0
 41
0.948
 50
0.0
 71
     0
 42
3.5
  3
ARIAL.TTF
  4

1001
ACAD
1000
Arial
1071
      290
  0
STYLE
  5
DC
330
3
100
AcDbSymbolTableRecord
100
AcDbTextStyleTableRecord
  2
SLDTEXTSTYLE1
 70
     0
 40
0.0
 41
1.0
 50
0.0
 71
     0
 42
3.5
  3
ARIALUNI.TTF
  4

1001
ACAD
1000
Arial Unicode MS
1071
 33554722
  0
STYLE
  5
E2
330
3
100
AcDbSymbolTableRecord
100
AcDbTextStyleTableRecord
  2
SLDTEXTSTYLE2
 70
     0
 40
0.0
 41
0.87
 50
0.0
 71
     0
 42
3.5
  3
ARIALN.TTF
  4

1001
ACAD
1000
Arial Narrow
1071
      290
  0
STYLE
  5
105
330
3
100
AcDbSymbolTableRecord
100
AcDbTextStyleTableRecord
  2
SLDTEXTSTYLE3
 70
     0
 40
0.0
 41
0.948
 50
0.0
 71
     0
 42
3.5
  3
ARIALBD.TTF
  4

1001
ACAD
1000
Arial
1071
 33554722
  0
ENDTAB
  0
TABLE
  2
VIEW
  5
6
330
0
100
AcDbSymbolTable
 70
     0
  0
ENDTAB
  0
TABLE
  2
UCS
  5
7
330
0
100
AcDbSymbolTable
 70
     0
  0
ENDTAB
  0
TABLE
  2
APPID
  5
9
330
0
100
AcDbSymbolTable
 70
     1
  0
APPID
  5
12
330
9
100
AcDbSymbolTableRecord
100
AcDbRegAppTableRecord
  2
ACAD
 70
     0
  0
ENDTAB
  0
TABLE
  2
DIMSTYLE
  5
A
330
0
100
AcDbSymbolTable
 70
     6
100
AcDbDimStyleTable
  0
DIMSTYLE
105
27
330
A
100
AcDbSymbolTableRecord
100
AcDbDimStyleTableRecord
  2
ISO-25
 70
     0
 41
2.5
 42
0.625
 43
3.75
 44
1.25
 73
     0
 74
     0
 77
     1
 78
     8
140
2.5
141
2.5
143
0.0393700787
147
0.625
171
     3
172
     1
178
     0
271
     2
272
     2
274
     3
278
    44
283
     0
284
     8
340
11
  0
DIMSTYLE
105
1BF
102
{ACAD_REACTORS
330
1BE
330
1DF
102
}
330
A
100
AcDbSymbolTableRecord
100
AcDbDimStyleTableRecord
  2
SLDDIMSTYLE0
 70
     0
 41
3.302
 44
0.0
 45
0.000000001
 73
     0
 74
     0
 77
     1
 78
    12
 79
     3
140
3.5
147
0.875
173
     1
178
     0
271
     0
272
     2
276
     2
284
    12
340
83
  0
DIMSTYLE
105
1CB
102
{ACAD_REACTORS
330
1CA
330
1D5
330
1F7
330
201
330
20B
330
215
330
4CC
330
539
330
58A
330
595
330
59F
330
5A9
330
5B3
330
5D6
330
612
330
61C
330
663
330
66E
330
678
330
682
102
}
330
A
100
AcDbSymbolTableRecord
100
AcDbDimStyleTableRecord
  2
SLDDIMSTYLE1
 70
     0
 41
3.302
 44
0.0
 45
0.000000001
 73
     0
 74
     0
 77
     1
 78
    12
 79
     3
140
3.5
147
0.875
173
     1
178
     0
271
     2
272
     2
276
     2
284
    12
340
83
  0
DIMSTYLE
105
1EB
102
{ACAD_REACTORS
330
1EA
330
4A5
330
4B1
330
4BE
330
5CA
102
}
330
A
100
AcDbSymbolTableRecord
100
AcDbDimStyleTableRecord
  2
SLDDIMSTYLE2
 70
     0
 41
3.302
 44
0.0
 45
0.000000001
 73
     0
 74
     0
 77
     1
 78
    12
 79
     3
140
3.5
147
0.875
172
     1
173
     1
178
     0
271
     2
272
     2
276
     2
284
    12
289
     0
340
83
  0
DIMSTYLE
105
544
102
{ACAD_REACTORS
330
543
330
626
102
}
330
A
100
AcDbSymbolTableRecord
100
AcDbDimStyleTableRecord
  2
SLDDIMSTYLE3
 70
     0
 41
3.302
 44
0.0
 45
0.000000001
 73
     0
 74
     0
 77
     1
 78
    12
 79
     3
140
3.5
141
0.0
147
0.875
173
     1
178
     0
271
     2
272
     2
276
     2
284
    12
340
83
  0
DIMSTYLE
105
6A5
330
A
100
AcDbSymbolTableRecord
100
AcDbDimStyleTableRecord
  2
SLDDIMSTYLE4
 70
     0
 41
1.016
 44
0.0
 45
0.000000001
146
1.016
147
0.0
173
     1
178
     0
271
     0
272
     0
276
     2
340
11
341
6A6
343
6A6
344
6A6
  0
ENDTAB
  0
TABLE
  2
BLOCK_RECORD
  5
1
330
0
100
AcDbSymbolTable
 70
    87
  0
BLOCK_RECORD
  5
1F
330
1
100
AcDbSymbolTableRecord
100
AcDbBlockTableRecord
  2
*Model_Space
340
22
  0
BLOCK_RECORD
  5
1B
330
1
100
AcDbSymbolTableRecord
100
AcDbBlockTableRecord
  2
*Paper_Space
340
1E
  0
BLOCK_RECORD
  5
23
330
1
100
AcDbSymbolTableRecord
100
AcDbBlockTableRecord
  2
*Paper_Space0
340
26
  0
BLOCK_RECORD
  5
79
330
1
100
AcDbSymbolTableRecord
100
AcDbBlockTableRecord
  2
Prüfmaß DE
340
0
  0
BLOCK_RECORD
  5
80
330
1
100
AcDbSymbolTableRecord
100
AcDbBlockTableRecord
  2
SW_NOTE_0
340
0
102
{BLKREFS
331
85
102
}
  0
BLOCK_RECORD
  5
86
330
1
100
AcDbSymbolTableRecord
100
AcDbBlockTableRecord
  2
Werkstückkanten DE
340
0
  0
BLOCK_RECORD
  5
9D
330
1
100
AcDbSymbolTableRecord
100
AcDbBlockTableRecord
  2
SW_NOTE_0_1
340
0
102
{BLKREFS
331
A2
102
}
  0
BLOCK_RECORD
  5
A5
330
1
100
AcDbSymbolTableRecord
100
AcDbBlockTableRecord
  2
Block1_4
340
0
102
{BLKREFS
331
FD
102
}
  0
BLOCK_RECORD
  5
B3
330
1
100
AcDbSymbolTableRecord
100
AcDbBlockTableRecord
  2
SW_NOTE_0_2
340
0
102
{BLKREFS
331
B8
102
}
  0
BLOCK_RECORD
  5
B9
330
1
100
AcDbSymbolTableRecord
100
AcDbBlockTableRecord
  2
Block2_4
340
0
102
{BLKREFS
331
FE
102
}
  0
BLOCK_RECORD
  5
D9
330
1
100
AcDbSymbolTableRecord
100
AcDbBlockTableRecord
  2
SW_NOTE_0_3
340
0
102
{BLKREFS
331
DE
102
}
  0
BLOCK_RECORD
  5
DF
330
1
100
AcDbSymbolTableRecord
100
AcDbBlockTableRecord
  2
SW_NOTE_0_4
340
0
102
{BLKREFS
331
E6
102
}
  0
BLOCK_RECORD
  5
FF
330
1
100
AcDbSymbolTableRecord
100
AcDbBlockTableRecord
  2
SW_NOTE_0_5
340
0
102
{BLKREFS
331
104
102
}
  0
BLOCK_RECORD
  5
117
330
1
100
AcDbSymbolTableRecord
100
AcDbBlockTableRecord
  2
SW_NOTE_0_6
340
0
102
{BLKREFS
331
123
102
}
  0
BLOCK_RECORD
  5
1C0
330
1
100
AcDbSymbolTableRecord
100
AcDbBlockTableRecord
  2
_D
340
0
  0
BLOCK_RECORD
  5
1CC
330
1
100
AcDbSymbolTableRecord
100
AcDbBlockTableRecord
  2
_D_1
340
0
  0
BLOCK_RECORD
  5
1D6
330
1
100
AcDbSymbolTableRecord
100
AcDbBlockTableRecord
  2
_D_2
340
0
  0
BLOCK_RECORD
  5
1E0
330
1
100
AcDbSymbolTableRecord
100
AcDbBlockTableRecord
  2
_D_3
340
0
  0
BLOCK_RECORD
  5
1EC
330
1
100
AcDbSymbolTableRecord
100
AcDbBlockTableRecord
  2
_D_4
340
0
  0
BLOCK_RECORD
  5
1F8
330
1
100
AcDbSymbolTableRecord
100
AcDbBlockTableRecord
  2
_D_5
340
0
  0
BLOCK_RECORD
  5
202
330
1
100
AcDbSymbolTableRecord
100
AcDbBlockTableRecord
  2
_D_6
340
0
  0
BLOCK_RECORD
  5
20C
330
1
100
AcDbSymbolTableRecord
100
AcDbBlockTableRecord
  2
_D_7
340
0
  0
BLOCK_RECORD
  5
216
330
1
100
AcDbSymbolTableRecord
100
AcDbBlockTableRecord
  2
_D_8
340
0
  0
BLOCK_RECORD
  5
220
330
1
100
AcDbSymbolTableRecord
100
AcDbBlockTableRecord
  2
SW_CENTERMARKSYMBOL_0
340
0
102
{BLKREFS
331
22B
102
}
  0
BLOCK_RECORD
  5
22C
330
1
100
AcDbSymbolTableRecord
100
AcDbBlockTableRecord
  2
SW_CENTERMARKSYMBOL_1
340
0
102
{BLKREFS
331
237
102
}
  0
BLOCK_RECORD
  5
238
330
1
100
AcDbSymbolTableRecord
100
AcDbBlockTableRecord
  2
SW_CENTERMARKSYMBOL_2
340
0
102
{BLKREFS
331
243
102
}
  0
BLOCK_RECORD
  5
244
330
1
100
AcDbSymbolTableRecord
100
AcDbBlockTableRecord
  2
SW_CENTERMARKSYMBOL_3
340
0
102
{BLKREFS
331
24F
102
}
  0
BLOCK_RECORD
  5
250
330
1
100
AcDbSymbolTableRecord
100
AcDbBlockTableRecord
  2
SW_CENTERMARKSYMBOL_4
340
0
102
{BLKREFS
331
25B
102
}
  0
BLOCK_RECORD
  5
25C
330
1
100
AcDbSymbolTableRecord
100
AcDbBlockTableRecord
  2
SW_CENTERMARKSYMBOL_5
340
0
102
{BLKREFS
331
267
102
}
  0
BLOCK_RECORD
  5
268
330
1
100
AcDbSymbolTableRecord
100
AcDbBlockTableRecord
  2
SW_CENTERMARKSYMBOL_6
340
0
102
{BLKREFS
331
273
102
}
  0
BLOCK_RECORD
  5
274
330
1
100
AcDbSymbolTableRecord
100
AcDbBlockTableRecord
  2
SW_CENTERMARKSYMBOL_7
340
0
102
{BLKREFS
331
27F
102
}
  0
BLOCK_RECORD
  5
280
330
1
100
AcDbSymbolTableRecord
100
AcDbBlockTableRecord
  2
SW_CENTERMARKSYMBOL_8
340
0
102
{BLKREFS
331
28B
102
}
  0
BLOCK_RECORD
  5
28C
330
1
100
AcDbSymbolTableRecord
100
AcDbBlockTableRecord
  2
SW_CENTERMARKSYMBOL_9
340
0
102
{BLKREFS
331
297
102
}
  0
BLOCK_RECORD
  5
298
330
1
100
AcDbSymbolTableRecord
100
AcDbBlockTableRecord
  2
SW_CENTERMARKSYMBOL_10
340
0
102
{BLKREFS
331
2A3
102
}
  0
BLOCK_RECORD
  5
2A4
330
1
100
AcDbSymbolTableRecord
100
AcDbBlockTableRecord
  2
SW_CENTERMARKSYMBOL_11
340
0
102
{BLKREFS
331
2AF
102
}
  0
BLOCK_RECORD
  5
2B0
330
1
100
AcDbSymbolTableRecord
100
AcDbBlockTableRecord
  2
SW_CENTERMARKSYMBOL_12
340
0
102
{BLKREFS
331
2BB
102
}
  0
BLOCK_RECORD
  5
2BC
330
1
100
AcDbSymbolTableRecord
100
AcDbBlockTableRecord
  2
SW_CENTERMARKSYMBOL_13
340
0
102
{BLKREFS
331
2C7
102
}
  0
BLOCK_RECORD
  5
2C8
330
1
100
AcDbSymbolTableRecord
100
AcDbBlockTableRecord
  2
SW_CENTERMARKSYMBOL_14
340
0
102
{BLKREFS
331
2D3
102
}
  0
BLOCK_RECORD
  5
2D4
330
1
100
AcDbSymbolTableRecord
100
AcDbBlockTableRecord
  2
SW_CENTERMARKSYMBOL_15
340
0
102
{BLKREFS
331
2DF
102
}
  0
BLOCK_RECORD
  5
2E0
330
1
100
AcDbSymbolTableRecord
100
AcDbBlockTableRecord
  2
SW_CENTERMARKSYMBOL_16
340
0
102
{BLKREFS
331
2EB
102
}
  0
BLOCK_RECORD
  5
2EC
330
1
100
AcDbSymbolTableRecord
100
AcDbBlockTableRecord
  2
SW_CENTERMARKSYMBOL_17
340
0
102
{BLKREFS
331
2F7
102
}
  0
BLOCK_RECORD
  5
2F8
330
1
100
AcDbSymbolTableRecord
100
AcDbBlockTableRecord
  2
SW_CENTERMARKSYMBOL_18
340
0
102
{BLKREFS
331
303
102
}
  0
BLOCK_RECORD
  5
304
330
1
100
AcDbSymbolTableRecord
100
AcDbBlockTableRecord
  2
SW_CENTERMARKSYMBOL_19
340
0
102
{BLKREFS
331
30F
102
}
  0
BLOCK_RECORD
  5
310
330
1
100
AcDbSymbolTableRecord
100
AcDbBlockTableRecord
  2
SW_CENTERMARKSYMBOL_20
340
0
102
{BLKREFS
331
31B
102
}
  0
BLOCK_RECORD
  5
31C
330
1
100
AcDbSymbolTableRecord
100
AcDbBlockTableRecord
  2
SW_CENTERMARKSYMBOL_21
340
0
102
{BLKREFS
331
327
102
}
  0
BLOCK_RECORD
  5
328
330
1
100
AcDbSymbolTableRecord
100
AcDbBlockTableRecord
  2
SW_CENTERMARKSYMBOL_22
340
0
102
{BLKREFS
331
333
102
}
  0
BLOCK_RECORD
  5
334
330
1
100
AcDbSymbolTableRecord
100
AcDbBlockTableRecord
  2
SW_CENTERMARKSYMBOL_23
340
0
102
{BLKREFS
331
33F
102
}
  0
BLOCK_RECORD
  5
340
330
1
100
AcDbSymbolTableRecord
100
AcDbBlockTableRecord
  2
SW_CENTERMARKSYMBOL_24
340
0
102
{BLKREFS
331
34B
102
}
  0
BLOCK_RECORD
  5
34C
330
1
100
AcDbSymbolTableRecord
100
AcDbBlockTableRecord
  2
SW_CENTERMARKSYMBOL_25
340
0
102
{BLKREFS
331
357
102
}
  0
BLOCK_RECORD
  5
358
330
1
100
AcDbSymbolTableRecord
100
AcDbBlockTableRecord
  2
SW_CENTERMARKSYMBOL_26
340
0
102
{BLKREFS
331
363
102
}
  0
BLOCK_RECORD
  5
364
330
1
100
AcDbSymbolTableRecord
100
AcDbBlockTableRecord
  2
SW_CENTERMARKSYMBOL_27
340
0
102
{BLKREFS
331
36F
102
}
  0
BLOCK_RECORD
  5
370
330
1
100
AcDbSymbolTableRecord
100
AcDbBlockTableRecord
  2
SW_CENTERMARKSYMBOL_28
340
0
102
{BLKREFS
331
37B
102
}
  0
BLOCK_RECORD
  5
37C
330
1
100
AcDbSymbolTableRecord
100
AcDbBlockTableRecord
  2
SW_CENTERMARKSYMBOL_29
340
0
102
{BLKREFS
331
387
102
}
  0
BLOCK_RECORD
  5
388
330
1
100
AcDbSymbolTableRecord
100
AcDbBlockTableRecord
  2
SW_CENTERMARKSYMBOL_30
340
0
102
{BLKREFS
331
393
102
}
  0
BLOCK_RECORD
  5
394
330
1
100
AcDbSymbolTableRecord
100
AcDbBlockTableRecord
  2
SW_CENTERMARKSYMBOL_31
340
0
102
{BLKREFS
331
39F
102
}
  0
BLOCK_RECORD
  5
3A0
330
1
100
AcDbSymbolTableRecord
100
AcDbBlockTableRecord
  2
SW_CENTERMARKSYMBOL_32
340
0
102
{BLKREFS
331
3AB
102
}
  0
BLOCK_RECORD
  5
3AC
330
1
100
AcDbSymbolTableRecord
100
AcDbBlockTableRecord
  2
SW_CENTERMARKSYMBOL_33
340
0
102
{BLKREFS
331
3B7
102
}
  0
BLOCK_RECORD
  5
3B8
330
1
100
AcDbSymbolTableRecord
100
AcDbBlockTableRecord
  2
SW_CENTERMARKSYMBOL_34
340
0
102
{BLKREFS
331
3C3
102
}
  0
BLOCK_RECORD
  5
3C4
330
1
100
AcDbSymbolTableRecord
100
AcDbBlockTableRecord
  2
SW_CENTERMARKSYMBOL_35
340
0
102
{BLKREFS
331
3CF
102
}
  0
BLOCK_RECORD
  5
3D0
330
1
100
AcDbSymbolTableRecord
100
AcDbBlockTableRecord
  2
SW_CENTERMARKSYMBOL_36
340
0
102
{BLKREFS
331
3DB
102
}
  0
BLOCK_RECORD
  5
3DC
330
1
100
AcDbSymbolTableRecord
100
AcDbBlockTableRecord
  2
SW_CENTERMARKSYMBOL_37
340
0
102
{BLKREFS
331
3E7
102
}
  0
BLOCK_RECORD
  5
4A6
330
1
100
AcDbSymbolTableRecord
100
AcDbBlockTableRecord
  2
_D_9
340
0
  0
BLOCK_RECORD
  5
4B2
330
1
100
AcDbSymbolTableRecord
100
AcDbBlockTableRecord
  2
_D_10
340
0
  0
BLOCK_RECORD
  5
4BF
330
1
100
AcDbSymbolTableRecord
100
AcDbBlockTableRecord
  2
_D_11
340
0
  0
BLOCK_RECORD
  5
4CD
330
1
100
AcDbSymbolTableRecord
100
AcDbBlockTableRecord
  2
_D_12
340
0
  0
BLOCK_RECORD
  5
53A
330
1
100
AcDbSymbolTableRecord
100
AcDbBlockTableRecord
  2
_D_13
340
0
  0
BLOCK_RECORD
  5
545
330
1
100
AcDbSymbolTableRecord
100
AcDbBlockTableRecord
  2
_D_14
340
0
  0
BLOCK_RECORD
  5
54C
330
1
100
AcDbSymbolTableRecord
100
AcDbBlockTableRecord
  2
SW_NOTE_0_7
340
0
102
{BLKREFS
331
551
102
}
  0
BLOCK_RECORD
  5
572
330
1
100
AcDbSymbolTableRecord
100
AcDbBlockTableRecord
  2
SW_HATCH_0
340
0
102
{BLKREFS
331
589
102
}
  0
BLOCK_RECORD
  5
58B
330
1
100
AcDbSymbolTableRecord
100
AcDbBlockTableRecord
  2
_D_15
340
0
  0
BLOCK_RECORD
  5
596
330
1
100
AcDbSymbolTableRecord
100
AcDbBlockTableRecord
  2
_D_16
340
0
  0
BLOCK_RECORD
  5
5A0
330
1
100
AcDbSymbolTableRecord
100
AcDbBlockTableRecord
  2
_D_17
340
0
  0
BLOCK_RECORD
  5
5AA
330
1
100
AcDbSymbolTableRecord
100
AcDbBlockTableRecord
  2
_D_18
340
0
  0
BLOCK_RECORD
  5
5B4
330
1
100
AcDbSymbolTableRecord
100
AcDbBlockTableRecord
  2
_D_19
340
0
  0
BLOCK_RECORD
  5
5CB
330
1
100
AcDbSymbolTableRecord
100
AcDbBlockTableRecord
  2
_D_20
340
0
  0
BLOCK_RECORD
  5
5D7
330
1
100
AcDbSymbolTableRecord
100
AcDbBlockTableRecord
  2
_D_21
340
0
  0
BLOCK_RECORD
  5
5E0
330
1
100
AcDbSymbolTableRecord
100
AcDbBlockTableRecord
  2
SW_CENTERMARKSYMBOL_38
340
0
102
{BLKREFS
331
5F3
102
}
  0
BLOCK_RECORD
  5
5F4
330
1
100
AcDbSymbolTableRecord
100
AcDbBlockTableRecord
  2
SW_CENTERMARKSYMBOL_39
340
0
102
{BLKREFS
331
5FF
102
}
  0
BLOCK_RECORD
  5
613
330
1
100
AcDbSymbolTableRecord
100
AcDbBlockTableRecord
  2
_D_22
340
0
  0
BLOCK_RECORD
  5
61D
330
1
100
AcDbSymbolTableRecord
100
AcDbBlockTableRecord
  2
_D_23
340
0
  0
BLOCK_RECORD
  5
627
330
1
100
AcDbSymbolTableRecord
100
AcDbBlockTableRecord
  2
_D_24
340
0
  0
BLOCK_RECORD
  5
62E
330
1
100
AcDbSymbolTableRecord
100
AcDbBlockTableRecord
  2
SW_NOTE_0_8
340
0
102
{BLKREFS
331
633
102
}
  0
BLOCK_RECORD
  5
64F
330
1
100
AcDbSymbolTableRecord
100
AcDbBlockTableRecord
  2
SW_HATCH_1
340
0
102
{BLKREFS
331
662
102
}
  0
BLOCK_RECORD
  5
664
330
1
100
AcDbSymbolTableRecord
100
AcDbBlockTableRecord
  2
_D_25
340
0
  0
BLOCK_RECORD
  5
66F
330
1
100
AcDbSymbolTableRecord
100
AcDbBlockTableRecord
  2
_D_26
340
0
  0
BLOCK_RECORD
  5
679
330
1
100
AcDbSymbolTableRecord
100
AcDbBlockTableRecord
  2
_D_27
340
0
  0
BLOCK_RECORD
  5
683
330
1
100
AcDbSymbolTableRecord
100
AcDbBlockTableRecord
  2
_D_28
340
0
  0
BLOCK_RECORD
  5
69E
330
1
100
AcDbSymbolTableRecord
100
AcDbBlockTableRecord
  2
SW_NOTE_0_9
340
0
102
{BLKREFS
331
6A4
102
}
  0
BLOCK_RECORD
  5
6A6
330
1
100
AcDbSymbolTableRecord
100
AcDbBlockTableRecord
  2
_Dot
340
0
  0
ENDTAB
  0
ENDSEC
  0
SECTION
  2
BLOCKS
  0
BLOCK
  5
20
330
1F
100
AcDbEntity
  8
0
100
AcDbBlockBegin
  2
*Model_Space
 70
     0
 10
0.0
 20
0.0
 30
0.0
  3
*Model_Space
  1

  0
ENDBLK
  5
21
330
1F
100
AcDbEntity
  8
0
100
AcDbBlockEnd
  0
BLOCK
  5
1C
330
1B
100
AcDbEntity
 67
     1
  8
0
100
AcDbBlockBegin
  2
*Paper_Space
 70
     0
 10
0.0
 20
0.0
 30
0.0
  3
*Paper_Space
  1

  0
ENDBLK
  5
1D
330
1B
100
AcDbEntity
 67
     1
  8
0
100
AcDbBlockEnd
  0
BLOCK
  5
24
330
23
100
AcDbEntity
  8
0
100
AcDbBlockBegin
  2
*Paper_Space0
 70
     0
 10
0.0
 20
0.0
 30
0.0
  3
*Paper_Space0
  1

  0
ENDBLK
  5
25
330
23
100
AcDbEntity
  8
0
100
AcDbBlockEnd
  0
BLOCK
  5
7A
330
79
100
AcDbEntity
  8
0
100
AcDbBlockBegin
  2
Prüfmaß DE
 70
     0
 10
0.0
 20
0.0
 30
0.0
  3
Prüfmaß DE
  1

  0
ARC
  5
7C
330
79
100
AcDbEntity
  8
0
  6
Continuous
 62
     7
370
    18
100
AcDbCircle
 10
540.152787322
 20
157.1730042205
 30
0.0
 40
2.041521022103069
100
AcDbArc
 50
270.0
 51
90.0
  0
ARC
  5
7D
330
79
100
AcDbEntity
  8
0
  6
Continuous
 62
     7
370
    18
100
AcDbCircle
 10
533.7278363882
 20
157.1730042205
 30
0.0
 40
2.041521022103069
100
AcDbArc
 50
90.0
 51
270.0
  0
LINE
  5
7E
330
79
100
AcDbEntity
  8
0
  6
Continuous
 62
     7
370
    18
100
AcDbLine
 10
533.7278363882
 20
159.2145252426
 30
0.0
 11
540.152787322
 21
159.2145252426
 31
0.0
  0
LINE
  5
7F
330
79
100
AcDbEntity
  8
0
  6
Continuous
 62
     7
370
    18
100
AcDbLine
 10
540.152787322
 20
155.1314831984
 30
0.0
 11
533.7278363882
 21
155.1314831984
 31
0.0
  0
INSERT
  5
85
330
79
100
AcDbEntity
  8
0
  6
Continuous
 62
     7
370
     0
100
AcDbBlockReference
  2
SW_NOTE_0
 10
545.3826769281
 20
154.3828978528
 30
0.0
  0
ENDBLK
  5
7B
330
79
100
AcDbEntity
  8
0
100
AcDbBlockEnd
  0
BLOCK
  5
81
330
80
100
AcDbEntity
  8
0
100
AcDbBlockBegin
  2
SW_NOTE_0
 70
     0
 10
0.0
 20
0.0
 30
0.0
  3
SW_NOTE_0
  1

  0
MTEXT
  5
84
330
80
100
AcDbEntity
  8
0
  6
Continuous
 62
     0
370
     0
100
AcDbMText
 10
0.0
 20
4.5117370892
 30
0.0
 40
3.5
 41
0.0
 71
     1
 72
     1
  1
Prüfmaß
  7
SLDTEXTSTYLE0
 73
     1
 44
1.0
  0
ENDBLK
  5
82
330
80
100
AcDbEntity
  8
0
100
AcDbBlockEnd
  0
BLOCK
  5
87
330
86
100
AcDbEntity
  8
0
100
AcDbBlockBegin
  2
Werkstückkanten DE
 70
     2
 10
0.0
 20
0.0
 30
0.0
  3
Werkstückkanten DE
  1

  0
LINE
  5
89
330
86
100
AcDbEntity
  8
0
  6
Continuous
 62
     7
370
    18
100
AcDbLine
 10
27.0931409182
 20
7.7123106012
 30
0.0
 11
27.0931409182
 21
12.7123106012
 31
0.0
  0
LINE
  5
8A
330
86
100
AcDbEntity
  8
0
  6
Continuous
 62
     7
370
    18
100
AcDbLine
 10
26.0931409182
 20
6.7123106012
 30
0.0
 11
36.0931409182
 21
6.7123106012
 31
0.0
  0
LINE
  5
8B
330
86
100
AcDbEntity
  8
0
  6
Continuous
 62
     7
370
    18
100
AcDbLine
 10
26.0931409182
 20
6.7123106012
 30
0.0
 11
20.880830317
 21
1.5
 31
0.0
  0
LINE
  5
8C
330
86
100
AcDbEntity
  8
0
  6
Continuous
 62
     7
370
    18
100
AcDbLine
 10
20.880830317
 20
1.5
 30
0.0
 11
22.4158663354
 21
3.5004978875
 31
0.0
  0
LINE
  5
8D
330
86
100
AcDbEntity
  8
0
  6
Continuous
 62
     7
370
    18
100
AcDbLine
 10
22.4158663354
 20
3.5004978875
 30
0.0
 11
22.8813282044
 21
3.0350360185
 31
0.0
  0
LINE
  5
8E
330
86
100
AcDbEntity
  8
0
  6
Continuous
 62
     7
370
    18
100
AcDbLine
 10
22.8813282044
 20
3.0350360185
 30
0.0
 11
20.880830317
 21
1.5
 31
0.0
  0
LINE
  5
8F
330
86
100
AcDbEntity
  8
0
  6
Continuous
 62
     7
370
    35
100
AcDbLine
 10
20.880830317
 20
1.5
 30
0.0
 11
20.880830317
 21
7.5
 31
0.0
  0
LINE
  5
90
330
86
100
AcDbEntity
  8
0
  6
Continuous
 62
     7
370
    35
100
AcDbLine
 10
20.880830317
 20
1.5
 30
0.0
 11
26.880830317
 21
1.5
 31
0.0
  0
LINE
  5
91
330
86
100
AcDbEntity
  8
0
  6
Continuous
 62
     7
370
    35
100
AcDbLine
 10
34.0931409182
 20
3.0
 30
0.0
 11
40.0931409182
 21
3.0
 31
0.0
  0
LINE
  5
92
330
86
100
AcDbEntity
  8
0
  6
Continuous
 62
     7
370
    35
100
AcDbLine
 10
40.0931409182
 20
3.0
 30
0.0
 11
40.0931409182
 21
-3.0
 31
0.0
  0
LINE
  5
93
330
86
100
AcDbEntity
  8
0
  6
Continuous
 62
     7
370
    18
100
AcDbLine
 10
40.0931409182
 20
3.0
 30
0.0
 11
43.8054515194
 21
6.7123106012
 31
0.0
  0
LINE
  5
94
330
86
100
AcDbEntity
  8
0
  6
Continuous
 62
     7
370
    18
100
AcDbLine
 10
43.8054515194
 20
6.7123106012
 30
0.0
 11
53.8054515194
 21
6.7123106012
 31
0.0
  0
LINE
  5
95
330
86
100
AcDbEntity
  8
0
  6
Continuous
 62
     7
370
    18
100
AcDbLine
 10
27.0931409182
 20
7.7123106012
 30
0.0
 11
32.0931409182
 21
7.7123106012
 31
0.0
  0
LINE
  5
96
330
86
100
AcDbEntity
  8
0
  6
Continuous
 62
     7
370
    18
100
AcDbLine
 10
40.0931409182
 20
3.0
 30
0.0
 11
41.6281769367
 21
5.0004978875
 31
0.0
  0
LINE
  5
97
330
86
100
AcDbEntity
  8
0
  6
Continuous
 62
     7
370
    18
100
AcDbLine
 10
41.6281769367
 20
5.0004978875
 30
0.0
 11
42.0936388057
 21
4.5350360185
 31
0.0
  0
LINE
  5
98
330
86
100
AcDbEntity
  8
0
  6
Continuous
 62
     7
370
    18
100
AcDbLine
 10
42.0936388057
 20
4.5350360185
 30
0.0
 11
40.0931409182
 21
3.0
 31
0.0
  0
LINE
  5
99
330
86
100
AcDbEntity
  8
0
  6
Continuous
 62
     7
370
    18
100
AcDbLine
 10
44.8054515194
 20
12.7123106012
 30
0.0
 11
44.8054515194
 21
7.7123106012
 31
0.0
  0
LINE
  5
9A
330
86
100
AcDbEntity
  8
0
  6
Continuous
 62
     7
370
    18
100
AcDbLine
 10
44.8054515194
 20
7.7123106012
 30
0.0
 11
49.8054515194
 21
7.7123106012
 31
0.0
  0
HATCH
  5
9B
330
86
100
AcDbEntity
  8
0
  6
Continuous
 62
     7
100
AcDbHatch
 10
0.0
 20
0.0
 30
0.0
210
0.0
220
0.0
230
1.0
  2
SOLID
 70
     1
 71
     0
 91
        1
 92
        0
 93
        3
 72
     1
 10
20.88083031696525
 20
1.499999999999918
 11
22.41586633542109
 21
3.500497887476778
 72
     1
 10
22.41586633542109
 20
3.500497887476778
 11
22.88132820444211
 21
3.035036018455783
 72
     1
 10
22.88132820444211
 20
3.035036018455783
 11
20.88083031696525
 21
1.499999999999918
 97
        0
 75
     0
 76
     1
 98
        1
 10
0.0
 20
0.0
  0
HATCH
  5
9C
330
86
100
AcDbEntity
  8
0
  6
Continuous
 62
     7
100
AcDbHatch
 10
0.0
 20
0.0
 30
0.0
210
0.0
220
0.0
230
1.0
  2
SOLID
 70
     1
 71
     0
 91
        1
 92
        0
 93
        3
 72
     1
 10
42.0936388056714
 20
4.535036018455754
 11
40.09314091819458
 21
2.999999999999892
 72
     1
 10
40.09314091819458
 20
2.999999999999892
 11
41.6281769366504
 21
5.000497887476764
 72
     1
 10
41.6281769366504
 20
5.000497887476764
 11
42.0936388056714
 21
4.535036018455754
 97
        0
 75
     0
 76
     1
 98
        1
 10
0.0
 20
0.0
  0
INSERT
  5
A2
330
86
100
AcDbEntity
  8
0
  6
Continuous
 62
     7
370
    18
100
AcDbBlockReference
  2
SW_NOTE_0_1
 10
-16.5296667739
 20
8.0719974576
 30
0.0
  0
ATTDEF
  5
A3
330
86
100
AcDbEntity
  8
0
  6
Continuous
 62
     7
370
    18
100
AcDbText
 10
45.5382827001
 20
8.730024094
 30
0.0
 40
3.5
  1
-0,3
 41
0.948
  7
SLDTEXTSTYLE0
 11
45.5382827001
 21
7.6943422758
 31
0.0
100
AcDbAttributeDefinition
  3

  2
WERT_2
 70
     0
 74
     1
  0
ATTDEF
  5
A4
330
86
100
AcDbEntity
  8
0
  6
Continuous
 62
     7
370
    18
100
AcDbText
 10
27.3508161078
 20
8.7387064472
 30
0.0
 40
3.5
  1
+0,3
 41
0.948
  7
SLDTEXTSTYLE0
 11
27.3508161078
 21
7.703024629
 31
0.0
100
AcDbAttributeDefinition
  3

  2
WERT_1
 70
     0
 74
     1
  0
ENDBLK
  5
88
330
86
100
AcDbEntity
  8
0
100
AcDbBlockEnd
  0
BLOCK
  5
9E
330
9D
100
AcDbEntity
  8
0
100
AcDbBlockBegin
  2
SW_NOTE_0_1
 70
     0
 10
0.0
 20
0.0
 30
0.0
  3
SW_NOTE_0_1
  1

  0
MTEXT
  5
A0
330
9D
100
AcDbEntity
  8
0
  6
Continuous
 62
     0
370
    18
100
AcDbMText
 10
0.0
 20
4.5117370892
 30
0.0
 40
3.5
 41
0.0
 71
     1
 72
     1
  1
Werkstückkanten
  7
SLDTEXTSTYLE0
 73
     1
 44
1.0
  0
MTEXT
  5
A1
330
9D
100
AcDbEntity
  8
0
  6
Continuous
 62
     0
370
    18
100
AcDbMText
 10
0.0
 20
0.0006261389
 30
0.0
 40
3.5
 41
0.0
 71
     1
 72
     1
  1
DIN ISO 13715
  7
SLDTEXTSTYLE0
 73
     1
 44
1.0
  0
ENDBLK
  5
9F
330
9D
100
AcDbEntity
  8
0
100
AcDbBlockEnd
  0
BLOCK
  5
A6
330
A5
100
AcDbEntity
  8
0
100
AcDbBlockBegin
  2
Block1_4
 70
     0
 10
0.0
 20
0.0
 30
0.0
  3
Block1_4
  1

  0
CIRCLE
  5
A8
330
A5
100
AcDbEntity
  8
0
  6
Continuous
 62
     7
370
    18
100
AcDbCircle
 10
11.6137544821
 20
9.0896586992
 30
0.0
 40
1.255909011058753
  0
CIRCLE
  5
A9
330
A5
100
AcDbEntity
  8
0
  6
Continuous
 62
     7
370
    18
100
AcDbCircle
 10
11.6137544821
 20
9.0896586992
 30
0.0
 40
2.216014863655655
  0
LINE
  5
AA
330
A5
100
AcDbEntity
  8
0
  6
CENTERX2
 62
     7
370
    18
100
AcDbLine
 10
11.6137544821
 20
9.0896586992
 30
0.0
 11
7.8977396184
 21
9.0896586992
 31
0.0
  0
LINE
  5
AB
330
A5
100
AcDbEntity
  8
0
  6
Continuous
 62
     7
370
    18
100
AcDbLine
 10
8.165753588
 20
6.8736438356
 30
0.0
 11
8.165753588
 21
11.3071584591
 31
0.0
  0
LINE
  5
AC
330
A5
100
AcDbEntity
  8
0
  6
Continuous
 62
     7
370
    18
100
AcDbLine
 10
2.6797147895
 20
10.3455677103
 30
0.0
 11
2.6797147895
 21
7.8337496881
 31
0.0
  0
LINE
  5
AD
330
A5
100
AcDbEntity
  8
0
  6
Continuous
 62
     7
370
    18
100
AcDbLine
 10
2.6797147895
 20
7.8337496881
 30
0.0
 11
8.165753588
 21
6.8736438356
 31
0.0
  0
LINE
  5
AE
330
A5
100
AcDbEntity
  8
0
  6
CENTERX2
 62
     7
370
    18
100
AcDbLine
 10
9.665753588
 20
9.0896586992
 30
0.0
 11
1.1797147895
 21
9.0896586992
 31
0.0
  0
LINE
  5
AF
330
A5
100
AcDbEntity
  8
0
  6
Continuous
 62
     7
370
    18
100
AcDbLine
 10
8.165753588
 20
11.3071584591
 30
0.0
 11
2.6797147895
 21
10.3455677103
 31
0.0
  0
LINE
  5
B0
330
A5
100
AcDbEntity
  8
0
  6
CENTERX2
 62
     7
370
    18
100
AcDbLine
 10
11.6137544821
 20
9.0896586992
 30
0.0
 11
11.6137544821
 21
5.3736438356
 31
0.0
  0
LINE
  5
B1
330
A5
100
AcDbEntity
  8
0
  6
CENTERX2
 62
     7
370
    18
100
AcDbLine
 10
11.6137544821
 20
9.0896586992
 30
0.0
 11
11.6137544821
 21
12.8056735629
 31
0.0
  0
LINE
  5
B2
330
A5
100
AcDbEntity
  8
0
  6
CENTERX2
 62
     7
370
    18
100
AcDbLine
 10
11.6137544821
 20
9.0896586992
 30
0.0
 11
15.3297693458
 21
9.0896586992
 31
0.0
  0
INSERT
  5
B8
330
A5
100
AcDbEntity
  8
0
  6
Continuous
 62
     7
370
     0
100
AcDbBlockReference
  2
SW_NOTE_0_2
 10
2.1031832889
 20
2.3754472768
 30
0.0
  0
ENDBLK
  5
A7
330
A5
100
AcDbEntity
  8
0
100
AcDbBlockEnd
  0
BLOCK
  5
B4
330
B3
100
AcDbEntity
  8
0
100
AcDbBlockBegin
  2
SW_NOTE_0_2
 70
     0
 10
0.0
 20
0.0
 30
0.0
  3
SW_NOTE_0_2
  1

  0
MTEXT
  5
B6
330
B3
100
AcDbEntity
  8
0
  6
Continuous
 62
     0
370
     0
100
AcDbMText
 10
6.590625
 20
2.4492287056
 30
0.0
 40
1.9
 41
0.0
 71
     2
 72
     1
  1
DIN 6  T1 - 
  7
SLDTEXTSTYLE0
 73
     1
 44
1.0
  0
MTEXT
  5
B7
330
B3
100
AcDbEntity
  8
0
  6
Continuous
 62
     0
370
     0
100
AcDbMText
 10
6.6569262624
 20
0.0003397443
 30
0.0
 40
1.9
 41
0.0
 71
     2
 72
     1
  1
Proj.methode 1
  7
SLDTEXTSTYLE0
 73
     1
 44
1.0
  0
ENDBLK
  5
B5
330
B3
100
AcDbEntity
  8
0
100
AcDbBlockEnd
  0
BLOCK
  5
BA
330
B9
100
AcDbEntity
  8
0
100
AcDbBlockBegin
  2
Block2_4
 70
     0
 10
0.0
 20
0.0
 30
0.0
  3
Block2_4
  1

  0
ARC
  5
BC
330
B9
100
AcDbEntity
  8
FORMAT
100
AcDbCircle
 10
236.7496365382
 20
57.0990600997
 30
0.0
 40
3.75000000000001
100
AcDbArc
 50
93.8225537293
 51
266.1774462707
  0
ARC
  5
BD
330
B9
100
AcDbEntity
  8
FORMAT
100
AcDbCircle
 10
236.7496365382
 20
57.0990600997
 30
0.0
 40
3.000000000000012
100
AcDbArc
 50
94.7801918472
 51
265.2198081528
  0
ARC
  5
BE
330
B9
100
AcDbEntity
  8
FORMAT
100
AcDbCircle
 10
236.7496365382
 20
57.0990600997
 30
0.0
 40
3.75000000000001
100
AcDbArc
 50
273.8225537293
 51
86.1774462707
  0
ARC
  5
BF
330
B9
100
AcDbEntity
  8
FORMAT
100
AcDbCircle
 10
236.7496365382
 20
57.0990600997
 30
0.0
 40
3.000000000000012
100
AcDbArc
 50
274.7801918472
 51
85.2198081528
  0
ARC
  5
C0
330
B9
100
AcDbEntity
  8
FORMAT
100
AcDbCircle
 10
236.7496365382
 20
58.2320416436
 30
0.0
 40
0.8604027828068846
100
AcDbArc
 50
304.8395134495
 51
73.1084194601
  0
ARC
  5
C1
330
B9
100
AcDbEntity
  8
FORMAT
100
AcDbCircle
 10
236.7496365382
 20
58.2320416436
 30
0.0
 40
1.402314431660661
100
AcDbArc
 50
313.8988153445
 51
79.7306010333
  0
ARC
  5
C2
330
B9
100
AcDbEntity
  8
FORMAT
100
AcDbCircle
 10
236.7496365382
 20
55.4979572256
 30
0.0
 40
0.4915306686725103
100
AcDbArc
 50
300.5716370086
 51
0.0
  0
ARC
  5
C3
330
B9
100
AcDbEntity
  8
FORMAT
100
AcDbCircle
 10
236.7496365382
 20
58.2320416436
 30
0.0
 40
1.402314431660661
100
AcDbArc
 50
100.2693989667
 51
226.1011846555
  0
ARC
  5
C4
330
B9
100
AcDbEntity
  8
FORMAT
100
AcDbCircle
 10
236.7496365382
 20
55.4979572256
 30
0.0
 40
0.9723464985416115
100
AcDbArc
 50
180.0
 51
255.1013518888
  0
ARC
  5
C5
330
B9
100
AcDbEntity
  8
FORMAT
100
AcDbCircle
 10
236.7496365382
 20
55.4979572256
 30
0.0
 40
0.9723464985416115
100
AcDbArc
 50
284.8986481112
 51
0.0
  0
ARC
  5
C6
330
B9
100
AcDbEntity
  8
FORMAT
100
AcDbCircle
 10
236.7496365382
 20
55.4979572256
 30
0.0
 40
0.4915306686725099
100
AcDbArc
 50
180.0
 51
239.4283629914
  0
ARC
  5
C7
330
B9
100
AcDbEntity
  8
FORMAT
100
AcDbCircle
 10
236.7496365382
 20
58.2320416436
 30
0.0
 40
0.8604027828068846
100
AcDbArc
 50
106.8915805399
 51
235.1604865505
  0
LINE
  5
C8
330
B9
100
AcDbEntity
  8
FORMAT
100
AcDbLine
 10
232.5312401271
 20
52.8806636887
 30
0.0
 11
240.9680329492
 21
52.8806636887
 31
0.0
  0
LINE
  5
C9
330
B9
100
AcDbEntity
  8
FORMAT
100
AcDbLine
 10
232.5312401271
 20
61.3174565107
 30
0.0
 11
240.9680329492
 21
61.3174565107
 31
0.0
  0
LINE
  5
CA
330
B9
100
AcDbEntity
  8
FORMAT
100
AcDbLine
 10
232.5312401271
 20
61.3174565107
 30
0.0
 11
232.5312401271
 21
52.8806636887
 31
0.0
  0
LINE
  5
CB
330
B9
100
AcDbEntity
  8
FORMAT
100
AcDbLine
 10
240.9680329492
 20
61.3174565107
 30
0.0
 11
240.9680329492
 21
52.8806636887
 31
0.0
  0
LINE
  5
CC
330
B9
100
AcDbEntity
  8
FORMAT
100
AcDbLine
 10
236.4996365382
 20
60.8407174865
 30
0.0
 11
236.4996365382
 21
60.0886252855
 31
0.0
  0
LINE
  5
CD
330
B9
100
AcDbEntity
  8
FORMAT
100
AcDbLine
 10
236.9996365382
 20
60.8407174865
 30
0.0
 11
236.9996365382
 21
60.0886252855
 31
0.0
  0
LINE
  5
CE
330
B9
100
AcDbEntity
  8
FORMAT
100
AcDbLine
 10
236.4996365382
 20
54.1094949139
 30
0.0
 11
236.4996365382
 21
53.3574027129
 31
0.0
  0
LINE
  5
CF
330
B9
100
AcDbEntity
  8
FORMAT
100
AcDbLine
 10
236.9996365382
 20
54.1094949139
 30
0.0
 11
236.9996365382
 21
53.3574027129
 31
0.0
  0
LINE
  5
D0
330
B9
100
AcDbEntity
  8
FORMAT
100
AcDbLine
 10
236.9996365382
 20
59.6118915504
 30
0.0
 11
236.9996365382
 21
59.0553234597
 31
0.0
  0
LINE
  5
D1
330
B9
100
AcDbEntity
  8
FORMAT
100
AcDbLine
 10
236.4996365382
 20
59.6118915504
 30
0.0
 11
236.4996365382
 21
59.0553234597
 31
0.0
  0
LINE
  5
D2
330
B9
100
AcDbEntity
  8
FORMAT
100
AcDbLine
 10
235.7772900396
 20
55.4979572256
 30
0.0
 11
235.7772900396
 21
57.2215823164
 31
0.0
  0
LINE
  5
D3
330
B9
100
AcDbEntity
  8
FORMAT
100
AcDbLine
 10
237.7219830367
 20
55.4979572256
 30
0.0
 11
237.7219830367
 21
57.2215823164
 31
0.0
  0
LINE
  5
D4
330
B9
100
AcDbEntity
  8
FORMAT
100
AcDbLine
 10
237.2411672068
 20
55.4979572256
 30
0.0
 11
237.2411672068
 21
57.5258613901
 31
0.0
  0
LINE
  5
D5
330
B9
100
AcDbEntity
  8
FORMAT
100
AcDbLine
 10
236.2581058695
 20
55.4979572256
 30
0.0
 11
236.2581058695
 21
57.5258613901
 31
0.0
  0
LINE
  5
D6
330
B9
100
AcDbEntity
  8
FORMAT
100
AcDbLine
 10
236.4996365382
 20
55.0747523127
 30
0.0
 11
236.4996365382
 21
54.5582989296
 31
0.0
  0
LINE
  5
D7
330
B9
100
AcDbEntity
  8
FORMAT
100
AcDbLine
 10
236.9996365382
 20
55.0747523127
 30
0.0
 11
236.9996365382
 21
54.5582989296
 31
0.0
  0
HATCH
  5
D8
330
B9
100
AcDbEntity
  8
0
  6
Continuous
 62
     7
100
AcDbHatch
 10
0.0
 20
0.0
 30
0.0
210
0.0
220
0.0
230
1.0
  2
SOLID
 70
     1
 71
     0
 91
        5
 92
        0
 93
        4
 72
     1
 10
240.9680329492058
 20
61.31745651073599
 11
240.9680329492058
 21
52.88066368865002
 72
     1
 10
240.9680329492058
 20
52.88066368865002
 11
232.5312401271199
 21
52.88066368865002
 72
     1
 10
232.5312401271199
 20
52.88066368865002
 11
232.5312401271199
 21
61.31745651073599
 72
     1
 10
232.5312401271199
 20
61.31745651073599
 11
240.9680329492058
 21
61.31745651073599
 97
        0
 92
        0
 93
        4
 72
     2
 10
236.7496365381628
 20
57.09906009969301
 40
3.000000000000011
 50
94.78019184719915
 51
265.2198081528016
 73
     0
 72
     1
 10
236.4996365381628
 20
60.08862528546836
 11
236.4996365381628
 21
60.84071748646695
 72
     2
 10
236.7496365381628
 20
57.09906009969301
 40
3.750000000000007
 50
93.82255372927435
 51
266.1774462707265
 73
     1
 72
     1
 10
236.4996365381628
 20
53.35740271291905
 11
236.4996365381628
 21
54.10949491391764
 97
        0
 92
        0
 93
        8
 72
     1
 10
237.7219830367044
 20
55.49795722557887
 11
237.7219830367044
 21
57.22158231636488
 72
     2
 10
236.7496365381628
 20
58.23204164361047
 40
1.402314431660656
 50
313.8988153445118
 51
439.730601033339
 73
     1
 72
     1
 10
236.9996365381628
 20
59.61189155039155
 11
236.9996365381628
 21
59.05532345967459
 72
     2
 10
236.7496365381628
 20
58.23204164361047
 40
0.8604027828068782
 50
286.8915805399266
 51
415.1604865505413
 73
     0
 72
     1
 10
237.2411672068353
 20
57.52586139012261
 11
237.2411672068353
 21
55.49795722557887
 72
     2
 10
236.7496365381628
 20
55.49795722557887
 40
0.4915306686725041
 50
0.0
 51
59.42836299135124
 73
     0
 72
     1
 10
236.9996365381628
 20
55.07475231274628
 11
236.9996365381628
 21
54.55829892958712
 72
     2
 10
236.7496365381628
 20
55.49795722557887
 40
0.9723464985416097
 50
284.8986481111874
 51
360.0000000000008
 73
     1
 97
        0
 92
        0
 93
        8
 72
     2
 10
236.7496365381628
 20
55.49795722557887
 40
0.4915306686725041
 50
120.5716370086484
 51
180.0
 73
     0
 72
     1
 10
236.2581058694904
 20
55.49795722557887
 11
236.2581058694904
 21
57.52586139012261
 72
     2
 10
236.7496365381628
 20
58.23204164361047
 40
0.8604027828068782
 50
124.839513449458
 51
253.108419460075
 73
     0
 72
     1
 10
236.4996365381628
 20
59.05532345967459
 11
236.4996365381628
 21
59.61189155039155
 72
     2
 10
236.7496365381628
 20
58.23204164361047
 40
1.402314431660656
 50
100.2693989666618
 51
226.1011846554898
 73
     1
 72
     1
 10
235.7772900396212
 20
57.22158231636488
 11
235.7772900396212
 21
55.49795722557887
 72
     2
 10
236.7496365381628
 20
55.49795722557887
 40
0.9723464985416097
 50
180.0
 51
255.1013518888143
 73
     1
 72
     1
 10
236.4996365381628
 20
54.55829892958712
 11
236.4996365381628
 21
55.07475231274628
 97
        0
 92
        0
 93
        4
 72
     2
 10
236.7496365381628
 20
57.09906009969301
 40
3.000000000000011
 50
274.7801918471999
 51
445.2198081528016
 73
     0
 72
     1
 10
236.9996365381628
 20
54.10949491391764
 11
236.9996365381628
 21
53.35740271291905
 72
     2
 10
236.7496365381628
 20
57.09906009969301
 40
3.750000000000007
 50
273.8225537292751
 51
446.1774462707265
 73
     1
 72
     1
 10
236.9996365381628
 20
60.84071748646695
 11
236.9996365381628
 21
60.08862528546836
 97
        0
 75
     0
 76
     1
 98
        1
 10
0.0
 20
0.0
  0
INSERT
  5
DE
330
B9
100
AcDbEntity
  8
FORMAT
 62
     7
100
AcDbBlockReference
  2
SW_NOTE_0_3
 10
232.2514665163
 20
47.7232938825
 30
0.0
  0
INSERT
  5
E6
330
B9
100
AcDbEntity
  8
0
  6
Continuous
 62
     7
370
     0
100
AcDbBlockReference
  2
SW_NOTE_0_4
 10
244.0723034979
 20
57.1176018272
 30
0.0
  0
ENDBLK
  5
BB
330
B9
100
AcDbEntity
  8
0
100
AcDbBlockEnd
  0
BLOCK
  5
DA
330
D9
100
AcDbEntity
  8
0
100
AcDbBlockBegin
  2
SW_NOTE_0_3
 70
     0
 10
0.0
 20
0.0
 30
0.0
  3
SW_NOTE_0_3
  1

  0
MTEXT
  5
DD
330
D9
100
AcDbEntity
  8
FORMAT
 62
     0
100
AcDbMText
 10
0.0
 20
3.8651911469
 30
0.0
 40
3.0
 41
0.0
 71
     1
 72
     1
  1
ECO
  7
SLDTEXTSTYLE1
 73
     1
 44
1.0
  0
ENDBLK
  5
DB
330
D9
100
AcDbEntity
  8
0
100
AcDbBlockEnd
  0
BLOCK
  5
E0
330
DF
100
AcDbEntity
  8
0
100
AcDbBlockBegin
  2
SW_NOTE_0_4
 70
     0
 10
0.0
 20
0.0
 30
0.0
  3
SW_NOTE_0_4
  1

  0
MTEXT
  5
E3
330
DF
100
AcDbEntity
  8
0
  6
Continuous
 62
     0
370
     0
100
AcDbMText
 10
0.0
 20
3.2226693494
 30
0.0
 40
2.5
 41
0.0
 71
     1
 72
     1
  1
ECO Schulte GmbH & Co. KG
  7
SLDTEXTSTYLE2
 73
     1
 44
1.0
  0
MTEXT
  5
E4
330
DF
100
AcDbEntity
  8
0
  6
Continuous
 62
     0
370
     0
100
AcDbMText
 10
0.0
 20
-0.2773307586
 30
0.0
 40
2.5
 41
0.0
 71
     1
 72
     1
  1
Postfach 206
  7
SLDTEXTSTYLE2
 73
     1
 44
1.0
  0
MTEXT
  5
E5
330
DF
100
AcDbEntity
  8
0
  6
Continuous
 62
     0
370
     0
100
AcDbMText
 10
0.0
 20
-3.7773308666
 30
0.0
 40
2.5
 41
0.0
 71
     1
 72
     1
  1
58682 Menden
  7
SLDTEXTSTYLE2
 73
     1
 44
1.0
  0
ENDBLK
  5
E1
330
DF
100
AcDbEntity
  8
0
100
AcDbBlockEnd
  0
BLOCK
  5
100
330
FF
100
AcDbEntity
  8
0
100
AcDbBlockBegin
  2
SW_NOTE_0_5
 70
     0
 10
0.0
 20
0.0
 30
0.0
  3
SW_NOTE_0_5
  1

  0
MTEXT
  5
102
330
FF
100
AcDbEntity
  8
FORMAT
 62
     0
100
AcDbMText
 10
0.0
 20
4.5117370892
 30
0.0
 40
3.5
 41
0.0
 71
     1
 72
     1
  1
Einsetzbar nur mit separat zu bestellendem Abdeckwinkel/Abdeckblech!
  7
SLDTEXTSTYLE0
 73
     1
 44
1.0
  0
MTEXT
  5
103
330
FF
100
AcDbEntity
  8
FORMAT
 62
     0
100
AcDbMText
 10
0.0
 20
-0.0090964031
 30
0.0
 40
3.5
 41
0.0
 71
     1
 72
     1
  1
(OBX-3196, OBX-3197, OBX-3198, OBX-3199 oder OBX-3180)
  7
SLDTEXTSTYLE0
 73
     1
 44
1.0
  0
ENDBLK
  5
101
330
FF
100
AcDbEntity
  8
0
100
AcDbBlockEnd
  0
BLOCK
  5
118
330
117
100
AcDbEntity
  8
0
100
AcDbBlockBegin
  2
SW_NOTE_0_6
 70
     0
 10
0.0
 20
0.0
 30
0.0
  3
SW_NOTE_0_6
  1

  0
MTEXT
  5
11A
330
117
100
AcDbEntity
  8
FORMAT
 62
     0
100
AcDbMText
 10
0.0
 20
2.5781354795
 30
0.0
 40
2.0
 41
0.0
 71
     1
 72
     1
  1
Technische Änderungen und Irrtümer vorbehalten. Aus dem Gebrauch der 
  7
SLDTEXTSTYLE0
 73
     1
 44
1.0
  0
MTEXT
  5
11B
330
117
100
AcDbEntity
  8
FORMAT
 62
     0
100
AcDbMText
 10
0.0
 20
-0.4218645465
 30
0.0
 40
2.0
 41
0.0
 71
     1
 72
     1
  1
Zeichnung können keinerlei Ansprüche (inkl. Schadenersatzansprüche) erhoben 
  7
SLDTEXTSTYLE0
 73
     1
 44
1.0
  0
MTEXT
  5
11C
330
117
100
AcDbEntity
  8
FORMAT
 62
     0
100
AcDbMText
 10
0.0
 20
-3.4218645726
 30
0.0
 40
2.0
 41
0.0
 71
     1
 72
     1
  1
und gegen ECO Schulte geltend gemacht werden. Die Zeichnung bleibt unser 
  7
SLDTEXTSTYLE0
 73
     1
 44
1.0
  0
MTEXT
  5
11D
330
117
100
AcDbEntity
  8
FORMAT
 62
     0
100
AcDbMText
 10
0.0
 20
-6.4218645987
 30
0.0
 40
2.0
 41
0.0
 71
     1
 72
     1
  1
Eigentum. Sämtliche sich aus der Zeichnung ergebenden Ansprüche stehen 
  7
SLDTEXTSTYLE0
 73
     1
 44
1.0
  0
MTEXT
  5
11E
330
117
100
AcDbEntity
  8
FORMAT
 62
     0
100
AcDbMText
 10
0.0
 20
-9.4218646248
 30
0.0
 40
2.0
 41
0.0
 71
     1
 72
     1
  1
ausschließlich ECO Schulte zu. 
  7
SLDTEXTSTYLE0
 73
     1
 44
1.0
  0
MTEXT
  5
11F
330
117
100
AcDbEntity
  8
FORMAT
 62
     0
100
AcDbMText
 10
0.0
 20
-15.4218646769
 30
0.0
 40
2.0
 41
0.0
 71
     1
 72
     1
  1
Technical changes and errors excepted. No claims (including compensation claims) 
  7
SLDTEXTSTYLE0
 73
     1
 44
1.0
  0
MTEXT
  5
120
330
117
100
AcDbEntity
  8
FORMAT
 62
     0
100
AcDbMText
 10
0.0
 20
-18.421864703
 30
0.0
 40
2.0
 41
0.0
 71
     1
 72
     1
  1
may be raised against ECO Schulte by using of this drawing. The drawing remains 
  7
SLDTEXTSTYLE0
 73
     1
 44
1.0
  0
MTEXT
  5
121
330
117
100
AcDbEntity
  8
FORMAT
 62
     0
100
AcDbMText
 10
0.0
 20
-21.4218647291
 30
0.0
 40
2.0
 41
0.0
 71
     1
 72
     1
  1
the property of ECO Schulte. All claims resulting from this drawing are solely entitled 
  7
SLDTEXTSTYLE0
 73
     1
 44
1.0
  0
MTEXT
  5
122
330
117
100
AcDbEntity
  8
FORMAT
 62
     0
100
AcDbMText
 10
0.0
 20
-24.4218647551
 30
0.0
 40
2.0
 41
0.0
 71
     1
 72
     1
  1
to ECO Schulte.
  7
SLDTEXTSTYLE0
 73
     1
 44
1.0
  0
ENDBLK
  5
119
330
117
100
AcDbEntity
  8
0
100
AcDbBlockEnd
  0
BLOCK
  5
1C1
330
1C0
100
AcDbEntity
  8
0
100
AcDbBlockBegin
  2
_D
 70
     0
 10
0.0
 20
0.0
 30
0.0
  3
_D
  1

  0
SOLID
  5
1C3
330
1C0
100
AcDbEntity
  8
FORMAT
100
AcDbTrace
 10
37.2738765606
 20
168.4765016268
 30
0.0
 11
40.5758765606
 21
167.9685016268
 31
0.0
 12
40.5758765606
 22
168.9845016268
 32
0.0
 13
40.5758765606
 23
168.9845016268
 33
0.0
  0
SOLID
  5
1C4
330
1C0
100
AcDbEntity
  8
FORMAT
100
AcDbTrace
 10
114.1738765606
 20
168.4765016268
 30
0.0
 11
110.8718765606
 21
168.9845016268
 31
0.0
 12
110.8718765606
 22
167.9685016268
 32
0.0
 13
110.8718765606
 23
167.9685016268
 33
0.0
  0
LINE
  5
1C5
330
1C0
100
AcDbEntity
  8
FORMAT
100
AcDbLine
 10
37.2738765606
 20
179.4765016268
 30
0.0
 11
37.2738765606
 21
167.4765016268
 31
0.0
  0
LINE
  5
1C6
330
1C0
100
AcDbEntity
  8
FORMAT
100
AcDbLine
 10
114.1738765606
 20
187.9305391434
 30
0.0
 11
114.1738765606
 21
179.9765016268
 31
0.0
  0
LINE
  5
1C7
330
1C0
100
AcDbEntity
  8
FORMAT
100
AcDbLine
 10
114.1738765606
 20
176.9765016268
 30
0.0
 11
114.1738765606
 21
167.4765016268
 31
0.0
  0
LINE
  5
1C8
330
1C0
100
AcDbEntity
  8
FORMAT
100
AcDbLine
 10
37.2738765606
 20
168.4765016268
 30
0.0
 11
114.1738765606
 21
168.4765016268
 31
0.0
  0
MTEXT
  5
1C9
330
1C0
100
AcDbEntity
  8
FORMAT
100
AcDbMText
 10
73.0502655157
 20
172.9882389488
 30
0.0
 40
3.5
 41
0.0
 71
     1
 72
     1
  1
77
  7
SLDTEXTSTYLE0
 73
     1
 44
1.0
  0
ENDBLK
  5
1C2
330
1C0
100
AcDbEntity
  8
0
100
AcDbBlockEnd
  0
BLOCK
  5
1CD
330
1CC
100
AcDbEntity
  8
0
100
AcDbBlockBegin
  2
_D_1
 70
     0
 10
0.0
 20
0.0
 30
0.0
  3
_D_1
  1

  0
SOLID
  5
1CF
330
1CC
100
AcDbEntity
  8
FORMAT
100
AcDbTrace
 10
27.2738765606
 20
356.4765016268
 30
0.0
 11
26.7658765606
 21
353.1745016268
 31
0.0
 12
27.7818765606
 22
353.1745016268
 32
0.0
 13
27.7818765606
 23
353.1745016268
 33
0.0
  0
SOLID
  5
1D0
330
1CC
100
AcDbEntity
  8
FORMAT
100
AcDbTrace
 10
27.2738765606
 20
180.4765016268
 30
0.0
 11
27.7818765606
 21
183.7785016268
 31
0.0
 12
26.7658765606
 22
183.7785016268
 32
0.0
 13
26.7658765606
 23
183.7785016268
 33
0.0
  0
LINE
  5
1D1
330
1CC
100
AcDbEntity
  8
FORMAT
100
AcDbLine
 10
36.2738765606
 20
356.4765016268
 30
0.0
 11
26.2738765606
 21
356.4765016268
 31
0.0
  0
LINE
  5
1D2
330
1CC
100
AcDbEntity
  8
FORMAT
100
AcDbLine
 10
36.2738765606
 20
180.4765016268
 30
0.0
 11
26.2738765606
 21
180.4765016268
 31
0.0
  0
LINE
  5
1D3
330
1CC
100
AcDbEntity
  8
FORMAT
100
AcDbLine
 10
27.2738765606
 20
356.4765016268
 30
0.0
 11
27.2738765606
 21
180.4765016268
 31
0.0
  0
MTEXT
  5
1D4
330
1CC
100
AcDbEntity
  8
FORMAT
100
AcDbMText
 10
22.7621392386
 20
264.4660850595
 30
0.0
 40
3.5
 41
0.0
 71
     1
 72
     1
  1
176
  7
SLDTEXTSTYLE0
 11
-1.059690869644414E-14
 21
1.0
 31
0.0
 73
     1
 44
1.0
  0
ENDBLK
  5
1CE
330
1CC
100
AcDbEntity
  8
0
100
AcDbBlockEnd
  0
BLOCK
  5
1D7
330
1D6
100
AcDbEntity
  8
0
100
AcDbBlockBegin
  2
_D_2
 70
     0
 10
0.0
 20
0.0
 30
0.0
  3
_D_2
  1

  0
SOLID
  5
1D9
330
1D6
100
AcDbEntity
  8
FORMAT
100
AcDbTrace
 10
145.153463903
 20
178.4765016268
 30
0.0
 11
145.661463903
 21
181.7785016268
 31
0.0
 12
144.645463903
 22
181.7785016268
 32
0.0
 13
144.645463903
 23
181.7785016268
 33
0.0
  0
SOLID
  5
1DA
330
1D6
100
AcDbEntity
  8
FORMAT
100
AcDbTrace
 10
145.153463903
 20
358.4765016268
 30
0.0
 11
144.645463903
 21
355.1745016268
 31
0.0
 12
145.661463903
 22
355.1745016268
 32
0.0
 13
145.661463903
 23
355.1745016268
 33
0.0
  0
LINE
  5
1DB
330
1D6
100
AcDbEntity
  8
FORMAT
100
AcDbLine
 10
103.2738765606
 20
178.4765016268
 30
0.0
 11
146.153463903
 21
178.4765016268
 31
0.0
  0
LINE
  5
1DC
330
1D6
100
AcDbEntity
  8
FORMAT
100
AcDbLine
 10
103.2738765606
 20
358.4765016268
 30
0.0
 11
146.153463903
 21
358.4765016268
 31
0.0
  0
LINE
  5
1DD
330
1D6
100
AcDbEntity
  8
FORMAT
100
AcDbLine
 10
145.153463903
 20
178.4765016268
 30
0.0
 11
145.153463903
 21
358.4765016268
 31
0.0
  0
MTEXT
  5
1DE
330
1D6
100
AcDbEntity
  8
FORMAT
100
AcDbMText
 10
140.6417265809
 20
264.4660850595
 30
0.0
 40
3.5
 41
0.0
 71
     1
 72
     1
  1
180
  7
SLDTEXTSTYLE0
 11
-3.491481338843133E-15
 21
1.0
 31
0.0
 73
     1
 44
1.0
  0
ENDBLK
  5
1D8
330
1D6
100
AcDbEntity
  8
0
100
AcDbBlockEnd
  0
BLOCK
  5
1E1
330
1E0
100
AcDbEntity
  8
0
100
AcDbBlockBegin
  2
_D_3
 70
     0
 10
0.0
 20
0.0
 30
0.0
  3
_D_3
  1

  0
SOLID
  5
1E3
330
1E0
100
AcDbEntity
  8
FORMAT
100
AcDbTrace
 10
90.3738765606
 20
368.4765016268
 30
0.0
 11
93.6758765606
 21
367.9685016268
 31
0.0
 12
93.6758765606
 22
368.9845016268
 32
0.0
 13
93.6758765606
 23
368.9845016268
 33
0.0
  0
SOLID
  5
1E4
330
1E0
100
AcDbEntity
  8
FORMAT
100
AcDbTrace
 10
114.2738765606
 20
368.4765016268
 30
0.0
 11
110.9718765606
 21
368.9845016268
 31
0.0
 12
110.9718765606
 22
367.9685016268
 32
0.0
 13
110.9718765606
 23
367.9685016268
 33
0.0
  0
LINE
  5
1E5
330
1E0
100
AcDbEntity
  8
FORMAT
100
AcDbLine
 10
90.3738765606
 20
349.0224641102
 30
0.0
 11
90.3738765606
 21
369.4765016268
 31
0.0
  0
LINE
  5
1E6
330
1E0
100
AcDbEntity
  8
FORMAT
100
AcDbLine
 10
114.2738765606
 20
347.4765016268
 30
0.0
 11
114.2738765606
 21
356.9765016268
 31
0.0
  0
LINE
  5
1E7
330
1E0
100
AcDbEntity
  8
FORMAT
100
AcDbLine
 10
114.2738765606
 20
359.9765016268
 30
0.0
 11
114.2738765606
 21
369.4765016268
 31
0.0
  0
LINE
  5
1E8
330
1E0
100
AcDbEntity
  8
FORMAT
100
AcDbLine
 10
90.3738765606
 20
368.4765016268
 30
0.0
 11
114.2738765606
 21
368.4765016268
 31
0.0
  0
MTEXT
  5
1E9
330
1E0
100
AcDbEntity
  8
FORMAT
100
AcDbMText
 10
99.6502655157
 20
372.9882389488
 30
0.0
 40
3.5
 41
0.0
 71
     1
 72
     1
  1
24
  7
SLDTEXTSTYLE0
 73
     1
 44
1.0
  0
ENDBLK
  5
1E2
330
1E0
100
AcDbEntity
  8
0
100
AcDbBlockEnd
  0
BLOCK
  5
1ED
330
1EC
100
AcDbEntity
  8
0
100
AcDbBlockBegin
  2
_D_4
 70
     0
 10
0.0
 20
0.0
 30
0.0
  3
_D_4
  1

  0
SOLID
  5
1EF
330
1EC
100
AcDbEntity
  8
FORMAT
100
AcDbTrace
 10
102.2738765606
 20
307.676562549
 30
0.0
 11
98.9718765606
 21
308.184562549
 31
0.0
 12
98.9718765606
 22
307.168562549
 32
0.0
 13
98.9718765606
 23
307.168562549
 33
0.0
  0
SOLID
  5
1F0
330
1EC
100
AcDbEntity
  8
FORMAT
100
AcDbTrace
 10
105.2738765606
 20
307.676562549
 30
0.0
 11
108.5758765606
 21
307.168562549
 31
0.0
 12
108.5758765606
 22
308.184562549
 32
0.0
 13
108.5758765606
 23
308.184562549
 33
0.0
  0
LINE
  5
1F1
330
1EC
100
AcDbEntity
  8
FORMAT
100
AcDbLine
 10
102.2738765606
 20
323.4765016268
 30
0.0
 11
102.2738765606
 21
306.676562549
 31
0.0
  0
LINE
  5
1F2
330
1EC
100
AcDbEntity
  8
FORMAT
100
AcDbLine
 10
105.2738765606
 20
297.4765016268
 30
0.0
 11
105.2738765606
 21
308.676562549
 31
0.0
  0
LINE
  5
1F3
330
1EC
100
AcDbEntity
  8
FORMAT
100
AcDbLine
 10
102.2738765606
 20
307.676562549
 30
0.0
 11
95.3756078166
 21
307.676562549
 31
0.0
  0
LINE
  5
1F4
330
1EC
100
AcDbEntity
  8
FORMAT
100
AcDbLine
 10
102.2738765606
 20
307.676562549
 30
0.0
 11
105.2738765606
 21
307.676562549
 31
0.0
  0
LINE
  5
1F5
330
1EC
100
AcDbEntity
  8
FORMAT
100
AcDbLine
 10
105.2738765606
 20
307.676562549
 30
0.0
 11
111.6238765606
 21
307.676562549
 31
0.0
  0
MTEXT
  5
1F6
330
1EC
100
AcDbEntity
  8
FORMAT
100
AcDbMText
 10
95.3756078166
 20
312.1882998711
 30
0.0
 40
3.5
 41
0.0
 71
     1
 72
     1
  1
3
  7
SLDTEXTSTYLE0
 73
     1
 44
1.0
  0
ENDBLK
  5
1EE
330
1EC
100
AcDbEntity
  8
0
100
AcDbBlockEnd
  0
BLOCK
  5
1F9
330
1F8
100
AcDbEntity
  8
0
100
AcDbBlockBegin
  2
_D_5
 70
     0
 10
0.0
 20
0.0
 30
0.0
  3
_D_5
  1

  0
SOLID
  5
1FB
330
1F8
100
AcDbEntity
  8
FORMAT
100
AcDbTrace
 10
124.2964325182
 20
296.4765016268
 30
0.0
 11
123.7884325182
 21
293.1745016268
 31
0.0
 12
124.8044325182
 22
293.1745016268
 32
0.0
 13
124.8044325182
 23
293.1745016268
 33
0.0
  0
SOLID
  5
1FC
330
1F8
100
AcDbEntity
  8
FORMAT
100
AcDbTrace
 10
124.2964325182
 20
268.4765016268
 30
0.0
 11
124.8044325182
 21
271.7785016268
 31
0.0
 12
123.7884325182
 22
271.7785016268
 32
0.0
 13
123.7884325182
 23
271.7785016268
 33
0.0
  0
LINE
  5
1FD
330
1F8
100
AcDbEntity
  8
FORMAT
100
AcDbLine
 10
106.2738765606
 20
296.4765016268
 30
0.0
 11
125.2964325182
 21
296.4765016268
 31
0.0
  0
LINE
  5
1FE
330
1F8
100
AcDbEntity
  8
FORMAT
100
AcDbLine
 10
100.8613828824
 20
268.4765016268
 30
0.0
 11
125.2964325182
 21
268.4765016268
 31
0.0
  0
LINE
  5
1FF
330
1F8
100
AcDbEntity
  8
FORMAT
100
AcDbLine
 10
124.2964325182
 20
296.4765016268
 30
0.0
 11
124.2964325182
 21
268.4765016268
 31
0.0
  0
MTEXT
  5
200
330
1F8
100
AcDbEntity
  8
FORMAT
100
AcDbMText
 10
119.7846951961
 20
279.8028905819
 30
0.0
 40
3.5
 41
0.0
 71
     1
 72
     1
  1
28
  7
SLDTEXTSTYLE0
 11
-1.059690869644414E-14
 21
1.0
 31
0.0
 73
     1
 44
1.0
  0
ENDBLK
  5
1FA
330
1F8
100
AcDbEntity
  8
0
100
AcDbBlockEnd
  0
BLOCK
  5
203
330
202
100
AcDbEntity
  8
0
100
AcDbBlockBegin
  2
_D_6
 70
     0
 10
0.0
 20
0.0
 30
0.0
  3
_D_6
  1

  0
SOLID
  5
205
330
202
100
AcDbEntity
  8
FORMAT
100
AcDbTrace
 10
124.2964325182
 20
268.4765016268
 30
0.0
 11
123.7884325182
 21
265.1745016268
 31
0.0
 12
124.8044325182
 22
265.1745016268
 32
0.0
 13
124.8044325182
 23
265.1745016268
 33
0.0
  0
SOLID
  5
206
330
202
100
AcDbEntity
  8
FORMAT
100
AcDbTrace
 10
124.2964325182
 20
240.4765016268
 30
0.0
 11
124.8044325182
 21
243.7785016268
 31
0.0
 12
123.7884325182
 22
243.7785016268
 32
0.0
 13
123.7884325182
 23
243.7785016268
 33
0.0
  0
LINE
  5
207
330
202
100
AcDbEntity
  8
FORMAT
100
AcDbLine
 10
111.5738765606
 20
268.4765016268
 30
0.0
 11
125.2964325182
 21
268.4765016268
 31
0.0
  0
LINE
  5
208
330
202
100
AcDbEntity
  8
FORMAT
100
AcDbLine
 10
106.2738765606
 20
240.4765016268
 30
0.0
 11
125.2964325182
 21
240.4765016268
 31
0.0
  0
LINE
  5
209
330
202
100
AcDbEntity
  8
FORMAT
100
AcDbLine
 10
124.2964325182
 20
268.4765016268
 30
0.0
 11
124.2964325182
 21
240.4765016268
 31
0.0
  0
MTEXT
  5
20A
330
202
100
AcDbEntity
  8
FORMAT
100
AcDbMText
 10
119.7846951961
 20
251.8028905819
 30
0.0
 40
3.5
 41
0.0
 71
     1
 72
     1
  1
28
  7
SLDTEXTSTYLE0
 11
-7.044195017643634E-15
 21
1.0
 31
0.0
 73
     1
 44
1.0
  0
ENDBLK
  5
204
330
202
100
AcDbEntity
  8
0
100
AcDbBlockEnd
  0
BLOCK
  5
20D
330
20C
100
AcDbEntity
  8
0
100
AcDbBlockBegin
  2
_D_7
 70
     0
 10
0.0
 20
0.0
 30
0.0
  3
_D_7
  1

  0
SOLID
  5
20F
330
20C
100
AcDbEntity
  8
FORMAT
100
AcDbTrace
 10
132.7409065198
 20
324.4765016268
 30
0.0
 11
132.2329065198
 21
321.1745016268
 31
0.0
 12
133.2489065198
 22
321.1745016268
 32
0.0
 13
133.2489065198
 23
321.1745016268
 33
0.0
  0
SOLID
  5
210
330
20C
100
AcDbEntity
  8
FORMAT
100
AcDbTrace
 10
132.7409065198
 20
212.4765016268
 30
0.0
 11
133.2489065198
 21
215.7785016268
 31
0.0
 12
132.2329065198
 22
215.7785016268
 32
0.0
 13
132.2329065198
 23
215.7785016268
 33
0.0
  0
LINE
  5
211
330
20C
100
AcDbEntity
  8
FORMAT
100
AcDbLine
 10
103.2738765606
 20
324.4765016268
 30
0.0
 11
133.7409065198
 21
324.4765016268
 31
0.0
  0
LINE
  5
212
330
20C
100
AcDbEntity
  8
FORMAT
100
AcDbLine
 10
103.2738765606
 20
212.4765016268
 30
0.0
 11
133.7409065198
 21
212.4765016268
 31
0.0
  0
LINE
  5
213
330
20C
100
AcDbEntity
  8
FORMAT
100
AcDbLine
 10
132.7409065198
 20
324.4765016268
 30
0.0
 11
132.7409065198
 21
212.4765016268
 31
0.0
  0
MTEXT
  5
214
330
20C
100
AcDbEntity
  8
FORMAT
100
AcDbMText
 10
128.2291691978
 20
264.4660850595
 30
0.0
 40
3.5
 41
0.0
 71
     1
 72
     1
  1
112
  7
SLDTEXTSTYLE0
 11
-1.059690869644414E-14
 21
1.0
 31
0.0
 73
     1
 44
1.0
  0
ENDBLK
  5
20E
330
20C
100
AcDbEntity
  8
0
100
AcDbBlockEnd
  0
BLOCK
  5
217
330
216
100
AcDbEntity
  8
0
100
AcDbBlockBegin
  2
_D_8
 70
     0
 10
0.0
 20
0.0
 30
0.0
  3
_D_8
  1

  0
SOLID
  5
219
330
216
100
AcDbEntity
  8
FORMAT
100
AcDbTrace
 10
139.3850502215
 20
346.4765016268
 30
0.0
 11
138.8770502215
 21
343.1745016268
 31
0.0
 12
139.8930502215
 22
343.1745016268
 32
0.0
 13
139.8930502215
 23
343.1745016268
 33
0.0
  0
SOLID
  5
21A
330
216
100
AcDbEntity
  8
FORMAT
100
AcDbTrace
 10
139.3850502215
 20
190.4765016268
 30
0.0
 11
139.8930502215
 21
193.7785016268
 31
0.0
 12
138.8770502215
 22
193.7785016268
 32
0.0
 13
138.8770502215
 23
193.7785016268
 33
0.0
  0
LINE
  5
21B
330
216
100
AcDbEntity
  8
FORMAT
100
AcDbLine
 10
109.2738765606
 20
346.4765016268
 30
0.0
 11
140.3850502215
 21
346.4765016268
 31
0.0
  0
LINE
  5
21C
330
216
100
AcDbEntity
  8
FORMAT
100
AcDbLine
 10
108.2738765606
 20
190.4765016268
 30
0.0
 11
140.3850502215
 21
190.4765016268
 31
0.0
  0
LINE
  5
21D
330
216
100
AcDbEntity
  8
FORMAT
100
AcDbLine
 10
139.3850502215
 20
346.4765016268
 30
0.0
 11
139.3850502215
 21
190.4765016268
 31
0.0
  0
MTEXT
  5
21E
330
216
100
AcDbEntity
  8
FORMAT
100
AcDbMText
 10
134.8733128994
 20
264.4660850595
 30
0.0
 40
3.5
 41
0.0
 71
     1
 72
     1
  1
156
  7
SLDTEXTSTYLE0
 11
-6.156016597943509E-15
 21
1.0
 31
0.0
 73
     1
 44
1.0
  0
ENDBLK
  5
218
330
216
100
AcDbEntity
  8
0
100
AcDbBlockEnd
  0
BLOCK
  5
221
330
220
100
AcDbEntity
  8
0
100
AcDbBlockBegin
  2
SW_CENTERMARKSYMBOL_0
 70
     0
 10
0.0
 20
0.0
 30
0.0
  3
SW_CENTERMARKSYMBOL_0
  1

  0
LINE
  5
223
330
220
100
AcDbEntity
  8
FORMAT
 62
     0
100
AcDbLine
 10
0.0
 20
0.0
 30
0.0
 11
-2.5
 21
0.0
 31
0.0
  0
LINE
  5
224
330
220
100
AcDbEntity
  8
FORMAT
 62
     0
100
AcDbLine
 10
0.0
 20
0.0
 30
0.0
 11
0.0
 21
-2.5
 31
0.0
  0
LINE
  5
225
330
220
100
AcDbEntity
  8
FORMAT
 62
     0
100
AcDbLine
 10
0.0
 20
0.0
 30
0.0
 11
2.5
 21
0.0
 31
0.0
  0
LINE
  5
226
330
220
100
AcDbEntity
  8
FORMAT
 62
     0
100
AcDbLine
 10
0.0
 20
0.0
 30
0.0
 11
0.0
 21
2.5
 31
0.0
  0
LINE
  5
227
330
220
100
AcDbEntity
  8
FORMAT
 62
     0
100
AcDbLine
 10
-5.0
 20
0.0
 30
0.0
 11
-5.25
 21
0.0
 31
0.0
  0
LINE
  5
228
330
220
100
AcDbEntity
  8
FORMAT
 62
     0
100
AcDbLine
 10
0.0
 20
-5.0
 30
0.0
 11
0.0
 21
-5.25
 31
0.0
  0
LINE
  5
229
330
220
100
AcDbEntity
  8
FORMAT
 62
     0
100
AcDbLine
 10
5.0
 20
0.0
 30
0.0
 11
5.25
 21
0.0
 31
0.0
  0
LINE
  5
22A
330
220
100
AcDbEntity
  8
FORMAT
 62
     0
100
AcDbLine
 10
0.0
 20
5.0
 30
0.0
 11
0.0
 21
5.25
 31
0.0
  0
ENDBLK
  5
222
330
220
100
AcDbEntity
  8
0
100
AcDbBlockEnd
  0
BLOCK
  5
22D
330
22C
100
AcDbEntity
  8
0
100
AcDbBlockBegin
  2
SW_CENTERMARKSYMBOL_1
 70
     0
 10
0.0
 20
0.0
 30
0.0
  3
SW_CENTERMARKSYMBOL_1
  1

  0
LINE
  5
22F
330
22C
100
AcDbEntity
  8
FORMAT
 62
     0
100
AcDbLine
 10
0.0
 20
0.0
 30
0.0
 11
-2.5
 21
0.0
 31
0.0
  0
LINE
  5
230
330
22C
100
AcDbEntity
  8
FORMAT
 62
     0
100
AcDbLine
 10
0.0
 20
0.0
 30
0.0
 11
0.0
 21
-2.5
 31
0.0
  0
LINE
  5
231
330
22C
100
AcDbEntity
  8
FORMAT
 62
     0
100
AcDbLine
 10
0.0
 20
0.0
 30
0.0
 11
2.5
 21
0.0
 31
0.0
  0
LINE
  5
232
330
22C
100
AcDbEntity
  8
FORMAT
 62
     0
100
AcDbLine
 10
0.0
 20
0.0
 30
0.0
 11
0.0
 21
2.5
 31
0.0
  0
LINE
  5
233
330
22C
100
AcDbEntity
  8
FORMAT
 62
     0
100
AcDbLine
 10
-5.0
 20
0.0
 30
0.0
 11
-5.25
 21
0.0
 31
0.0
  0
LINE
  5
234
330
22C
100
AcDbEntity
  8
FORMAT
 62
     0
100
AcDbLine
 10
0.0
 20
-5.0
 30
0.0
 11
0.0
 21
-5.25
 31
0.0
  0
LINE
  5
235
330
22C
100
AcDbEntity
  8
FORMAT
 62
     0
100
AcDbLine
 10
5.0
 20
0.0
 30
0.0
 11
5.25
 21
0.0
 31
0.0
  0
LINE
  5
236
330
22C
100
AcDbEntity
  8
FORMAT
 62
     0
100
AcDbLine
 10
0.0
 20
5.0
 30
0.0
 11
0.0
 21
5.25
 31
0.0
  0
ENDBLK
  5
22E
330
22C
100
AcDbEntity
  8
0
100
AcDbBlockEnd
  0
BLOCK
  5
239
330
238
100
AcDbEntity
  8
0
100
AcDbBlockBegin
  2
SW_CENTERMARKSYMBOL_2
 70
     0
 10
0.0
 20
0.0
 30
0.0
  3
SW_CENTERMARKSYMBOL_2
  1

  0
LINE
  5
23B
330
238
100
AcDbEntity
  8
FORMAT
 62
     0
100
AcDbLine
 10
0.0
 20
0.0
 30
0.0
 11
-2.5
 21
0.0
 31
0.0
  0
LINE
  5
23C
330
238
100
AcDbEntity
  8
FORMAT
 62
     0
100
AcDbLine
 10
0.0
 20
0.0
 30
0.0
 11
0.0
 21
-2.5
 31
0.0
  0
LINE
  5
23D
330
238
100
AcDbEntity
  8
FORMAT
 62
     0
100
AcDbLine
 10
0.0
 20
0.0
 30
0.0
 11
2.5
 21
0.0
 31
0.0
  0
LINE
  5
23E
330
238
100
AcDbEntity
  8
FORMAT
 62
     0
100
AcDbLine
 10
0.0
 20
0.0
 30
0.0
 11
0.0
 21
2.5
 31
0.0
  0
LINE
  5
23F
330
238
100
AcDbEntity
  8
FORMAT
 62
     0
100
AcDbLine
 10
-5.0
 20
0.0
 30
0.0
 11
-5.25
 21
0.0
 31
0.0
  0
LINE
  5
240
330
238
100
AcDbEntity
  8
FORMAT
 62
     0
100
AcDbLine
 10
0.0
 20
-5.0
 30
0.0
 11
0.0
 21
-5.25
 31
0.0
  0
LINE
  5
241
330
238
100
AcDbEntity
  8
FORMAT
 62
     0
100
AcDbLine
 10
5.0
 20
0.0
 30
0.0
 11
5.25
 21
0.0
 31
0.0
  0
LINE
  5
242
330
238
100
AcDbEntity
  8
FORMAT
 62
     0
100
AcDbLine
 10
0.0
 20
5.0
 30
0.0
 11
0.0
 21
5.25
 31
0.0
  0
ENDBLK
  5
23A
330
238
100
AcDbEntity
  8
0
100
AcDbBlockEnd
  0
BLOCK
  5
245
330
244
100
AcDbEntity
  8
0
100
AcDbBlockBegin
  2
SW_CENTERMARKSYMBOL_3
 70
     0
 10
0.0
 20
0.0
 30
0.0
  3
SW_CENTERMARKSYMBOL_3
  1

  0
LINE
  5
247
330
244
100
AcDbEntity
  8
FORMAT
 62
     0
100
AcDbLine
 10
0.0
 20
0.0
 30
0.0
 11
-2.5
 21
0.0
 31
0.0
  0
LINE
  5
248
330
244
100
AcDbEntity
  8
FORMAT
 62
     0
100
AcDbLine
 10
0.0
 20
0.0
 30
0.0
 11
0.0
 21
-2.5
 31
0.0
  0
LINE
  5
249
330
244
100
AcDbEntity
  8
FORMAT
 62
     0
100
AcDbLine
 10
0.0
 20
0.0
 30
0.0
 11
2.5
 21
0.0
 31
0.0
  0
LINE
  5
24A
330
244
100
AcDbEntity
  8
FORMAT
 62
     0
100
AcDbLine
 10
0.0
 20
0.0
 30
0.0
 11
0.0
 21
2.5
 31
0.0
  0
LINE
  5
24B
330
244
100
AcDbEntity
  8
FORMAT
 62
     0
100
AcDbLine
 10
-5.0
 20
0.0
 30
0.0
 11
-5.25
 21
0.0
 31
0.0
  0
LINE
  5
24C
330
244
100
AcDbEntity
  8
FORMAT
 62
     0
100
AcDbLine
 10
0.0
 20
-5.0
 30
0.0
 11
0.0
 21
-5.25
 31
0.0
  0
LINE
  5
24D
330
244
100
AcDbEntity
  8
FORMAT
 62
     0
100
AcDbLine
 10
5.0
 20
0.0
 30
0.0
 11
5.25
 21
0.0
 31
0.0
  0
LINE
  5
24E
330
244
100
AcDbEntity
  8
FORMAT
 62
     0
100
AcDbLine
 10
0.0
 20
5.0
 30
0.0
 11
0.0
 21
5.25
 31
0.0
  0
ENDBLK
  5
246
330
244
100
AcDbEntity
  8
0
100
AcDbBlockEnd
  0
BLOCK
  5
251
330
250
100
AcDbEntity
  8
0
100
AcDbBlockBegin
  2
SW_CENTERMARKSYMBOL_4
 70
     0
 10
0.0
 20
0.0
 30
0.0
  3
SW_CENTERMARKSYMBOL_4
  1

  0
LINE
  5
253
330
250
100
AcDbEntity
  8
FORMAT
 62
     0
100
AcDbLine
 10
0.0
 20
0.0
 30
0.0
 11
-2.5
 21
0.0
 31
0.0
  0
LINE
  5
254
330
250
100
AcDbEntity
  8
FORMAT
 62
     0
100
AcDbLine
 10
0.0
 20
0.0
 30
0.0
 11
0.0
 21
-2.5
 31
0.0
  0
LINE
  5
255
330
250
100
AcDbEntity
  8
FORMAT
 62
     0
100
AcDbLine
 10
0.0
 20
0.0
 30
0.0
 11
2.5
 21
0.0
 31
0.0
  0
LINE
  5
256
330
250
100
AcDbEntity
  8
FORMAT
 62
     0
100
AcDbLine
 10
0.0
 20
0.0
 30
0.0
 11
0.0
 21
2.5
 31
0.0
  0
LINE
  5
257
330
250
100
AcDbEntity
  8
FORMAT
 62
     0
100
AcDbLine
 10
-5.0
 20
0.0
 30
0.0
 11
-5.25
 21
0.0
 31
0.0
  0
LINE
  5
258
330
250
100
AcDbEntity
  8
FORMAT
 62
     0
100
AcDbLine
 10
0.0
 20
-5.0
 30
0.0
 11
0.0
 21
-5.25
 31
0.0
  0
LINE
  5
259
330
250
100
AcDbEntity
  8
FORMAT
 62
     0
100
AcDbLine
 10
5.0
 20
0.0
 30
0.0
 11
5.25
 21
0.0
 31
0.0
  0
LINE
  5
25A
330
250
100
AcDbEntity
  8
FORMAT
 62
     0
100
AcDbLine
 10
0.0
 20
5.0
 30
0.0
 11
0.0
 21
5.25
 31
0.0
  0
ENDBLK
  5
252
330
250
100
AcDbEntity
  8
0
100
AcDbBlockEnd
  0
BLOCK
  5
25D
330
25C
100
AcDbEntity
  8
0
100
AcDbBlockBegin
  2
SW_CENTERMARKSYMBOL_5
 70
     0
 10
0.0
 20
0.0
 30
0.0
  3
SW_CENTERMARKSYMBOL_5
  1

  0
LINE
  5
25F
330
25C
100
AcDbEntity
  8
FORMAT
 62
     0
100
AcDbLine
 10
0.0
 20
0.0
 30
0.0
 11
-2.5
 21
0.0
 31
0.0
  0
LINE
  5
260
330
25C
100
AcDbEntity
  8
FORMAT
 62
     0
100
AcDbLine
 10
0.0
 20
0.0
 30
0.0
 11
0.0
 21
-2.5
 31
0.0
  0
LINE
  5
261
330
25C
100
AcDbEntity
  8
FORMAT
 62
     0
100
AcDbLine
 10
0.0
 20
0.0
 30
0.0
 11
2.5
 21
0.0
 31
0.0
  0
LINE
  5
262
330
25C
100
AcDbEntity
  8
FORMAT
 62
     0
100
AcDbLine
 10
0.0
 20
0.0
 30
0.0
 11
0.0
 21
2.5
 31
0.0
  0
LINE
  5
263
330
25C
100
AcDbEntity
  8
FORMAT
 62
     0
100
AcDbLine
 10
-5.0
 20
0.0
 30
0.0
 11
-5.25
 21
0.0
 31
0.0
  0
LINE
  5
264
330
25C
100
AcDbEntity
  8
FORMAT
 62
     0
100
AcDbLine
 10
0.0
 20
-5.0
 30
0.0
 11
0.0
 21
-5.25
 31
0.0
  0
LINE
  5
265
330
25C
100
AcDbEntity
  8
FORMAT
 62
     0
100
AcDbLine
 10
5.0
 20
0.0
 30
0.0
 11
5.25
 21
0.0
 31
0.0
  0
LINE
  5
266
330
25C
100
AcDbEntity
  8
FORMAT
 62
     0
100
AcDbLine
 10
0.0
 20
5.0
 30
0.0
 11
0.0
 21
5.25
 31
0.0
  0
ENDBLK
  5
25E
330
25C
100
AcDbEntity
  8
0
100
AcDbBlockEnd
  0
BLOCK
  5
269
330
268
100
AcDbEntity
  8
0
100
AcDbBlockBegin
  2
SW_CENTERMARKSYMBOL_6
 70
     0
 10
0.0
 20
0.0
 30
0.0
  3
SW_CENTERMARKSYMBOL_6
  1

  0
LINE
  5
26B
330
268
100
AcDbEntity
  8
FORMAT
 62
     0
100
AcDbLine
 10
0.0
 20
0.0
 30
0.0
 11
-2.5
 21
0.0
 31
0.0
  0
LINE
  5
26C
330
268
100
AcDbEntity
  8
FORMAT
 62
     0
100
AcDbLine
 10
0.0
 20
0.0
 30
0.0
 11
0.0
 21
-2.5
 31
0.0
  0
LINE
  5
26D
330
268
100
AcDbEntity
  8
FORMAT
 62
     0
100
AcDbLine
 10
0.0
 20
0.0
 30
0.0
 11
2.5
 21
0.0
 31
0.0
  0
LINE
  5
26E
330
268
100
AcDbEntity
  8
FORMAT
 62
     0
100
AcDbLine
 10
0.0
 20
0.0
 30
0.0
 11
0.0
 21
2.5
 31
0.0
  0
LINE
  5
26F
330
268
100
AcDbEntity
  8
FORMAT
 62
     0
100
AcDbLine
 10
-2.5
 20
0.0
 30
0.0
 11
-5.0
 21
0.0
 31
0.0
  0
LINE
  5
270
330
268
100
AcDbEntity
  8
FORMAT
 62
     0
100
AcDbLine
 10
0.0
 20
-2.5
 30
0.0
 11
0.0
 21
-5.0
 31
0.0
  0
LINE
  5
271
330
268
100
AcDbEntity
  8
FORMAT
 62
     0
100
AcDbLine
 10
2.5
 20
0.0
 30
0.0
 11
5.0
 21
0.0
 31
0.0
  0
LINE
  5
272
330
268
100
AcDbEntity
  8
FORMAT
 62
     0
100
AcDbLine
 10
0.0
 20
2.5
 30
0.0
 11
0.0
 21
5.0
 31
0.0
  0
ENDBLK
  5
26A
330
268
100
AcDbEntity
  8
0
100
AcDbBlockEnd
  0
BLOCK
  5
275
330
274
100
AcDbEntity
  8
0
100
AcDbBlockBegin
  2
SW_CENTERMARKSYMBOL_7
 70
     0
 10
0.0
 20
0.0
 30
0.0
  3
SW_CENTERMARKSYMBOL_7
  1

  0
LINE
  5
277
330
274
100
AcDbEntity
  8
FORMAT
 62
     0
100
AcDbLine
 10
0.0
 20
0.0
 30
0.0
 11
-2.5
 21
0.0
 31
0.0
  0
LINE
  5
278
330
274
100
AcDbEntity
  8
FORMAT
 62
     0
100
AcDbLine
 10
0.0
 20
0.0
 30
0.0
 11
0.0
 21
-2.5
 31
0.0
  0
LINE
  5
279
330
274
100
AcDbEntity
  8
FORMAT
 62
     0
100
AcDbLine
 10
0.0
 20
0.0
 30
0.0
 11
2.5
 21
0.0
 31
0.0
  0
LINE
  5
27A
330
274
100
AcDbEntity
  8
FORMAT
 62
     0
100
AcDbLine
 10
0.0
 20
0.0
 30
0.0
 11
0.0
 21
2.5
 31
0.0
  0
LINE
  5
27B
330
274
100
AcDbEntity
  8
FORMAT
 62
     0
100
AcDbLine
 10
-2.5
 20
0.0
 30
0.0
 11
-5.0
 21
0.0
 31
0.0
  0
LINE
  5
27C
330
274
100
AcDbEntity
  8
FORMAT
 62
     0
100
AcDbLine
 10
0.0
 20
-2.5
 30
0.0
 11
0.0
 21
-5.0
 31
0.0
  0
LINE
  5
27D
330
274
100
AcDbEntity
  8
FORMAT
 62
     0
100
AcDbLine
 10
2.5
 20
0.0
 30
0.0
 11
5.0
 21
0.0
 31
0.0
  0
LINE
  5
27E
330
274
100
AcDbEntity
  8
FORMAT
 62
     0
100
AcDbLine
 10
0.0
 20
2.5
 30
0.0
 11
0.0
 21
5.0
 31
0.0
  0
ENDBLK
  5
276
330
274
100
AcDbEntity
  8
0
100
AcDbBlockEnd
  0
BLOCK
  5
281
330
280
100
AcDbEntity
  8
0
100
AcDbBlockBegin
  2
SW_CENTERMARKSYMBOL_8
 70
     0
 10
0.0
 20
0.0
 30
0.0
  3
SW_CENTERMARKSYMBOL_8
  1

  0
LINE
  5
283
330
280
100
AcDbEntity
  8
FORMAT
 62
     0
100
AcDbLine
 10
0.0
 20
0.0
 30
0.0
 11
-2.5
 21
0.0
 31
0.0
  0
LINE
  5
284
330
280
100
AcDbEntity
  8
FORMAT
 62
     0
100
AcDbLine
 10
0.0
 20
0.0
 30
0.0
 11
0.0
 21
-2.5
 31
0.0
  0
LINE
  5
285
330
280
100
AcDbEntity
  8
FORMAT
 62
     0
100
AcDbLine
 10
0.0
 20
0.0
 30
0.0
 11
2.5
 21
0.0
 31
0.0
  0
LINE
  5
286
330
280
100
AcDbEntity
  8
FORMAT
 62
     0
100
AcDbLine
 10
0.0
 20
0.0
 30
0.0
 11
0.0
 21
2.5
 31
0.0
  0
LINE
  5
287
330
280
100
AcDbEntity
  8
FORMAT
 62
     0
100
AcDbLine
 10
-5.0
 20
0.0
 30
0.0
 11
-41.3431897671
 21
0.0
 31
0.0
  0
LINE
  5
288
330
280
100
AcDbEntity
  8
FORMAT
 62
     0
100
AcDbLine
 10
0.0
 20
-5.0
 30
0.0
 11
0.0
 21
-5.5
 31
0.0
  0
LINE
  5
289
330
280
100
AcDbEntity
  8
FORMAT
 62
     0
100
AcDbLine
 10
5.0
 20
0.0
 30
0.0
 11
24.5875063218
 21
0.0
 31
0.0
  0
LINE
  5
28A
330
280
100
AcDbEntity
  8
FORMAT
 62
     0
100
AcDbLine
 10
0.0
 20
5.0
 30
0.0
 11
0.0
 21
5.5
 31
0.0
  0
ENDBLK
  5
282
330
280
100
AcDbEntity
  8
0
100
AcDbBlockEnd
  0
BLOCK
  5
28D
330
28C
100
AcDbEntity
  8
0
100
AcDbBlockBegin
  2
SW_CENTERMARKSYMBOL_9
 70
     0
 10
0.0
 20
0.0
 30
0.0
  3
SW_CENTERMARKSYMBOL_9
  1

  0
LINE
  5
28F
330
28C
100
AcDbEntity
  8
FORMAT
 62
     0
100
AcDbLine
 10
0.0
 20
0.0
 30
0.0
 11
-2.5
 21
0.0
 31
0.0
  0
LINE
  5
290
330
28C
100
AcDbEntity
  8
FORMAT
 62
     0
100
AcDbLine
 10
0.0
 20
0.0
 30
0.0
 11
0.0
 21
-2.5
 31
0.0
  0
LINE
  5
291
330
28C
100
AcDbEntity
  8
FORMAT
 62
     0
100
AcDbLine
 10
0.0
 20
0.0
 30
0.0
 11
2.5
 21
0.0
 31
0.0
  0
LINE
  5
292
330
28C
100
AcDbEntity
  8
FORMAT
 62
     0
100
AcDbLine
 10
0.0
 20
0.0
 30
0.0
 11
0.0
 21
2.5
 31
0.0
  0
LINE
  5
293
330
28C
100
AcDbEntity
  8
FORMAT
 62
     0
100
AcDbLine
 10
-5.0
 20
0.0
 30
0.0
 11
-5.3
 21
0.0
 31
0.0
  0
LINE
  5
294
330
28C
100
AcDbEntity
  8
FORMAT
 62
     0
100
AcDbLine
 10
0.0
 20
-5.0
 30
0.0
 11
0.0
 21
-5.3
 31
0.0
  0
LINE
  5
295
330
28C
100
AcDbEntity
  8
FORMAT
 62
     0
100
AcDbLine
 10
5.0
 20
0.0
 30
0.0
 11
5.3
 21
0.0
 31
0.0
  0
LINE
  5
296
330
28C
100
AcDbEntity
  8
FORMAT
 62
     0
100
AcDbLine
 10
0.0
 20
5.0
 30
0.0
 11
0.0
 21
5.3
 31
0.0
  0
ENDBLK
  5
28E
330
28C
100
AcDbEntity
  8
0
100
AcDbBlockEnd
  0
BLOCK
  5
299
330
298
100
AcDbEntity
  8
0
100
AcDbBlockBegin
  2
SW_CENTERMARKSYMBOL_10
 70
     0
 10
0.0
 20
0.0
 30
0.0
  3
SW_CENTERMARKSYMBOL_10
  1

  0
LINE
  5
29B
330
298
100
AcDbEntity
  8
FORMAT
 62
     0
100
AcDbLine
 10
0.0
 20
0.0
 30
0.0
 11
-2.5
 21
0.0
 31
0.0
  0
LINE
  5
29C
330
298
100
AcDbEntity
  8
FORMAT
 62
     0
100
AcDbLine
 10
0.0
 20
0.0
 30
0.0
 11
0.0
 21
-2.5
 31
0.0
  0
LINE
  5
29D
330
298
100
AcDbEntity
  8
FORMAT
 62
     0
100
AcDbLine
 10
0.0
 20
0.0
 30
0.0
 11
2.5
 21
0.0
 31
0.0
  0
LINE
  5
29E
330
298
100
AcDbEntity
  8
FORMAT
 62
     0
100
AcDbLine
 10
0.0
 20
0.0
 30
0.0
 11
0.0
 21
2.5
 31
0.0
  0
LINE
  5
29F
330
298
100
AcDbEntity
  8
FORMAT
 62
     0
100
AcDbLine
 10
-5.0
 20
0.0
 30
0.0
 11
-8.0
 21
0.0
 31
0.0
  0
LINE
  5
2A0
330
298
100
AcDbEntity
  8
FORMAT
 62
     0
100
AcDbLine
 10
0.0
 20
-5.0
 30
0.0
 11
0.0
 21
-8.0
 31
0.0
  0
LINE
  5
2A1
330
298
100
AcDbEntity
  8
FORMAT
 62
     0
100
AcDbLine
 10
5.0
 20
0.0
 30
0.0
 11
8.0
 21
0.0
 31
0.0
  0
LINE
  5
2A2
330
298
100
AcDbEntity
  8
FORMAT
 62
     0
100
AcDbLine
 10
0.0
 20
5.0
 30
0.0
 11
0.0
 21
21.9367942823
 31
0.0
  0
ENDBLK
  5
29A
330
298
100
AcDbEntity
  8
0
100
AcDbBlockEnd
  0
BLOCK
  5
2A5
330
2A4
100
AcDbEntity
  8
0
100
AcDbBlockBegin
  2
SW_CENTERMARKSYMBOL_11
 70
     0
 10
0.0
 20
0.0
 30
0.0
  3
SW_CENTERMARKSYMBOL_11
  1

  0
LINE
  5
2A7
330
2A4
100
AcDbEntity
  8
FORMAT
 62
     0
100
AcDbLine
 10
0.0
 20
0.0
 30
0.0
 11
-2.5
 21
0.0
 31
0.0
  0
LINE
  5
2A8
330
2A4
100
AcDbEntity
  8
FORMAT
 62
     0
100
AcDbLine
 10
0.0
 20
0.0
 30
0.0
 11
0.0
 21
-2.5
 31
0.0
  0
LINE
  5
2A9
330
2A4
100
AcDbEntity
  8
FORMAT
 62
     0
100
AcDbLine
 10
0.0
 20
0.0
 30
0.0
 11
2.5
 21
0.0
 31
0.0
  0
LINE
  5
2AA
330
2A4
100
AcDbEntity
  8
FORMAT
 62
     0
100
AcDbLine
 10
0.0
 20
0.0
 30
0.0
 11
0.0
 21
2.5
 31
0.0
  0
LINE
  5
2AB
330
2A4
100
AcDbEntity
  8
FORMAT
 62
     0
100
AcDbLine
 10
-5.0
 20
0.0
 30
0.0
 11
-8.0
 21
0.0
 31
0.0
  0
LINE
  5
2AC
330
2A4
100
AcDbEntity
  8
FORMAT
 62
     0
100
AcDbLine
 10
0.0
 20
-5.0
 30
0.0
 11
0.0
 21
-8.0
 31
0.0
  0
LINE
  5
2AD
330
2A4
100
AcDbEntity
  8
FORMAT
 62
     0
100
AcDbLine
 10
5.0
 20
0.0
 30
0.0
 11
8.0
 21
0.0
 31
0.0
  0
LINE
  5
2AE
330
2A4
100
AcDbEntity
  8
FORMAT
 62
     0
100
AcDbLine
 10
0.0
 20
5.0
 30
0.0
 11
0.0
 21
8.0
 31
0.0
  0
ENDBLK
  5
2A6
330
2A4
100
AcDbEntity
  8
0
100
AcDbBlockEnd
  0
BLOCK
  5
2B1
330
2B0
100
AcDbEntity
  8
0
100
AcDbBlockBegin
  2
SW_CENTERMARKSYMBOL_12
 70
     0
 10
0.0
 20
0.0
 30
0.0
  3
SW_CENTERMARKSYMBOL_12
  1

  0
LINE
  5
2B3
330
2B0
100
AcDbEntity
  8
FORMAT
 62
     0
100
AcDbLine
 10
0.0
 20
0.0
 30
0.0
 11
-2.5
 21
0.0
 31
0.0
  0
LINE
  5
2B4
330
2B0
100
AcDbEntity
  8
FORMAT
 62
     0
100
AcDbLine
 10
0.0
 20
0.0
 30
0.0
 11
0.0
 21
-2.5
 31
0.0
  0
LINE
  5
2B5
330
2B0
100
AcDbEntity
  8
FORMAT
 62
     0
100
AcDbLine
 10
0.0
 20
0.0
 30
0.0
 11
2.5
 21
0.0
 31
0.0
  0
LINE
  5
2B6
330
2B0
100
AcDbEntity
  8
FORMAT
 62
     0
100
AcDbLine
 10
0.0
 20
0.0
 30
0.0
 11
0.0
 21
2.5
 31
0.0
  0
LINE
  5
2B7
330
2B0
100
AcDbEntity
  8
FORMAT
 62
     0
100
AcDbLine
 10
-5.0
 20
0.0
 30
0.0
 11
-5.3
 21
0.0
 31
0.0
  0
LINE
  5
2B8
330
2B0
100
AcDbEntity
  8
FORMAT
 62
     0
100
AcDbLine
 10
0.0
 20
-5.0
 30
0.0
 11
0.0
 21
-5.3
 31
0.0
  0
LINE
  5
2B9
330
2B0
100
AcDbEntity
  8
FORMAT
 62
     0
100
AcDbLine
 10
5.0
 20
0.0
 30
0.0
 11
11.4479185753
 21
0.0
 31
0.0
  0
LINE
  5
2BA
330
2B0
100
AcDbEntity
  8
FORMAT
 62
     0
100
AcDbLine
 10
0.0
 20
5.0
 30
0.0
 11
0.0
 21
5.3
 31
0.0
  0
ENDBLK
  5
2B2
330
2B0
100
AcDbEntity
  8
0
100
AcDbBlockEnd
  0
BLOCK
  5
2BD
330
2BC
100
AcDbEntity
  8
0
100
AcDbBlockBegin
  2
SW_CENTERMARKSYMBOL_13
 70
     0
 10
0.0
 20
0.0
 30
0.0
  3
SW_CENTERMARKSYMBOL_13
  1

  0
LINE
  5
2BF
330
2BC
100
AcDbEntity
  8
FORMAT
 62
     0
100
AcDbLine
 10
0.0
 20
0.0
 30
0.0
 11
-2.5
 21
0.0
 31
0.0
  0
LINE
  5
2C0
330
2BC
100
AcDbEntity
  8
FORMAT
 62
     0
100
AcDbLine
 10
0.0
 20
0.0
 30
0.0
 11
0.0
 21
-2.5
 31
0.0
  0
LINE
  5
2C1
330
2BC
100
AcDbEntity
  8
FORMAT
 62
     0
100
AcDbLine
 10
0.0
 20
0.0
 30
0.0
 11
2.5
 21
0.0
 31
0.0
  0
LINE
  5
2C2
330
2BC
100
AcDbEntity
  8
FORMAT
 62
     0
100
AcDbLine
 10
0.0
 20
0.0
 30
0.0
 11
0.0
 21
2.5
 31
0.0
  0
LINE
  5
2C3
330
2BC
100
AcDbEntity
  8
FORMAT
 62
     0
100
AcDbLine
 10
-5.0
 20
0.0
 30
0.0
 11
-5.3
 21
0.0
 31
0.0
  0
LINE
  5
2C4
330
2BC
100
AcDbEntity
  8
FORMAT
 62
     0
100
AcDbLine
 10
0.0
 20
-5.0
 30
0.0
 11
0.0
 21
-5.3
 31
0.0
  0
LINE
  5
2C5
330
2BC
100
AcDbEntity
  8
FORMAT
 62
     0
100
AcDbLine
 10
5.0
 20
0.0
 30
0.0
 11
5.3
 21
0.0
 31
0.0
  0
LINE
  5
2C6
330
2BC
100
AcDbEntity
  8
FORMAT
 62
     0
100
AcDbLine
 10
0.0
 20
5.0
 30
0.0
 11
0.0
 21
5.3
 31
0.0
  0
ENDBLK
  5
2BE
330
2BC
100
AcDbEntity
  8
0
100
AcDbBlockEnd
  0
BLOCK
  5
2C9
330
2C8
100
AcDbEntity
  8
0
100
AcDbBlockBegin
  2
SW_CENTERMARKSYMBOL_14
 70
     0
 10
0.0
 20
0.0
 30
0.0
  3
SW_CENTERMARKSYMBOL_14
  1

  0
LINE
  5
2CB
330
2C8
100
AcDbEntity
  8
FORMAT
 62
     0
100
AcDbLine
 10
0.0
 20
0.0
 30
0.0
 11
-2.5
 21
0.0
 31
0.0
  0
LINE
  5
2CC
330
2C8
100
AcDbEntity
  8
FORMAT
 62
     0
100
AcDbLine
 10
0.0
 20
0.0
 30
0.0
 11
0.0
 21
-2.5
 31
0.0
  0
LINE
  5
2CD
330
2C8
100
AcDbEntity
  8
FORMAT
 62
     0
100
AcDbLine
 10
0.0
 20
0.0
 30
0.0
 11
2.5
 21
0.0
 31
0.0
  0
LINE
  5
2CE
330
2C8
100
AcDbEntity
  8
FORMAT
 62
     0
100
AcDbLine
 10
0.0
 20
0.0
 30
0.0
 11
0.0
 21
2.5
 31
0.0
  0
LINE
  5
2CF
330
2C8
100
AcDbEntity
  8
FORMAT
 62
     0
100
AcDbLine
 10
-2.5
 20
0.0
 30
0.0
 11
-4.0
 21
0.0
 31
0.0
  0
LINE
  5
2D0
330
2C8
100
AcDbEntity
  8
FORMAT
 62
     0
100
AcDbLine
 10
0.0
 20
-2.5
 30
0.0
 11
0.0
 21
-4.0
 31
0.0
  0
LINE
  5
2D1
330
2C8
100
AcDbEntity
  8
FORMAT
 62
     0
100
AcDbLine
 10
2.5
 20
0.0
 30
0.0
 11
4.0
 21
0.0
 31
0.0
  0
LINE
  5
2D2
330
2C8
100
AcDbEntity
  8
FORMAT
 62
     0
100
AcDbLine
 10
0.0
 20
2.5
 30
0.0
 11
0.0
 21
4.0
 31
0.0
  0
ENDBLK
  5
2CA
330
2C8
100
AcDbEntity
  8
0
100
AcDbBlockEnd
  0
BLOCK
  5
2D5
330
2D4
100
AcDbEntity
  8
0
100
AcDbBlockBegin
  2
SW_CENTERMARKSYMBOL_15
 70
     0
 10
0.0
 20
0.0
 30
0.0
  3
SW_CENTERMARKSYMBOL_15
  1

  0
LINE
  5
2D7
330
2D4
100
AcDbEntity
  8
FORMAT
 62
     0
100
AcDbLine
 10
0.0
 20
0.0
 30
0.0
 11
-2.5
 21
0.0
 31
0.0
  0
LINE
  5
2D8
330
2D4
100
AcDbEntity
  8
FORMAT
 62
     0
100
AcDbLine
 10
0.0
 20
0.0
 30
0.0
 11
0.0
 21
-2.5
 31
0.0
  0
LINE
  5
2D9
330
2D4
100
AcDbEntity
  8
FORMAT
 62
     0
100
AcDbLine
 10
0.0
 20
0.0
 30
0.0
 11
2.5
 21
0.0
 31
0.0
  0
LINE
  5
2DA
330
2D4
100
AcDbEntity
  8
FORMAT
 62
     0
100
AcDbLine
 10
0.0
 20
0.0
 30
0.0
 11
0.0
 21
2.5
 31
0.0
  0
LINE
  5
2DB
330
2D4
100
AcDbEntity
  8
FORMAT
 62
     0
100
AcDbLine
 10
-2.5
 20
0.0
 30
0.0
 11
-4.0
 21
0.0
 31
0.0
  0
LINE
  5
2DC
330
2D4
100
AcDbEntity
  8
FORMAT
 62
     0
100
AcDbLine
 10
0.0
 20
-2.5
 30
0.0
 11
0.0
 21
-4.0
 31
0.0
  0
LINE
  5
2DD
330
2D4
100
AcDbEntity
  8
FORMAT
 62
     0
100
AcDbLine
 10
2.5
 20
0.0
 30
0.0
 11
4.0
 21
0.0
 31
0.0
  0
LINE
  5
2DE
330
2D4
100
AcDbEntity
  8
FORMAT
 62
     0
100
AcDbLine
 10
0.0
 20
2.5
 30
0.0
 11
0.0
 21
4.0
 31
0.0
  0
ENDBLK
  5
2D6
330
2D4
100
AcDbEntity
  8
0
100
AcDbBlockEnd
  0
BLOCK
  5
2E1
330
2E0
100
AcDbEntity
  8
0
100
AcDbBlockBegin
  2
SW_CENTERMARKSYMBOL_16
 70
     0
 10
0.0
 20
0.0
 30
0.0
  3
SW_CENTERMARKSYMBOL_16
  1

  0
LINE
  5
2E3
330
2E0
100
AcDbEntity
  8
FORMAT
 62
     0
100
AcDbLine
 10
0.0
 20
0.0
 30
0.0
 11
-2.5
 21
0.0
 31
0.0
  0
LINE
  5
2E4
330
2E0
100
AcDbEntity
  8
FORMAT
 62
     0
100
AcDbLine
 10
0.0
 20
0.0
 30
0.0
 11
0.0
 21
-2.5
 31
0.0
  0
LINE
  5
2E5
330
2E0
100
AcDbEntity
  8
FORMAT
 62
     0
100
AcDbLine
 10
0.0
 20
0.0
 30
0.0
 11
2.5
 21
0.0
 31
0.0
  0
LINE
  5
2E6
330
2E0
100
AcDbEntity
  8
FORMAT
 62
     0
100
AcDbLine
 10
0.0
 20
0.0
 30
0.0
 11
0.0
 21
2.5
 31
0.0
  0
LINE
  5
2E7
330
2E0
100
AcDbEntity
  8
FORMAT
 62
     0
100
AcDbLine
 10
-2.5
 20
0.0
 30
0.0
 11
-4.0
 21
0.0
 31
0.0
  0
LINE
  5
2E8
330
2E0
100
AcDbEntity
  8
FORMAT
 62
     0
100
AcDbLine
 10
0.0
 20
-2.5
 30
0.0
 11
0.0
 21
-4.0
 31
0.0
  0
LINE
  5
2E9
330
2E0
100
AcDbEntity
  8
FORMAT
 62
     0
100
AcDbLine
 10
2.5
 20
0.0
 30
0.0
 11
4.0
 21
0.0
 31
0.0
  0
LINE
  5
2EA
330
2E0
100
AcDbEntity
  8
FORMAT
 62
     0
100
AcDbLine
 10
0.0
 20
2.5
 30
0.0
 11
0.0
 21
4.0
 31
0.0
  0
ENDBLK
  5
2E2
330
2E0
100
AcDbEntity
  8
0
100
AcDbBlockEnd
  0
BLOCK
  5
2ED
330
2EC
100
AcDbEntity
  8
0
100
AcDbBlockBegin
  2
SW_CENTERMARKSYMBOL_17
 70
     0
 10
0.0
 20
0.0
 30
0.0
  3
SW_CENTERMARKSYMBOL_17
  1

  0
LINE
  5
2EF
330
2EC
100
AcDbEntity
  8
FORMAT
 62
     0
100
AcDbLine
 10
0.0
 20
0.0
 30
0.0
 11
-2.5
 21
0.0
 31
0.0
  0
LINE
  5
2F0
330
2EC
100
AcDbEntity
  8
FORMAT
 62
     0
100
AcDbLine
 10
0.0
 20
0.0
 30
0.0
 11
0.0
 21
-2.5
 31
0.0
  0
LINE
  5
2F1
330
2EC
100
AcDbEntity
  8
FORMAT
 62
     0
100
AcDbLine
 10
0.0
 20
0.0
 30
0.0
 11
2.5
 21
0.0
 31
0.0
  0
LINE
  5
2F2
330
2EC
100
AcDbEntity
  8
FORMAT
 62
     0
100
AcDbLine
 10
0.0
 20
0.0
 30
0.0
 11
0.0
 21
2.5
 31
0.0
  0
LINE
  5
2F3
330
2EC
100
AcDbEntity
  8
FORMAT
 62
     0
100
AcDbLine
 10
-2.5
 20
0.0
 30
0.0
 11
-4.0
 21
0.0
 31
0.0
  0
LINE
  5
2F4
330
2EC
100
AcDbEntity
  8
FORMAT
 62
     0
100
AcDbLine
 10
0.0
 20
-2.5
 30
0.0
 11
0.0
 21
-4.0
 31
0.0
  0
LINE
  5
2F5
330
2EC
100
AcDbEntity
  8
FORMAT
 62
     0
100
AcDbLine
 10
2.5
 20
0.0
 30
0.0
 11
4.0
 21
0.0
 31
0.0
  0
LINE
  5
2F6
330
2EC
100
AcDbEntity
  8
FORMAT
 62
     0
100
AcDbLine
 10
0.0
 20
2.5
 30
0.0
 11
0.0
 21
4.0
 31
0.0
  0
ENDBLK
  5
2EE
330
2EC
100
AcDbEntity
  8
0
100
AcDbBlockEnd
  0
BLOCK
  5
2F9
330
2F8
100
AcDbEntity
  8
0
100
AcDbBlockBegin
  2
SW_CENTERMARKSYMBOL_18
 70
     0
 10
0.0
 20
0.0
 30
0.0
  3
SW_CENTERMARKSYMBOL_18
  1

  0
LINE
  5
2FB
330
2F8
100
AcDbEntity
  8
FORMAT
 62
     0
100
AcDbLine
 10
0.0
 20
0.0
 30
0.0
 11
0.0
 21
2.5
 31
0.0
  0
LINE
  5
2FC
330
2F8
100
AcDbEntity
  8
FORMAT
 62
     0
100
AcDbLine
 10
0.0
 20
0.0
 30
0.0
 11
-2.5
 21
0.0
 31
0.0
  0
LINE
  5
2FD
330
2F8
100
AcDbEntity
  8
FORMAT
 62
     0
100
AcDbLine
 10
0.0
 20
0.0
 30
0.0
 11
0.0
 21
-2.5
 31
0.0
  0
LINE
  5
2FE
330
2F8
100
AcDbEntity
  8
FORMAT
 62
     0
100
AcDbLine
 10
0.0
 20
0.0
 30
0.0
 11
2.5
 21
0.0
 31
0.0
  0
LINE
  5
2FF
330
2F8
100
AcDbEntity
  8
FORMAT
 62
     0
100
AcDbLine
 10
0.0
 20
5.0
 30
0.0
 11
0.0
 21
30.9554121484
 31
0.0
  0
LINE
  5
300
330
2F8
100
AcDbEntity
  8
FORMAT
 62
     0
100
AcDbLine
 10
-5.0
 20
0.0
 30
0.0
 11
-11.75
 21
0.0
 31
0.0
  0
LINE
  5
301
330
2F8
100
AcDbEntity
  8
FORMAT
 62
     0
100
AcDbLine
 10
0.0
 20
-5.0
 30
0.0
 11
0.0
 21
-11.75
 31
0.0
  0
LINE
  5
302
330
2F8
100
AcDbEntity
  8
FORMAT
 62
     0
100
AcDbLine
 10
5.0
 20
0.0
 30
0.0
 11
11.75
 21
0.0
 31
0.0
  0
ENDBLK
  5
2FA
330
2F8
100
AcDbEntity
  8
0
100
AcDbBlockEnd
  0
BLOCK
  5
305
330
304
100
AcDbEntity
  8
0
100
AcDbBlockBegin
  2
SW_CENTERMARKSYMBOL_19
 70
     0
 10
0.0
 20
0.0
 30
0.0
  3
SW_CENTERMARKSYMBOL_19
  1

  0
LINE
  5
307
330
304
100
AcDbEntity
  8
FORMAT
 62
     0
100
AcDbLine
 10
0.0
 20
0.0
 30
0.0
 11
0.0
 21
2.5
 31
0.0
  0
LINE
  5
308
330
304
100
AcDbEntity
  8
FORMAT
 62
     0
100
AcDbLine
 10
0.0
 20
0.0
 30
0.0
 11
-2.5
 21
0.0
 31
0.0
  0
LINE
  5
309
330
304
100
AcDbEntity
  8
FORMAT
 62
     0
100
AcDbLine
 10
0.0
 20
0.0
 30
0.0
 11
0.0
 21
-2.5
 31
0.0
  0
LINE
  5
30A
330
304
100
AcDbEntity
  8
FORMAT
 62
     0
100
AcDbLine
 10
0.0
 20
0.0
 30
0.0
 11
2.5
 21
0.0
 31
0.0
  0
LINE
  5
30B
330
304
100
AcDbEntity
  8
FORMAT
 62
     0
100
AcDbLine
 10
0.0
 20
5.0
 30
0.0
 11
0.0
 21
11.75
 31
0.0
  0
LINE
  5
30C
330
304
100
AcDbEntity
  8
FORMAT
 62
     0
100
AcDbLine
 10
-5.0
 20
0.0
 30
0.0
 11
-11.75
 21
0.0
 31
0.0
  0
LINE
  5
30D
330
304
100
AcDbEntity
  8
FORMAT
 62
     0
100
AcDbLine
 10
0.0
 20
-5.0
 30
0.0
 11
0.0
 21
-11.75
 31
0.0
  0
LINE
  5
30E
330
304
100
AcDbEntity
  8
FORMAT
 62
     0
100
AcDbLine
 10
5.0
 20
0.0
 30
0.0
 11
11.75
 21
0.0
 31
0.0
  0
ENDBLK
  5
306
330
304
100
AcDbEntity
  8
0
100
AcDbBlockEnd
  0
BLOCK
  5
311
330
310
100
AcDbEntity
  8
0
100
AcDbBlockBegin
  2
SW_CENTERMARKSYMBOL_20
 70
     0
 10
0.0
 20
0.0
 30
0.0
  3
SW_CENTERMARKSYMBOL_20
  1

  0
LINE
  5
313
330
310
100
AcDbEntity
  8
FORMAT
 62
     0
100
AcDbLine
 10
0.0
 20
0.0
 30
0.0
 11
0.0
 21
2.5
 31
0.0
  0
LINE
  5
314
330
310
100
AcDbEntity
  8
FORMAT
 62
     0
100
AcDbLine
 10
0.0
 20
0.0
 30
0.0
 11
-2.5
 21
0.0
 31
0.0
  0
LINE
  5
315
330
310
100
AcDbEntity
  8
FORMAT
 62
     0
100
AcDbLine
 10
0.0
 20
0.0
 30
0.0
 11
0.0
 21
-2.5
 31
0.0
  0
LINE
  5
316
330
310
100
AcDbEntity
  8
FORMAT
 62
     0
100
AcDbLine
 10
0.0
 20
0.0
 30
0.0
 11
2.5
 21
0.0
 31
0.0
  0
LINE
  5
317
330
310
100
AcDbEntity
  8
FORMAT
 62
     0
100
AcDbLine
 10
0.0
 20
5.0
 30
0.0
 11
0.0
 21
6.0
 31
0.0
  0
LINE
  5
318
330
310
100
AcDbEntity
  8
FORMAT
 62
     0
100
AcDbLine
 10
-5.0
 20
0.0
 30
0.0
 11
-6.0
 21
0.0
 31
0.0
  0
LINE
  5
319
330
310
100
AcDbEntity
  8
FORMAT
 62
     0
100
AcDbLine
 10
0.0
 20
-5.0
 30
0.0
 11
0.0
 21
-6.0
 31
0.0
  0
LINE
  5
31A
330
310
100
AcDbEntity
  8
FORMAT
 62
     0
100
AcDbLine
 10
5.0
 20
0.0
 30
0.0
 11
6.0
 21
0.0
 31
0.0
  0
ENDBLK
  5
312
330
310
100
AcDbEntity
  8
0
100
AcDbBlockEnd
  0
BLOCK
  5
31D
330
31C
100
AcDbEntity
  8
0
100
AcDbBlockBegin
  2
SW_CENTERMARKSYMBOL_21
 70
     0
 10
0.0
 20
0.0
 30
0.0
  3
SW_CENTERMARKSYMBOL_21
  1

  0
LINE
  5
31F
330
31C
100
AcDbEntity
  8
FORMAT
 62
     0
100
AcDbLine
 10
0.0
 20
0.0
 30
0.0
 11
0.0
 21
2.5
 31
0.0
  0
LINE
  5
320
330
31C
100
AcDbEntity
  8
FORMAT
 62
     0
100
AcDbLine
 10
0.0
 20
0.0
 30
0.0
 11
-2.5
 21
0.0
 31
0.0
  0
LINE
  5
321
330
31C
100
AcDbEntity
  8
FORMAT
 62
     0
100
AcDbLine
 10
0.0
 20
0.0
 30
0.0
 11
0.0
 21
-2.5
 31
0.0
  0
LINE
  5
322
330
31C
100
AcDbEntity
  8
FORMAT
 62
     0
100
AcDbLine
 10
0.0
 20
0.0
 30
0.0
 11
2.5
 21
0.0
 31
0.0
  0
LINE
  5
323
330
31C
100
AcDbEntity
  8
FORMAT
 62
     0
100
AcDbLine
 10
0.0
 20
5.0
 30
0.0
 11
0.0
 21
6.0
 31
0.0
  0
LINE
  5
324
330
31C
100
AcDbEntity
  8
FORMAT
 62
     0
100
AcDbLine
 10
-5.0
 20
0.0
 30
0.0
 11
-6.0
 21
0.0
 31
0.0
  0
LINE
  5
325
330
31C
100
AcDbEntity
  8
FORMAT
 62
     0
100
AcDbLine
 10
0.0
 20
-5.0
 30
0.0
 11
0.0
 21
-6.0
 31
0.0
  0
LINE
  5
326
330
31C
100
AcDbEntity
  8
FORMAT
 62
     0
100
AcDbLine
 10
5.0
 20
0.0
 30
0.0
 11
6.0
 21
0.0
 31
0.0
  0
ENDBLK
  5
31E
330
31C
100
AcDbEntity
  8
0
100
AcDbBlockEnd
  0
BLOCK
  5
329
330
328
100
AcDbEntity
  8
0
100
AcDbBlockBegin
  2
SW_CENTERMARKSYMBOL_22
 70
     0
 10
0.0
 20
0.0
 30
0.0
  3
SW_CENTERMARKSYMBOL_22
  1

  0
LINE
  5
32B
330
328
100
AcDbEntity
  8
FORMAT
 62
     0
100
AcDbLine
 10
0.0
 20
0.0
 30
0.0
 11
0.0
 21
2.5
 31
0.0
  0
LINE
  5
32C
330
328
100
AcDbEntity
  8
FORMAT
 62
     0
100
AcDbLine
 10
0.0
 20
0.0
 30
0.0
 11
-2.5
 21
0.0
 31
0.0
  0
LINE
  5
32D
330
328
100
AcDbEntity
  8
FORMAT
 62
     0
100
AcDbLine
 10
0.0
 20
0.0
 30
0.0
 11
0.0
 21
-2.5
 31
0.0
  0
LINE
  5
32E
330
328
100
AcDbEntity
  8
FORMAT
 62
     0
100
AcDbLine
 10
0.0
 20
0.0
 30
0.0
 11
2.5
 21
0.0
 31
0.0
  0
LINE
  5
32F
330
328
100
AcDbEntity
  8
FORMAT
 62
     0
100
AcDbLine
 10
0.0
 20
5.0
 30
0.0
 11
0.0
 21
5.25
 31
0.0
  0
LINE
  5
330
330
328
100
AcDbEntity
  8
FORMAT
 62
     0
100
AcDbLine
 10
-5.0
 20
0.0
 30
0.0
 11
-5.25
 21
0.0
 31
0.0
  0
LINE
  5
331
330
328
100
AcDbEntity
  8
FORMAT
 62
     0
100
AcDbLine
 10
0.0
 20
-5.0
 30
0.0
 11
0.0
 21
-5.25
 31
0.0
  0
LINE
  5
332
330
328
100
AcDbEntity
  8
FORMAT
 62
     0
100
AcDbLine
 10
5.0
 20
0.0
 30
0.0
 11
5.25
 21
0.0
 31
0.0
  0
ENDBLK
  5
32A
330
328
100
AcDbEntity
  8
0
100
AcDbBlockEnd
  0
BLOCK
  5
335
330
334
100
AcDbEntity
  8
0
100
AcDbBlockBegin
  2
SW_CENTERMARKSYMBOL_23
 70
     0
 10
0.0
 20
0.0
 30
0.0
  3
SW_CENTERMARKSYMBOL_23
  1

  0
LINE
  5
337
330
334
100
AcDbEntity
  8
FORMAT
 62
     0
100
AcDbLine
 10
0.0
 20
0.0
 30
0.0
 11
0.0
 21
2.5
 31
0.0
  0
LINE
  5
338
330
334
100
AcDbEntity
  8
FORMAT
 62
     0
100
AcDbLine
 10
0.0
 20
0.0
 30
0.0
 11
-2.5
 21
0.0
 31
0.0
  0
LINE
  5
339
330
334
100
AcDbEntity
  8
FORMAT
 62
     0
100
AcDbLine
 10
0.0
 20
0.0
 30
0.0
 11
0.0
 21
-2.5
 31
0.0
  0
LINE
  5
33A
330
334
100
AcDbEntity
  8
FORMAT
 62
     0
100
AcDbLine
 10
0.0
 20
0.0
 30
0.0
 11
2.5
 21
0.0
 31
0.0
  0
LINE
  5
33B
330
334
100
AcDbEntity
  8
FORMAT
 62
     0
100
AcDbLine
 10
0.0
 20
5.0
 30
0.0
 11
0.0
 21
5.25
 31
0.0
  0
LINE
  5
33C
330
334
100
AcDbEntity
  8
FORMAT
 62
     0
100
AcDbLine
 10
-5.0
 20
0.0
 30
0.0
 11
-5.25
 21
0.0
 31
0.0
  0
LINE
  5
33D
330
334
100
AcDbEntity
  8
FORMAT
 62
     0
100
AcDbLine
 10
0.0
 20
-5.0
 30
0.0
 11
0.0
 21
-5.25
 31
0.0
  0
LINE
  5
33E
330
334
100
AcDbEntity
  8
FORMAT
 62
     0
100
AcDbLine
 10
5.0
 20
0.0
 30
0.0
 11
5.25
 21
0.0
 31
0.0
  0
ENDBLK
  5
336
330
334
100
AcDbEntity
  8
0
100
AcDbBlockEnd
  0
BLOCK
  5
341
330
340
100
AcDbEntity
  8
0
100
AcDbBlockBegin
  2
SW_CENTERMARKSYMBOL_24
 70
     0
 10
0.0
 20
0.0
 30
0.0
  3
SW_CENTERMARKSYMBOL_24
  1

  0
LINE
  5
343
330
340
100
AcDbEntity
  8
FORMAT
 62
     0
100
AcDbLine
 10
0.0
 20
0.0
 30
0.0
 11
0.0
 21
2.5
 31
0.0
  0
LINE
  5
344
330
340
100
AcDbEntity
  8
FORMAT
 62
     0
100
AcDbLine
 10
0.0
 20
0.0
 30
0.0
 11
-2.5
 21
0.0
 31
0.0
  0
LINE
  5
345
330
340
100
AcDbEntity
  8
FORMAT
 62
     0
100
AcDbLine
 10
0.0
 20
0.0
 30
0.0
 11
0.0
 21
-2.5
 31
0.0
  0
LINE
  5
346
330
340
100
AcDbEntity
  8
FORMAT
 62
     0
100
AcDbLine
 10
0.0
 20
0.0
 30
0.0
 11
2.5
 21
0.0
 31
0.0
  0
LINE
  5
347
330
340
100
AcDbEntity
  8
FORMAT
 62
     0
100
AcDbLine
 10
0.0
 20
2.5
 30
0.0
 11
0.0
 21
4.0
 31
0.0
  0
LINE
  5
348
330
340
100
AcDbEntity
  8
FORMAT
 62
     0
100
AcDbLine
 10
-2.5
 20
0.0
 30
0.0
 11
-4.0
 21
0.0
 31
0.0
  0
LINE
  5
349
330
340
100
AcDbEntity
  8
FORMAT
 62
     0
100
AcDbLine
 10
0.0
 20
-2.5
 30
0.0
 11
0.0
 21
-4.0
 31
0.0
  0
LINE
  5
34A
330
340
100
AcDbEntity
  8
FORMAT
 62
     0
100
AcDbLine
 10
2.5
 20
0.0
 30
0.0
 11
4.0
 21
0.0
 31
0.0
  0
ENDBLK
  5
342
330
340
100
AcDbEntity
  8
0
100
AcDbBlockEnd
  0
BLOCK
  5
34D
330
34C
100
AcDbEntity
  8
0
100
AcDbBlockBegin
  2
SW_CENTERMARKSYMBOL_25
 70
     0
 10
0.0
 20
0.0
 30
0.0
  3
SW_CENTERMARKSYMBOL_25
  1

  0
LINE
  5
34F
330
34C
100
AcDbEntity
  8
FORMAT
 62
     0
100
AcDbLine
 10
0.0
 20
0.0
 30
0.0
 11
0.0
 21
2.5
 31
0.0
  0
LINE
  5
350
330
34C
100
AcDbEntity
  8
FORMAT
 62
     0
100
AcDbLine
 10
0.0
 20
0.0
 30
0.0
 11
-2.5
 21
0.0
 31
0.0
  0
LINE
  5
351
330
34C
100
AcDbEntity
  8
FORMAT
 62
     0
100
AcDbLine
 10
0.0
 20
0.0
 30
0.0
 11
0.0
 21
-2.5
 31
0.0
  0
LINE
  5
352
330
34C
100
AcDbEntity
  8
FORMAT
 62
     0
100
AcDbLine
 10
0.0
 20
0.0
 30
0.0
 11
2.5
 21
0.0
 31
0.0
  0
LINE
  5
353
330
34C
100
AcDbEntity
  8
FORMAT
 62
     0
100
AcDbLine
 10
0.0
 20
2.5
 30
0.0
 11
0.0
 21
4.0
 31
0.0
  0
LINE
  5
354
330
34C
100
AcDbEntity
  8
FORMAT
 62
     0
100
AcDbLine
 10
-2.5
 20
0.0
 30
0.0
 11
-4.0
 21
0.0
 31
0.0
  0
LINE
  5
355
330
34C
100
AcDbEntity
  8
FORMAT
 62
     0
100
AcDbLine
 10
0.0
 20
-2.5
 30
0.0
 11
0.0
 21
-4.0
 31
0.0
  0
LINE
  5
356
330
34C
100
AcDbEntity
  8
FORMAT
 62
     0
100
AcDbLine
 10
2.5
 20
0.0
 30
0.0
 11
4.0
 21
0.0
 31
0.0
  0
ENDBLK
  5
34E
330
34C
100
AcDbEntity
  8
0
100
AcDbBlockEnd
  0
BLOCK
  5
359
330
358
100
AcDbEntity
  8
0
100
AcDbBlockBegin
  2
SW_CENTERMARKSYMBOL_26
 70
     0
 10
0.0
 20
0.0
 30
0.0
  3
SW_CENTERMARKSYMBOL_26
  1

  0
LINE
  5
35B
330
358
100
AcDbEntity
  8
FORMAT
 62
     0
100
AcDbLine
 10
0.0
 20
0.0
 30
0.0
 11
0.0
 21
2.5
 31
0.0
  0
LINE
  5
35C
330
358
100
AcDbEntity
  8
FORMAT
 62
     0
100
AcDbLine
 10
0.0
 20
0.0
 30
0.0
 11
-2.5
 21
0.0
 31
0.0
  0
LINE
  5
35D
330
358
100
AcDbEntity
  8
FORMAT
 62
     0
100
AcDbLine
 10
0.0
 20
0.0
 30
0.0
 11
0.0
 21
-2.5
 31
0.0
  0
LINE
  5
35E
330
358
100
AcDbEntity
  8
FORMAT
 62
     0
100
AcDbLine
 10
0.0
 20
0.0
 30
0.0
 11
2.5
 21
0.0
 31
0.0
  0
LINE
  5
35F
330
358
100
AcDbEntity
  8
FORMAT
 62
     0
100
AcDbLine
 10
0.0
 20
2.5
 30
0.0
 11
0.0
 21
4.0
 31
0.0
  0
LINE
  5
360
330
358
100
AcDbEntity
  8
FORMAT
 62
     0
100
AcDbLine
 10
-2.5
 20
0.0
 30
0.0
 11
-4.0
 21
0.0
 31
0.0
  0
LINE
  5
361
330
358
100
AcDbEntity
  8
FORMAT
 62
     0
100
AcDbLine
 10
0.0
 20
-2.5
 30
0.0
 11
0.0
 21
-4.0
 31
0.0
  0
LINE
  5
362
330
358
100
AcDbEntity
  8
FORMAT
 62
     0
100
AcDbLine
 10
2.5
 20
0.0
 30
0.0
 11
4.0
 21
0.0
 31
0.0
  0
ENDBLK
  5
35A
330
358
100
AcDbEntity
  8
0
100
AcDbBlockEnd
  0
BLOCK
  5
365
330
364
100
AcDbEntity
  8
0
100
AcDbBlockBegin
  2
SW_CENTERMARKSYMBOL_27
 70
     0
 10
0.0
 20
0.0
 30
0.0
  3
SW_CENTERMARKSYMBOL_27
  1

  0
LINE
  5
367
330
364
100
AcDbEntity
  8
FORMAT
 62
     0
100
AcDbLine
 10
0.0
 20
0.0
 30
0.0
 11
0.0
 21
2.5
 31
0.0
  0
LINE
  5
368
330
364
100
AcDbEntity
  8
FORMAT
 62
     0
100
AcDbLine
 10
0.0
 20
0.0
 30
0.0
 11
-2.5
 21
0.0
 31
0.0
  0
LINE
  5
369
330
364
100
AcDbEntity
  8
FORMAT
 62
     0
100
AcDbLine
 10
0.0
 20
0.0
 30
0.0
 11
0.0
 21
-2.5
 31
0.0
  0
LINE
  5
36A
330
364
100
AcDbEntity
  8
FORMAT
 62
     0
100
AcDbLine
 10
0.0
 20
0.0
 30
0.0
 11
2.5
 21
0.0
 31
0.0
  0
LINE
  5
36B
330
364
100
AcDbEntity
  8
FORMAT
 62
     0
100
AcDbLine
 10
0.0
 20
2.5
 30
0.0
 11
0.0
 21
4.0
 31
0.0
  0
LINE
  5
36C
330
364
100
AcDbEntity
  8
FORMAT
 62
     0
100
AcDbLine
 10
-2.5
 20
0.0
 30
0.0
 11
-4.0
 21
0.0
 31
0.0
  0
LINE
  5
36D
330
364
100
AcDbEntity
  8
FORMAT
 62
     0
100
AcDbLine
 10
0.0
 20
-2.5
 30
0.0
 11
0.0
 21
-4.0
 31
0.0
  0
LINE
  5
36E
330
364
100
AcDbEntity
  8
FORMAT
 62
     0
100
AcDbLine
 10
2.5
 20
0.0
 30
0.0
 11
4.0
 21
0.0
 31
0.0
  0
ENDBLK
  5
366
330
364
100
AcDbEntity
  8
0
100
AcDbBlockEnd
  0
BLOCK
  5
371
330
370
100
AcDbEntity
  8
0
100
AcDbBlockBegin
  2
SW_CENTERMARKSYMBOL_28
 70
     0
 10
0.0
 20
0.0
 30
0.0
  3
SW_CENTERMARKSYMBOL_28
  1

  0
LINE
  5
373
330
370
100
AcDbEntity
  8
FORMAT
 62
     0
100
AcDbLine
 10
0.0
 20
0.0
 30
0.0
 11
0.0
 21
2.5
 31
0.0
  0
LINE
  5
374
330
370
100
AcDbEntity
  8
FORMAT
 62
     0
100
AcDbLine
 10
0.0
 20
0.0
 30
0.0
 11
-2.5
 21
0.0
 31
0.0
  0
LINE
  5
375
330
370
100
AcDbEntity
  8
FORMAT
 62
     0
100
AcDbLine
 10
0.0
 20
0.0
 30
0.0
 11
0.0
 21
-2.5
 31
0.0
  0
LINE
  5
376
330
370
100
AcDbEntity
  8
FORMAT
 62
     0
100
AcDbLine
 10
0.0
 20
0.0
 30
0.0
 11
2.5
 21
0.0
 31
0.0
  0
LINE
  5
377
330
370
100
AcDbEntity
  8
FORMAT
 62
     0
100
AcDbLine
 10
0.0
 20
5.0
 30
0.0
 11
0.0
 21
5.3
 31
0.0
  0
LINE
  5
378
330
370
100
AcDbEntity
  8
FORMAT
 62
     0
100
AcDbLine
 10
-5.0
 20
0.0
 30
0.0
 11
-5.3
 21
0.0
 31
0.0
  0
LINE
  5
379
330
370
100
AcDbEntity
  8
FORMAT
 62
     0
100
AcDbLine
 10
0.0
 20
-5.0
 30
0.0
 11
0.0
 21
-5.3
 31
0.0
  0
LINE
  5
37A
330
370
100
AcDbEntity
  8
FORMAT
 62
     0
100
AcDbLine
 10
5.0
 20
0.0
 30
0.0
 11
5.3
 21
0.0
 31
0.0
  0
ENDBLK
  5
372
330
370
100
AcDbEntity
  8
0
100
AcDbBlockEnd
  0
BLOCK
  5
37D
330
37C
100
AcDbEntity
  8
0
100
AcDbBlockBegin
  2
SW_CENTERMARKSYMBOL_29
 70
     0
 10
0.0
 20
0.0
 30
0.0
  3
SW_CENTERMARKSYMBOL_29
  1

  0
LINE
  5
37F
330
37C
100
AcDbEntity
  8
FORMAT
 62
     0
100
AcDbLine
 10
0.0
 20
0.0
 30
0.0
 11
0.0
 21
2.5
 31
0.0
  0
LINE
  5
380
330
37C
100
AcDbEntity
  8
FORMAT
 62
     0
100
AcDbLine
 10
0.0
 20
0.0
 30
0.0
 11
-2.5
 21
0.0
 31
0.0
  0
LINE
  5
381
330
37C
100
AcDbEntity
  8
FORMAT
 62
     0
100
AcDbLine
 10
0.0
 20
0.0
 30
0.0
 11
0.0
 21
-2.5
 31
0.0
  0
LINE
  5
382
330
37C
100
AcDbEntity
  8
FORMAT
 62
     0
100
AcDbLine
 10
0.0
 20
0.0
 30
0.0
 11
2.5
 21
0.0
 31
0.0
  0
LINE
  5
383
330
37C
100
AcDbEntity
  8
FORMAT
 62
     0
100
AcDbLine
 10
0.0
 20
5.0
 30
0.0
 11
0.0
 21
5.3
 31
0.0
  0
LINE
  5
384
330
37C
100
AcDbEntity
  8
FORMAT
 62
     0
100
AcDbLine
 10
-5.0
 20
0.0
 30
0.0
 11
-5.3
 21
0.0
 31
0.0
  0
LINE
  5
385
330
37C
100
AcDbEntity
  8
FORMAT
 62
     0
100
AcDbLine
 10
0.0
 20
-5.0
 30
0.0
 11
0.0
 21
-5.3
 31
0.0
  0
LINE
  5
386
330
37C
100
AcDbEntity
  8
FORMAT
 62
     0
100
AcDbLine
 10
5.0
 20
0.0
 30
0.0
 11
5.3
 21
0.0
 31
0.0
  0
ENDBLK
  5
37E
330
37C
100
AcDbEntity
  8
0
100
AcDbBlockEnd
  0
BLOCK
  5
389
330
388
100
AcDbEntity
  8
0
100
AcDbBlockBegin
  2
SW_CENTERMARKSYMBOL_30
 70
     0
 10
0.0
 20
0.0
 30
0.0
  3
SW_CENTERMARKSYMBOL_30
  1

  0
LINE
  5
38B
330
388
100
AcDbEntity
  8
FORMAT
 62
     0
100
AcDbLine
 10
0.0
 20
0.0
 30
0.0
 11
0.0
 21
2.5
 31
0.0
  0
LINE
  5
38C
330
388
100
AcDbEntity
  8
FORMAT
 62
     0
100
AcDbLine
 10
0.0
 20
0.0
 30
0.0
 11
-2.5
 21
0.0
 31
0.0
  0
LINE
  5
38D
330
388
100
AcDbEntity
  8
FORMAT
 62
     0
100
AcDbLine
 10
0.0
 20
0.0
 30
0.0
 11
0.0
 21
-2.5
 31
0.0
  0
LINE
  5
38E
330
388
100
AcDbEntity
  8
FORMAT
 62
     0
100
AcDbLine
 10
0.0
 20
0.0
 30
0.0
 11
2.5
 21
0.0
 31
0.0
  0
LINE
  5
38F
330
388
100
AcDbEntity
  8
FORMAT
 62
     0
100
AcDbLine
 10
0.0
 20
5.0
 30
0.0
 11
0.0
 21
5.3
 31
0.0
  0
LINE
  5
390
330
388
100
AcDbEntity
  8
FORMAT
 62
     0
100
AcDbLine
 10
-5.0
 20
0.0
 30
0.0
 11
-5.3
 21
0.0
 31
0.0
  0
LINE
  5
391
330
388
100
AcDbEntity
  8
FORMAT
 62
     0
100
AcDbLine
 10
0.0
 20
-5.0
 30
0.0
 11
0.0
 21
-5.3
 31
0.0
  0
LINE
  5
392
330
388
100
AcDbEntity
  8
FORMAT
 62
     0
100
AcDbLine
 10
5.0
 20
0.0
 30
0.0
 11
5.3
 21
0.0
 31
0.0
  0
ENDBLK
  5
38A
330
388
100
AcDbEntity
  8
0
100
AcDbBlockEnd
  0
BLOCK
  5
395
330
394
100
AcDbEntity
  8
0
100
AcDbBlockBegin
  2
SW_CENTERMARKSYMBOL_31
 70
     0
 10
0.0
 20
0.0
 30
0.0
  3
SW_CENTERMARKSYMBOL_31
  1

  0
LINE
  5
397
330
394
100
AcDbEntity
  8
FORMAT
 62
     0
100
AcDbLine
 10
0.0
 20
0.0
 30
0.0
 11
0.0
 21
2.5
 31
0.0
  0
LINE
  5
398
330
394
100
AcDbEntity
  8
FORMAT
 62
     0
100
AcDbLine
 10
0.0
 20
0.0
 30
0.0
 11
-2.5
 21
0.0
 31
0.0
  0
LINE
  5
399
330
394
100
AcDbEntity
  8
FORMAT
 62
     0
100
AcDbLine
 10
0.0
 20
0.0
 30
0.0
 11
0.0
 21
-2.5
 31
0.0
  0
LINE
  5
39A
330
394
100
AcDbEntity
  8
FORMAT
 62
     0
100
AcDbLine
 10
0.0
 20
0.0
 30
0.0
 11
2.5
 21
0.0
 31
0.0
  0
LINE
  5
39B
330
394
100
AcDbEntity
  8
FORMAT
 62
     0
100
AcDbLine
 10
0.0
 20
5.0
 30
0.0
 11
0.0
 21
5.25
 31
0.0
  0
LINE
  5
39C
330
394
100
AcDbEntity
  8
FORMAT
 62
     0
100
AcDbLine
 10
-5.0
 20
0.0
 30
0.0
 11
-5.25
 21
0.0
 31
0.0
  0
LINE
  5
39D
330
394
100
AcDbEntity
  8
FORMAT
 62
     0
100
AcDbLine
 10
0.0
 20
-5.0
 30
0.0
 11
0.0
 21
-5.25
 31
0.0
  0
LINE
  5
39E
330
394
100
AcDbEntity
  8
FORMAT
 62
     0
100
AcDbLine
 10
5.0
 20
0.0
 30
0.0
 11
5.25
 21
0.0
 31
0.0
  0
ENDBLK
  5
396
330
394
100
AcDbEntity
  8
0
100
AcDbBlockEnd
  0
BLOCK
  5
3A1
330
3A0
100
AcDbEntity
  8
0
100
AcDbBlockBegin
  2
SW_CENTERMARKSYMBOL_32
 70
     0
 10
0.0
 20
0.0
 30
0.0
  3
SW_CENTERMARKSYMBOL_32
  1

  0
LINE
  5
3A3
330
3A0
100
AcDbEntity
  8
FORMAT
 62
     0
100
AcDbLine
 10
0.0
 20
0.0
 30
0.0
 11
0.0
 21
2.5
 31
0.0
  0
LINE
  5
3A4
330
3A0
100
AcDbEntity
  8
FORMAT
 62
     0
100
AcDbLine
 10
0.0
 20
0.0
 30
0.0
 11
-2.5
 21
0.0
 31
0.0
  0
LINE
  5
3A5
330
3A0
100
AcDbEntity
  8
FORMAT
 62
     0
100
AcDbLine
 10
0.0
 20
0.0
 30
0.0
 11
0.0
 21
-2.5
 31
0.0
  0
LINE
  5
3A6
330
3A0
100
AcDbEntity
  8
FORMAT
 62
     0
100
AcDbLine
 10
0.0
 20
0.0
 30
0.0
 11
2.5
 21
0.0
 31
0.0
  0
LINE
  5
3A7
330
3A0
100
AcDbEntity
  8
FORMAT
 62
     0
100
AcDbLine
 10
0.0
 20
5.0
 30
0.0
 11
0.0
 21
5.25
 31
0.0
  0
LINE
  5
3A8
330
3A0
100
AcDbEntity
  8
FORMAT
 62
     0
100
AcDbLine
 10
-5.0
 20
0.0
 30
0.0
 11
-5.25
 21
0.0
 31
0.0
  0
LINE
  5
3A9
330
3A0
100
AcDbEntity
  8
FORMAT
 62
     0
100
AcDbLine
 10
0.0
 20
-5.0
 30
0.0
 11
0.0
 21
-5.25
 31
0.0
  0
LINE
  5
3AA
330
3A0
100
AcDbEntity
  8
FORMAT
 62
     0
100
AcDbLine
 10
5.0
 20
0.0
 30
0.0
 11
5.25
 21
0.0
 31
0.0
  0
ENDBLK
  5
3A2
330
3A0
100
AcDbEntity
  8
0
100
AcDbBlockEnd
  0
BLOCK
  5
3AD
330
3AC
100
AcDbEntity
  8
0
100
AcDbBlockBegin
  2
SW_CENTERMARKSYMBOL_33
 70
     0
 10
0.0
 20
0.0
 30
0.0
  3
SW_CENTERMARKSYMBOL_33
  1

  0
LINE
  5
3AF
330
3AC
100
AcDbEntity
  8
FORMAT
 62
     0
100
AcDbLine
 10
0.0
 20
0.0
 30
0.0
 11
0.0
 21
2.5
 31
0.0
  0
LINE
  5
3B0
330
3AC
100
AcDbEntity
  8
FORMAT
 62
     0
100
AcDbLine
 10
0.0
 20
0.0
 30
0.0
 11
-2.5
 21
0.0
 31
0.0
  0
LINE
  5
3B1
330
3AC
100
AcDbEntity
  8
FORMAT
 62
     0
100
AcDbLine
 10
0.0
 20
0.0
 30
0.0
 11
0.0
 21
-2.5
 31
0.0
  0
LINE
  5
3B2
330
3AC
100
AcDbEntity
  8
FORMAT
 62
     0
100
AcDbLine
 10
0.0
 20
0.0
 30
0.0
 11
2.5
 21
0.0
 31
0.0
  0
LINE
  5
3B3
330
3AC
100
AcDbEntity
  8
FORMAT
 62
     0
100
AcDbLine
 10
0.0
 20
5.0
 30
0.0
 11
0.0
 21
5.25
 31
0.0
  0
LINE
  5
3B4
330
3AC
100
AcDbEntity
  8
FORMAT
 62
     0
100
AcDbLine
 10
-5.0
 20
0.0
 30
0.0
 11
-5.25
 21
0.0
 31
0.0
  0
LINE
  5
3B5
330
3AC
100
AcDbEntity
  8
FORMAT
 62
     0
100
AcDbLine
 10
0.0
 20
-5.0
 30
0.0
 11
0.0
 21
-5.25
 31
0.0
  0
LINE
  5
3B6
330
3AC
100
AcDbEntity
  8
FORMAT
 62
     0
100
AcDbLine
 10
5.0
 20
0.0
 30
0.0
 11
5.25
 21
0.0
 31
0.0
  0
ENDBLK
  5
3AE
330
3AC
100
AcDbEntity
  8
0
100
AcDbBlockEnd
  0
BLOCK
  5
3B9
330
3B8
100
AcDbEntity
  8
0
100
AcDbBlockBegin
  2
SW_CENTERMARKSYMBOL_34
 70
     0
 10
0.0
 20
0.0
 30
0.0
  3
SW_CENTERMARKSYMBOL_34
  1

  0
LINE
  5
3BB
330
3B8
100
AcDbEntity
  8
FORMAT
 62
     0
100
AcDbLine
 10
0.0
 20
0.0
 30
0.0
 11
0.0
 21
2.5
 31
0.0
  0
LINE
  5
3BC
330
3B8
100
AcDbEntity
  8
FORMAT
 62
     0
100
AcDbLine
 10
0.0
 20
0.0
 30
0.0
 11
-2.5
 21
0.0
 31
0.0
  0
LINE
  5
3BD
330
3B8
100
AcDbEntity
  8
FORMAT
 62
     0
100
AcDbLine
 10
0.0
 20
0.0
 30
0.0
 11
0.0
 21
-2.5
 31
0.0
  0
LINE
  5
3BE
330
3B8
100
AcDbEntity
  8
FORMAT
 62
     0
100
AcDbLine
 10
0.0
 20
0.0
 30
0.0
 11
2.5
 21
0.0
 31
0.0
  0
LINE
  5
3BF
330
3B8
100
AcDbEntity
  8
FORMAT
 62
     0
100
AcDbLine
 10
0.0
 20
5.0
 30
0.0
 11
0.0
 21
5.25
 31
0.0
  0
LINE
  5
3C0
330
3B8
100
AcDbEntity
  8
FORMAT
 62
     0
100
AcDbLine
 10
-5.0
 20
0.0
 30
0.0
 11
-5.25
 21
0.0
 31
0.0
  0
LINE
  5
3C1
330
3B8
100
AcDbEntity
  8
FORMAT
 62
     0
100
AcDbLine
 10
0.0
 20
-5.0
 30
0.0
 11
0.0
 21
-5.25
 31
0.0
  0
LINE
  5
3C2
330
3B8
100
AcDbEntity
  8
FORMAT
 62
     0
100
AcDbLine
 10
5.0
 20
0.0
 30
0.0
 11
5.25
 21
0.0
 31
0.0
  0
ENDBLK
  5
3BA
330
3B8
100
AcDbEntity
  8
0
100
AcDbBlockEnd
  0
BLOCK
  5
3C5
330
3C4
100
AcDbEntity
  8
0
100
AcDbBlockBegin
  2
SW_CENTERMARKSYMBOL_35
 70
     0
 10
0.0
 20
0.0
 30
0.0
  3
SW_CENTERMARKSYMBOL_35
  1

  0
LINE
  5
3C7
330
3C4
100
AcDbEntity
  8
FORMAT
 62
     0
100
AcDbLine
 10
0.0
 20
0.0
 30
0.0
 11
0.0
 21
2.5
 31
0.0
  0
LINE
  5
3C8
330
3C4
100
AcDbEntity
  8
FORMAT
 62
     0
100
AcDbLine
 10
0.0
 20
0.0
 30
0.0
 11
-2.5
 21
0.0
 31
0.0
  0
LINE
  5
3C9
330
3C4
100
AcDbEntity
  8
FORMAT
 62
     0
100
AcDbLine
 10
0.0
 20
0.0
 30
0.0
 11
0.0
 21
-2.5
 31
0.0
  0
LINE
  5
3CA
330
3C4
100
AcDbEntity
  8
FORMAT
 62
     0
100
AcDbLine
 10
0.0
 20
0.0
 30
0.0
 11
2.5
 21
0.0
 31
0.0
  0
LINE
  5
3CB
330
3C4
100
AcDbEntity
  8
FORMAT
 62
     0
100
AcDbLine
 10
0.0
 20
5.0
 30
0.0
 11
0.0
 21
5.25
 31
0.0
  0
LINE
  5
3CC
330
3C4
100
AcDbEntity
  8
FORMAT
 62
     0
100
AcDbLine
 10
-5.0
 20
0.0
 30
0.0
 11
-5.25
 21
0.0
 31
0.0
  0
LINE
  5
3CD
330
3C4
100
AcDbEntity
  8
FORMAT
 62
     0
100
AcDbLine
 10
0.0
 20
-5.0
 30
0.0
 11
0.0
 21
-5.25
 31
0.0
  0
LINE
  5
3CE
330
3C4
100
AcDbEntity
  8
FORMAT
 62
     0
100
AcDbLine
 10
5.0
 20
0.0
 30
0.0
 11
5.25
 21
0.0
 31
0.0
  0
ENDBLK
  5
3C6
330
3C4
100
AcDbEntity
  8
0
100
AcDbBlockEnd
  0
BLOCK
  5
3D1
330
3D0
100
AcDbEntity
  8
0
100
AcDbBlockBegin
  2
SW_CENTERMARKSYMBOL_36
 70
     0
 10
0.0
 20
0.0
 30
0.0
  3
SW_CENTERMARKSYMBOL_36
  1

  0
LINE
  5
3D3
330
3D0
100
AcDbEntity
  8
FORMAT
 62
     0
100
AcDbLine
 10
0.0
 20
0.0
 30
0.0
 11
0.0
 21
2.5
 31
0.0
  0
LINE
  5
3D4
330
3D0
100
AcDbEntity
  8
FORMAT
 62
     0
100
AcDbLine
 10
0.0
 20
0.0
 30
0.0
 11
-2.5
 21
0.0
 31
0.0
  0
LINE
  5
3D5
330
3D0
100
AcDbEntity
  8
FORMAT
 62
     0
100
AcDbLine
 10
0.0
 20
0.0
 30
0.0
 11
0.0
 21
-2.5
 31
0.0
  0
LINE
  5
3D6
330
3D0
100
AcDbEntity
  8
FORMAT
 62
     0
100
AcDbLine
 10
0.0
 20
0.0
 30
0.0
 11
2.5
 21
0.0
 31
0.0
  0
LINE
  5
3D7
330
3D0
100
AcDbEntity
  8
FORMAT
 62
     0
100
AcDbLine
 10
0.0
 20
5.0
 30
0.0
 11
0.0
 21
5.25
 31
0.0
  0
LINE
  5
3D8
330
3D0
100
AcDbEntity
  8
FORMAT
 62
     0
100
AcDbLine
 10
-5.0
 20
0.0
 30
0.0
 11
-5.25
 21
0.0
 31
0.0
  0
LINE
  5
3D9
330
3D0
100
AcDbEntity
  8
FORMAT
 62
     0
100
AcDbLine
 10
0.0
 20
-5.0
 30
0.0
 11
0.0
 21
-5.25
 31
0.0
  0
LINE
  5
3DA
330
3D0
100
AcDbEntity
  8
FORMAT
 62
     0
100
AcDbLine
 10
5.0
 20
0.0
 30
0.0
 11
5.25
 21
0.0
 31
0.0
  0
ENDBLK
  5
3D2
330
3D0
100
AcDbEntity
  8
0
100
AcDbBlockEnd
  0
BLOCK
  5
3DD
330
3DC
100
AcDbEntity
  8
0
100
AcDbBlockBegin
  2
SW_CENTERMARKSYMBOL_37
 70
     0
 10
0.0
 20
0.0
 30
0.0
  3
SW_CENTERMARKSYMBOL_37
  1

  0
LINE
  5
3DF
330
3DC
100
AcDbEntity
  8
FORMAT
 62
     0
100
AcDbLine
 10
0.0
 20
0.0
 30
0.0
 11
0.0
 21
2.5
 31
0.0
  0
LINE
  5
3E0
330
3DC
100
AcDbEntity
  8
FORMAT
 62
     0
100
AcDbLine
 10
0.0
 20
0.0
 30
0.0
 11
-2.5
 21
0.0
 31
0.0
  0
LINE
  5
3E1
330
3DC
100
AcDbEntity
  8
FORMAT
 62
     0
100
AcDbLine
 10
0.0
 20
0.0
 30
0.0
 11
0.0
 21
-2.5
 31
0.0
  0
LINE
  5
3E2
330
3DC
100
AcDbEntity
  8
FORMAT
 62
     0
100
AcDbLine
 10
0.0
 20
0.0
 30
0.0
 11
2.5
 21
0.0
 31
0.0
  0
LINE
  5
3E3
330
3DC
100
AcDbEntity
  8
FORMAT
 62
     0
100
AcDbLine
 10
0.0
 20
5.0
 30
0.0
 11
0.0
 21
5.5
 31
0.0
  0
LINE
  5
3E4
330
3DC
100
AcDbEntity
  8
FORMAT
 62
     0
100
AcDbLine
 10
-5.0
 20
0.0
 30
0.0
 11
-5.5
 21
0.0
 31
0.0
  0
LINE
  5
3E5
330
3DC
100
AcDbEntity
  8
FORMAT
 62
     0
100
AcDbLine
 10
0.0
 20
-5.0
 30
0.0
 11
0.0
 21
-5.5
 31
0.0
  0
LINE
  5
3E6
330
3DC
100
AcDbEntity
  8
FORMAT
 62
     0
100
AcDbLine
 10
5.0
 20
0.0
 30
0.0
 11
5.5
 21
0.0
 31
0.0
  0
ENDBLK
  5
3DE
330
3DC
100
AcDbEntity
  8
0
100
AcDbBlockEnd
  0
BLOCK
  5
4A7
330
4A6
100
AcDbEntity
  8
0
100
AcDbBlockBegin
  2
_D_9
 70
     0
 10
0.0
 20
0.0
 30
0.0
  3
_D_9
  1

  0
SOLID
  5
4A9
330
4A6
100
AcDbEntity
  8
FORMAT
100
AcDbTrace
 10
185.9445983556
 20
171.7156106738
 30
0.0
 11
189.2465983556
 21
171.2076106738
 31
0.0
 12
189.2465983556
 22
172.2236106738
 32
0.0
 13
189.2465983556
 23
172.2236106738
 33
0.0
  0
SOLID
  5
4AA
330
4A6
100
AcDbEntity
  8
FORMAT
100
AcDbTrace
 10
181.9445983556
 20
171.7156106738
 30
0.0
 11
178.6425983556
 21
172.2236106738
 31
0.0
 12
178.6425983556
 22
171.2076106738
 32
0.0
 13
178.6425983556
 23
171.2076106738
 33
0.0
  0
LINE
  5
4AB
330
4A6
100
AcDbEntity
  8
FORMAT
100
AcDbLine
 10
185.9445983556
 20
179.4765016268
 30
0.0
 11
185.9445983556
 21
170.7156106738
 31
0.0
  0
LINE
  5
4AC
330
4A6
100
AcDbEntity
  8
FORMAT
100
AcDbLine
 10
181.9445983556
 20
179.4765016268
 30
0.0
 11
181.9445983556
 21
170.7156106738
 31
0.0
  0
LINE
  5
4AD
330
4A6
100
AcDbEntity
  8
FORMAT
100
AcDbLine
 10
185.9445983556
 20
171.7156106738
 30
0.0
 11
192.2945983556
 21
171.7156106738
 31
0.0
  0
LINE
  5
4AE
330
4A6
100
AcDbEntity
  8
FORMAT
100
AcDbLine
 10
185.9445983556
 20
171.7156106738
 30
0.0
 11
181.9445983556
 21
171.7156106738
 31
0.0
  0
LINE
  5
4AF
330
4A6
100
AcDbEntity
  8
FORMAT
100
AcDbLine
 10
181.9445983556
 20
171.7156106738
 30
0.0
 11
173.7127391621
 21
171.7156106738
 31
0.0
  0
MTEXT
  5
4B0
330
4A6
100
AcDbEntity
  8
FORMAT
100
AcDbMText
 10
173.7127391621
 20
176.2273479959
 30
0.0
 40
3.5
 41
0.0
 71
     1
 72
     1
  1
4
  7
SLDTEXTSTYLE0
 73
     1
 44
1.0
  0
ENDBLK
  5
4A8
330
4A6
100
AcDbEntity
  8
0
100
AcDbBlockEnd
  0
BLOCK
  5
4B3
330
4B2
100
AcDbEntity
  8
0
100
AcDbBlockBegin
  2
_D_10
 70
     0
 10
0.0
 20
0.0
 30
0.0
  3
_D_10
  1

  0
SOLID
  5
4B5
330
4B2
100
AcDbEntity
  8
FORMAT
100
AcDbTrace
 10
185.9445983556
 20
160.2077642294
 30
0.0
 11
182.6425983556
 21
160.7157642294
 31
0.0
 12
182.6425983556
 22
159.6997642294
 32
0.0
 13
182.6425983556
 23
159.6997642294
 33
0.0
  0
SOLID
  5
4B6
330
4B2
100
AcDbEntity
  8
FORMAT
100
AcDbTrace
 10
189.9445983556
 20
160.2077642294
 30
0.0
 11
193.2465983556
 21
159.6997642294
 31
0.0
 12
193.2465983556
 22
160.7157642294
 32
0.0
 13
193.2465983556
 23
160.7157642294
 33
0.0
  0
LINE
  5
4B7
330
4B2
100
AcDbEntity
  8
FORMAT
100
AcDbLine
 10
185.9445983556
 20
179.4765016268
 30
0.0
 11
185.9445983556
 21
159.2077642294
 31
0.0
  0
LINE
  5
4B8
330
4B2
100
AcDbEntity
  8
FORMAT
100
AcDbLine
 10
189.9445983556
 20
177.4765016268
 30
0.0
 11
189.9445983556
 21
173.2156106738
 31
0.0
  0
LINE
  5
4B9
330
4B2
100
AcDbEntity
  8
FORMAT
100
AcDbLine
 10
189.9445983556
 20
170.2156106738
 30
0.0
 11
189.9445983556
 21
159.2077642294
 31
0.0
  0
LINE
  5
4BA
330
4B2
100
AcDbEntity
  8
FORMAT
100
AcDbLine
 10
185.9445983556
 20
160.2077642294
 30
0.0
 11
179.4039495707
 21
160.2077642294
 31
0.0
  0
LINE
  5
4BB
330
4B2
100
AcDbEntity
  8
FORMAT
100
AcDbLine
 10
185.9445983556
 20
160.2077642294
 30
0.0
 11
189.9445983556
 21
160.2077642294
 31
0.0
  0
LINE
  5
4BC
330
4B2
100
AcDbEntity
  8
FORMAT
100
AcDbLine
 10
189.9445983556
 20
160.2077642294
 30
0.0
 11
196.2945983556
 21
160.2077642294
 31
0.0
  0
MTEXT
  5
4BD
330
4B2
100
AcDbEntity
  8
FORMAT
100
AcDbMText
 10
179.4039495707
 20
164.7195015515
 30
0.0
 40
3.5
 41
0.0
 71
     1
 72
     1
  1
4
  7
SLDTEXTSTYLE0
 73
     1
 44
1.0
  0
ENDBLK
  5
4B4
330
4B2
100
AcDbEntity
  8
0
100
AcDbBlockEnd
  0
BLOCK
  5
4C0
330
4BF
100
AcDbEntity
  8
0
100
AcDbBlockBegin
  2
_D_11
 70
     0
 10
0.0
 20
0.0
 30
0.0
  3
_D_11
  1

  0
SOLID
  5
4C2
330
4BF
100
AcDbEntity
  8
FORMAT
100
AcDbTrace
 10
189.9445983556
 20
150.4765016268
 30
0.0
 11
186.6425983556
 21
150.9845016268
 31
0.0
 12
186.6425983556
 22
149.9685016268
 32
0.0
 13
186.6425983556
 23
149.9685016268
 33
0.0
  0
SOLID
  5
4C3
330
4BF
100
AcDbEntity
  8
FORMAT
100
AcDbTrace
 10
192.9445983556
 20
150.4765016268
 30
0.0
 11
196.2465983556
 21
149.9685016268
 31
0.0
 12
196.2465983556
 22
150.9845016268
 32
0.0
 13
196.2465983556
 23
150.9845016268
 33
0.0
  0
LINE
  5
4C4
330
4BF
100
AcDbEntity
  8
FORMAT
100
AcDbLine
 10
189.9445983556
 20
177.9765016268
 30
0.0
 11
189.9445983556
 21
173.2156106738
 31
0.0
  0
LINE
  5
4C5
330
4BF
100
AcDbEntity
  8
FORMAT
100
AcDbLine
 10
189.9445983556
 20
170.2156106738
 30
0.0
 11
189.9445983556
 21
149.4765016268
 31
0.0
  0
LINE
  5
4C6
330
4BF
100
AcDbEntity
  8
FORMAT
100
AcDbLine
 10
192.9445983556
 20
177.4765016268
 30
0.0
 11
192.9445983556
 21
161.7077642294
 31
0.0
  0
LINE
  5
4C7
330
4BF
100
AcDbEntity
  8
FORMAT
100
AcDbLine
 10
192.9445983556
 20
158.7077642294
 30
0.0
 11
192.9445983556
 21
149.4765016268
 31
0.0
  0
LINE
  5
4C8
330
4BF
100
AcDbEntity
  8
FORMAT
100
AcDbLine
 10
189.9445983556
 20
150.4765016268
 30
0.0
 11
183.5945983556
 21
150.4765016268
 31
0.0
  0
LINE
  5
4C9
330
4BF
100
AcDbEntity
  8
FORMAT
100
AcDbLine
 10
189.9445983556
 20
150.4765016268
 30
0.0
 11
192.9445983556
 21
150.4765016268
 31
0.0
  0
LINE
  5
4CA
330
4BF
100
AcDbEntity
  8
FORMAT
100
AcDbLine
 10
192.9445983556
 20
150.4765016268
 30
0.0
 11
202.0864374026
 21
150.4765016268
 31
0.0
  0
MTEXT
  5
4CB
330
4BF
100
AcDbEntity
  8
FORMAT
100
AcDbMText
 10
199.4128263577
 20
154.9882389488
 30
0.0
 40
3.5
 41
0.0
 71
     1
 72
     1
  1
3
  7
SLDTEXTSTYLE0
 73
     1
 44
1.0
  0
ENDBLK
  5
4C1
330
4BF
100
AcDbEntity
  8
0
100
AcDbBlockEnd
  0
BLOCK
  5
4CE
330
4CD
100
AcDbEntity
  8
0
100
AcDbBlockBegin
  2
_D_12
 70
     0
 10
0.0
 20
0.0
 30
0.0
  3
_D_12
  1

  0
SOLID
  5
4D0
330
4CD
100
AcDbEntity
  8
FORMAT
100
AcDbTrace
 10
171.9445983556
 20
368.4765016268
 30
0.0
 11
175.2465983556
 21
367.9685016268
 31
0.0
 12
175.2465983556
 22
368.9845016268
 32
0.0
 13
175.2465983556
 23
368.9845016268
 33
0.0
  0
SOLID
  5
4D1
330
4CD
100
AcDbEntity
  8
FORMAT
100
AcDbTrace
 10
192.9445983556
 20
368.4765016268
 30
0.0
 11
189.6425983556
 21
368.9845016268
 31
0.0
 12
189.6425983556
 22
367.9685016268
 32
0.0
 13
189.6425983556
 23
367.9685016268
 33
0.0
  0
LINE
  5
4D2
330
4CD
100
AcDbEntity
  8
FORMAT
100
AcDbLine
 10
171.9445983556
 20
337.4765016268
 30
0.0
 11
171.9445983556
 21
369.4765016268
 31
0.0
  0
LINE
  5
4D3
330
4CD
100
AcDbEntity
  8
FORMAT
100
AcDbLine
 10
192.9445983556
 20
359.4765016268
 30
0.0
 11
192.9445983556
 21
369.4765016268
 31
0.0
  0
LINE
  5
4D4
330
4CD
100
AcDbEntity
  8
FORMAT
100
AcDbLine
 10
171.9445983556
 20
368.4765016268
 30
0.0
 11
192.9445983556
 21
368.4765016268
 31
0.0
  0
MTEXT
  5
4D5
330
4CD
100
AcDbEntity
  8
FORMAT
100
AcDbMText
 10
179.7709873107
 20
372.9882389488
 30
0.0
 40
3.5
 41
0.0
 71
     1
 72
     1
  1
21
  7
SLDTEXTSTYLE0
 73
     1
 44
1.0
  0
ENDBLK
  5
4CF
330
4CD
100
AcDbEntity
  8
0
100
AcDbBlockEnd
  0
BLOCK
  5
53B
330
53A
100
AcDbEntity
  8
0
100
AcDbBlockBegin
  2
_D_13
 70
     0
 10
0.0
 20
0.0
 30
0.0
  3
_D_13
  1

  0
SOLID
  5
53D
330
53A
100
AcDbEntity
  8
FORMAT
100
AcDbTrace
 10
387.0217029866
 20
371.7325084491
 30
0.0
 11
386.5137029866
 21
368.4305084491
 31
0.0
 12
387.5297029866
 22
368.4305084491
 32
0.0
 13
387.5297029866
 23
368.4305084491
 33
0.0
  0
SOLID
  5
53E
330
53A
100
AcDbEntity
  8
FORMAT
100
AcDbTrace
 10
387.0217029866
 20
191.7325084491
 30
0.0
 11
387.5297029866
 21
195.0345084491
 31
0.0
 12
386.5137029866
 22
195.0345084491
 32
0.0
 13
386.5137029866
 23
195.0345084491
 33
0.0
  0
LINE
  5
53F
330
53A
100
AcDbEntity
  8
FORMAT
100
AcDbLine
 10
355.0217029866
 20
371.7325084491
 30
0.0
 11
388.0217029866
 21
371.7325084491
 31
0.0
  0
LINE
  5
540
330
53A
100
AcDbEntity
  8
FORMAT
100
AcDbLine
 10
355.0217029866
 20
191.7325084491
 30
0.0
 11
388.0217029866
 21
191.7325084491
 31
0.0
  0
LINE
  5
541
330
53A
100
AcDbEntity
  8
FORMAT
100
AcDbLine
 10
387.0217029866
 20
371.7325084491
 30
0.0
 11
387.0217029866
 21
191.7325084491
 31
0.0
  0
MTEXT
  5
542
330
53A
100
AcDbEntity
  8
FORMAT
100
AcDbMText
 10
382.5099656646
 20
277.7220918818
 30
0.0
 40
3.5
 41
0.0
 71
     1
 72
     1
  1
180
  7
SLDTEXTSTYLE0
 11
-7.044195017643634E-15
 21
1.0
 31
0.0
 73
     1
 44
1.0
  0
ENDBLK
  5
53C
330
53A
100
AcDbEntity
  8
0
100
AcDbBlockEnd
  0
BLOCK
  5
546
330
545
100
AcDbEntity
  8
0
100
AcDbBlockBegin
  2
_D_14
 70
     0
 10
0.0
 20
0.0
 30
0.0
  3
_D_14
  1

  0
SOLID
  5
548
330
545
100
AcDbEntity
  8
FORMAT
100
AcDbTrace
 10
344.5675203209
 20
196.3420801717
 30
0.0
 11
341.653182927
 21
194.7087077235
 31
0.0
 12
342.2789058545
 22
193.9082535912
 32
0.0
 13
342.2789058545
 23
193.9082535912
 33
0.0
  0
LINE
  5
549
330
545
100
AcDbEntity
  8
FORMAT
100
AcDbLine
 10
344.5675203209
 20
196.3420801717
 30
0.0
 11
332.856371482
 21
187.1873590709
 31
0.0
  0
MTEXT
  5
54A
330
545
100
AcDbEntity
  8
FORMAT
100
AcDbMText
 10
330.0892763361
 20
190.7271570341
 30
0.0
 40
3.5
 41
0.0
 71
     1
 72
     1
  1
R12
  7
SLDTEXTSTYLE0
 11
0.7878485554752468
 21
0.615869023117389
 31
0.0
 73
     1
 44
1.0
  0
ENDBLK
  5
547
330
545
100
AcDbEntity
  8
0
100
AcDbBlockEnd
  0
BLOCK
  5
54D
330
54C
100
AcDbEntity
  8
0
100
AcDbBlockBegin
  2
SW_NOTE_0_7
 70
     0
 10
0.0
 20
0.0
 30
0.0
  3
SW_NOTE_0_7
  1

  0
MTEXT
  5
54F
330
54C
100
AcDbEntity
  8
FORMAT
 62
     0
100
AcDbMText
 10
32.4296875
 20
4.5117370892
 30
0.0
 40
3.5
 41
0.0
 71
     2
 72
     1
  1
Fräsbild für Aufnahmeelement 
  7
SLDTEXTSTYLE0
 73
     1
 44
1.0
  0
MTEXT
  5
550
330
54C
100
AcDbEntity
  8
FORMAT
 62
     0
100
AcDbMText
 10
32.6630219221
 20
-0.0090964031
 30
0.0
 40
3.5
 41
0.0
 71
     2
 72
     1
  1
mit Abdeckblech 
  7
SLDTEXTSTYLE0
 73
     1
 44
1.0
  0
ENDBLK
  5
54E
330
54C
100
AcDbEntity
  8
0
100
AcDbBlockEnd
  0
BLOCK
  5
573
330
572
100
AcDbEntity
  8
0
100
AcDbBlockBegin
  2
SW_HATCH_0
 70
     0
 10
0.0
 20
0.0
 30
0.0
  3
SW_HATCH_0
  1

  0
LINE
  5
575
330
572
100
AcDbEntity
  8
0
  6
Continuous
 62
     0
370
    18
100
AcDbLine
 10
0.0
 20
0.0
 30
0.0
 11
-3.8579050452
 21
-3.8579041138
 31
0.0
  0
LINE
  5
576
330
572
100
AcDbEntity
  8
0
  6
Continuous
 62
     0
370
    18
100
AcDbLine
 10
4.4901259243
 20
0.0
 30
0.0
 11
-3.8579050452
 21
-8.3480319008
 31
0.0
  0
LINE
  5
577
330
572
100
AcDbEntity
  8
0
  6
Continuous
 62
     0
370
    18
100
AcDbLine
 10
8.1420950592
 20
-0.8381595835
 30
0.0
 11
0.4150383174
 21
-8.5652144626
 31
0.0
  0
LINE
  5
578
330
572
100
AcDbEntity
  8
0
  6
Continuous
 62
     0
370
    18
100
AcDbLine
 10
8.1420950592
 20
-5.3282883018
 30
0.0
 11
3.1420961022
 21
-10.3282879572
 31
0.0
  0
LINE
  5
579
330
572
100
AcDbEntity
  8
0
  6
Continuous
 62
     0
370
    18
100
AcDbLine
 10
8.1420950592
 20
-9.8184160888
 30
0.0
 11
3.1420961022
 21
-14.8184159189
 31
0.0
  0
LINE
  5
57A
330
572
100
AcDbEntity
  8
0
  6
Continuous
 62
     0
370
    18
100
AcDbLine
 10
8.1420950592
 20
-14.3085440068
 30
0.0
 11
6.8854242563
 21
-15.5652144458
 31
0.0
  0
LINE
  5
57B
330
572
100
AcDbEntity
  8
0
  6
Continuous
 62
     0
370
    18
100
AcDbLine
 10
5.8656819165
 20
-25.5652144551
 30
0.0
 11
3.1420961022
 21
-28.2888002694
 31
0.0
  0
LINE
  5
57C
330
572
100
AcDbEntity
  8
0
  6
Continuous
 62
     0
370
    18
100
AcDbLine
 10
8.1420950592
 20
-27.7789281681
 30
0.0
 11
3.3558085561
 21
-32.5652146712
 31
0.0
  0
LINE
  5
57D
330
572
100
AcDbEntity
  8
0
  6
Continuous
 62
     0
370
    18
100
AcDbLine
 10
-45.0158566236
 20
-22.5652148947
 30
0.0
 11
-47.958384268
 21
-25.507742539
 31
0.0
  0
LINE
  5
57E
330
572
100
AcDbEntity
  8
0
  6
Continuous
 62
     0
370
    18
100
AcDbLine
 10
-40.525728371
 20
-22.5652148947
 30
0.0
 11
-47.958384268
 21
-29.9978712574
 31
0.0
  0
LINE
  5
57F
330
572
100
AcDbEntity
  8
0
  6
Continuous
 62
     0
370
    18
100
AcDbLine
 10
-36.0356003512
 20
-22.5652148947
 30
0.0
 11
-47.958384268
 21
-34.4879990444
 31
0.0
  0
LINE
  5
580
330
572
100
AcDbEntity
  8
0
  6
Continuous
 62
     0
370
    18
100
AcDbLine
 10
-31.5454723313
 20
-22.5652148947
 30
0.0
 11
-47.958384268
 21
-38.9781268314
 31
0.0
  0
LINE
  5
581
330
572
100
AcDbEntity
  8
0
  6
Continuous
 62
     0
370
    18
100
AcDbLine
 10
-42.8579058498
 20
-38.3677752689
 30
0.0
 11
-47.958384268
 21
-43.4682546183
 31
0.0
  0
LINE
  5
582
330
572
100
AcDbEntity
  8
0
  6
Continuous
 62
     0
370
    18
100
AcDbLine
 10
-27.0553440787
 20
-22.5652148947
 30
0.0
 11
-42.0553442091
 21
-37.5652136281
 31
0.0
  0
LINE
  5
583
330
572
100
AcDbEntity
  8
0
  6
Continuous
 62
     0
370
    18
100
AcDbLine
 10
-41.5652161464
 20
-41.5652142838
 30
0.0
 11
-45.5652158707
 21
-45.5652149394
 31
0.0
  0
LINE
  5
584
330
572
100
AcDbEntity
  8
0
  6
Continuous
 62
     0
370
    18
100
AcDbLine
 10
-36.857905332
 20
-36.857903935
 30
0.0
 11
-37.5652161893
 21
-37.5652136281
 31
0.0
  0
LINE
  5
585
330
572
100
AcDbEntity
  8
0
  6
Continuous
 62
     0
370
    18
100
AcDbLine
 10
-22.565215826
 20
-22.5652148947
 30
0.0
 11
-32.5652160682
 21
-32.5652146712
 31
0.0
  0
LINE
  5
586
330
572
100
AcDbEntity
  8
0
  6
Continuous
 62
     0
370
    18
100
AcDbLine
 10
-37.0750881266
 20
-41.5652142838
 30
0.0
 11
-41.0750880837
 21
-45.5652149394
 31
0.0
  0
LINE
  5
587
330
572
100
AcDbEntity
  8
0
  6
Continuous
 62
     0
370
    18
100
AcDbLine
 10
-20.8579050377
 20
-25.3480318934
 30
0.0
 11
-28.0750882812
 21
-32.5652146712
 31
0.0
  0
LINE
  5
588
330
572
100
AcDbEntity
  8
0
  6
Continuous
 62
     0
370
    18
100
AcDbLine
 10
-20.8579050377
 20
-29.8381606117
 30
0.0
 11
-23.5849600285
 21
-32.5652146712
 31
0.0
  0
ENDBLK
  5
574
330
572
100
AcDbEntity
  8
0
100
AcDbBlockEnd
  0
BLOCK
  5
58C
330
58B
100
AcDbEntity
  8
0
100
AcDbBlockBegin
  2
_D_15
 70
     0
 10
0.0
 20
0.0
 30
0.0
  3
_D_15
  1

  0
SOLID
  5
58E
330
58B
100
AcDbEntity
  8
FORMAT
100
AcDbTrace
 10
342.0217029866
 20
106.6221477322
 30
0.0
 11
345.3237029866
 21
106.1141477322
 31
0.0
 12
345.3237029866
 22
107.1301477322
 32
0.0
 13
345.3237029866
 23
107.1301477322
 33
0.0
  0
SOLID
  5
58F
330
58B
100
AcDbEntity
  8
FORMAT
100
AcDbTrace
 10
371.0217029866
 20
106.6221477322
 30
0.0
 11
367.7197029866
 21
107.1301477322
 31
0.0
 12
367.7197029866
 22
106.1141477322
 32
0.0
 13
367.7197029866
 23
106.1141477322
 33
0.0
  0
LINE
  5
590
330
58B
100
AcDbEntity
  8
FORMAT
100
AcDbLine
 10
342.0217029866
 20
128.6221477322
 30
0.0
 11
342.0217029866
 21
105.6221477322
 31
0.0
  0
LINE
  5
591
330
58B
100
AcDbEntity
  8
FORMAT
100
AcDbLine
 10
371.0217029866
 20
130.6221478216
 30
0.0
 11
371.0217029866
 21
105.6221477322
 31
0.0
  0
LINE
  5
592
330
58B
100
AcDbEntity
  8
FORMAT
100
AcDbLine
 10
342.0217029866
 20
106.6221477322
 30
0.0
 11
371.0217029866
 21
106.6221477322
 31
0.0
  0
MTEXT
  5
593
330
58B
100
AcDbEntity
  8
FORMAT
100
AcDbMText
 10
353.1796891805
 20
111.1338850542
 30
0.0
 40
3.5
 41
0.0
 71
     1
 72
     1
  1
29
  7
SLDTEXTSTYLE0
 73
     1
 44
1.0
  0
MTEXT
  5
594
330
58B
100
AcDbEntity
  8
FORMAT
100
AcDbMText
 10
358.5269112703
 20
111.1338850542
 30
0.0
 40
3.5
 41
0.0
 71
     1
 72
     1
  1
 
  7
SLDTEXTSTYLE0
 73
     1
 44
1.0
  0
ENDBLK
  5
58D
330
58B
100
AcDbEntity
  8
0
100
AcDbBlockEnd
  0
BLOCK
  5
597
330
596
100
AcDbEntity
  8
0
100
AcDbBlockBegin
  2
_D_16
 70
     0
 10
0.0
 20
0.0
 30
0.0
  3
_D_16
  1

  0
SOLID
  5
599
330
596
100
AcDbEntity
  8
FORMAT
100
AcDbTrace
 10
342.0217029866
 20
115.8817530393
 30
0.0
 11
345.3237029866
 21
115.3737530393
 31
0.0
 12
345.3237029866
 22
116.3897530393
 32
0.0
 13
345.3237029866
 23
116.3897530393
 33
0.0
  0
SOLID
  5
59A
330
596
100
AcDbEntity
  8
FORMAT
100
AcDbTrace
 10
366.0217029866
 20
115.8817530393
 30
0.0
 11
362.7197029866
 21
116.3897530393
 31
0.0
 12
362.7197029866
 22
115.3737530393
 32
0.0
 13
362.7197029866
 23
115.3737530393
 33
0.0
  0
LINE
  5
59B
330
596
100
AcDbEntity
  8
FORMAT
100
AcDbLine
 10
342.0217029866
 20
128.6221477322
 30
0.0
 11
342.0217029866
 21
114.8817530393
 31
0.0
  0
LINE
  5
59C
330
596
100
AcDbEntity
  8
FORMAT
100
AcDbLine
 10
366.0217029866
 20
128.6221477322
 30
0.0
 11
366.0217029866
 21
114.8817530393
 31
0.0
  0
LINE
  5
59D
330
596
100
AcDbEntity
  8
FORMAT
100
AcDbLine
 10
342.0217029866
 20
115.8817530393
 30
0.0
 11
366.0217029866
 21
115.8817530393
 31
0.0
  0
MTEXT
  5
59E
330
596
100
AcDbEntity
  8
FORMAT
100
AcDbMText
 10
351.3480919417
 20
120.3934903614
 30
0.0
 40
3.5
 41
0.0
 71
     1
 72
     1
  1
24
  7
SLDTEXTSTYLE0
 73
     1
 44
1.0
  0
ENDBLK
  5
598
330
596
100
AcDbEntity
  8
0
100
AcDbBlockEnd
  0
BLOCK
  5
5A1
330
5A0
100
AcDbEntity
  8
0
100
AcDbBlockBegin
  2
_D_17
 70
     0
 10
0.0
 20
0.0
 30
0.0
  3
_D_17
  1

  0
SOLID
  5
5A3
330
5A0
100
AcDbEntity
  8
FORMAT
100
AcDbTrace
 10
389.2286139742
 20
129.6221477322
 30
0.0
 11
389.7366139742
 21
132.9241477322
 31
0.0
 12
388.7206139742
 22
132.9241477322
 32
0.0
 13
388.7206139742
 23
132.9241477322
 33
0.0
  0
SOLID
  5
5A4
330
5A0
100
AcDbEntity
  8
FORMAT
100
AcDbTrace
 10
389.2286139742
 20
153.6221477322
 30
0.0
 11
388.7206139742
 21
150.3201477322
 31
0.0
 12
389.7366139742
 22
150.3201477322
 32
0.0
 13
389.7366139742
 23
150.3201477322
 33
0.0
  0
LINE
  5
5A5
330
5A0
100
AcDbEntity
  8
FORMAT
100
AcDbLine
 10
370.0217029866
 20
129.6221477322
 30
0.0
 11
390.2286139742
 21
129.6221477322
 31
0.0
  0
LINE
  5
5A6
330
5A0
100
AcDbEntity
  8
FORMAT
100
AcDbLine
 10
367.0217029866
 20
153.6221477322
 30
0.0
 11
390.2286139742
 21
153.6221477322
 31
0.0
  0
LINE
  5
5A7
330
5A0
100
AcDbEntity
  8
FORMAT
100
AcDbLine
 10
389.2286139742
 20
129.6221477322
 30
0.0
 11
389.2286139742
 21
153.6221477322
 31
0.0
  0
MTEXT
  5
5A8
330
5A0
100
AcDbEntity
  8
FORMAT
100
AcDbMText
 10
384.7168766522
 20
138.9485366873
 30
0.0
 40
3.5
 41
0.0
 71
     1
 72
     1
  1
24
  7
SLDTEXTSTYLE0
 11
6.123233995736766E-17
 21
1.0
 31
0.0
 73
     1
 44
1.0
  0
ENDBLK
  5
5A2
330
5A0
100
AcDbEntity
  8
0
100
AcDbBlockEnd
  0
BLOCK
  5
5AB
330
5AA
100
AcDbEntity
  8
0
100
AcDbBlockBegin
  2
_D_18
 70
     0
 10
0.0
 20
0.0
 30
0.0
  3
_D_18
  1

  0
SOLID
  5
5AD
330
5AA
100
AcDbEntity
  8
FORMAT
100
AcDbTrace
 10
381.0217029866
 20
141.6221477322
 30
0.0
 11
380.5137029866
 21
138.3201477322
 31
0.0
 12
381.5297029866
 22
138.3201477322
 32
0.0
 13
381.5297029866
 23
138.3201477322
 33
0.0
  0
SOLID
  5
5AE
330
5AA
100
AcDbEntity
  8
FORMAT
100
AcDbTrace
 10
381.0217029866
 20
129.6221477322
 30
0.0
 11
381.5297029866
 21
132.9241477322
 31
0.0
 12
380.5137029866
 22
132.9241477322
 32
0.0
 13
380.5137029866
 23
132.9241477322
 33
0.0
  0
LINE
  5
5AF
330
5AA
100
AcDbEntity
  8
FORMAT
100
AcDbLine
 10
374.0217029866
 20
141.6221477322
 30
0.0
 11
382.0217029866
 21
141.6221477322
 31
0.0
  0
LINE
  5
5B0
330
5AA
100
AcDbEntity
  8
FORMAT
100
AcDbLine
 10
370.0217029866
 20
129.6221477322
 30
0.0
 11
382.0217029866
 21
129.6221477322
 31
0.0
  0
LINE
  5
5B1
330
5AA
100
AcDbEntity
  8
FORMAT
100
AcDbLine
 10
381.0217029866
 20
141.6221477322
 30
0.0
 11
381.0217029866
 21
129.6221477322
 31
0.0
  0
MTEXT
  5
5B2
330
5AA
100
AcDbEntity
  8
FORMAT
100
AcDbMText
 10
376.5099656646
 20
132.9485366873
 30
0.0
 40
3.5
 41
0.0
 71
     1
 72
     1
  1
12
  7
SLDTEXTSTYLE0
 11
-7.044195017643634E-15
 21
1.0
 31
0.0
 73
     1
 44
1.0
  0
ENDBLK
  5
5AC
330
5AA
100
AcDbEntity
  8
0
100
AcDbBlockEnd
  0
BLOCK
  5
5B5
330
5B4
100
AcDbEntity
  8
0
100
AcDbBlockBegin
  2
_D_19
 70
     0
 10
0.0
 20
0.0
 30
0.0
  3
_D_19
  1

  0
SOLID
  5
5B7
330
5B4
100
AcDbEntity
  8
FORMAT
100
AcDbTrace
 10
308.3898875383
 20
139.6221477322
 30
0.0
 11
308.8978875383
 21
142.9241477322
 31
0.0
 12
307.8818875383
 22
142.9241477322
 32
0.0
 13
307.8818875383
 23
142.9241477322
 33
0.0
  0
SOLID
  5
5B8
330
5B4
100
AcDbEntity
  8
FORMAT
100
AcDbTrace
 10
308.3898875383
 20
153.6221477322
 30
0.0
 11
307.8818875383
 21
150.3201477322
 31
0.0
 12
308.8978875383
 22
150.3201477322
 32
0.0
 13
308.8978875383
 23
150.3201477322
 33
0.0
  0
LINE
  5
5B9
330
5B4
100
AcDbEntity
  8
FORMAT
100
AcDbLine
 10
313.9212239045
 20
139.6221477322
 30
0.0
 11
307.3898875383
 21
139.6221477322
 31
0.0
  0
LINE
  5
5BA
330
5B4
100
AcDbEntity
  8
FORMAT
100
AcDbLine
 10
358.0217029866
 20
153.6221477322
 30
0.0
 11
307.3898875383
 21
153.6221477322
 31
0.0
  0
LINE
  5
5BB
330
5B4
100
AcDbEntity
  8
FORMAT
100
AcDbLine
 10
308.3898875383
 20
139.6221477322
 30
0.0
 11
308.3898875383
 21
153.6221477322
 31
0.0
  0
MTEXT
  5
5BC
330
5B4
100
AcDbEntity
  8
FORMAT
100
AcDbMText
 10
303.8781502163
 20
143.9485366873
 30
0.0
 40
3.5
 41
0.0
 71
     1
 72
     1
  1
14
  7
SLDTEXTSTYLE0
 11
-6.822150412718603E-15
 21
1.0
 31
0.0
 73
     1
 44
1.0
  0
ENDBLK
  5
5B6
330
5B4
100
AcDbEntity
  8
0
100
AcDbBlockEnd
  0
BLOCK
  5
5CC
330
5CB
100
AcDbEntity
  8
0
100
AcDbBlockBegin
  2
_D_20
 70
     0
 10
0.0
 20
0.0
 30
0.0
  3
_D_20
  1

  0
SOLID
  5
5CE
330
5CB
100
AcDbEntity
  8
FORMAT
100
AcDbTrace
 10
266.1956674248
 20
172.9883715859
 30
0.0
 11
262.8936674248
 21
173.4963715859
 31
0.0
 12
262.8936674248
 22
172.4803715859
 32
0.0
 13
262.8936674248
 23
172.4803715859
 33
0.0
  0
SOLID
  5
5CF
330
5CB
100
AcDbEntity
  8
FORMAT
100
AcDbTrace
 10
276.1956674248
 20
172.9883715859
 30
0.0
 11
279.4976674248
 21
172.4803715859
 31
0.0
 12
279.4976674248
 22
173.4963715859
 32
0.0
 13
279.4976674248
 23
173.4963715859
 33
0.0
  0
LINE
  5
5D0
330
5CB
100
AcDbEntity
  8
FORMAT
100
AcDbLine
 10
266.1956674248
 20
235.7325084491
 30
0.0
 11
266.1956674248
 21
171.9883715859
 31
0.0
  0
LINE
  5
5D1
330
5CB
100
AcDbEntity
  8
FORMAT
100
AcDbLine
 10
276.1956674248
 20
235.7325084491
 30
0.0
 11
276.1956674248
 21
171.9883715859
 31
0.0
  0
LINE
  5
5D2
330
5CB
100
AcDbEntity
  8
FORMAT
100
AcDbLine
 10
266.1956674248
 20
172.9883715859
 30
0.0
 11
259.8456674248
 21
172.9883715859
 31
0.0
  0
LINE
  5
5D3
330
5CB
100
AcDbEntity
  8
FORMAT
100
AcDbLine
 10
266.1956674248
 20
172.9883715859
 30
0.0
 11
276.1956674248
 21
172.9883715859
 31
0.0
  0
LINE
  5
5D4
330
5CB
100
AcDbEntity
  8
FORMAT
100
AcDbLine
 10
276.1956674248
 20
172.9883715859
 30
0.0
 11
282.5456674248
 21
172.9883715859
 31
0.0
  0
MTEXT
  5
5D5
330
5CB
100
AcDbEntity
  8
FORMAT
100
AcDbMText
 10
268.5220563799
 20
177.5001089079
 30
0.0
 40
3.5
 41
0.0
 71
     1
 72
     1
  1
10
  7
SLDTEXTSTYLE0
 73
     1
 44
1.0
  0
ENDBLK
  5
5CD
330
5CB
100
AcDbEntity
  8
0
100
AcDbBlockEnd
  0
BLOCK
  5
5D8
330
5D7
100
AcDbEntity
  8
0
100
AcDbBlockBegin
  2
_D_21
 70
     0
 10
0.0
 20
0.0
 30
0.0
  3
_D_21
  1

  0
SOLID
  5
5DA
330
5D7
100
AcDbEntity
  8
FORMAT
100
AcDbTrace
 10
297.3440617501
 20
331.7325084491
 30
0.0
 11
296.8360617501
 21
328.4305084491
 31
0.0
 12
297.8520617501
 22
328.4305084491
 32
0.0
 13
297.8520617501
 23
328.4305084491
 33
0.0
  0
SOLID
  5
5DB
330
5D7
100
AcDbEntity
  8
FORMAT
100
AcDbTrace
 10
297.3440617501
 20
231.7325084491
 30
0.0
 11
297.8520617501
 21
235.0345084491
 31
0.0
 12
296.8360617501
 22
235.0345084491
 32
0.0
 13
296.8360617501
 23
235.0345084491
 33
0.0
  0
LINE
  5
5DC
330
5D7
100
AcDbEntity
  8
FORMAT
100
AcDbLine
 10
272.1956674248
 20
331.7325084491
 30
0.0
 11
298.3440617501
 21
331.7325084491
 31
0.0
  0
LINE
  5
5DD
330
5D7
100
AcDbEntity
  8
FORMAT
100
AcDbLine
 10
272.1956674248
 20
231.7325084491
 30
0.0
 11
298.3440617501
 21
231.7325084491
 31
0.0
  0
LINE
  5
5DE
330
5D7
100
AcDbEntity
  8
FORMAT
100
AcDbLine
 10
297.3440617501
 20
331.7325084491
 30
0.0
 11
297.3440617501
 21
231.7325084491
 31
0.0
  0
MTEXT
  5
5DF
330
5D7
100
AcDbEntity
  8
FORMAT
100
AcDbMText
 10
292.832324428
 20
277.7220918818
 30
0.0
 40
3.5
 41
0.0
 71
     1
 72
     1
  1
100
  7
SLDTEXTSTYLE0
 11
-7.044195017643634E-15
 21
1.0
 31
0.0
 73
     1
 44
1.0
  0
ENDBLK
  5
5D9
330
5D7
100
AcDbEntity
  8
0
100
AcDbBlockEnd
  0
BLOCK
  5
5E1
330
5E0
100
AcDbEntity
  8
0
100
AcDbBlockBegin
  2
SW_CENTERMARKSYMBOL_38
 70
     0
 10
0.0
 20
0.0
 30
0.0
  3
SW_CENTERMARKSYMBOL_38
  1

  0
LINE
  5
5E3
330
5E0
100
AcDbEntity
  8
FORMAT
 62
     0
100
AcDbLine
 10
0.0
 20
0.0
 30
0.0
 11
0.0
 21
-2.5000013411
 31
0.0
  0
LINE
  5
5E4
330
5E0
100
AcDbEntity
  8
FORMAT
 62
     0
100
AcDbLine
 10
0.0
 20
0.0
 30
0.0
 11
2.4999999441
 21
0.0
 31
0.0
  0
LINE
  5
5E5
330
5E0
100
AcDbEntity
  8
FORMAT
 62
     0
100
AcDbLine
 10
0.0
 20
0.0
 30
0.0
 11
0.0
 21
2.4999976158
 31
0.0
  0
LINE
  5
5E6
330
5E0
100
AcDbEntity
  8
FORMAT
 62
     0
100
AcDbLine
 10
0.0
 20
0.0
 30
0.0
 11
-2.4999994785
 21
0.0
 31
0.0
  0
LINE
  5
5E7
330
5E0
100
AcDbEntity
  8
FORMAT
 62
     0
100
AcDbLine
 10
0.0
 20
-5.0000026822
 30
0.0
 11
0.0
 21
-80.2037939429
 31
0.0
  0
LINE
  5
5E8
330
5E0
100
AcDbEntity
  8
FORMAT
 62
     0
100
AcDbLine
 10
5.0000001211
 20
0.0
 30
0.0
 11
7.5000001816
 21
0.0
 31
0.0
  0
LINE
  5
5E9
330
5E0
100
AcDbEntity
  8
FORMAT
 62
     0
100
AcDbLine
 10
0.0
 20
4.9999989569
 30
0.0
 11
0.0
 21
7.4999965727
 31
0.0
  0
LINE
  5
5EA
330
5E0
100
AcDbEntity
  8
FORMAT
 62
     0
100
AcDbLine
 10
-4.9999998882
 20
0.0
 30
0.0
 11
-7.500000298
 21
0.0
 31
0.0
  0
LINE
  5
5EB
330
5E0
100
AcDbEntity
  8
FORMAT
 62
     0
100
AcDbLine
 10
0.0
 20
-90.0000035763
 30
0.0
 11
0.0
 21
-92.5000011921
 31
0.0
  0
LINE
  5
5EC
330
5E0
100
AcDbEntity
  8
FORMAT
 62
     0
100
AcDbLine
 10
0.0
 20
-90.0000035763
 30
0.0
 11
2.4999999441
 21
-90.0000035763
 31
0.0
  0
LINE
  5
5ED
330
5E0
100
AcDbEntity
  8
FORMAT
 62
     0
100
AcDbLine
 10
0.0
 20
-90.0000035763
 30
0.0
 11
0.0
 21
-87.5000022352
 31
0.0
  0
LINE
  5
5EE
330
5E0
100
AcDbEntity
  8
FORMAT
 62
     0
100
AcDbLine
 10
0.0
 20
-90.0000035763
 30
0.0
 11
-2.4999994785
 21
-90.0000035763
 31
0.0
  0
LINE
  5
5EF
330
5E0
100
AcDbEntity
  8
FORMAT
 62
     0
100
AcDbLine
 10
0.0
 20
-95.0000025332
 30
0.0
 11
0.0
 21
-97.500000149
 31
0.0
  0
LINE
  5
5F0
330
5E0
100
AcDbEntity
  8
FORMAT
 62
     0
100
AcDbLine
 10
5.0000001211
 20
-90.0000035763
 30
0.0
 11
7.5000001816
 21
-90.0000035763
 31
0.0
  0
LINE
  5
5F1
330
5E0
100
AcDbEntity
  8
FORMAT
 62
     0
100
AcDbLine
 10
0.0
 20
-85.0000008941
 30
0.0
 11
0.0
 21
-82.5000032783
 31
0.0
  0
LINE
  5
5F2
330
5E0
100
AcDbEntity
  8
FORMAT
 62
     0
100
AcDbLine
 10
-4.9999998882
 20
-90.0000035763
 30
0.0
 11
-7.500000298
 21
-90.0000035763
 31
0.0
  0
ENDBLK
  5
5E2
330
5E0
100
AcDbEntity
  8
0
100
AcDbBlockEnd
  0
BLOCK
  5
5F5
330
5F4
100
AcDbEntity
  8
0
100
AcDbBlockBegin
  2
SW_CENTERMARKSYMBOL_39
 70
     0
 10
0.0
 20
0.0
 30
0.0
  3
SW_CENTERMARKSYMBOL_39
  1

  0
LINE
  5
5F7
330
5F4
100
AcDbEntity
  8
FORMAT
 62
     0
100
AcDbLine
 10
0.0
 20
0.0
 30
0.0
 11
0.0
 21
-2.4999999441
 31
0.0
  0
LINE
  5
5F8
330
5F4
100
AcDbEntity
  8
FORMAT
 62
     0
100
AcDbLine
 10
0.0
 20
0.0
 30
0.0
 11
2.4999999441
 21
0.0
 31
0.0
  0
LINE
  5
5F9
330
5F4
100
AcDbEntity
  8
FORMAT
 62
     0
100
AcDbLine
 10
0.0
 20
0.0
 30
0.0
 11
0.0
 21
2.4999999441
 31
0.0
  0
LINE
  5
5FA
330
5F4
100
AcDbEntity
  8
FORMAT
 62
     0
100
AcDbLine
 10
0.0
 20
0.0
 30
0.0
 11
-2.4999994785
 21
0.0
 31
0.0
  0
LINE
  5
5FB
330
5F4
100
AcDbEntity
  8
FORMAT
 62
     0
100
AcDbLine
 10
0.0
 20
-4.9999998882
 30
0.0
 11
0.0
 21
-7.4999998324
 31
0.0
  0
LINE
  5
5FC
330
5F4
100
AcDbEntity
  8
FORMAT
 62
     0
100
AcDbLine
 10
5.0000001211
 20
0.0
 30
0.0
 11
16.4246540517
 21
0.0
 31
0.0
  0
LINE
  5
5FD
330
5F4
100
AcDbEntity
  8
FORMAT
 62
     0
100
AcDbLine
 10
0.0
 20
4.9999998882
 30
0.0
 11
0.0
 21
7.4999998324
 31
0.0
  0
LINE
  5
5FE
330
5F4
100
AcDbEntity
  8
FORMAT
 62
     0
100
AcDbLine
 10
-4.9999998882
 20
0.0
 30
0.0
 11
-29.4402744621
 21
0.0
 31
0.0
  0
ENDBLK
  5
5F6
330
5F4
100
AcDbEntity
  8
0
100
AcDbBlockEnd
  0
BLOCK
  5
614
330
613
100
AcDbEntity
  8
0
100
AcDbBlockBegin
  2
_D_22
 70
     0
 10
0.0
 20
0.0
 30
0.0
  3
_D_22
  1

  0
SOLID
  5
616
330
613
100
AcDbEntity
  8
FORMAT
100
AcDbTrace
 10
563.1839833071
 20
326.5046779405
 30
0.0
 11
562.6759833071
 21
323.2026779405
 31
0.0
 12
563.6919833071
 22
323.2026779405
 32
0.0
 13
563.6919833071
 23
323.2026779405
 33
0.0
  0
SOLID
  5
617
330
613
100
AcDbEntity
  8
FORMAT
100
AcDbTrace
 10
563.1839833071
 20
232.5046779405
 30
0.0
 11
563.6919833071
 21
235.8066779405
 31
0.0
 12
562.6759833071
 22
235.8066779405
 32
0.0
 13
562.6759833071
 23
235.8066779405
 33
0.0
  0
LINE
  5
618
330
613
100
AcDbEntity
  8
FORMAT
100
AcDbLine
 10
550.2012251466
 20
326.5046779405
 30
0.0
 11
564.1839833071
 21
326.5046779405
 31
0.0
  0
LINE
  5
619
330
613
100
AcDbEntity
  8
FORMAT
100
AcDbLine
 10
550.2012251466
 20
232.5046779405
 30
0.0
 11
564.1839833071
 21
232.5046779405
 31
0.0
  0
LINE
  5
61A
330
613
100
AcDbEntity
  8
FORMAT
100
AcDbLine
 10
563.1839833071
 20
326.5046779405
 30
0.0
 11
563.1839833071
 21
232.5046779405
 31
0.0
  0
MTEXT
  5
61B
330
613
100
AcDbEntity
  8
FORMAT
100
AcDbMText
 10
558.672245985
 20
276.8310668956
 30
0.0
 40
3.5
 41
0.0
 71
     1
 72
     1
  1
94
  7
SLDTEXTSTYLE0
 11
-5.267838178243384E-15
 21
1.0
 31
0.0
 73
     1
 44
1.0
  0
ENDBLK
  5
615
330
613
100
AcDbEntity
  8
0
100
AcDbBlockEnd
  0
BLOCK
  5
61E
330
61D
100
AcDbEntity
  8
0
100
AcDbBlockBegin
  2
_D_23
 70
     0
 10
0.0
 20
0.0
 30
0.0
  3
_D_23
  1

  0
SOLID
  5
620
330
61D
100
AcDbEntity
  8
FORMAT
100
AcDbTrace
 10
571.2012251466
 20
369.5046779405
 30
0.0
 11
570.6932251466
 21
366.2026779405
 31
0.0
 12
571.7092251466
 22
366.2026779405
 32
0.0
 13
571.7092251466
 23
366.2026779405
 33
0.0
  0
SOLID
  5
621
330
61D
100
AcDbEntity
  8
FORMAT
100
AcDbTrace
 10
571.2012251466
 20
189.5046779405
 30
0.0
 11
571.7092251466
 21
192.8066779405
 31
0.0
 12
570.6932251466
 22
192.8066779405
 32
0.0
 13
570.6932251466
 23
192.8066779405
 33
0.0
  0
LINE
  5
622
330
61D
100
AcDbEntity
  8
FORMAT
100
AcDbLine
 10
533.2012251466
 20
369.5046779405
 30
0.0
 11
572.2012251466
 21
369.5046779405
 31
0.0
  0
LINE
  5
623
330
61D
100
AcDbEntity
  8
FORMAT
100
AcDbLine
 10
533.2012251466
 20
189.5046779405
 30
0.0
 11
572.2012251466
 21
189.5046779405
 31
0.0
  0
LINE
  5
624
330
61D
100
AcDbEntity
  8
FORMAT
100
AcDbLine
 10
571.2012251466
 20
369.5046779405
 30
0.0
 11
571.2012251466
 21
189.5046779405
 31
0.0
  0
MTEXT
  5
625
330
61D
100
AcDbEntity
  8
FORMAT
100
AcDbMText
 10
566.6894878245
 20
275.4942613732
 30
0.0
 40
3.5
 41
0.0
 71
     1
 72
     1
  1
180
  7
SLDTEXTSTYLE0
 11
-7.044195017643634E-15
 21
1.0
 31
0.0
 73
     1
 44
1.0
  0
ENDBLK
  5
61F
330
61D
100
AcDbEntity
  8
0
100
AcDbBlockEnd
  0
BLOCK
  5
628
330
627
100
AcDbEntity
  8
0
100
AcDbBlockBegin
  2
_D_24
 70
     0
 10
0.0
 20
0.0
 30
0.0
  3
_D_24
  1

  0
SOLID
  5
62A
330
627
100
AcDbEntity
  8
FORMAT
100
AcDbTrace
 10
523.7159437723
 20
193.0193965663
 30
0.0
 11
521.021866936
 21
191.0437402196
 31
0.0
 12
521.7402874257
 22
190.3253197299
 32
0.0
 13
521.7402874257
 23
190.3253197299
 33
0.0
  0
LINE
  5
62B
330
627
100
AcDbEntity
  8
FORMAT
100
AcDbLine
 10
523.7159437723
 20
193.0193965663
 30
0.0
 11
513.8153027392
 21
183.1187555331
 31
0.0
  0
MTEXT
  5
62C
330
627
100
AcDbEntity
  8
FORMAT
100
AcDbMText
 10
510.6393297715
 20
186.2947285007
 30
0.0
 40
3.5
 41
0.0
 71
     1
 72
     1
  1
R12
  7
SLDTEXTSTYLE0
 11
0.7071067811865457
 21
0.7071067811865493
 31
0.0
 73
     1
 44
1.0
  0
ENDBLK
  5
629
330
627
100
AcDbEntity
  8
0
100
AcDbBlockEnd
  0
BLOCK
  5
62F
330
62E
100
AcDbEntity
  8
0
100
AcDbBlockBegin
  2
SW_NOTE_0_8
 70
     0
 10
0.0
 20
0.0
 30
0.0
  3
SW_NOTE_0_8
  1

  0
MTEXT
  5
631
330
62E
100
AcDbEntity
  8
FORMAT
 62
     0
100
AcDbMText
 10
32.4296875
 20
4.5117370892
 30
0.0
 40
3.5
 41
0.0
 71
     2
 72
     1
  1
Fräsbild für Aufnahmeelement 
  7
SLDTEXTSTYLE0
 73
     1
 44
1.0
  0
MTEXT
  5
632
330
62E
100
AcDbEntity
  8
FORMAT
 62
     0
100
AcDbMText
 10
32.5500001907
 20
-0.0090964031
 30
0.0
 40
3.5
 41
0.0
 71
     2
 72
     1
  1
mit Abdeckwinkel 
  7
SLDTEXTSTYLE0
 73
     1
 44
1.0
  0
ENDBLK
  5
630
330
62E
100
AcDbEntity
  8
0
100
AcDbBlockEnd
  0
BLOCK
  5
650
330
64F
100
AcDbEntity
  8
0
100
AcDbBlockBegin
  2
SW_HATCH_1
 70
     0
 10
0.0
 20
0.0
 30
0.0
  3
SW_HATCH_1
  1

  0
LINE
  5
652
330
64F
100
AcDbEntity
  8
0
  6
Continuous
 62
     0
370
    18
100
AcDbLine
 10
0.0
 20
0.0
 30
0.0
 11
-3.8579050452
 21
-3.8579041138
 31
0.0
  0
LINE
  5
653
330
64F
100
AcDbEntity
  8
0
  6
Continuous
 62
     0
370
    18
100
AcDbLine
 10
4.4901259243
 20
0.0
 30
0.0
 11
-3.8579050452
 21
-8.3480319008
 31
0.0
  0
LINE
  5
654
330
64F
100
AcDbEntity
  8
0
  6
Continuous
 62
     0
370
    18
100
AcDbLine
 10
8.1420950592
 20
-0.8381595835
 30
0.0
 11
0.4150383174
 21
-8.5652144626
 31
0.0
  0
LINE
  5
655
330
64F
100
AcDbEntity
  8
0
  6
Continuous
 62
     0
370
    18
100
AcDbLine
 10
8.1420950592
 20
-5.3282883018
 30
0.0
 11
4.9051679671
 21
-8.5652144626
 31
0.0
  0
LINE
  5
656
330
64F
100
AcDbEntity
  8
0
  6
Continuous
 62
     0
370
    18
100
AcDbLine
 10
-45.0158566236
 20
-22.5652148947
 30
0.0
 11
-47.958384268
 21
-25.507742539
 31
0.0
  0
LINE
  5
657
330
64F
100
AcDbEntity
  8
0
  6
Continuous
 62
     0
370
    18
100
AcDbLine
 10
-40.525728371
 20
-22.5652148947
 30
0.0
 11
-47.958384268
 21
-29.9978712574
 31
0.0
  0
LINE
  5
658
330
64F
100
AcDbEntity
  8
0
  6
Continuous
 62
     0
370
    18
100
AcDbLine
 10
-36.0356003512
 20
-22.5652148947
 30
0.0
 11
-47.958384268
 21
-34.4879990444
 31
0.0
  0
LINE
  5
659
330
64F
100
AcDbEntity
  8
0
  6
Continuous
 62
     0
370
    18
100
AcDbLine
 10
-31.5454723313
 20
-22.5652148947
 30
0.0
 11
-47.958384268
 21
-38.9781268314
 31
0.0
  0
LINE
  5
65A
330
64F
100
AcDbEntity
  8
0
  6
Continuous
 62
     0
370
    18
100
AcDbLine
 10
-42.8579058498
 20
-38.3677752689
 30
0.0
 11
-47.958384268
 21
-43.4682546183
 31
0.0
  0
LINE
  5
65B
330
64F
100
AcDbEntity
  8
0
  6
Continuous
 62
     0
370
    18
100
AcDbLine
 10
-27.0553440787
 20
-22.5652148947
 30
0.0
 11
-42.0553442091
 21
-37.5652136281
 31
0.0
  0
LINE
  5
65C
330
64F
100
AcDbEntity
  8
0
  6
Continuous
 62
     0
370
    18
100
AcDbLine
 10
-41.5652161464
 20
-41.5652142838
 30
0.0
 11
-45.5652158707
 21
-45.5652149394
 31
0.0
  0
LINE
  5
65D
330
64F
100
AcDbEntity
  8
0
  6
Continuous
 62
     0
370
    18
100
AcDbLine
 10
-36.857905332
 20
-36.857903935
 30
0.0
 11
-37.5652161893
 21
-37.5652136281
 31
0.0
  0
LINE
  5
65E
330
64F
100
AcDbEntity
  8
0
  6
Continuous
 62
     0
370
    18
100
AcDbLine
 10
-22.565215826
 20
-22.5652148947
 30
0.0
 11
-32.5652160682
 21
-32.5652146712
 31
0.0
  0
LINE
  5
65F
330
64F
100
AcDbEntity
  8
0
  6
Continuous
 62
     0
370
    18
100
AcDbLine
 10
-37.0750881266
 20
-41.5652142838
 30
0.0
 11
-41.0750880837
 21
-45.5652149394
 31
0.0
  0
LINE
  5
660
330
64F
100
AcDbEntity
  8
0
  6
Continuous
 62
     0
370
    18
100
AcDbLine
 10
-20.8579050377
 20
-25.3480318934
 30
0.0
 11
-28.0750882812
 21
-32.5652146712
 31
0.0
  0
LINE
  5
661
330
64F
100
AcDbEntity
  8
0
  6
Continuous
 62
     0
370
    18
100
AcDbLine
 10
-20.8579050377
 20
-29.8381606117
 30
0.0
 11
-23.5849600285
 21
-32.5652146712
 31
0.0
  0
ENDBLK
  5
651
330
64F
100
AcDbEntity
  8
0
100
AcDbBlockEnd
  0
BLOCK
  5
665
330
664
100
AcDbEntity
  8
0
100
AcDbBlockBegin
  2
_D_25
 70
     0
 10
0.0
 20
0.0
 30
0.0
  3
_D_25
  1

  0
SOLID
  5
667
330
664
100
AcDbEntity
  8
FORMAT
100
AcDbTrace
 10
520.2012251466
 20
112.2698384477
 30
0.0
 11
523.5032251466
 21
111.7618384477
 31
0.0
 12
523.5032251466
 22
112.7778384477
 32
0.0
 13
523.5032251466
 23
112.7778384477
 33
0.0
  0
SOLID
  5
668
330
664
100
AcDbEntity
  8
FORMAT
100
AcDbTrace
 10
549.2012251466
 20
112.2698384477
 30
0.0
 11
545.8992251466
 21
112.7778384477
 31
0.0
 12
545.8992251466
 22
111.7618384477
 32
0.0
 13
545.8992251466
 23
111.7618384477
 33
0.0
  0
LINE
  5
669
330
664
100
AcDbEntity
  8
FORMAT
100
AcDbLine
 10
520.2012251466
 20
130.2651155547
 30
0.0
 11
520.2012251466
 21
111.2698384477
 31
0.0
  0
LINE
  5
66A
330
664
100
AcDbEntity
  8
FORMAT
100
AcDbLine
 10
549.2012251466
 20
132.2651156441
 30
0.0
 11
549.2012251466
 21
111.2698384477
 31
0.0
  0
LINE
  5
66B
330
664
100
AcDbEntity
  8
FORMAT
100
AcDbLine
 10
520.2012251466
 20
112.2698384477
 30
0.0
 11
549.2012251466
 21
112.2698384477
 31
0.0
  0
MTEXT
  5
66C
330
664
100
AcDbEntity
  8
FORMAT
100
AcDbMText
 10
531.3592113405
 20
116.7815757697
 30
0.0
 40
3.5
 41
0.0
 71
     1
 72
     1
  1
29
  7
SLDTEXTSTYLE0
 73
     1
 44
1.0
  0
MTEXT
  5
66D
330
664
100
AcDbEntity
  8
FORMAT
100
AcDbMText
 10
536.7064334302
 20
116.7815757697
 30
0.0
 40
3.5
 41
0.0
 71
     1
 72
     1
  1
 
  7
SLDTEXTSTYLE0
 73
     1
 44
1.0
  0
ENDBLK
  5
666
330
664
100
AcDbEntity
  8
0
100
AcDbBlockEnd
  0
BLOCK
  5
670
330
66F
100
AcDbEntity
  8
0
100
AcDbBlockBegin
  2
_D_26
 70
     0
 10
0.0
 20
0.0
 30
0.0
  3
_D_26
  1

  0
SOLID
  5
672
330
66F
100
AcDbEntity
  8
FORMAT
100
AcDbTrace
 10
520.2012251466
 20
121.3287033928
 30
0.0
 11
523.5032251466
 21
120.8207033928
 31
0.0
 12
523.5032251466
 22
121.8367033928
 32
0.0
 13
523.5032251466
 23
121.8367033928
 33
0.0
  0
SOLID
  5
673
330
66F
100
AcDbEntity
  8
FORMAT
100
AcDbTrace
 10
544.2012251466
 20
121.3287033928
 30
0.0
 11
540.8992251466
 21
121.8367033928
 31
0.0
 12
540.8992251466
 22
120.8207033928
 32
0.0
 13
540.8992251466
 23
120.8207033928
 33
0.0
  0
LINE
  5
674
330
66F
100
AcDbEntity
  8
FORMAT
100
AcDbLine
 10
520.2012251466
 20
130.2651155547
 30
0.0
 11
520.2012251466
 21
120.3287033928
 31
0.0
  0
LINE
  5
675
330
66F
100
AcDbEntity
  8
FORMAT
100
AcDbLine
 10
544.2012251466
 20
130.2651155547
 30
0.0
 11
544.2012251466
 21
120.3287033928
 31
0.0
  0
LINE
  5
676
330
66F
100
AcDbEntity
  8
FORMAT
100
AcDbLine
 10
520.2012251466
 20
121.3287033928
 30
0.0
 11
544.2012251466
 21
121.3287033928
 31
0.0
  0
MTEXT
  5
677
330
66F
100
AcDbEntity
  8
FORMAT
100
AcDbMText
 10
529.5276141017
 20
125.8404407149
 30
0.0
 40
3.5
 41
0.0
 71
     1
 72
     1
  1
24
  7
SLDTEXTSTYLE0
 73
     1
 44
1.0
  0
ENDBLK
  5
671
330
66F
100
AcDbEntity
  8
0
100
AcDbBlockEnd
  0
BLOCK
  5
67A
330
679
100
AcDbEntity
  8
0
100
AcDbBlockBegin
  2
_D_27
 70
     0
 10
0.0
 20
0.0
 30
0.0
  3
_D_27
  1

  0
SOLID
  5
67C
330
679
100
AcDbEntity
  8
FORMAT
100
AcDbTrace
 10
559.2012255936
 20
131.2651155547
 30
0.0
 11
559.7092255936
 21
134.5671155547
 31
0.0
 12
558.6932255936
 22
134.5671155547
 32
0.0
 13
558.6932255936
 23
134.5671155547
 33
0.0
  0
SOLID
  5
67D
330
679
100
AcDbEntity
  8
FORMAT
100
AcDbTrace
 10
559.2012255936
 20
155.2651155547
 30
0.0
 11
558.6932255936
 21
151.9631155547
 31
0.0
 12
559.7092255936
 22
151.9631155547
 32
0.0
 13
559.7092255936
 23
151.9631155547
 33
0.0
  0
LINE
  5
67E
330
679
100
AcDbEntity
  8
FORMAT
100
AcDbLine
 10
548.2012251466
 20
131.2651155547
 30
0.0
 11
560.2012255936
 21
131.2651155547
 31
0.0
  0
LINE
  5
67F
330
679
100
AcDbEntity
  8
FORMAT
100
AcDbLine
 10
550.2012251466
 20
155.2651155547
 30
0.0
 11
560.2012255936
 21
155.2651155547
 31
0.0
  0
LINE
  5
680
330
679
100
AcDbEntity
  8
FORMAT
100
AcDbLine
 10
559.2012255936
 20
131.2651155547
 30
0.0
 11
559.2012255936
 21
155.2651155547
 31
0.0
  0
MTEXT
  5
681
330
679
100
AcDbEntity
  8
FORMAT
100
AcDbMText
 10
554.6894882716
 20
140.5915045098
 30
0.0
 40
3.5
 41
0.0
 71
     1
 72
     1
  1
24
  7
SLDTEXTSTYLE0
 11
-3.935570548693196E-15
 21
1.0
 31
0.0
 73
     1
 44
1.0
  0
ENDBLK
  5
67B
330
679
100
AcDbEntity
  8
0
100
AcDbBlockEnd
  0
BLOCK
  5
684
330
683
100
AcDbEntity
  8
0
100
AcDbBlockBegin
  2
_D_28
 70
     0
 10
0.0
 20
0.0
 30
0.0
  3
_D_28
  1

  0
SOLID
  5
686
330
683
100
AcDbEntity
  8
FORMAT
100
AcDbTrace
 10
483.1007460645
 20
155.2651155547
 30
0.0
 11
482.5927460645
 21
151.9631155547
 31
0.0
 12
483.6087460645
 22
151.9631155547
 32
0.0
 13
483.6087460645
 23
151.9631155547
 33
0.0
  0
SOLID
  5
687
330
683
100
AcDbEntity
  8
FORMAT
100
AcDbTrace
 10
483.1007460645
 20
141.2651155547
 30
0.0
 11
483.6087460645
 21
144.5671155547
 31
0.0
 12
482.5927460645
 22
144.5671155547
 32
0.0
 13
482.5927460645
 23
144.5671155547
 33
0.0
  0
LINE
  5
688
330
683
100
AcDbEntity
  8
FORMAT
100
AcDbLine
 10
536.2012251466
 20
155.2651155547
 30
0.0
 11
482.1007460645
 21
155.2651155547
 31
0.0
  0
LINE
  5
689
330
683
100
AcDbEntity
  8
FORMAT
100
AcDbLine
 10
492.1007460645
 20
141.2651155547
 30
0.0
 11
482.1007460645
 21
141.2651155547
 31
0.0
  0
LINE
  5
68A
330
683
100
AcDbEntity
  8
FORMAT
100
AcDbLine
 10
483.1007460645
 20
155.2651155547
 30
0.0
 11
483.1007460645
 21
141.2651155547
 31
0.0
  0
MTEXT
  5
68B
330
683
100
AcDbEntity
  8
FORMAT
100
AcDbMText
 10
478.5890087425
 20
145.5915045098
 30
0.0
 40
3.5
 41
0.0
 71
     1
 72
     1
  1
14
  7
SLDTEXTSTYLE0
 11
-1.414962237524464E-14
 21
1.0
 31
0.0
 73
     1
 44
1.0
  0
ENDBLK
  5
685
330
683
100
AcDbEntity
  8
0
100
AcDbBlockEnd
  0
BLOCK
  5
69F
330
69E
100
AcDbEntity
  8
0
100
AcDbBlockBegin
  2
SW_NOTE_0_9
 70
     0
 10
0.0
 20
0.0
 30
0.0
  3
SW_NOTE_0_9
  1

  0
MTEXT
  5
6A1
330
69E
100
AcDbEntity
  8
FORMAT
 62
     0
100
AcDbMText
 10
-30.0970204413
 20
10.8202648074
 30
0.0
 40
3.5
 41
0.0
 71
     1
 72
     1
  1
je nach Ausführung
  7
SLDTEXTSTYLE0
 73
     1
 44
1.0
  0
MTEXT
  5
6A2
330
69E
100
AcDbEntity
  8
FORMAT
 62
     0
100
AcDbMText
 10
-30.0970204413
 20
6.2994313151
 30
0.0
 40
3.5
 41
0.0
 71
     1
 72
     1
  1
des Abdeckwinkels
  7
SLDTEXTSTYLE0
 73
     1
 44
1.0
  0
MTEXT
  5
6A3
330
69E
100
AcDbEntity
  8
FORMAT
 62
     0
100
AcDbMText
 10
-30.0970204413
 20
1.7785978228
 30
0.0
 40
3.5
 41
0.0
 71
     1
 72
     1
  1
eckig oder R5
  7
SLDTEXTSTYLE0
 73
     1
 44
1.0
  0
ENDBLK
  5
6A0
330
69E
100
AcDbEntity
  8
0
100
AcDbBlockEnd
  0
BLOCK
  5
6A7
330
6A6
100
AcDbEntity
  8
0
100
AcDbBlockBegin
  2
_Dot
 70
     0
 10
0.0
 20
0.0
 30
0.0
  3
_Dot
  1

  0
LWPOLYLINE
  5
6A9
330
6A6
100
AcDbEntity
  8
0
  6
ByBlock
 62
     0
100
AcDbPolyline
 90
        2
 70
     1
 43
0.5
 10
-0.25
 20
0.0
 42
1.0
 10
0.25
 20
0.0
 42
1.0
  0
LINE
  5
6AA
330
6A6
100
AcDbEntity
  8
0
  6
ByBlock
 62
     0
370
    -2
100
AcDbLine
 10
-0.5
 20
0.0
 30
0.0
 11
-1.0
 21
0.0
 31
0.0
  0
ENDBLK
  5
6A8
330
6A6
100
AcDbEntity
  8
0
100
AcDbBlockEnd
  0
ENDSEC
  0
SECTION
  2
ENTITIES
  0
LINE
  5
E7
330
1F
100
AcDbEntity
  8
FORMAT
  6
Continuous
370
    25
100
AcDbLine
 10
584.0
 20
410.0
 30
0.0
 11
406.2709459459
 21
410.0
 31
0.0
  0
LINE
  5
E8
330
1F
100
AcDbEntity
  8
FORMAT
  6
Continuous
370
    25
100
AcDbLine
 10
584.0
 20
410.0
 30
0.0
 11
584.0
 21
85.8642216885
 31
0.0
  0
LINE
  5
E9
330
1F
100
AcDbEntity
  8
FORMAT
  6
Continuous
370
    25
100
AcDbLine
 10
584.0
 20
85.8642216885
 30
0.0
 11
406.2709459459
 21
85.8642216885
 31
0.0
  0
LINE
  5
EA
330
1F
100
AcDbEntity
  8
FORMAT
  6
Continuous
370
    25
100
AcDbLine
 10
406.2709459459
 20
410.0
 30
0.0
 11
406.2709459459
 21
85.8642216885
 31
0.0
  0
LINE
  5
EB
330
1F
100
AcDbEntity
  8
FORMAT
  6
Continuous
370
    25
100
AcDbLine
 10
406.2709459459
 20
410.0
 30
0.0
 11
225.9242532508
 21
410.0
 31
0.0
  0
LINE
  5
EC
330
1F
100
AcDbEntity
  8
FORMAT
  6
Continuous
370
    25
100
AcDbLine
 10
406.2709459459
 20
410.0
 30
0.0
 11
406.2709459459
 21
85.8642216885
 31
0.0
  0
LINE
  5
ED
330
1F
100
AcDbEntity
  8
FORMAT
  6
Continuous
370
    25
100
AcDbLine
 10
406.2709459459
 20
85.8642216885
 30
0.0
 11
225.9242532508
 21
85.8642216885
 31
0.0
  0
LINE
  5
EE
330
1F
100
AcDbEntity
  8
FORMAT
  6
Continuous
370
    25
100
AcDbLine
 10
225.9242532508
 20
410.0
 30
0.0
 11
225.9242532508
 21
85.8642216885
 31
0.0
  0
LINE
  5
EF
330
1F
100
AcDbEntity
  8
FORMAT
  6
Continuous
 62
     7
370
    18
100
AcDbLine
 10
552.4485281661
 20
35.6464717326
 30
0.0
 11
477.9807868016
 21
35.6464717326
 31
0.0
  0
LINE
  5
F0
330
1F
100
AcDbEntity
  8
FORMAT
  6
Continuous
 62
     7
370
    18
100
AcDbLine
 10
552.4485281661
 20
48.7420674192
 30
0.0
 11
584.0
 21
48.7420674192
 31
0.0
  0
LINE
  5
F1
330
1F
100
AcDbEntity
  8
FORMAT
100
AcDbLine
 10
584.0
 20
410.0
 30
0.0
 11
10.0
 21
410.0
 31
0.0
  0
LINE
  5
F2
330
1F
100
AcDbEntity
  8
FORMAT
100
AcDbLine
 10
10.0
 20
10.0
 30
0.0
 11
584.0
 21
10.0
 31
0.0
  0
LINE
  5
F3
330
1F
100
AcDbEntity
  8
FORMAT
  6
Continuous
 62
     7
370
    18
100
AcDbLine
 10
538.7662011232
 20
35.6464717326
 30
0.0
 11
538.7662011232
 21
25.9765524102
 31
0.0
  0
LINE
  5
F4
330
1F
100
AcDbEntity
  8
FORMAT
100
AcDbLine
 10
584.0
 20
10.0
 30
0.0
 11
584.0
 21
410.0
 31
0.0
  0
LINE
  5
F5
330
1F
100
AcDbEntity
  8
BEMASSUNG
  6
Continuous
 62
     7
370
    18
100
AcDbLine
 10
552.4485281661
 20
40.5638075942
 30
0.0
 11
584.0
 21
40.5638075942
 31
0.0
  0
LINE
  5
F6
330
1F
100
AcDbEntity
  8
FORMAT
 62
     7
370
    18
100
AcDbLine
 10
477.9807868016
 20
52.5731122919
 30
0.0
 11
477.9807868016
 21
10.0
 31
0.0
  0
LINE
  5
F7
330
1F
100
AcDbEntity
  8
FORMAT
 62
     7
100
AcDbLine
 10
569.2554595171
 20
10.0
 30
0.0
 11
569.2554595171
 21
19.3470401503
 31
0.0
  0
LINE
  5
F8
330
1F
100
AcDbEntity
  8
FORMAT
 62
     7
100
AcDbLine
 10
477.9807868016
 20
25.9765524102
 30
0.0
 11
584.0
 21
25.9765524102
 31
0.0
  0
LINE
  5
F9
330
1F
100
AcDbEntity
  8
FORMAT
 62
     7
100
AcDbLine
 10
552.4485281661
 20
19.3470401503
 30
0.0
 11
584.0
 21
19.3470401503
 31
0.0
  0
LINE
  5
FA
330
1F
100
AcDbEntity
  8
FORMAT
 62
     7
100
AcDbLine
 10
477.9807868016
 20
52.5731122919
 30
0.0
 11
584.0133818865
 21
52.5731122919
 31
0.0
  0
LINE
  5
FB
330
1F
100
AcDbEntity
  8
FORMAT
 62
     7
100
AcDbLine
 10
552.4485281661
 20
10.0
 30
0.0
 11
552.4485281661
 21
52.5731122919
 31
0.0
  0
LINE
  5
FC
330
1F
100
AcDbEntity
  8
FORMAT
100
AcDbLine
 10
10.0
 20
410.0
 30
0.0
 11
10.0
 21
10.0
 31
0.0
  0
INSERT
  5
FD
330
1F
100
AcDbEntity
  8
0
  6
Continuous
 62
     7
100
AcDbBlockReference
  2
Block1_4
 10
559.8580737497
 20
27.0956685316
 30
0.0
  0
INSERT
  5
FE
330
1F
100
AcDbEntity
  8
0
  6
Continuous
 62
     7
100
AcDbBlockReference
  2
Block2_4
 10
247.0697431328
 20
-36.8671961253
 30
0.0
  0
INSERT
  5
104
330
1F
100
AcDbEntity
  8
FORMAT
100
AcDbBlockReference
  2
SW_NOTE_0_5
 10
37.1485253456
 20
57.2772685427
 30
0.0
  0
MTEXT
  5
106
330
1F
100
AcDbEntity
  8
0
  6
Continuous
 62
     7
370
     0
100
AcDbMText
 10
479.3437582251
 20
31.2949773348
 30
0.0
 40
3.175
 41
0.0
 71
     1
 72
     1
  1
D042-30598
  7
SLDTEXTSTYLE3
 73
     1
 44
1.0
  0
MTEXT
  5
107
330
1F
100
AcDbEntity
  8
BEMASSUNG
 62
     7
100
AcDbMText
 10
553.7763905777
 20
47.9755397851
 30
0.0
 40
2.0
 41
0.0
 71
     1
 72
     1
  1
Ausführung:
  7
SLDTEXTSTYLE0
 73
     1
 44
1.0
  0
MTEXT
  5
108
330
1F
100
AcDbEntity
  8
FORMAT
100
AcDbMText
 10
542.2434271781
 20
34.2372658327
 30
0.0
 40
2.0
 41
0.0
 71
     1
 72
     1
  1
Index:
  7
SLDTEXTSTYLE0
 73
     1
 44
1.0
  0
MTEXT
  5
109
330
1F
100
AcDbEntity
  8
FORMAT
100
AcDbMText
 10
555.5261115553
 20
51.6401066847
 30
0.0
 40
1.8
 41
0.0
 71
     1
 72
     1
  1
KATALOGZEICHNUNG
  7
SLDTEXTSTYLE3
 73
     1
 44
1.0
  0
MTEXT
  5
10A
330
1F
100
AcDbEntity
  8
FORMAT
100
AcDbMText
 10
479.6285527947
 20
35.0066019157
 30
0.0
 40
2.0
 41
0.0
 71
     1
 72
     1
  1
Zeichnungsnummer:
  7
SLDTEXTSTYLE0
 73
     1
 44
1.0
  0
MTEXT
  5
10B
330
1F
100
AcDbEntity
  8
FORMAT
100
AcDbMText
 10
563.5143577849
 20
14.3197534241
 30
0.0
 40
2.1166666667
 41
0.0
 71
     1
 72
     1
  1
3
  7
SLDTEXTSTYLE0
 73
     1
 44
1.0
  0
MTEXT
  5
10C
330
1F
100
AcDbEntity
  8
FORMAT
100
AcDbMText
 10
557.4418360635
 20
14.3197534241
 30
0.0
 40
2.1166666667
 41
0.0
 71
     1
 72
     1
  1
2
  7
SLDTEXTSTYLE0
 73
     1
 44
1.0
  0
MTEXT
  5
10D
330
1F
100
AcDbEntity
  8
FORMAT
100
AcDbMText
 10
575.2135811923
 20
14.3097390777
 30
0.0
 40
2.1166666667
 41
0.0
 71
     1
 72
     1
  1
A2
  7
SLDTEXTSTYLE0
 73
     1
 44
1.0
  0
MTEXT
  5
10E
330
1F
100
AcDbEntity
  8
FORMAT
100
AcDbMText
 10
567.7935306486
 20
23.7403696931
 30
0.0
 40
2.1166666667
 41
0.0
 71
     1
 72
     1
  1
1:1
  7
SLDTEXTSTYLE0
 73
     1
 44
1.0
  0
MTEXT
  5
10F
330
1F
100
AcDbEntity
  8
FORMAT
100
AcDbMText
 10
561.2188625262
 20
14.4244955189
 30
0.0
 40
2.5
 41
0.0
 71
     2
 72
     1
  1
/
  7
SLDTEXTSTYLE0
 73
     1
 44
1.0
  0
MTEXT
  5
110
330
1F
100
AcDbEntity
  8
FORMAT
100
AcDbMText
 10
555.2228552181
 20
17.9289543804
 30
0.0
 40
2.0
 41
0.0
 71
     1
 72
     1
  1
Blatt / von
  7
SLDTEXTSTYLE0
 73
     1
 44
1.0
  0
MTEXT
  5
111
330
1F
100
AcDbEntity
  8
FORMAT
100
AcDbMText
 10
479.3201484029
 20
51.7452513937
 30
0.0
 40
2.0
 41
0.0
 71
     1
 72
     1
  1
Benennung:
  7
SLDTEXTSTYLE0
 73
     1
 44
1.0
  0
MTEXT
  5
112
330
1F
100
AcDbEntity
  8
FORMAT
100
AcDbMText
 10
572.5728183857
 20
17.9289543804
 30
0.0
 40
2.0
 41
0.0
 71
     1
 72
     1
  1
Format
  7
SLDTEXTSTYLE0
 73
     1
 44
1.0
  0
MTEXT
  5
113
330
1F
100
AcDbEntity
  8
FORMAT
100
AcDbMText
 10
553.9012852158
 20
23.6119228032
 30
0.0
 40
2.0
 41
0.0
 71
     1
 72
     1
  1
Maßstab:
  7
SLDTEXTSTYLE0
 73
     1
 44
1.0
  0
MTEXT
  5
114
330
1F
100
AcDbEntity
  8
FORMAT
100
AcDbMText
 10
479.0530809004
 20
40.1412111551
 30
0.0
 40
2.5
 41
0.0
 71
     1
 72
     1
  1
OBX-3102-3D
  7
SLDTEXTSTYLE3
 73
     1
 44
1.0
  0
MTEXT
  5
115
330
1F
100
AcDbEntity
  8
FORMAT
100
AcDbMText
 10
479.0811759552
 20
43.5764214053
 30
0.0
 40
2.5
 41
0.0
 71
     1
 72
     1
  1
Aufnahmeelement 3D Holz-Futterzarge
  7
SLDTEXTSTYLE3
 73
     1
 44
1.0
  0
MTEXT
  5
116
330
1F
100
AcDbEntity
  8
FORMAT
100
AcDbMText
 10
479.0811759552
 20
48.1721199954
 30
0.0
 40
3.5
 41
0.0
 71
     1
 72
     1
  1
Zusammenbau
  7
SLDTEXTSTYLE3
 73
     1
 44
1.0
  0
INSERT
  5
123
330
1F
100
AcDbEntity
  8
FORMAT
100
AcDbBlockReference
  2
SW_NOTE_0_6
 10
478.2414044556
 20
80.0854464466
 30
0.0
  0
LINE
  5
124
330
1F
100
AcDbEntity
  8
0
  6
Continuous
 62
     7
370
    25
100
AcDbLine
 10
37.2738765606
 20
180.4765016268
 30
0.0
 11
37.2738765606
 21
262.9765016268
 31
0.0
  0
LINE
  5
125
330
1F
100
AcDbEntity
  8
0
  6
Continuous
 62
     7
370
    25
100
AcDbLine
 10
54.7738765606
 20
262.9765016268
 30
0.0
 11
37.2738765606
 21
262.9765016268
 31
0.0
  0
ARC
  5
126
330
1F
100
AcDbEntity
  8
0
  6
Continuous
 62
     7
370
    25
100
AcDbCircle
 10
54.7738765606
 20
268.4765016268
 30
0.0
 40
5.5
100
AcDbArc
 50
270.0
 51
90.0
  0
LINE
  5
127
330
1F
100
AcDbEntity
  8
0
  6
Continuous
 62
     7
370
    25
100
AcDbLine
 10
37.2738765606
 20
273.9765016268
 30
0.0
 11
54.7738765606
 21
273.9765016268
 31
0.0
  0
LINE
  5
128
330
1F
100
AcDbEntity
  8
0
  6
Continuous
 62
     7
370
    25
100
AcDbLine
 10
37.2738765606
 20
273.9765016268
 30
0.0
 11
37.2738765606
 21
356.4765016268
 31
0.0
  0
LINE
  5
129
330
1F
100
AcDbEntity
  8
0
  6
Continuous
 62
     7
370
    25
100
AcDbLine
 10
37.2738765606
 20
356.4765016268
 30
0.0
 11
95.6406269799
 21
356.4765016268
 31
0.0
  0
LINE
  5
12A
330
1F
100
AcDbEntity
  8
0
  6
Continuous
 62
     7
370
    25
100
AcDbLine
 10
114.2738765606
 20
346.4765016268
 30
0.0
 11
114.1738765606
 21
347.8871752247
 31
0.0
  0
LINE
  5
12B
330
1F
100
AcDbEntity
  8
0
  6
Continuous
 62
     7
370
    25
100
AcDbLine
 10
114.2738765606
 20
346.4765016268
 30
0.0
 11
114.2738765606
 21
338.9765016268
 31
0.0
  0
LINE
  5
12C
330
1F
100
AcDbEntity
  8
0
  6
Continuous
 62
     7
370
    25
100
AcDbLine
 10
113.7738765606
 20
338.9765016268
 30
0.0
 11
114.2738765606
 21
338.9765016268
 31
0.0
  0
LINE
  5
12D
330
1F
100
AcDbEntity
  8
0
  6
Continuous
 62
     7
370
    25
100
AcDbLine
 10
90.2957395468
 20
338.4370783769
 30
0.0
 11
90.9536853547
 21
338.7966928327
 31
0.0
  0
ARC
  5
12E
330
1F
100
AcDbEntity
  8
0
  6
Continuous
 62
     7
370
    25
100
AcDbCircle
 10
91.7738765606
 20
335.8265016268
 30
0.0
 40
3.0
100
AcDbArc
 50
119.5190121184
 51
180.0
  0
LINE
  5
12F
330
1F
100
AcDbEntity
  8
0
  6
Continuous
 62
     7
370
    25
100
AcDbLine
 10
88.7738765606
 20
201.1265016268
 30
0.0
 11
88.7738765606
 21
335.8265016268
 31
0.0
  0
ARC
  5
130
330
1F
100
AcDbEntity
  8
0
  6
Continuous
 62
     7
370
    25
100
AcDbCircle
 10
91.7738765606
 20
201.1265016268
 30
0.0
 40
2.999999999999986
100
AcDbArc
 50
180.0
 51
240.4809878816
  0
LINE
  5
131
330
1F
100
AcDbEntity
  8
0
  6
Continuous
 62
     7
370
    25
100
AcDbLine
 10
90.9536853547
 20
198.1563104209
 30
0.0
 11
90.2957395468
 21
198.5159248767
 31
0.0
  0
LINE
  5
132
330
1F
100
AcDbEntity
  8
0
  6
Continuous
 62
     7
370
    25
100
AcDbLine
 10
114.2738765606
 20
197.9765016268
 30
0.0
 11
113.7738765606
 21
197.9765016268
 31
0.0
  0
LINE
  5
133
330
1F
100
AcDbEntity
  8
0
  6
Continuous
 62
     7
370
    25
100
AcDbLine
 10
114.2738765606
 20
197.9765016268
 30
0.0
 11
114.2738765606
 21
190.4765016268
 31
0.0
  0
LINE
  5
134
330
1F
100
AcDbEntity
  8
0
  6
Continuous
 62
     7
370
    25
100
AcDbLine
 10
114.1738765606
 20
189.0658280288
 30
0.0
 11
114.2738765606
 21
190.4765016268
 31
0.0
  0
LINE
  5
135
330
1F
100
AcDbEntity
  8
0
  6
Continuous
 62
     7
370
    25
100
AcDbLine
 10
95.6406269799
 20
180.4765016268
 30
0.0
 11
37.2738765606
 21
180.4765016268
 31
0.0
  0
CIRCLE
  5
136
330
1F
100
AcDbEntity
  8
0
  6
Continuous
 62
     7
370
    25
100
AcDbCircle
 10
47.2738765606
 20
204.9765016268
 30
0.0
 40
2.749999999999993
  0
CIRCLE
  5
137
330
1F
100
AcDbEntity
  8
0
  6
Continuous
 62
     7
370
    25
100
AcDbCircle
 10
67.2738765606
 20
230.4765016268
 30
0.0
 40
2.749999999999986
  0
CIRCLE
  5
138
330
1F
100
AcDbEntity
  8
0
  6
Continuous
 62
     7
370
    25
100
AcDbCircle
 10
67.2738765606
 20
306.4765016268
 30
0.0
 40
2.75
  0
CIRCLE
  5
139
330
1F
100
AcDbEntity
  8
0
  6
Continuous
 62
     7
370
    25
100
AcDbCircle
 10
102.2738765606
 20
190.4765016268
 30
0.0
 40
2.5
  0
CIRCLE
  5
13A
330
1F
100
AcDbEntity
  8
0
  6
Continuous
 62
     7
370
    25
100
AcDbCircle
 10
102.2738765606
 20
346.4765016268
 30
0.0
 40
2.5
  0
CIRCLE
  5
13B
330
1F
100
AcDbEntity
  8
0
  6
Continuous
 62
     7
370
    25
100
AcDbCircle
 10
75.2738765606
 20
268.4765016268
 30
0.0
 40
3.0
  0
CIRCLE
  5
13C
330
1F
100
AcDbEntity
  8
0
  6
Continuous
 62
     7
370
    25
100
AcDbCircle
 10
67.2738765606
 20
346.4765016268
 30
0.0
 40
2.749999999999986
  0
CIRCLE
  5
13D
330
1F
100
AcDbEntity
  8
0
  6
Continuous
 62
     7
370
    25
100
AcDbCircle
 10
47.2738765606
 20
331.9765016268
 30
0.0
 40
2.749999999999993
  0
CIRCLE
  5
13E
330
1F
100
AcDbEntity
  8
0
  6
Continuous
 62
     7
370
    25
100
AcDbCircle
 10
67.2738765606
 20
190.4765016268
 30
0.0
 40
2.749999999999986
  0
LINE
  5
13F
330
1F
100
AcDbEntity
  8
0
  6
Continuous
 62
     7
370
    25
100
AcDbLine
 10
92.4886045656
 20
199.6912296317
 30
0.0
 11
93.2738765606
 21
200.4765016268
 31
0.0
  0
LINE
  5
140
330
1F
100
AcDbEntity
  8
0
  6
Continuous
 62
     7
370
    25
100
AcDbLine
 10
93.2738765606
 20
200.4765016268
 30
0.0
 11
93.2738765606
 21
204.3018258403
 31
0.0
  0
ARC
  5
141
330
1F
100
AcDbEntity
  8
0
  6
Continuous
 62
     7
370
    25
100
AcDbCircle
 10
102.2738765606
 20
212.9765016268
 30
0.0
 40
12.50000000000033
100
AcDbArc
 50
223.9455195623
 51
316.0544804377
  0
LINE
  5
142
330
1F
100
AcDbEntity
  8
0
  6
Continuous
 62
     7
370
    25
100
AcDbLine
 10
111.2738765606
 20
204.3018258403
 30
0.0
 11
111.2738765606
 21
200.4765016268
 31
0.0
  0
LINE
  5
143
330
1F
100
AcDbEntity
  8
0
  6
Continuous
 62
     7
370
    25
100
AcDbLine
 10
111.2738765606
 20
200.4765016268
 30
0.0
 11
112.0591485557
 21
199.6912296317
 31
0.0
  0
LINE
  5
144
330
1F
100
AcDbEntity
  8
0
  6
Continuous
 62
     7
370
    25
100
AcDbLine
 10
112.0591485557
 20
337.2617736218
 30
0.0
 11
111.2738765606
 21
336.4765016268
 31
0.0
  0
LINE
  5
145
330
1F
100
AcDbEntity
  8
0
  6
Continuous
 62
     7
370
    25
100
AcDbLine
 10
111.2738765606
 20
336.4765016268
 30
0.0
 11
111.2738765606
 21
332.6511774132
 31
0.0
  0
ARC
  5
146
330
1F
100
AcDbEntity
  8
0
  6
Continuous
 62
     7
370
    25
100
AcDbCircle
 10
102.2738765606
 20
323.9765016268
 30
0.0
 40
12.50000000000033
100
AcDbArc
 50
43.9455195623
 51
136.0544804377
  0
LINE
  5
147
330
1F
100
AcDbEntity
  8
0
  6
Continuous
 62
     7
370
    25
100
AcDbLine
 10
93.2738765606
 20
332.6511774132
 30
0.0
 11
93.2738765606
 21
336.4765016268
 31
0.0
  0
LINE
  5
148
330
1F
100
AcDbEntity
  8
0
  6
Continuous
 62
     7
370
    25
100
AcDbLine
 10
93.2738765606
 20
336.4765016268
 30
0.0
 11
92.4886045656
 21
337.2617736218
 31
0.0
  0
CIRCLE
  5
149
330
1F
100
AcDbEntity
  8
0
  6
Continuous
 62
     7
370
    25
100
AcDbCircle
 10
102.2738765606
 20
346.4765016268
 30
0.0
 40
3.5
  0
LINE
  5
14A
330
1F
100
AcDbEntity
  8
0
  6
Continuous
 62
     7
370
    25
100
AcDbLine
 10
90.3738765606
 20
339.3765016268
 30
0.0
 11
90.3738765606
 21
348.0224641102
 31
0.0
  0
ARC
  5
14B
330
1F
100
AcDbEntity
  8
0
  6
Continuous
 62
     7
370
    25
100
AcDbCircle
 10
102.2738765606
 20
346.4765016268
 30
0.0
 40
12.0
100
AcDbArc
 50
7.4019996877
 51
172.5980003123
  0
LINE
  5
14C
330
1F
100
AcDbEntity
  8
0
  6
Continuous
 62
     7
370
    25
100
AcDbLine
 10
114.1738765606
 20
348.0224641102
 30
0.0
 11
114.1738765606
 21
339.3765016268
 31
0.0
  0
CIRCLE
  5
14D
330
1F
100
AcDbEntity
  8
0
  6
Continuous
 62
     7
370
    25
100
AcDbCircle
 10
95.1280735966
 20
349.4765016268
 30
0.0
 40
1.5
  0
CIRCLE
  5
14E
330
1F
100
AcDbEntity
  8
0
  6
Continuous
 62
     7
370
    25
100
AcDbCircle
 10
109.4196795246
 20
349.4765016268
 30
0.0
 40
1.5
  0
LINE
  5
14F
330
1F
100
AcDbEntity
  8
0
  6
Continuous
 62
     7
370
    25
100
AcDbLine
 10
112.0591485557
 20
337.2617736218
 30
0.0
 11
114.1738765606
 21
339.3765016268
 31
0.0
  0
LINE
  5
150
330
1F
100
AcDbEntity
  8
0
  6
Continuous
 62
     7
370
    25
100
AcDbLine
 10
90.3738765606
 20
339.3765016268
 30
0.0
 11
92.4886045656
 21
337.2617736218
 31
0.0
  0
LINE
  5
151
330
1F
100
AcDbEntity
  8
0
  6
Continuous
 62
     7
370
    25
100
AcDbLine
 10
90.3738765606
 20
197.5765016268
 30
0.0
 11
90.3738765606
 21
188.9305391434
 31
0.0
  0
LINE
  5
152
330
1F
100
AcDbEntity
  8
0
  6
Continuous
 62
     7
370
    25
100
AcDbLine
 10
114.1738765606
 20
188.9305391434
 30
0.0
 11
114.1738765606
 21
197.5765016268
 31
0.0
  0
ARC
  5
153
330
1F
100
AcDbEntity
  8
0
  6
Continuous
 62
     7
370
    25
100
AcDbCircle
 10
102.2738765606
 20
190.4765016268
 30
0.0
 40
12.0
100
AcDbArc
 50
187.4019996877
 51
352.5980003123
  0
CIRCLE
  5
154
330
1F
100
AcDbEntity
  8
0
  6
Continuous
 62
     7
370
    25
100
AcDbCircle
 10
102.2738765606
 20
190.4765016268
 30
0.0
 40
3.5
  0
CIRCLE
  5
155
330
1F
100
AcDbEntity
  8
0
  6
Continuous
 62
     7
370
    25
100
AcDbCircle
 10
109.4196795246
 20
187.4765016268
 30
0.0
 40
1.5
  0
CIRCLE
  5
156
330
1F
100
AcDbEntity
  8
0
  6
Continuous
 62
     7
370
    25
100
AcDbCircle
 10
95.1280735966
 20
187.4765016268
 30
0.0
 40
1.5
  0
LINE
  5
157
330
1F
100
AcDbEntity
  8
0
  6
Continuous
 62
     7
370
    25
100
AcDbLine
 10
90.3738765606
 20
197.5765016268
 30
0.0
 11
92.4886045656
 21
199.6912296317
 31
0.0
  0
LINE
  5
158
330
1F
100
AcDbEntity
  8
0
  6
Continuous
 62
     7
370
    25
100
AcDbLine
 10
112.0591485557
 20
199.6912296317
 30
0.0
 11
114.1738765606
 21
197.5765016268
 31
0.0
  0
CIRCLE
  5
159
330
1F
100
AcDbEntity
  8
0
  6
Continuous
 62
     7
370
    25
100
AcDbCircle
 10
95.1280735966
 20
187.4765016268
 30
0.0
 40
0.6339745962155519
  0
CIRCLE
  5
15A
330
1F
100
AcDbEntity
  8
0
  6
Continuous
 62
     7
370
    25
100
AcDbCircle
 10
95.1280735966
 20
349.4765016268
 30
0.0
 40
0.6339745962155661
  0
CIRCLE
  5
15B
330
1F
100
AcDbEntity
  8
0
  6
Continuous
 62
     7
370
    25
100
AcDbCircle
 10
109.4196795246
 20
349.4765016268
 30
0.0
 40
0.6339745962155661
  0
CIRCLE
  5
15C
330
1F
100
AcDbEntity
  8
0
  6
Continuous
 62
     7
370
    25
100
AcDbCircle
 10
109.4196795246
 20
187.4765016268
 30
0.0
 40
0.6339745962155519
  0
LINE
  5
15D
330
1F
100
AcDbEntity
  8
0
  6
Continuous
 62
     7
370
    25
100
AcDbLine
 10
111.2738765606
 20
204.3018258403
 30
0.0
 11
111.2738765606
 21
205.4464598992
 31
0.0
  0
LINE
  5
15E
330
1F
100
AcDbEntity
  8
0
  6
Continuous
 62
     7
370
    25
100
AcDbLine
 10
93.2738765606
 20
205.433104234
 30
0.0
 11
93.2738765606
 21
204.3018258403
 31
0.0
  0
LINE
  5
15F
330
1F
100
AcDbEntity
  8
0
  6
Continuous
 62
     7
370
    25
100
AcDbLine
 10
111.2738765606
 20
331.5198990195
 30
0.0
 11
111.2738765606
 21
332.6511774132
 31
0.0
  0
LINE
  5
160
330
1F
100
AcDbEntity
  8
0
  6
Continuous
 62
     7
370
    25
100
AcDbLine
 10
93.2738765606
 20
332.6511774132
 30
0.0
 11
93.2738765606
 21
331.5065433544
 31
0.0
  0
LINE
  5
161
330
1F
100
AcDbEntity
  8
0
  6
Continuous
 62
     7
370
    25
100
AcDbLine
 10
90.3738765606
 20
213.3765016268
 30
0.0
 11
90.7738765606
 21
212.9765016268
 31
0.0
  0
LINE
  5
162
330
1F
100
AcDbEntity
  8
0
  6
Continuous
 62
     7
370
    25
100
AcDbLine
 10
90.3738765606
 20
213.3765016268
 30
0.0
 11
90.3738765606
 21
323.5765016268
 31
0.0
  0
LINE
  5
163
330
1F
100
AcDbEntity
  8
0
  6
Continuous
 62
     7
370
    25
100
AcDbLine
 10
90.7738765606
 20
323.9765016268
 30
0.0
 11
90.3738765606
 21
323.5765016268
 31
0.0
  0
LINE
  5
164
330
1F
100
AcDbEntity
  8
0
  6
Continuous
 62
     7
370
    25
100
AcDbLine
 10
114.1738765606
 20
323.5765016268
 30
0.0
 11
113.7738765606
 21
323.9765016268
 31
0.0
  0
CIRCLE
  5
165
330
1F
100
AcDbEntity
  8
0
  6
Continuous
 62
     7
370
    25
100
AcDbCircle
 10
102.2738765606
 20
254.4765016268
 30
0.0
 40
5.200000000000017
  0
CIRCLE
  5
166
330
1F
100
AcDbEntity
  8
0
  6
Continuous
 62
     7
370
    25
100
AcDbCircle
 10
102.2738765606
 20
282.4765016268
 30
0.0
 40
5.200000000000003
  0
LINE
  5
167
330
1F
100
AcDbEntity
  8
0
  6
Continuous
 62
     7
370
    25
100
AcDbLine
 10
114.1738765606
 20
323.5765016268
 30
0.0
 11
114.1738765606
 21
213.3765016268
 31
0.0
  0
LINE
  5
168
330
1F
100
AcDbEntity
  8
0
  6
Continuous
 62
     7
370
    25
100
AcDbLine
 10
113.7738765606
 20
212.9765016268
 30
0.0
 11
114.1738765606
 21
213.3765016268
 31
0.0
  0
CIRCLE
  5
169
330
1F
100
AcDbEntity
  8
0
  6
Continuous
 62
     7
370
    25
100
AcDbCircle
 10
102.2738765606
 20
282.4765016268
 30
0.0
 40
2.75
  0
CIRCLE
  5
16A
330
1F
100
AcDbEntity
  8
0
  6
Continuous
 62
     7
370
    25
100
AcDbCircle
 10
102.2738765606
 20
254.4765016268
 30
0.0
 40
2.75
  0
CIRCLE
  5
16B
330
1F
100
AcDbEntity
  8
0
  6
Continuous
 62
     7
370
    25
100
AcDbCircle
 10
105.2738765606
 20
268.4765016268
 30
0.0
 40
4.615049880485964
  0
CIRCLE
  5
16C
330
1F
100
AcDbEntity
  8
0
  6
Continuous
 62
     7
370
    25
100
AcDbCircle
 10
105.2738765606
 20
268.4765016268
 30
0.0
 40
2.800000000000027
  0
CIRCLE
  5
16D
330
1F
100
AcDbEntity
  8
0
  6
Continuous
 62
     7
370
    25
100
AcDbCircle
 10
105.2738765606
 20
268.4765016268
 30
0.0
 40
5.000000000000018
  0
LWPOLYLINE
  5
16E
330
1F
100
AcDbEntity
  8
0
  6
Continuous
 62
     7
370
    25
100
AcDbPolyline
 90
       13
 70
   128
 43
0.0
 10
105.58200451
 20
265.693507346
 10
105.6165463446
 20
265.7062657137
 10
105.6496698814
 20
265.7355346802
 10
105.700302827
 20
265.8107166602
 10
105.8202453444
 20
266.0816531799
 10
106.1747003814
 20
266.768779127
 10
106.5805696049
 20
267.085398998
 10
107.0944327799
 20
267.2111755432
 10
107.5634038126
 20
267.2552726557
 10
107.7470436688
 20
267.2882287114
 10
107.7955638019
 20
267.3087997512
 10
107.8281875602
 20
267.3355733652
 10
107.838084281
 20
267.3518511182
  0
LWPOLYLINE
  5
16F
330
1F
100
AcDbEntity
  8
0
  6
Continuous
 62
     7
370
    25
100
AcDbPolyline
 90
       11
 70
   128
 43
0.0
 10
102.7096688402
 20
269.6011521354
 10
102.7033710726
 20
269.5677924647
 10
102.7100544916
 20
269.5283862965
 10
102.776836607
 20
269.4012125348
 10
103.1432977401
 20
268.9109933302
 10
103.4185470401
 20
268.2710829939
 10
103.2899476853
 20
267.5864592857
 10
103.0396000235
 20
267.0279481589
 10
103.0022552331
 20
266.8892456598
 10
103.0043539707
 20
266.8493318843
 10
103.0177967896
 20
266.8181578546
  0
LWPOLYLINE
  5
170
330
1F
100
AcDbEntity
  8
0
  6
Continuous
 62
     7
370
    25
100
AcDbPolyline
 90
       11
 70
   128
 43
0.0
 10
107.838084281
 20
267.3518511182
 10
107.8443820487
 20
267.3852107889
 10
107.8376986297
 20
267.424616957
 10
107.7709165143
 20
267.5517907188
 10
107.4044553812
 20
268.0420099233
 10
107.1292060811
 20
268.6819202597
 10
107.2578054359
 20
269.3665439678
 10
107.5081530977
 20
269.9250550947
 10
107.5454978881
 20
270.0637575937
 10
107.5433991506
 20
270.1036713693
 10
107.5299563317
 20
270.1348453989
  0
LWPOLYLINE
  5
171
330
1F
100
AcDbEntity
  8
0
  6
Continuous
 62
     7
370
    25
100
AcDbPolyline
 90
       14
 70
   128
 43
0.0
 10
103.0177967896
 20
266.8181578546
 10
103.0310146453
 20
266.8044393045
 10
103.0620505283
 20
266.7876758648
 10
103.1034272119
 20
266.7779472239
 10
103.1543014173
 20
266.774278554
 10
103.3069514568
 20
266.7840061694
 10
103.7742104087
 20
266.8435666991
 10
104.3031419679
 20
266.8332464468
 10
104.7684430705
 20
266.6130809336
 10
105.2646251797
 20
266.0201359489
 10
105.440931306
 20
265.7819995279
 10
105.5236664529
 20
265.7086862504
 10
105.5535094045
 20
265.69590747
 10
105.58200451
 20
265.693507346
  0
LWPOLYLINE
  5
172
330
1F
100
AcDbEntity
  8
0
  6
Continuous
 62
     7
370
    25
100
AcDbPolyline
 90
       14
 70
   128
 43
0.0
 10
107.5299563317
 20
270.1348453989
 10
107.5167384759
 20
270.148563949
 10
107.4857025929
 20
270.1653273888
 10
107.4443259093
 20
270.1750560297
 10
107.393451704
 20
270.1787246995
 10
107.2408016644
 20
270.1689970842
 10
106.7735427125
 20
270.1094365544
 10
106.2446111534
 20
270.1197568067
 10
105.7793100507
 20
270.3399223199
 10
105.2831279416
 20
270.9328673046
 10
105.1068218152
 20
271.1710037257
 10
105.0240866683
 20
271.2443170032
 10
104.9942437167
 20
271.2570957836
 10
104.9657486112
 20
271.2594959075
  0
LWPOLYLINE
  5
173
330
1F
100
AcDbEntity
  8
0
  6
Continuous
 62
     7
370
    25
100
AcDbPolyline
 90
       13
 70
   128
 43
0.0
 10
104.9657486112
 20
271.2594959075
 10
104.9312067767
 20
271.2467375399
 10
104.8980832398
 20
271.2174685734
 10
104.8474502942
 20
271.1422865934
 10
104.7275077768
 20
270.8713500737
 10
104.3730527398
 20
270.1842241266
 10
103.9671835163
 20
269.8676042556
 10
103.4533203414
 20
269.7418277103
 10
102.9843493087
 20
269.6977305979
 10
102.8007094524
 20
269.6647745422
 10
102.7521893193
 20
269.6442035024
 10
102.7195655611
 20
269.6174298884
 10
102.7096688402
 20
269.6011521354
  0
ARC
  5
174
330
1F
100
AcDbEntity
  8
0
  6
Continuous
 62
     7
370
    25
100
AcDbCircle
 10
105.2738765606
 20
268.4765016268
 30
0.0
 40
1.866666666666697
100
AcDbArc
 50
246.3179497613
 51
306.3179497613
  0
ARC
  5
175
330
1F
100
AcDbEntity
  8
0
  6
Continuous
 62
     7
370
    25
100
AcDbCircle
 10
105.2738765606
 20
268.4765016268
 30
0.0
 40
1.866666666666668
100
AcDbArc
 50
6.3179497613
 51
66.3179497613
  0
ARC
  5
176
330
1F
100
AcDbEntity
  8
0
  6
Continuous
 62
     7
370
    25
100
AcDbCircle
 10
105.2738765606
 20
268.4765016268
 30
0.0
 40
1.866666666666651
100
AcDbArc
 50
66.3179497613
 51
126.3179497613
  0
ARC
  5
177
330
1F
100
AcDbEntity
  8
0
  6
Continuous
 62
     7
370
    25
100
AcDbCircle
 10
105.2738765606
 20
268.4765016268
 30
0.0
 40
1.866666666666647
100
AcDbArc
 50
126.3179497613
 51
186.3179497613
  0
ARC
  5
178
330
1F
100
AcDbEntity
  8
0
  6
Continuous
 62
     7
370
    25
100
AcDbCircle
 10
105.2738765606
 20
268.4765016268
 30
0.0
 40
1.866666666666676
100
AcDbArc
 50
306.3179497613
 51
6.3179497613
  0
ARC
  5
179
330
1F
100
AcDbEntity
  8
0
  6
Continuous
 62
     7
370
    25
100
AcDbCircle
 10
105.2738765606
 20
268.4765016268
 30
0.0
 40
1.866666666666697
100
AcDbArc
 50
186.3179497613
 51
246.3179497613
  0
CIRCLE
  5
17A
330
1F
100
AcDbEntity
  8
0
  6
Continuous
 62
     7
370
    25
100
AcDbCircle
 10
105.2738765606
 20
240.4765016268
 30
0.0
 40
5.000000000000002
  0
CIRCLE
  5
17B
330
1F
100
AcDbEntity
  8
0
  6
Continuous
 62
     7
370
    25
100
AcDbCircle
 10
105.2738765606
 20
240.4765016268
 30
0.0
 40
4.615049880485953
  0
CIRCLE
  5
17C
330
1F
100
AcDbEntity
  8
0
  6
Continuous
 62
     7
370
    25
100
AcDbCircle
 10
105.2738765606
 20
240.4765016268
 30
0.0
 40
2.800000000000011
  0
LWPOLYLINE
  5
17D
330
1F
100
AcDbEntity
  8
0
  6
Continuous
 62
     7
370
    25
100
AcDbPolyline
 90
       13
 70
   128
 43
0.0
 10
103.2863832869
 20
242.4487770859
 10
103.2675143622
 20
242.417156239
 10
103.2601177323
 20
242.3735772193
 10
103.2679280305
 20
242.2832720448
 10
103.3447329163
 20
241.9971010911
 10
103.5004000703
 20
241.2397714552
 10
103.3833803339
 20
240.7384887499
 10
103.0624693271
 20
240.3179043617
 10
102.7252000639
 20
239.9890763991
 10
102.6029843081
 20
239.8481047444
 10
102.5781435195
 20
239.80162565
 10
102.5695687613
 20
239.7603024177
 10
102.5720892728
 20
239.7414196915
  0
LWPOLYLINE
  5
17E
330
1F
100
AcDbEntity
  8
0
  6
Continuous
 62
     7
370
    25
100
AcDbPolyline
 90
       11
 70
   128
 43
0.0
 10
102.5720892728
 20
239.7414196915
 10
102.5881378903
 20
239.7115036191
 10
102.6180858694
 20
239.6850341513
 10
102.7499212501
 20
239.6280039049
 10
103.3429625926
 20
239.476641437
 10
103.9590262545
 20
239.151506111
 10
104.2888871036
 20
238.5379596694
 10
104.4448032757
 20
237.9460992315
 10
104.5028451375
 20
237.8147060852
 10
104.5295440066
 20
237.7849624377
 10
104.5595825466
 20
237.7691442323
  0
LWPOLYLINE
  5
17F
330
1F
100
AcDbEntity
  8
0
  6
Continuous
 62
     7
370
    25
100
AcDbPolyline
 90
       11
 70
   128
 43
0.0
 10
107.9756638484
 20
241.2115835621
 10
107.9596152309
 20
241.2414996345
 10
107.9296672518
 20
241.2679691022
 10
107.7978318711
 20
241.3249993487
 10
107.2047905286
 20
241.4763618166
 10
106.5887268667
 20
241.8014971426
 10
106.2588660176
 20
242.4150435842
 10
106.1029498455
 20
243.006904022
 10
106.0449079837
 20
243.1382971683
 10
106.0182091146
 20
243.1680408158
 10
105.9881705747
 20
243.1838590213
  0
LWPOLYLINE
  5
180
330
1F
100
AcDbEntity
  8
0
  6
Continuous
 62
     7
370
    25
100
AcDbPolyline
 90
       14
 70
   128
 43
0.0
 10
104.5595825466
 20
237.7691442323
 10
104.5784840879
 20
237.7667689297
 10
104.6131641198
 20
237.7732136432
 10
104.6514737466
 20
237.7916269236
 10
104.6933688986
 20
237.820720568
 10
104.8060551139
 20
237.924154015
 10
105.132281078
 20
238.2639407204
 10
105.5503864886
 20
238.5880749018
 10
106.0507549613
 20
238.7089440908
 10
106.8092587003
 20
238.5591024464
 10
107.0960115309
 20
238.484499368
 10
107.2064378216
 20
238.4794027508
 10
107.2376871519
 20
238.4881992469
 10
107.2613698344
 20
238.5042261676
  0
LWPOLYLINE
  5
181
330
1F
100
AcDbEntity
  8
0
  6
Continuous
 62
     7
370
    25
100
AcDbPolyline
 90
       13
 70
   128
 43
0.0
 10
107.2613698344
 20
238.5042261676
 10
107.280238759
 20
238.5358470145
 10
107.2876353889
 20
238.5794260343
 10
107.2798250908
 20
238.6697312088
 10
107.203020205
 20
238.9559021624
 10
107.0473530509
 20
239.7132317984
 10
107.1643727873
 20
240.2145145037
 10
107.4852837942
 20
240.6350988919
 10
107.8225530573
 20
240.9639268545
 10
107.9447688131
 20
241.1048985092
 10
107.9696096018
 20
241.1513776035
 10
107.9781843599
 20
241.1927008359
 10
107.9756638484
 20
241.2115835621
  0
LWPOLYLINE
  5
182
330
1F
100
AcDbEntity
  8
0
  6
Continuous
 62
     7
370
    25
100
AcDbPolyline
 90
       14
 70
   128
 43
0.0
 10
105.9881705747
 20
243.1838590213
 10
105.9692690333
 20
243.1862343238
 10
105.9345890014
 20
243.1797896104
 10
105.8962793746
 20
243.16137633
 10
105.8543842226
 20
243.1322826855
 10
105.7416980073
 20
243.0288492386
 10
105.4154720432
 20
242.6890625331
 10
104.9973666326
 20
242.3649283518
 10
104.4969981599
 20
242.2440591628
 10
103.738494421
 20
242.3939008071
 10
103.4517415903
 20
242.4685038856
 10
103.3413152996
 20
242.4736005028
 10
103.3100659693
 20
242.4648040066
 10
103.2863832869
 20
242.4487770859
  0
ARC
  5
183
330
1F
100
AcDbEntity
  8
0
  6
Continuous
 62
     7
370
    25
100
AcDbCircle
 10
105.2738765606
 20
240.4765016268
 30
0.0
 40
1.866666666666654
100
AcDbArc
 50
225.2201927219
 51
285.2201927219
  0
ARC
  5
184
330
1F
100
AcDbEntity
  8
0
  6
Continuous
 62
     7
370
    25
100
AcDbCircle
 10
105.2738765606
 20
240.4765016268
 30
0.0
 40
1.866666666666662
100
AcDbArc
 50
165.2201927219
 51
225.2201927219
  0
ARC
  5
185
330
1F
100
AcDbEntity
  8
0
  6
Continuous
 62
     7
370
    25
100
AcDbCircle
 10
105.2738765606
 20
240.4765016268
 30
0.0
 40
1.866666666666686
100
AcDbArc
 50
105.2201927219
 51
165.2201927219
  0
ARC
  5
186
330
1F
100
AcDbEntity
  8
0
  6
Continuous
 62
     7
370
    25
100
AcDbCircle
 10
105.2738765606
 20
240.4765016268
 30
0.0
 40
1.866666666666686
100
AcDbArc
 50
45.2201927219
 51
105.2201927219
  0
ARC
  5
187
330
1F
100
AcDbEntity
  8
0
  6
Continuous
 62
     7
370
    25
100
AcDbCircle
 10
105.2738765606
 20
240.4765016268
 30
0.0
 40
1.866666666666676
100
AcDbArc
 50
345.2201927219
 51
45.2201927219
  0
ARC
  5
188
330
1F
100
AcDbEntity
  8
0
  6
Continuous
 62
     7
370
    25
100
AcDbCircle
 10
105.2738765606
 20
240.4765016268
 30
0.0
 40
1.866666666666676
100
AcDbArc
 50
285.2201927219
 51
345.2201927219
  0
CIRCLE
  5
189
330
1F
100
AcDbEntity
  8
0
  6
Continuous
 62
     7
370
    25
100
AcDbCircle
 10
105.2738765606
 20
296.4765016268
 30
0.0
 40
5.000000000000032
  0
CIRCLE
  5
18A
330
1F
100
AcDbEntity
  8
0
  6
Continuous
 62
     7
370
    25
100
AcDbCircle
 10
105.2738765606
 20
296.4765016268
 30
0.0
 40
4.61504988048598
  0
CIRCLE
  5
18B
330
1F
100
AcDbEntity
  8
0
  6
Continuous
 62
     7
370
    25
100
AcDbCircle
 10
105.2738765606
 20
296.4765016268
 30
0.0
 40
2.799999999999998
  0
LWPOLYLINE
  5
18C
330
1F
100
AcDbEntity
  8
0
  6
Continuous
 62
     7
370
    25
100
AcDbPolyline
 90
       11
 70
   128
 43
0.0
 10
107.9044655312
 20
295.5173344526
 10
107.9086273005
 20
295.5510273181
 10
107.8994493634
 20
295.5899282133
 10
107.8247084711
 20
295.7125936756
 10
107.427789552
 20
296.1784949551
 10
107.1123702023
 20
296.7995891908
 10
107.1971348499
 20
297.4910097359
 10
107.411427597
 20
298.064322259
 10
107.4398687283
 20
298.2051204077
 10
107.4352338698
 20
298.2448196805
 10
107.4198341852
 20
298.2750749151
  0
LWPOLYLINE
  5
18D
330
1F
100
AcDbEntity
  8
0
  6
Continuous
 62
     7
370
    25
100
AcDbPolyline
 90
       13
 70
   128
 43
0.0
 10
105.7585079066
 20
293.7187611643
 10
105.7921676809
 20
293.7336921347
 10
105.8233611895
 20
293.7650099589
 10
105.8691063994
 20
293.8432621223
 10
105.9715615447
 20
294.1212832517
 10
106.2815646931
 20
294.8295759089
 10
106.6664592382
 20
295.1713860295
 10
107.1712753058
 20
295.3296132072
 10
107.6364888683
 20
295.4034693249
 10
107.8176588537
 20
295.4480466148
 10
107.8647713355
 20
295.4716640883
 10
107.8956248995
 20
295.5004598101
 10
107.9044655312
 20
295.5173344526
  0
LWPOLYLINE
  5
18E
330
1F
100
AcDbEntity
  8
0
  6
Continuous
 62
     7
370
    25
100
AcDbPolyline
 90
       11
 70
   128
 43
0.0
 10
102.6432875901
 20
297.4356688009
 10
102.6391258208
 20
297.4019759354
 10
102.6483037578
 20
297.3630750402
 10
102.7230446501
 20
297.240409578
 10
103.1199635692
 20
296.7745082984
 10
103.435382919
 20
296.1534140628
 10
103.3506182713
 20
295.4619935176
 10
103.1363255242
 20
294.8886809945
 10
103.1078843929
 20
294.7478828459
 10
103.1125192515
 20
294.708183573
 10
103.1279189361
 20
294.6779283384
  0
LWPOLYLINE
  5
18F
330
1F
100
AcDbEntity
  8
0
  6
Continuous
 62
     7
370
    25
100
AcDbPolyline
 90
       13
 70
   128
 43
0.0
 10
104.7892452146
 20
299.2342420893
 10
104.7555854404
 20
299.2193111189
 10
104.7243919317
 20
299.1879932947
 10
104.6786467219
 20
299.1097411313
 10
104.5761915765
 20
298.8317200019
 10
104.2661884281
 20
298.1234273446
 10
103.8812938831
 20
297.781617224
 10
103.3764778154
 20
297.6233900463
 10
102.9112642529
 20
297.5495339287
 10
102.7300942675
 20
297.5049566388
 10
102.6829817858
 20
297.4813391652
 10
102.6521282217
 20
297.4525434434
 10
102.6432875901
 20
297.4356688009
  0
LWPOLYLINE
  5
190
330
1F
100
AcDbEntity
  8
0
  6
Continuous
 62
     7
370
    25
100
AcDbPolyline
 90
       14
 70
   128
 43
0.0
 10
103.1279189361
 20
294.6779283384
 10
103.1419831317
 20
294.6650788743
 10
103.1740230254
 20
294.6503247509
 10
103.2159350127
 20
294.6432493201
 10
103.2669395689
 20
294.6428260587
 10
103.4186609808
 20
294.6622496074
 10
103.8811817398
 20
294.7514288222
 10
104.409697739
 20
294.77479419
 10
104.8880682301
 20
294.584689896
 10
105.4209832627
 20
294.0245274121
 10
105.612088502
 20
293.7980950983
 10
105.6993220443
 20
293.7301962744
 10
105.7299178152
 20
293.7193428054
 10
105.7585079066
 20
293.7187611643
  0
LWPOLYLINE
  5
191
330
1F
100
AcDbEntity
  8
0
  6
Continuous
 62
     7
370
    25
100
AcDbPolyline
 90
       14
 70
   128
 43
0.0
 10
107.4198341852
 20
298.2750749151
 10
107.4057699895
 20
298.2879243793
 10
107.3737300959
 20
298.3026785027
 10
107.3318181086
 20
298.3097539335
 10
107.2808135523
 20
298.3101771949
 10
107.1290921405
 20
298.2907536461
 10
106.6665713815
 20
298.2015744314
 10
106.1380553822
 20
298.1782090635
 10
105.6596848911
 20
298.3683133575
 10
105.1267698586
 20
298.9284758415
 10
104.9356646192
 20
299.1549081552
 10
104.848431077
 20
299.2228069791
 10
104.817835306
 20
299.2336604482
 10
104.7892452146
 20
299.2342420893
  0
ARC
  5
192
330
1F
100
AcDbEntity
  8
0
  6
Continuous
 62
     7
370
    25
100
AcDbCircle
 10
105.2738765606
 20
296.4765016268
 30
0.0
 40
1.866666666666714
100
AcDbArc
 50
9.9670979195
 51
69.9670979195
  0
ARC
  5
193
330
1F
100
AcDbEntity
  8
0
  6
Continuous
 62
     7
370
    25
100
AcDbCircle
 10
105.2738765606
 20
296.4765016268
 30
0.0
 40
1.866666666666674
100
AcDbArc
 50
309.9670979195
 51
9.9670979195
  0
ARC
  5
194
330
1F
100
AcDbEntity
  8
0
  6
Continuous
 62
     7
370
    25
100
AcDbCircle
 10
105.2738765606
 20
296.4765016268
 30
0.0
 40
1.866666666666664
100
AcDbArc
 50
249.9670979195
 51
309.9670979195
  0
ARC
  5
195
330
1F
100
AcDbEntity
  8
0
  6
Continuous
 62
     7
370
    25
100
AcDbCircle
 10
105.2738765606
 20
296.4765016268
 30
0.0
 40
1.866666666666664
100
AcDbArc
 50
189.9670979195
 51
249.9670979195
  0
ARC
  5
196
330
1F
100
AcDbEntity
  8
0
  6
Continuous
 62
     7
370
    25
100
AcDbCircle
 10
105.2738765606
 20
296.4765016268
 30
0.0
 40
1.866666666666664
100
AcDbArc
 50
129.9670979195
 51
189.9670979195
  0
ARC
  5
197
330
1F
100
AcDbEntity
  8
0
  6
Continuous
 62
     7
370
    25
100
AcDbCircle
 10
105.2738765606
 20
296.4765016268
 30
0.0
 40
1.866666666666714
100
AcDbArc
 50
69.9670979195
 51
129.9670979195
  0
CIRCLE
  5
198
330
1F
100
AcDbEntity
  8
0
  6
Continuous
 62
     7
370
    25
100
AcDbCircle
 10
102.2738765606
 20
212.4765016268
 30
0.0
 40
4.999999999999991
  0
CIRCLE
  5
199
330
1F
100
AcDbEntity
  8
0
  6
Continuous
 62
     7
370
    25
100
AcDbCircle
 10
102.2738765606
 20
212.4765016268
 30
0.0
 40
2.800000000000001
  0
LWPOLYLINE
  5
19A
330
1F
100
AcDbEntity
  8
0
  6
Continuous
 62
     7
370
    25
100
AcDbPolyline
 90
       14
 70
   128
 43
0.0
 10
102.6430775995
 20
215.2520539309
 10
102.6240273988
 20
215.2520405602
 10
102.5904291029
 20
215.2412984258
 10
102.5547305077
 20
215.2182270863
 10
102.5168138169
 20
215.1841101042
 10
102.4179856482
 20
215.0673639944
 10
102.1369375289
 20
214.689355609
 10
101.7627724781
 20
214.3153561215
 10
101.2815076133
 20
214.1327031739
 10
100.5102020879
 20
214.186259003
 10
100.2163582416
 20
214.2243194708
 10
100.1061643587
 20
214.215530309
 10
100.0762645639
 20
214.2028851021
 10
100.0547782752
 20
214.1840152576
  0
LWPOLYLINE
  5
19B
330
1F
100
AcDbEntity
  8
0
  6
Continuous
 62
     7
370
    25
100
AcDbPolyline
 90
       11
 70
   128
 43
0.0
 10
104.862175885
 20
213.5445403
 10
104.842502955
 20
213.5722080671
 10
104.809472496
 20
213.5947136876
 10
104.6715268899
 20
213.6347639857
 10
104.0641873189
 20
213.7105747769
 10
103.4122189812
 20
213.9559004837
 10
103.0080330726
 20
214.5232462046
 10
102.7791381977
 20
215.0908867307
 10
102.7050799349
 20
215.213965528
 10
102.6748624195
 20
215.2401268724
 10
102.6430775995
 20
215.2520539309
  0
LWPOLYLINE
  5
19C
330
1F
100
AcDbEntity
  8
0
  6
Continuous
 62
     7
370
    25
100
AcDbPolyline
 90
       13
 70
   128
 43
0.0
 10
104.492974846
 20
210.7689879959
 10
104.5077301547
 20
210.8027251437
 10
104.5096043537
 20
210.8468876671
 10
104.4905329744
 20
210.9355009155
 10
104.3784532808
 20
211.2097835207
 10
104.1290584657
 20
211.9416186568
 10
104.1823024991
 20
212.4536177215
 10
104.4479469639
 20
212.9111197655
 10
104.7413252714
 20
213.2796405296
 10
104.8449011316
 20
213.4348234525
 10
104.8637182081
 20
213.4840503621
 10
104.867044075
 20
213.5261226168
 10
104.862175885
 20
213.5445403
  0
LWPOLYLINE
  5
19D
330
1F
100
AcDbEntity
  8
0
  6
Continuous
 62
     7
370
    25
100
AcDbPolyline
 90
       11
 70
   128
 43
0.0
 10
99.6855772363
 20
211.4084629535
 10
99.7052501663
 20
211.3807951865
 10
99.7382806253
 20
211.358289566
 10
99.8762262313
 20
211.3182392679
 10
100.4835658024
 20
211.2424284767
 10
101.13553414
 20
210.9971027698
 10
101.5397200487
 20
210.4297570489
 10
101.7686149236
 20
209.8621165228
 10
101.8426731863
 20
209.7390377256
 10
101.8728907017
 20
209.7128763812
 10
101.9046755217
 20
209.7009493227
  0
LWPOLYLINE
  5
19E
330
1F
100
AcDbEntity
  8
0
  6
Continuous
 62
     7
370
    25
100
AcDbPolyline
 90
       13
 70
   128
 43
0.0
 10
100.0547782752
 20
214.1840152576
 10
100.0400229665
 20
214.1502781098
 10
100.0381487675
 20
214.1061155864
 10
100.0572201468
 20
214.017502338
 10
100.1692998404
 20
213.7432197329
 10
100.4186946555
 20
213.0113845967
 10
100.3654506221
 20
212.499385532
 10
100.0998061573
 20
212.0418834881
 10
99.8064278499
 20
211.6733627239
 10
99.7028519896
 20
211.518179801
 10
99.6840349131
 20
211.4689528915
 10
99.6807090462
 20
211.4268806367
 10
99.6855772363
 20
211.4084629535
  0
LWPOLYLINE
  5
19F
330
1F
100
AcDbEntity
  8
0
  6
Continuous
 62
     7
370
    25
100
AcDbPolyline
 90
       14
 70
   128
 43
0.0
 10
101.9046755217
 20
209.7009493227
 10
101.9237257224
 20
209.7009626933
 10
101.9573240184
 20
209.7117048278
 10
101.9930226135
 20
209.7347761673
 10
102.0309393044
 20
209.7688931493
 10
102.129767473
 20
209.8856392591
 10
102.4108155924
 20
210.2636476445
 10
102.7849806432
 20
210.6376471321
 10
103.266245508
 20
210.8203000796
 10
104.0375510334
 20
210.7667442505
 10
104.3313948796
 20
210.7286837828
 10
104.4415887625
 20
210.7374729445
 10
104.4714885574
 20
210.7501181514
 10
104.492974846
 20
210.7689879959
  0
ARC
  5
1A0
330
1F
100
AcDbEntity
  8
0
  6
Continuous
 62
     7
370
    25
100
AcDbCircle
 10
102.2738765606
 20
212.4765016268
 30
0.0
 40
1.866666666666673
100
AcDbArc
 50
352.4230558519
 51
52.4230558519
  0
ARC
  5
1A1
330
1F
100
AcDbEntity
  8
0
  6
Continuous
 62
     7
370
    25
100
AcDbCircle
 10
102.2738765606
 20
212.4765016268
 30
0.0
 40
1.866666666666678
100
AcDbArc
 50
232.4230558519
 51
292.4230558519
  0
ARC
  5
1A2
330
1F
100
AcDbEntity
  8
0
  6
Continuous
 62
     7
370
    25
100
AcDbCircle
 10
102.2738765606
 20
212.4765016268
 30
0.0
 40
1.866666666666678
100
AcDbArc
 50
172.423055852
 51
232.4230558519
  0
ARC
  5
1A3
330
1F
100
AcDbEntity
  8
0
  6
Continuous
 62
     7
370
    25
100
AcDbCircle
 10
102.2738765606
 20
212.4765016268
 30
0.0
 40
1.866666666666684
100
AcDbArc
 50
112.4230558519
 51
172.423055852
  0
ARC
  5
1A4
330
1F
100
AcDbEntity
  8
0
  6
Continuous
 62
     7
370
    25
100
AcDbCircle
 10
102.2738765606
 20
212.4765016268
 30
0.0
 40
1.866666666666684
100
AcDbArc
 50
52.4230558519
 51
112.4230558519
  0
ARC
  5
1A5
330
1F
100
AcDbEntity
  8
0
  6
Continuous
 62
     7
370
    25
100
AcDbCircle
 10
102.2738765606
 20
212.4765016268
 30
0.0
 40
1.866666666666665
100
AcDbArc
 50
292.4230558519
 51
352.4230558519
  0
CIRCLE
  5
1A6
330
1F
100
AcDbEntity
  8
0
  6
Continuous
 62
     7
370
    25
100
AcDbCircle
 10
102.2738765606
 20
212.4765016268
 30
0.0
 40
6.499999999999994
  0
CIRCLE
  5
1A7
330
1F
100
AcDbEntity
  8
0
  6
Continuous
 62
     7
370
    25
100
AcDbCircle
 10
102.2738765606
 20
212.4765016268
 30
0.0
 40
8.000000000000002
  0
CIRCLE
  5
1A8
330
1F
100
AcDbEntity
  8
0
  6
Continuous
 62
     7
370
    25
100
AcDbCircle
 10
102.2738765606
 20
324.4765016268
 30
0.0
 40
5.000000000000002
  0
CIRCLE
  5
1A9
330
1F
100
AcDbEntity
  8
0
  6
Continuous
 62
     7
370
    25
100
AcDbCircle
 10
102.2738765606
 20
324.4765016268
 30
0.0
 40
2.800000000000015
  0
LWPOLYLINE
  5
1AA
330
1F
100
AcDbEntity
  8
0
  6
Continuous
 62
     7
370
    25
100
AcDbPolyline
 90
       14
 70
   128
 43
0.0
 10
99.6885435685
 20
325.5517008269
 10
99.6836244155
 20
325.5332966898
 10
99.6853017446
 20
325.498062821
 10
99.6983441446
 20
325.4576082514
 10
99.7214813193
 20
325.4121515131
 10
99.8086604555
 20
325.2864675472
 10
100.1010175441
 20
324.9171361004
 10
100.3653945891
 20
324.4589004842
 10
100.4172211643
 20
323.9467559973
 10
100.1658015268
 20
323.2156140096
 10
100.0529630264
 20
322.9416427008
 10
100.0329234902
 20
322.8329304284
 10
100.0373965419
 20
322.800776256
 10
100.0500602432
 20
322.7751371784
  0
LWPOLYLINE
  5
1AB
330
1F
100
AcDbEntity
  8
0
  6
Continuous
 62
     7
370
    25
100
AcDbPolyline
 90
       11
 70
   128
 43
0.0
 10
101.912359886
 20
327.2530652752
 10
101.8805421727
 20
327.2412262453
 10
101.8502523564
 20
327.2151486456
 10
101.7758536855
 20
327.0922753191
 10
101.5453884133
 20
326.5252705669
 10
101.139633595
 20
325.9590458384
 10
100.486988674
 20
325.7155257717
 10
99.8794415795
 20
325.6413964352
 10
99.7413856395
 20
325.601728135
 10
99.7082930097
 20
325.5793140316
 10
99.6885435685
 20
325.5517008269
  0
LWPOLYLINE
  5
1AC
330
1F
100
AcDbEntity
  8
0
  6
Continuous
 62
     7
370
    25
100
AcDbPolyline
 90
       13
 70
   128
 43
0.0
 10
104.4976928781
 20
326.1778660752
 10
104.4689261406
 20
326.2008527907
 10
104.4267545859
 20
326.2140966977
 10
104.336225096
 20
326.2186174001
 10
104.042277021
 20
326.1813704613
 10
103.2708262038
 20
326.1299498725
 10
102.7900687807
 20
326.3139342998
 10
102.4169404238
 20
326.6889680731
 10
102.1369397385
 20
327.0677529739
 10
102.01386348
 20
327.2079739888
 10
101.9711866968
 20
327.2388942599
 10
101.9314099767
 20
327.2529991721
 10
101.912359886
 20
327.2530652752
  0
LWPOLYLINE
  5
1AD
330
1F
100
AcDbEntity
  8
0
  6
Continuous
 62
     7
370
    25
100
AcDbPolyline
 90
       14
 70
   128
 43
0.0
 10
104.8592095527
 20
323.4013024267
 10
104.8641287057
 20
323.4197065638
 10
104.8624513766
 20
323.4549404326
 10
104.8494089766
 20
323.4953950022
 10
104.8262718019
 20
323.5408517405
 10
104.7390926658
 20
323.6665357064
 10
104.4467355772
 20
324.0358671532
 10
104.1823585322
 20
324.4941027694
 10
104.1305319569
 20
325.0062472563
 10
104.3819515945
 20
325.737389244
 10
104.4947900948
 20
326.0113605528
 10
104.514829631
 20
326.1200728252
 10
104.5103565793
 20
326.1522269975
 10
104.4976928781
 20
326.1778660752
  0
LWPOLYLINE
  5
1AE
330
1F
100
AcDbEntity
  8
0
  6
Continuous
 62
     7
370
    25
100
AcDbPolyline
 90
       13
 70
   128
 43
0.0
 10
100.0500602432
 20
322.7751371784
 10
100.0788269807
 20
322.7521504628
 10
100.1209985353
 20
322.7389065558
 10
100.2115280253
 20
322.7343858535
 10
100.5054761002
 20
322.7716327922
 10
101.2769269174
 20
322.823053381
 10
101.7576843405
 20
322.6390689538
 10
102.1308126975
 20
322.2640351804
 10
102.4108133828
 20
321.8852502796
 10
102.5338896412
 20
321.7450292648
 10
102.5765664244
 20
321.7141089937
 10
102.6163431445
 20
321.7000040814
 10
102.6353932353
 20
321.6999379783
  0
LWPOLYLINE
  5
1AF
330
1F
100
AcDbEntity
  8
0
  6
Continuous
 62
     7
370
    25
100
AcDbPolyline
 90
       11
 70
   128
 43
0.0
 10
102.6353932353
 20
321.6999379783
 10
102.6672109486
 20
321.7117770082
 10
102.6975007649
 20
321.7378546079
 10
102.7718994358
 20
321.8607279345
 10
103.0023647079
 20
322.4277326866
 10
103.4081195262
 20
322.9939574151
 10
104.0607644472
 20
323.2374774818
 10
104.6683115417
 20
323.3116068183
 10
104.8063674817
 20
323.3512751186
 10
104.8394601115
 20
323.3736892219
 10
104.8592095527
 20
323.4013024267
  0
ARC
  5
1B0
330
1F
100
AcDbEntity
  8
0
  6
Continuous
 62
     7
370
    25
100
AcDbCircle
 10
102.2738765606
 20
324.4765016268
 30
0.0
 40
1.86666666666662
100
AcDbArc
 50
67.4183446653
 51
127.4183446653
  0
ARC
  5
1B1
330
1F
100
AcDbEntity
  8
0
  6
Continuous
 62
     7
370
    25
100
AcDbCircle
 10
102.2738765606
 20
324.4765016268
 30
0.0
 40
1.866666666666671
100
AcDbArc
 50
307.4183446653
 51
7.4183446653
  0
ARC
  5
1B2
330
1F
100
AcDbEntity
  8
0
  6
Continuous
 62
     7
370
    25
100
AcDbCircle
 10
102.2738765606
 20
324.4765016268
 30
0.0
 40
1.866666666666671
100
AcDbArc
 50
7.4183446653
 51
67.4183446653
  0
ARC
  5
1B3
330
1F
100
AcDbEntity
  8
0
  6
Continuous
 62
     7
370
    25
100
AcDbCircle
 10
102.2738765606
 20
324.4765016268
 30
0.0
 40
1.866666666666674
100
AcDbArc
 50
127.4183446653
 51
187.4183446652
  0
ARC
  5
1B4
330
1F
100
AcDbEntity
  8
0
  6
Continuous
 62
     7
370
    25
100
AcDbCircle
 10
102.2738765606
 20
324.4765016268
 30
0.0
 40
1.866666666666674
100
AcDbArc
 50
187.4183446652
 51
247.4183446653
  0
ARC
  5
1B5
330
1F
100
AcDbEntity
  8
0
  6
Continuous
 62
     7
370
    25
100
AcDbCircle
 10
102.2738765606
 20
324.4765016268
 30
0.0
 40
1.866666666666665
100
AcDbArc
 50
247.4183446653
 51
307.4183446653
  0
CIRCLE
  5
1B6
330
1F
100
AcDbEntity
  8
0
  6
Continuous
 62
     7
370
    25
100
AcDbCircle
 10
102.2738765606
 20
324.4765016268
 30
0.0
 40
8.000000000000002
  0
CIRCLE
  5
1B7
330
1F
100
AcDbEntity
  8
0
  6
Continuous
 62
     7
370
    25
100
AcDbCircle
 10
102.2738765606
 20
324.4765016268
 30
0.0
 40
6.49999999999999
  0
ARC
  5
1B8
330
1F
100
AcDbEntity
  8
0
  6
Continuous
 62
     7
370
    25
100
AcDbCircle
 10
102.2738765606
 20
212.4765016268
 30
0.0
 40
11.50000000000001
100
AcDbArc
 50
180.0
 51
0.0
  0
LINE
  5
1B9
330
1F
100
AcDbEntity
  8
0
  6
Continuous
 62
     7
370
    25
100
AcDbLine
 10
90.7738765606
 20
212.4765016268
 30
0.0
 11
90.7738765606
 21
324.4765016268
 31
0.0
  0
CIRCLE
  5
1BA
330
1F
100
AcDbEntity
  8
0
  6
Continuous
 62
     7
370
    25
100
AcDbCircle
 10
102.2738765606
 20
254.4765016268
 30
0.0
 40
5.499999999999986
  0
CIRCLE
  5
1BB
330
1F
100
AcDbEntity
  8
0
  6
Continuous
 62
     7
370
    25
100
AcDbCircle
 10
102.2738765606
 20
282.4765016268
 30
0.0
 40
5.500000000000014
  0
LINE
  5
1BC
330
1F
100
AcDbEntity
  8
0
  6
Continuous
 62
     7
370
    25
100
AcDbLine
 10
113.7738765606
 20
324.4765016268
 30
0.0
 11
113.7738765606
 21
212.4765016268
 31
0.0
  0
ARC
  5
1BD
330
1F
100
AcDbEntity
  8
0
  6
Continuous
 62
     7
370
    25
100
AcDbCircle
 10
102.2738765606
 20
324.4765016268
 30
0.0
 40
11.50000000000001
100
AcDbArc
 50
0.0
 51
180.0
  0
DIMENSION
  5
1BE
330
1F
100
AcDbEntity
  8
FORMAT
100
AcDbDimension
  2
_D
 10
114.1738765606
 20
168.4765016268
 30
0.0
 11
75.7238765606
 21
168.4765016268
 31
0.0
 70
   160
  1
<>
 71
     2
 42
-1.0
  3
SLDDIMSTYLE0
100
AcDbAlignedDimension
 13
37.2738765606
 23
180.4765016268
 33
0.0
 14
114.1738765606
 24
188.9305391434
 34
0.0
 50
0.0
100
AcDbRotatedDimension
  0
DIMENSION
  5
1CA
330
1F
100
AcDbEntity
  8
FORMAT
100
AcDbDimension
  2
_D_1
 10
27.2738765606
 20
180.4765016268
 30
0.0
 11
27.2738765606
 21
268.4765016268
 31
0.0
 70
   160
  1
<>
 71
     2
 42
-1.0
  3
SLDDIMSTYLE1
100
AcDbAlignedDimension
 13
37.2738765606
 23
356.4765016268
 33
0.0
 14
37.2738765606
 24
180.4765016268
 34
0.0
 50
90.0
100
AcDbRotatedDimension
  0
DIMENSION
  5
1D5
330
1F
100
AcDbEntity
  8
FORMAT
100
AcDbDimension
  2
_D_2
 10
145.153463903
 20
358.4765016268
 30
0.0
 11
145.153463903
 21
268.4765016268
 31
0.0
 70
   160
  1
<>
 71
     2
 42
-1.0
  3
SLDDIMSTYLE1
100
AcDbAlignedDimension
 13
102.2738765606
 23
178.4765016268
 33
0.0
 14
102.2738765606
 24
358.4765016268
 34
0.0
 50
90.0
100
AcDbRotatedDimension
  0
DIMENSION
  5
1DF
330
1F
100
AcDbEntity
  8
FORMAT
100
AcDbDimension
  2
_D_3
 10
114.2738765606
 20
368.4765016268
 30
0.0
 11
102.3238765606
 21
368.4765016268
 31
0.0
 70
   160
  1
<>
 71
     2
 42
-1.0
  3
SLDDIMSTYLE0
100
AcDbAlignedDimension
 13
90.3738765606
 23
348.0224641102
 33
0.0
 14
114.2738765606
 24
346.4765016268
 34
0.0
 50
0.0
100
AcDbRotatedDimension
  0
DIMENSION
  5
1EA
330
1F
100
AcDbEntity
  8
FORMAT
100
AcDbDimension
  2
_D_4
 10
105.2738765606
 20
307.676562549
 30
0.0
 11
96.712413339
 21
307.676562549
 31
0.0
 70
   160
  1
<>
 71
     2
 42
-1.0
  3
SLDDIMSTYLE2
100
AcDbAlignedDimension
 13
102.2738765606
 23
324.4765016268
 33
0.0
 14
105.2738765606
 24
296.4765016268
 34
0.0
100
AcDbRotatedDimension
  0
DIMENSION
  5
1F7
330
1F
100
AcDbEntity
  8
FORMAT
100
AcDbDimension
  2
_D_5
 10
124.2964325182
 20
268.4765016268
 30
0.0
 11
124.2964325182
 21
282.4765016268
 31
0.0
 70
   160
  1
<>
 71
     2
 42
-1.0
  3
SLDDIMSTYLE1
100
AcDbAlignedDimension
 13
105.2738765606
 23
296.4765016268
 33
0.0
 14
99.8613828824
 24
268.4765016268
 34
0.0
 50
90.0
100
AcDbRotatedDimension
  0
DIMENSION
  5
201
330
1F
100
AcDbEntity
  8
FORMAT
100
AcDbDimension
  2
_D_6
 10
124.2964325182
 20
240.4765016268
 30
0.0
 11
124.2964325182
 21
254.4765016268
 31
0.0
 70
   160
  1
<>
 71
     2
 42
-1.0
  3
SLDDIMSTYLE1
100
AcDbAlignedDimension
 13
110.5738765606
 23
268.4765016268
 33
0.0
 14
105.2738765606
 24
240.4765016268
 34
0.0
 50
90.0
100
AcDbRotatedDimension
  0
DIMENSION
  5
20B
330
1F
100
AcDbEntity
  8
FORMAT
100
AcDbDimension
  2
_D_7
 10
132.7409065198
 20
212.4765016268
 30
0.0
 11
132.7409065198
 21
268.4765016268
 31
0.0
 70
   160
  1
<>
 71
     2
 42
-1.0
  3
SLDDIMSTYLE1
100
AcDbAlignedDimension
 13
102.2738765606
 23
324.4765016268
 33
0.0
 14
102.2738765606
 24
212.4765016268
 34
0.0
 50
90.0
100
AcDbRotatedDimension
  0
DIMENSION
  5
215
330
1F
100
AcDbEntity
  8
FORMAT
100
AcDbDimension
  2
_D_8
 10
139.3850502215
 20
190.4765016268
 30
0.0
 11
139.3850502215
 21
268.4765016268
 31
0.0
 70
   160
  1
<>
 71
     2
 42
-1.0
  3
SLDDIMSTYLE1
100
AcDbAlignedDimension
 13
108.2738765606
 23
346.4765016268
 33
0.0
 14
107.2738765606
 24
190.4765016268
 34
0.0
 50
90.0
100
AcDbRotatedDimension
  0
MTEXT
  5
21F
330
1F
100
AcDbEntity
  8
FORMAT
100
AcDbMText
 10
62.2437384006
 20
273.4405350402
 30
0.0
 40
3.5
 41
0.0
 71
     1
 72
     1
  1
BBL
  7
SLDTEXTSTYLE0
 73
     1
 44
1.0
  0
INSERT
  5
22B
330
1F
100
AcDbEntity
  8
FORMAT
100
AcDbBlockReference
  2
SW_CENTERMARKSYMBOL_0
 10
47.2738765606
 20
204.9765016268
 30
0.0
  0
INSERT
  5
237
330
1F
100
AcDbEntity
  8
FORMAT
100
AcDbBlockReference
  2
SW_CENTERMARKSYMBOL_1
 10
67.2738765606
 20
190.4765016268
 30
0.0
  0
INSERT
  5
243
330
1F
100
AcDbEntity
  8
FORMAT
100
AcDbBlockReference
  2
SW_CENTERMARKSYMBOL_2
 10
67.2738765606
 20
230.4765016268
 30
0.0
  0
INSERT
  5
24F
330
1F
100
AcDbEntity
  8
FORMAT
100
AcDbBlockReference
  2
SW_CENTERMARKSYMBOL_3
 10
67.2738765606
 20
306.4765016268
 30
0.0
  0
INSERT
  5
25B
330
1F
100
AcDbEntity
  8
FORMAT
100
AcDbBlockReference
  2
SW_CENTERMARKSYMBOL_4
 10
47.2738765606
 20
331.9765016268
 30
0.0
  0
INSERT
  5
267
330
1F
100
AcDbEntity
  8
FORMAT
100
AcDbBlockReference
  2
SW_CENTERMARKSYMBOL_5
 10
67.2738765606
 20
346.4765016268
 30
0.0
  0
INSERT
  5
273
330
1F
100
AcDbEntity
  8
FORMAT
100
AcDbBlockReference
  2
SW_CENTERMARKSYMBOL_6
 10
102.2738765606
 20
190.4765016268
 30
0.0
  0
INSERT
  5
27F
330
1F
100
AcDbEntity
  8
FORMAT
100
AcDbBlockReference
  2
SW_CENTERMARKSYMBOL_7
 10
102.2738765606
 20
346.4765016268
 30
0.0
  0
INSERT
  5
28B
330
1F
100
AcDbEntity
  8
FORMAT
100
AcDbBlockReference
  2
SW_CENTERMARKSYMBOL_8
 10
75.2738765606
 20
268.4765016268
 30
0.0
  0
INSERT
  5
297
330
1F
100
AcDbEntity
  8
FORMAT
100
AcDbBlockReference
  2
SW_CENTERMARKSYMBOL_9
 10
105.2738765606
 20
240.4765016268
 30
0.0
  0
INSERT
  5
2A3
330
1F
100
AcDbEntity
  8
FORMAT
100
AcDbBlockReference
  2
SW_CENTERMARKSYMBOL_10
 10
102.2738765606
 20
282.4765016268
 30
0.0
  0
INSERT
  5
2AF
330
1F
100
AcDbEntity
  8
FORMAT
100
AcDbBlockReference
  2
SW_CENTERMARKSYMBOL_11
 10
102.2738765606
 20
254.4765016268
 30
0.0
  0
INSERT
  5
2BB
330
1F
100
AcDbEntity
  8
FORMAT
100
AcDbBlockReference
  2
SW_CENTERMARKSYMBOL_12
 10
105.2738765606
 20
268.4765016268
 30
0.0
  0
INSERT
  5
2C7
330
1F
100
AcDbEntity
  8
FORMAT
100
AcDbBlockReference
  2
SW_CENTERMARKSYMBOL_13
 10
105.2738765606
 20
296.4765016268
 30
0.0
  0
INSERT
  5
2D3
330
1F
100
AcDbEntity
  8
FORMAT
100
AcDbBlockReference
  2
SW_CENTERMARKSYMBOL_14
 10
109.4196795246
 20
187.4765016268
 30
0.0
  0
INSERT
  5
2DF
330
1F
100
AcDbEntity
  8
FORMAT
100
AcDbBlockReference
  2
SW_CENTERMARKSYMBOL_15
 10
95.1280735966
 20
187.4765016268
 30
0.0
  0
INSERT
  5
2EB
330
1F
100
AcDbEntity
  8
FORMAT
100
AcDbBlockReference
  2
SW_CENTERMARKSYMBOL_16
 10
95.1280735966
 20
349.4765016268
 30
0.0
  0
INSERT
  5
2F7
330
1F
100
AcDbEntity
  8
FORMAT
100
AcDbBlockReference
  2
SW_CENTERMARKSYMBOL_17
 10
109.4196795246
 20
349.4765016268
 30
0.0
  0
INSERT
  5
303
330
1F
100
AcDbEntity
  8
FORMAT
100
AcDbBlockReference
  2
SW_CENTERMARKSYMBOL_18
 10
102.2738765606
 20
212.4765016268
 30
0.0
  0
INSERT
  5
30F
330
1F
100
AcDbEntity
  8
FORMAT
100
AcDbBlockReference
  2
SW_CENTERMARKSYMBOL_19
 10
102.2738765606
 20
324.4765016268
 30
0.0
  0
INSERT
  5
31B
330
1F
100
AcDbEntity
  8
FORMAT
100
AcDbBlockReference
  2
SW_CENTERMARKSYMBOL_20
 10
102.2738765606
 20
190.4765016268
 30
0.0
  0
INSERT
  5
327
330
1F
100
AcDbEntity
  8
FORMAT
100
AcDbBlockReference
  2
SW_CENTERMARKSYMBOL_21
 10
102.2738765606
 20
346.4765016268
 30
0.0
  0
INSERT
  5
333
330
1F
100
AcDbEntity
  8
FORMAT
100
AcDbBlockReference
  2
SW_CENTERMARKSYMBOL_22
 10
102.2738765606
 20
254.4765016268
 30
0.0
  0
INSERT
  5
33F
330
1F
100
AcDbEntity
  8
FORMAT
100
AcDbBlockReference
  2
SW_CENTERMARKSYMBOL_23
 10
102.2738765606
 20
282.4765016268
 30
0.0
  0
INSERT
  5
34B
330
1F
100
AcDbEntity
  8
FORMAT
100
AcDbBlockReference
  2
SW_CENTERMARKSYMBOL_24
 10
109.4196795246
 20
187.4765016268
 30
0.0
  0
INSERT
  5
357
330
1F
100
AcDbEntity
  8
FORMAT
100
AcDbBlockReference
  2
SW_CENTERMARKSYMBOL_25
 10
95.1280735966
 20
187.4765016268
 30
0.0
  0
INSERT
  5
363
330
1F
100
AcDbEntity
  8
FORMAT
100
AcDbBlockReference
  2
SW_CENTERMARKSYMBOL_26
 10
95.1280735966
 20
349.4765016268
 30
0.0
  0
INSERT
  5
36F
330
1F
100
AcDbEntity
  8
FORMAT
100
AcDbBlockReference
  2
SW_CENTERMARKSYMBOL_27
 10
109.4196795246
 20
349.4765016268
 30
0.0
  0
INSERT
  5
37B
330
1F
100
AcDbEntity
  8
FORMAT
100
AcDbBlockReference
  2
SW_CENTERMARKSYMBOL_28
 10
105.2738765606
 20
240.4765016268
 30
0.0
  0
INSERT
  5
387
330
1F
100
AcDbEntity
  8
FORMAT
100
AcDbBlockReference
  2
SW_CENTERMARKSYMBOL_29
 10
105.2738765606
 20
268.4765016268
 30
0.0
  0
INSERT
  5
393
330
1F
100
AcDbEntity
  8
FORMAT
100
AcDbBlockReference
  2
SW_CENTERMARKSYMBOL_30
 10
105.2738765606
 20
296.4765016268
 30
0.0
  0
INSERT
  5
39F
330
1F
100
AcDbEntity
  8
FORMAT
100
AcDbBlockReference
  2
SW_CENTERMARKSYMBOL_31
 10
47.2738765606
 20
204.9765016268
 30
0.0
  0
INSERT
  5
3AB
330
1F
100
AcDbEntity
  8
FORMAT
100
AcDbBlockReference
  2
SW_CENTERMARKSYMBOL_32
 10
67.2738765606
 20
190.4765016268
 30
0.0
  0
INSERT
  5
3B7
330
1F
100
AcDbEntity
  8
FORMAT
100
AcDbBlockReference
  2
SW_CENTERMARKSYMBOL_33
 10
67.2738765606
 20
230.4765016268
 30
0.0
  0
INSERT
  5
3C3
330
1F
100
AcDbEntity
  8
FORMAT
100
AcDbBlockReference
  2
SW_CENTERMARKSYMBOL_34
 10
67.2738765606
 20
306.4765016268
 30
0.0
  0
INSERT
  5
3CF
330
1F
100
AcDbEntity
  8
FORMAT
100
AcDbBlockReference
  2
SW_CENTERMARKSYMBOL_35
 10
47.2738765606
 20
331.9765016268
 30
0.0
  0
INSERT
  5
3DB
330
1F
100
AcDbEntity
  8
FORMAT
100
AcDbBlockReference
  2
SW_CENTERMARKSYMBOL_36
 10
67.2738765606
 20
346.4765016268
 30
0.0
  0
INSERT
  5
3E7
330
1F
100
AcDbEntity
  8
FORMAT
100
AcDbBlockReference
  2
SW_CENTERMARKSYMBOL_37
 10
75.2738765606
 20
268.4765016268
 30
0.0
  0
ARC
  5
3E8
330
1F
100
AcDbEntity
  8
FORMAT
100
AcDbCircle
 10
102.2738765606
 20
324.4765016268
 30
0.0
 40
7.999999999999978
100
AcDbArc
 50
75.0
 51
345.0
  0
ARC
  5
3E9
330
1F
100
AcDbEntity
  8
FORMAT
100
AcDbCircle
 10
102.2738765606
 20
212.4765016268
 30
0.0
 40
8.000000000000007
100
AcDbArc
 50
75.0
 51
345.0
  0
ARC
  5
3EA
330
1F
100
AcDbEntity
  8
FORMAT
100
AcDbCircle
 10
102.2738765606
 20
324.4765016268
 30
0.0
 40
7.999999999999978
100
AcDbArc
 50
75.0
 51
345.0
  0
ARC
  5
3EB
330
1F
100
AcDbEntity
  8
FORMAT
100
AcDbCircle
 10
102.2738765606
 20
212.4765016268
 30
0.0
 40
8.000000000000007
100
AcDbArc
 50
75.0
 51
345.0
  0
ARC
  5
3EC
330
1F
100
AcDbEntity
  8
FORMAT
100
AcDbCircle
 10
102.2738765606
 20
324.4765016268
 30
0.0
 40
7.999999999999978
100
AcDbArc
 50
75.0
 51
345.0
  0
ARC
  5
3ED
330
1F
100
AcDbEntity
  8
FORMAT
100
AcDbCircle
 10
102.2738765606
 20
212.4765016268
 30
0.0
 40
8.000000000000007
100
AcDbArc
 50
75.0
 51
345.0
  0
ARC
  5
3EE
330
1F
100
AcDbEntity
  8
FORMAT
100
AcDbCircle
 10
102.2738765606
 20
324.4765016268
 30
0.0
 40
7.999999999999978
100
AcDbArc
 50
75.0
 51
345.0
  0
ARC
  5
3EF
330
1F
100
AcDbEntity
  8
FORMAT
100
AcDbCircle
 10
102.2738765606
 20
212.4765016268
 30
0.0
 40
8.000000000000007
100
AcDbArc
 50
75.0
 51
345.0
  0
ARC
  5
3F0
330
1F
100
AcDbEntity
  8
FORMAT
100
AcDbCircle
 10
102.2738765606
 20
324.4765016268
 30
0.0
 40
7.999999999999978
100
AcDbArc
 50
75.0
 51
345.0
  0
ARC
  5
3F1
330
1F
100
AcDbEntity
  8
FORMAT
100
AcDbCircle
 10
102.2738765606
 20
212.4765016268
 30
0.0
 40
8.000000000000007
100
AcDbArc
 50
75.0
 51
345.0
  0
ARC
  5
3F2
330
1F
100
AcDbEntity
  8
FORMAT
100
AcDbCircle
 10
102.2738765606
 20
212.4765016268
 30
0.0
 40
7.171999999999981
100
AcDbArc
 50
75.0
 51
345.0
  0
ARC
  5
3F3
330
1F
100
AcDbEntity
  8
FORMAT
100
AcDbCircle
 10
102.2738765606
 20
324.4765016268
 30
0.0
 40
7.172000000000009
100
AcDbArc
 50
75.0
 51
345.0
  0
ARC
  5
3F4
330
1F
100
AcDbEntity
  8
FORMAT
100
AcDbCircle
 10
102.2738765606
 20
190.4765016268
 30
0.0
 40
3.000000000000001
100
AcDbArc
 50
75.0
 51
345.0
  0
ARC
  5
3F5
330
1F
100
AcDbEntity
  8
FORMAT
100
AcDbCircle
 10
102.2738765606
 20
346.4765016268
 30
0.0
 40
3.000000000000011
100
AcDbArc
 50
75.0
 51
345.0
  0
LINE
  5
3F6
330
1F
100
AcDbEntity
  8
0
  6
Continuous
 62
     7
370
    25
100
AcDbLine
 10
189.9445983556
 20
357.9765016268
 30
0.0
 11
185.9445983556
 21
357.9765016268
 31
0.0
  0
LINE
  5
3F7
330
1F
100
AcDbEntity
  8
0
  6
Continuous
 62
     7
370
    25
100
AcDbLine
 10
185.9445983556
 20
339.7351033352
 30
0.0
 11
189.9445983556
 21
339.7351033352
 31
0.0
  0
LINE
  5
3F8
330
1F
100
AcDbEntity
  8
0
  6
Continuous
 62
     7
370
    25
100
AcDbLine
 10
185.9445983556
 20
178.9765016268
 30
0.0
 11
189.9445983556
 21
178.9765016268
 31
0.0
  0
LINE
  5
3F9
330
1F
100
AcDbEntity
  8
0
  6
Continuous
 62
     7
370
    25
100
AcDbLine
 10
189.9445983556
 20
197.2178999183
 30
0.0
 11
185.9445983556
 21
197.2178999183
 31
0.0
  0
LWPOLYLINE
  5
3FA
330
1F
100
AcDbEntity
  8
0
  6
Continuous
 62
     7
370
    25
100
AcDbPolyline
 90
        7
 70
   128
 43
0.0
 10
175.9445983556
 20
339.4765016268
 10
174.4722195173
 20
339.26586653
 10
173.1161712308
 20
338.5978219703
 10
172.5966163107
 20
338.1181308869
 10
172.2254451513
 20
337.5807857555
 10
172.0113768819
 20
337.022390784
 10
171.9445983556
 20
336.4765016268
  0
LWPOLYLINE
  5
3FB
330
1F
100
AcDbEntity
  8
0
  6
Continuous
 62
     7
370
    25
100
AcDbPolyline
 90
        7
 70
   128
 43
0.0
 10
171.9445983556
 20
200.4765016268
 10
172.0113768819
 20
199.9306124695
 10
172.2254451513
 20
199.3722174981
 10
172.5966163107
 20
198.8348723666
 10
173.1161712308
 20
198.3551812832
 10
174.4722195173
 20
197.6871367236
 10
175.9445983556
 20
197.4765016268
  0
LINE
  5
3FC
330
1F
100
AcDbEntity
  8
0
  6
Continuous
 62
     7
370
    25
100
AcDbLine
 10
192.9445983556
 20
358.4765016268
 30
0.0
 11
189.9445983556
 21
358.4765016268
 31
0.0
  0
LINE
  5
3FD
330
1F
100
AcDbEntity
  8
0
  6
Continuous
 62
     7
370
    25
100
AcDbLine
 10
189.9445983556
 20
178.4765016268
 30
0.0
 11
192.9445983556
 21
178.4765016268
 31
0.0
  0
ARC
  5
3FE
330
1F
100
AcDbEntity
  8
0
  6
Continuous
 62
     7
370
    25
100
AcDbCircle
 10
188.9445983556
 20
340.4765016268
 30
0.0
 40
1.000000000000001
100
AcDbArc
 50
270.0
 51
312.1493348372
  0
ARC
  5
3FF
330
1F
100
AcDbEntity
  8
0
  6
Continuous
 62
     7
370
    25
100
AcDbCircle
 10
188.9445983556
 20
196.4765016268
 30
0.0
 40
1.000000000000024
100
AcDbArc
 50
47.8506651628
 51
90.0
  0
LINE
  5
400
330
1F
100
AcDbEntity
  8
0
  6
Continuous
 62
     7
370
    25
100
AcDbLine
 10
188.9445983556
 20
339.4765016268
 30
0.0
 11
185.9445983556
 21
339.4765016268
 31
0.0
  0
LINE
  5
401
330
1F
100
AcDbEntity
  8
0
  6
Continuous
 62
     7
370
    25
100
AcDbLine
 10
181.9445983556
 20
339.4765016268
 30
0.0
 11
175.9294767064
 21
339.4765016268
 31
0.0
  0
LINE
  5
402
330
1F
100
AcDbEntity
  8
0
  6
Continuous
 62
     7
370
    25
100
AcDbLine
 10
175.9445983556
 20
197.4765016268
 30
0.0
 11
181.9445983556
 21
197.4765016268
 31
0.0
  0
LINE
  5
403
330
1F
100
AcDbEntity
  8
0
  6
Continuous
 62
     7
370
    25
100
AcDbLine
 10
185.9445983556
 20
197.4765016268
 30
0.0
 11
188.9445983556
 21
197.4765016268
 31
0.0
  0
LINE
  5
404
330
1F
100
AcDbEntity
  8
0
  6
Continuous
 62
     7
370
    25
100
AcDbLine
 10
189.4445983556
 20
263.4765016268
 30
0.0
 11
193.8445983556
 21
263.8614517463
 31
0.0
  0
LINE
  5
405
330
1F
100
AcDbEntity
  8
0
  6
Continuous
 62
     7
370
    25
100
AcDbLine
 10
193.8445983556
 20
273.0915515073
 30
0.0
 11
189.4445983556
 21
273.4765016268
 31
0.0
  0
LINE
  5
406
330
1F
100
AcDbEntity
  8
0
  6
Continuous
 62
     7
370
    25
100
AcDbLine
 10
181.4445983556
 20
265.4765016268
 30
0.0
 11
181.9445983556
 21
265.4765016268
 31
0.0
  0
LINE
  5
407
330
1F
100
AcDbEntity
  8
0
  6
Continuous
 62
     7
370
    25
100
AcDbLine
 10
181.9445983556
 20
271.4765016268
 30
0.0
 11
181.4445983556
 21
271.4765016268
 31
0.0
  0
LINE
  5
408
330
1F
100
AcDbEntity
  8
0
  6
Continuous
 62
     7
370
    25
100
AcDbLine
 10
189.4445983556
 20
235.4765016268
 30
0.0
 11
193.8445983556
 21
235.8614517463
 31
0.0
  0
LINE
  5
409
330
1F
100
AcDbEntity
  8
0
  6
Continuous
 62
     7
370
    25
100
AcDbLine
 10
193.8445983556
 20
245.0915515073
 30
0.0
 11
189.4445983556
 21
245.4765016268
 31
0.0
  0
LINE
  5
40A
330
1F
100
AcDbEntity
  8
0
  6
Continuous
 62
     7
370
    25
100
AcDbLine
 10
181.4445983556
 20
237.4765016268
 30
0.0
 11
181.9445983556
 21
237.4765016268
 31
0.0
  0
LINE
  5
40B
330
1F
100
AcDbEntity
  8
0
  6
Continuous
 62
     7
370
    25
100
AcDbLine
 10
181.9445983556
 20
243.4765016268
 30
0.0
 11
181.4445983556
 21
243.4765016268
 31
0.0
  0
LINE
  5
40C
330
1F
100
AcDbEntity
  8
0
  6
Continuous
 62
     7
370
    25
100
AcDbLine
 10
189.4445983556
 20
291.4765016268
 30
0.0
 11
193.8445983556
 21
291.8614517463
 31
0.0
  0
LINE
  5
40D
330
1F
100
AcDbEntity
  8
0
  6
Continuous
 62
     7
370
    25
100
AcDbLine
 10
193.8445983556
 20
301.0915515073
 30
0.0
 11
189.4445983556
 21
301.4765016268
 31
0.0
  0
LINE
  5
40E
330
1F
100
AcDbEntity
  8
0
  6
Continuous
 62
     7
370
    25
100
AcDbLine
 10
181.4445983556
 20
293.4765016268
 30
0.0
 11
181.9445983556
 21
293.4765016268
 31
0.0
  0
LINE
  5
40F
330
1F
100
AcDbEntity
  8
0
  6
Continuous
 62
     7
370
    25
100
AcDbLine
 10
181.9445983556
 20
299.4765016268
 30
0.0
 11
181.4445983556
 21
299.4765016268
 31
0.0
  0
LINE
  5
410
330
1F
100
AcDbEntity
  8
0
  6
Continuous
 62
     7
370
    25
100
AcDbLine
 10
176.4445983556
 20
220.4765016268
 30
0.0
 11
174.9445983556
 21
218.9765016268
 31
0.0
  0
LINE
  5
411
330
1F
100
AcDbEntity
  8
0
  6
Continuous
 62
     7
370
    25
100
AcDbLine
 10
175.0621995339
 20
205.8589004485
 30
0.0
 11
176.4445983556
 21
204.4765016268
 31
0.0
  0
LINE
  5
412
330
1F
100
AcDbEntity
  8
0
  6
Continuous
 62
     7
370
    25
100
AcDbLine
 10
191.4445983556
 20
220.4765016268
 30
0.0
 11
189.4445983556
 21
220.4765016268
 31
0.0
  0
LINE
  5
413
330
1F
100
AcDbEntity
  8
0
  6
Continuous
 62
     7
370
    25
100
AcDbLine
 10
178.3801161823
 20
220.4765016268
 30
0.0
 11
176.4445983556
 21
220.4765016268
 31
0.0
  0
LINE
  5
414
330
1F
100
AcDbEntity
  8
0
  6
Continuous
 62
     7
370
    25
100
AcDbLine
 10
176.4445983556
 20
204.4765016268
 30
0.0
 11
181.4445983556
 21
204.4765016268
 31
0.0
  0
LINE
  5
415
330
1F
100
AcDbEntity
  8
0
  6
Continuous
 62
     7
370
    25
100
AcDbLine
 10
189.4445983556
 20
204.4765016268
 30
0.0
 11
191.4445983556
 21
204.4765016268
 31
0.0
  0
LINE
  5
416
330
1F
100
AcDbEntity
  8
0
  6
Continuous
 62
     7
370
    25
100
AcDbLine
 10
191.4445983556
 20
204.4765016268
 30
0.0
 11
192.9445983556
 21
205.9765016268
 31
0.0
  0
LINE
  5
417
330
1F
100
AcDbEntity
  8
0
  6
Continuous
 62
     7
370
    25
100
AcDbLine
 10
192.9445983556
 20
218.9765016268
 30
0.0
 11
191.4445983556
 21
220.4765016268
 31
0.0
  0
LINE
  5
418
330
1F
100
AcDbEntity
  8
0
  6
Continuous
 62
     7
370
    25
100
AcDbLine
 10
196.1945983556
 20
217.4765016268
 30
0.0
 11
192.9445983556
 21
217.4765016268
 31
0.0
  0
LINE
  5
419
330
1F
100
AcDbEntity
  8
0
  6
Continuous
 62
     7
370
    25
100
AcDbLine
 10
192.9445983556
 20
207.4765016268
 30
0.0
 11
196.1945983556
 21
207.4765016268
 31
0.0
  0
LINE
  5
41A
330
1F
100
AcDbEntity
  8
0
  6
Continuous
 62
     7
370
    25
100
AcDbLine
 10
176.4445983556
 20
332.4765016268
 30
0.0
 11
174.9445983556
 21
330.9765016268
 31
0.0
  0
LINE
  5
41B
330
1F
100
AcDbEntity
  8
0
  6
Continuous
 62
     7
370
    25
100
AcDbLine
 10
174.9445983556
 20
317.9765016268
 30
0.0
 11
176.4445983556
 21
316.4765016268
 31
0.0
  0
LINE
  5
41C
330
1F
100
AcDbEntity
  8
0
  6
Continuous
 62
     7
370
    25
100
AcDbLine
 10
191.4445983556
 20
332.4765016268
 30
0.0
 11
189.4445983556
 21
332.4765016268
 31
0.0
  0
LINE
  5
41D
330
1F
100
AcDbEntity
  8
0
  6
Continuous
 62
     7
370
    25
100
AcDbLine
 10
181.4445983556
 20
332.4765016268
 30
0.0
 11
176.4445983556
 21
332.4765016268
 31
0.0
  0
LINE
  5
41E
330
1F
100
AcDbEntity
  8
0
  6
Continuous
 62
     7
370
    25
100
AcDbLine
 10
176.4445983556
 20
316.4765016268
 30
0.0
 11
178.3801161823
 21
316.4765016268
 31
0.0
  0
LINE
  5
41F
330
1F
100
AcDbEntity
  8
0
  6
Continuous
 62
     7
370
    25
100
AcDbLine
 10
189.4445983556
 20
316.4765016268
 30
0.0
 11
191.4445983556
 21
316.4765016268
 31
0.0
  0
LINE
  5
420
330
1F
100
AcDbEntity
  8
0
  6
Continuous
 62
     7
370
    25
100
AcDbLine
 10
191.4445983556
 20
316.4765016268
 30
0.0
 11
192.9445983556
 21
317.9765016268
 31
0.0
  0
LINE
  5
421
330
1F
100
AcDbEntity
  8
0
  6
Continuous
 62
     7
370
    25
100
AcDbLine
 10
192.9445983556
 20
330.9765016268
 30
0.0
 11
191.4445983556
 21
332.4765016268
 31
0.0
  0
LINE
  5
422
330
1F
100
AcDbEntity
  8
0
  6
Continuous
 62
     7
370
    25
100
AcDbLine
 10
196.1945983556
 20
329.4765016268
 30
0.0
 11
192.9445983556
 21
329.4765016268
 31
0.0
  0
LINE
  5
423
330
1F
100
AcDbEntity
  8
0
  6
Continuous
 62
     7
370
    25
100
AcDbLine
 10
192.9445983556
 20
319.4765016268
 30
0.0
 11
196.1945983556
 21
319.4765016268
 31
0.0
  0
LINE
  5
424
330
1F
100
AcDbEntity
  8
0
  6
Continuous
 62
     7
370
    25
100
AcDbLine
 10
185.9445983556
 20
273.9765016268
 30
0.0
 11
185.9445983556
 21
356.4765016268
 31
0.0
  0
LINE
  5
425
330
1F
100
AcDbEntity
  8
0
  6
Continuous
 62
     7
370
    25
100
AcDbLine
 10
181.9445983556
 20
273.9765016268
 30
0.0
 11
185.9445983556
 21
273.9765016268
 31
0.0
  0
LINE
  5
426
330
1F
100
AcDbEntity
  8
0
  6
Continuous
 62
     7
370
    25
100
AcDbLine
 10
181.9445983556
 20
273.9765016268
 30
0.0
 11
181.9445983556
 21
356.4765016268
 31
0.0
  0
LINE
  5
427
330
1F
100
AcDbEntity
  8
0
  6
Continuous
 62
     7
370
    25
100
AcDbLine
 10
185.9445983556
 20
356.4765016268
 30
0.0
 11
181.9445983556
 21
356.4765016268
 31
0.0
  0
LINE
  5
428
330
1F
100
AcDbEntity
  8
0
  6
Continuous
 62
     7
370
    25
100
AcDbLine
 10
185.9445983556
 20
180.4765016268
 30
0.0
 11
181.9445983556
 21
180.4765016268
 31
0.0
  0
LINE
  5
429
330
1F
100
AcDbEntity
  8
0
  6
Continuous
 62
     7
370
    25
100
AcDbLine
 10
181.9445983556
 20
262.9765016268
 30
0.0
 11
185.9445983556
 21
262.9765016268
 31
0.0
  0
LINE
  5
42A
330
1F
100
AcDbEntity
  8
0
  6
Continuous
 62
     7
370
    25
100
AcDbLine
 10
185.9445983556
 20
180.4765016268
 30
0.0
 11
185.9445983556
 21
262.9765016268
 31
0.0
  0
LINE
  5
42B
330
1F
100
AcDbEntity
  8
0
  6
Continuous
 62
     7
370
    25
100
AcDbLine
 10
181.9445983556
 20
180.4765016268
 30
0.0
 11
181.9445983556
 21
262.9765016268
 31
0.0
  0
LINE
  5
42C
330
1F
100
AcDbEntity
  8
0
  6
Continuous
 62
     7
370
    25
100
AcDbLine
 10
185.9445983556
 20
273.9765016268
 30
0.0
 11
185.9445983556
 21
262.9765016268
 31
0.0
  0
LINE
  5
42D
330
1F
100
AcDbEntity
  8
0
  6
Continuous
 62
     7
370
    25
100
AcDbLine
 10
181.9445983556
 20
273.9765016268
 30
0.0
 11
181.9445983556
 21
262.9765016268
 31
0.0
  0
LINE
  5
42E
330
1F
100
AcDbEntity
  8
0
  6
Continuous
 62
     7
370
    25
100
AcDbLine
 10
185.9445983556
 20
356.4765016268
 30
0.0
 11
185.9445983556
 21
357.9765016268
 31
0.0
  0
LINE
  5
42F
330
1F
100
AcDbEntity
  8
0
  6
Continuous
 62
     7
370
    25
100
AcDbLine
 10
185.9445983556
 20
180.4765016268
 30
0.0
 11
185.9445983556
 21
178.9765016268
 31
0.0
  0
LINE
  5
430
330
1F
100
AcDbEntity
  8
0
  6
Continuous
 62
     7
370
    25
100
AcDbLine
 10
171.9445983556
 20
336.4765016268
 30
0.0
 11
171.9445983556
 21
327.4727806056
 31
0.0
  0
LWPOLYLINE
  5
431
330
1F
100
AcDbEntity
  8
0
  6
Continuous
 62
     7
370
    25
100
AcDbPolyline
 90
       10
 70
   128
 43
0.0
 10
171.9445984559
 20
327.4727806007
 10
171.945664359
 20
328.5721443439
 10
171.956839032
 20
329.5354433296
 10
172.0000633388
 20
330.508278837
 10
172.1096149958
 20
331.4840907363
 10
172.32857518
 20
332.4476277977
 10
172.8589945245
 20
333.6417421385
 10
173.6366134314
 20
334.5550118917
 10
174.7126541518
 20
335.1915130622
 10
175.9445983553
 20
335.4137231202
  0
LINE
  5
432
330
1F
100
AcDbEntity
  8
0
  6
Continuous
 62
     7
370
    25
100
AcDbLine
 10
171.9445983556
 20
200.4765016268
 30
0.0
 11
171.9445983556
 21
209.4802226479
 31
0.0
  0
LWPOLYLINE
  5
433
330
1F
100
AcDbEntity
  8
0
  6
Continuous
 62
     7
370
    25
100
AcDbPolyline
 90
       10
 70
   128
 43
0.0
 10
171.9445984559
 20
209.4802226479
 10
171.9456604442
 20
208.3820088604
 10
171.9567876699
 20
207.4198327988
 10
171.9998044619
 20
206.4483201886
 10
172.1088900018
 20
205.4733826053
 10
172.3273893649
 20
204.5092700755
 10
172.8568403904
 20
203.3147619037
 10
173.6336937598
 20
202.4004978022
 10
174.7099739036
 20
201.7624912681
 10
175.9445983556
 20
201.5392801334
  0
LINE
  5
434
330
1F
100
AcDbEntity
  8
0
  6
Continuous
 62
     7
370
    25
100
AcDbLine
 10
189.9445983556
 20
348.0224641102
 30
0.0
 11
192.9445983556
 21
348.0224641102
 31
0.0
  0
LINE
  5
435
330
1F
100
AcDbEntity
  8
0
  6
Continuous
 62
     7
370
    25
100
AcDbLine
 10
189.9445983556
 20
358.4765016268
 30
0.0
 11
189.9445983556
 21
348.0224641102
 31
0.0
  0
LINE
  5
436
330
1F
100
AcDbEntity
  8
0
  6
Continuous
 62
     7
370
    25
100
AcDbLine
 10
192.9445983556
 20
358.4765016268
 30
0.0
 11
192.9445983556
 21
348.0224641102
 31
0.0
  0
LINE
  5
437
330
1F
100
AcDbEntity
  8
0
  6
Continuous
 62
     7
370
    25
100
AcDbLine
 10
189.9445983556
 20
339.3765016268
 30
0.0
 11
192.9445983556
 21
339.3765016268
 31
0.0
  0
LINE
  5
438
330
1F
100
AcDbEntity
  8
0
  6
Continuous
 62
     7
370
    25
100
AcDbLine
 10
192.9445983556
 20
339.3765016268
 30
0.0
 11
192.9445983556
 21
348.0224641102
 31
0.0
  0
LINE
  5
439
330
1F
100
AcDbEntity
  8
0
  6
Continuous
 62
     7
370
    25
100
AcDbLine
 10
189.9445983556
 20
339.3765016268
 30
0.0
 11
189.9445983556
 21
348.0224641102
 31
0.0
  0
LINE
  5
43A
330
1F
100
AcDbEntity
  8
0
  6
Continuous
 62
     7
370
    25
100
AcDbLine
 10
171.9445983556
 20
326.4765016268
 30
0.0
 11
174.9445983556
 21
326.4765016268
 31
0.0
  0
LINE
  5
43B
330
1F
100
AcDbEntity
  8
0
  6
Continuous
 62
     7
370
    25
100
AcDbLine
 10
174.9445983556
 20
323.5765016268
 30
0.0
 11
171.9445983556
 21
323.5765016268
 31
0.0
  0
LINE
  5
43C
330
1F
100
AcDbEntity
  8
0
  6
Continuous
 62
     7
370
    25
100
AcDbLine
 10
174.9445983556
 20
326.4765016268
 30
0.0
 11
174.9445983556
 21
323.5765016268
 31
0.0
  0
LINE
  5
43D
330
1F
100
AcDbEntity
  8
0
  6
Continuous
 62
     7
370
    25
100
AcDbLine
 10
171.9445983556
 20
323.5765016268
 30
0.0
 11
171.9445983556
 21
326.4765016268
 31
0.0
  0
LINE
  5
43E
330
1F
100
AcDbEntity
  8
0
  6
Continuous
 62
     7
370
    25
100
AcDbLine
 10
171.9445983556
 20
213.3765016268
 30
0.0
 11
174.9445983556
 21
213.3765016268
 31
0.0
  0
LINE
  5
43F
330
1F
100
AcDbEntity
  8
0
  6
Continuous
 62
     7
370
    25
100
AcDbLine
 10
174.9445983556
 20
213.3765016268
 30
0.0
 11
174.9445983556
 21
323.5765016268
 31
0.0
  0
LINE
  5
440
330
1F
100
AcDbEntity
  8
0
  6
Continuous
 62
     7
370
    25
100
AcDbLine
 10
171.9445983556
 20
323.5765016268
 30
0.0
 11
171.9445983556
 21
213.3765016268
 31
0.0
  0
LINE
  5
441
330
1F
100
AcDbEntity
  8
0
  6
Continuous
 62
     7
370
    25
100
AcDbLine
 10
192.7912097767
 20
336.4765016268
 30
0.0
 11
192.9445983556
 21
337.2617736218
 31
0.0
  0
LINE
  5
442
330
1F
100
AcDbEntity
  8
0
  6
Continuous
 62
     7
370
    25
100
AcDbLine
 10
189.9068735737
 20
336.4765016268
 30
0.0
 11
192.7912097767
 21
336.4765016268
 31
0.0
  0
ARC
  5
443
330
1F
100
AcDbEntity
  8
0
  6
Continuous
 62
     7
370
    25
100
AcDbCircle
 10
189.4277951213
 20
336.6703353419
 30
0.0
 40
0.5168052560070068
100
AcDbArc
 50
337.9718907539
 51
359.839737358
  0
LINE
  5
444
330
1F
100
AcDbEntity
  8
0
  6
Continuous
 62
     7
370
    25
100
AcDbLine
 10
192.9445983556
 20
339.3765016268
 30
0.0
 11
192.9445983556
 21
337.2617736218
 31
0.0
  0
LINE
  5
445
330
1F
100
AcDbEntity
  8
0
  6
Continuous
 62
     7
370
    25
100
AcDbLine
 10
189.9445983556
 20
339.3765016268
 30
0.0
 11
189.9445983556
 21
336.6688897822
 31
0.0
  0
LINE
  5
446
330
1F
100
AcDbEntity
  8
0
  6
Continuous
 62
     7
370
    25
100
AcDbLine
 10
171.9445983556
 20
210.4765016268
 30
0.0
 11
174.9445983556
 21
210.4765016268
 31
0.0
  0
LINE
  5
447
330
1F
100
AcDbEntity
  8
0
  6
Continuous
 62
     7
370
    25
100
AcDbLine
 10
174.9445983556
 20
213.3765016268
 30
0.0
 11
174.9445983556
 21
210.4765016268
 31
0.0
  0
LINE
  5
448
330
1F
100
AcDbEntity
  8
0
  6
Continuous
 62
     7
370
    25
100
AcDbLine
 10
171.9445983556
 20
210.4765016268
 30
0.0
 11
171.9445983556
 21
213.3765016268
 31
0.0
  0
LINE
  5
449
330
1F
100
AcDbEntity
  8
0
  6
Continuous
 62
     7
370
    25
100
AcDbLine
 10
189.9445983556
 20
197.5765016268
 30
0.0
 11
189.9445983556
 21
200.2841134714
 31
0.0
  0
ARC
  5
44A
330
1F
100
AcDbEntity
  8
0
  6
Continuous
 62
     7
370
    25
100
AcDbCircle
 10
189.4277951213
 20
200.2826679117
 30
0.0
 40
0.5168052560047253
100
AcDbArc
 50
0.160262642
 51
22.0281092461
  0
LINE
  5
44B
330
1F
100
AcDbEntity
  8
0
  6
Continuous
 62
     7
370
    25
100
AcDbLine
 10
189.9068735737
 20
200.4765016268
 30
0.0
 11
192.7912097767
 21
200.4765016268
 31
0.0
  0
LWPOLYLINE
  5
44C
330
1F
100
AcDbEntity
  8
0
  6
Continuous
 62
     7
370
    25
100
AcDbPolyline
 90
        3
 70
   128
 43
0.0
 10
192.9445983556
 20
199.6912296317
 10
192.9131575637
 20
200.04934189
 10
192.7912097767
 20
200.4765016268
  0
LINE
  5
44D
330
1F
100
AcDbEntity
  8
0
  6
Continuous
 62
     7
370
    25
100
AcDbLine
 10
192.9445983556
 20
197.5765016268
 30
0.0
 11
192.9445983556
 21
199.6912296317
 31
0.0
  0
LINE
  5
44E
330
1F
100
AcDbEntity
  8
0
  6
Continuous
 62
     7
370
    25
100
AcDbLine
 10
192.9445983556
 20
197.5765016268
 30
0.0
 11
189.9445983556
 21
197.5765016268
 31
0.0
  0
LINE
  5
44F
330
1F
100
AcDbEntity
  8
0
  6
Continuous
 62
     7
370
    25
100
AcDbLine
 10
192.9445983556
 20
197.5765016268
 30
0.0
 11
192.9445983556
 21
188.9305391434
 31
0.0
  0
LINE
  5
450
330
1F
100
AcDbEntity
  8
0
  6
Continuous
 62
     7
370
    25
100
AcDbLine
 10
192.9445983556
 20
188.9305391434
 30
0.0
 11
189.9445983556
 21
188.9305391434
 31
0.0
  0
LINE
  5
451
330
1F
100
AcDbEntity
  8
0
  6
Continuous
 62
     7
370
    25
100
AcDbLine
 10
189.9445983556
 20
197.5765016268
 30
0.0
 11
189.9445983556
 21
188.9305391434
 31
0.0
  0
LINE
  5
452
330
1F
100
AcDbEntity
  8
0
  6
Continuous
 62
     7
370
    25
100
AcDbLine
 10
192.9445983556
 20
188.9305391434
 30
0.0
 11
192.9445983556
 21
178.4765016268
 31
0.0
  0
LINE
  5
453
330
1F
100
AcDbEntity
  8
0
  6
Continuous
 62
     7
370
    25
100
AcDbLine
 10
189.9445983556
 20
188.9305391434
 30
0.0
 11
189.9445983556
 21
178.4765016268
 31
0.0
  0
ARC
  5
454
330
1F
100
AcDbEntity
  8
0
  6
Continuous
 62
     7
370
    25
100
AcDbCircle
 10
188.4373266982
 20
337.0079422211
 30
0.0
 40
4.386197324130125
100
AcDbArc
 50
276.641258663
 51
353.0408283373
  0
ARC
  5
455
330
1F
100
AcDbEntity
  8
0
  6
Continuous
 62
     7
370
    25
100
AcDbCircle
 10
188.4588854693
 20
199.9667397583
 30
0.0
 40
4.362211717333958
100
AcDbArc
 50
6.710836753
 51
83.6070762409
  0
LWPOLYLINE
  5
456
330
1F
100
AcDbEntity
  8
0
  6
Continuous
 62
     7
370
    25
100
AcDbPolyline
 90
        7
 70
   128
 43
0.0
 10
188.9445983556
 20
335.41375556
 10
188.9504056861
 20
335.4137810539
 10
189.0231842797
 20
335.4184304421
 10
189.2849339367
 20
335.5037219793
 10
189.5025608108
 20
335.6687026056
 10
189.7535803813
 20
336.0241258706
 10
189.9068735737
 20
336.4765016268
  0
ARC
  5
457
330
1F
100
AcDbEntity
  8
0
  6
Continuous
 62
     7
370
    25
100
AcDbCircle
 10
188.7488171441
 20
200.3949510033
 30
0.0
 40
1.160924286165427
100
AcDbArc
 50
4.0281333902
 51
80.291097602
  0
LINE
  5
458
330
1F
100
AcDbEntity
  8
0
  6
Continuous
 62
     7
370
    25
100
AcDbLine
 10
188.9445983556
 20
335.41375556
 30
0.0
 11
185.9445983556
 21
335.41375556
 31
0.0
  0
LINE
  5
459
330
1F
100
AcDbEntity
  8
0
  6
Continuous
 62
     7
370
    25
100
AcDbLine
 10
181.9445983556
 20
335.41375556
 30
0.0
 11
175.9445983556
 21
335.41375556
 31
0.0
  0
LINE
  5
45A
330
1F
100
AcDbEntity
  8
0
  6
Continuous
 62
     7
370
    25
100
AcDbLine
 10
188.9446011556
 20
332.6511774132
 30
0.0
 11
185.9445983556
 21
332.6511774132
 31
0.0
  0
LINE
  5
45B
330
1F
100
AcDbEntity
  8
0
  6
Continuous
 62
     7
370
    25
100
AcDbLine
 10
181.9445983556
 20
332.6511774132
 30
0.0
 11
175.9445983556
 21
332.6511774132
 31
0.0
  0
LWPOLYLINE
  5
45C
330
1F
100
AcDbEntity
  8
0
  6
Continuous
 62
     7
370
    25
100
AcDbPolyline
 90
        7
 70
   128
 43
0.0
 10
175.9445983556
 20
332.6511774132
 10
175.8597508629
 20
332.6459803738
 10
175.6337611587
 20
332.5796425149
 10
175.4279816949
 20
332.4426751342
 10
175.1869753634
 20
332.1427696347
 10
174.9925826164
 20
331.6173650993
 10
174.9445983556
 20
331.1354121584
  0
LINE
  5
45D
330
1F
100
AcDbEntity
  8
0
  6
Continuous
 62
     7
370
    25
100
AcDbLine
 10
174.9445983556
 20
331.1354121584
 30
0.0
 11
174.9445983556
 21
326.4765016268
 31
0.0
  0
LINE
  5
45E
330
1F
100
AcDbEntity
  8
0
  6
Continuous
 62
     7
370
    25
100
AcDbLine
 10
171.9445983556
 20
326.4765016268
 30
0.0
 11
171.9445983556
 21
327.4727806056
 31
0.0
  0
LWPOLYLINE
  5
45F
330
1F
100
AcDbEntity
  8
0
  6
Continuous
 62
     7
370
    25
100
AcDbPolyline
 90
        7
 70
   128
 43
0.0
 10
174.9445983556
 20
205.8175910951
 10
175.0424012353
 20
205.1434631759
 10
175.2337260453
 20
204.7350790752
 10
175.4729529154
 20
204.4730504966
 10
175.7099574203
 20
204.3421034314
 10
175.911354013
 20
204.3026223529
 10
175.9445983556
 20
204.3018258403
  0
LINE
  5
460
330
1F
100
AcDbEntity
  8
0
  6
Continuous
 62
     7
370
    25
100
AcDbLine
 10
175.9445983556
 20
204.3018258403
 30
0.0
 11
181.9445983556
 21
204.3018258403
 31
0.0
  0
LINE
  5
461
330
1F
100
AcDbEntity
  8
0
  6
Continuous
 62
     7
370
    25
100
AcDbLine
 10
185.9445983556
 20
204.3018258403
 30
0.0
 11
188.944601156
 21
204.3018258403
 31
0.0
  0
LINE
  5
462
330
1F
100
AcDbEntity
  8
0
  6
Continuous
 62
     7
370
    25
100
AcDbLine
 10
188.9445983556
 20
201.5392476936
 30
0.0
 11
185.9445983556
 21
201.5392476936
 31
0.0
  0
LINE
  5
463
330
1F
100
AcDbEntity
  8
0
  6
Continuous
 62
     7
370
    25
100
AcDbLine
 10
181.9445983556
 20
201.5392476936
 30
0.0
 11
175.9445983556
 21
201.5392476936
 31
0.0
  0
LINE
  5
464
330
1F
100
AcDbEntity
  8
0
  6
Continuous
 62
     7
370
    25
100
AcDbLine
 10
174.9445983556
 20
210.4765016268
 30
0.0
 11
174.9445983556
 21
205.8175910951
 31
0.0
  0
LINE
  5
465
330
1F
100
AcDbEntity
  8
0
  6
Continuous
 62
     7
370
    25
100
AcDbLine
 10
171.9445983556
 20
209.4802226479
 30
0.0
 11
171.9445983556
 21
210.4765016268
 31
0.0
  0
LINE
  5
466
330
1F
100
AcDbEntity
  8
0
  6
Continuous
 62
     7
370
    25
100
AcDbLine
 10
193.8445983556
 20
273.0635221349
 30
0.0
 11
193.8445983556
 21
273.0915515073
 31
0.0
  0
LINE
  5
467
330
1F
100
AcDbEntity
  8
0
  6
Continuous
 62
     7
370
    25
100
AcDbLine
 10
193.8445983556
 20
263.8614517463
 30
0.0
 11
193.8445983556
 21
273.0635221349
 31
0.0
  0
LINE
  5
468
330
1F
100
AcDbEntity
  8
0
  6
Continuous
 62
     7
370
    25
100
AcDbLine
 10
193.8445983556
 20
235.8614517463
 30
0.0
 11
193.8445983556
 21
245.0915515073
 31
0.0
  0
LINE
  5
469
330
1F
100
AcDbEntity
  8
0
  6
Continuous
 62
     7
370
    25
100
AcDbLine
 10
193.8445983556
 20
301.021897981
 30
0.0
 11
193.8445983556
 21
301.0915515073
 31
0.0
  0
LINE
  5
46A
330
1F
100
AcDbEntity
  8
0
  6
Continuous
 62
     7
370
    25
100
AcDbLine
 10
193.8445983556
 20
291.8614517463
 30
0.0
 11
193.8445983556
 21
301.021897981
 31
0.0
  0
LINE
  5
46B
330
1F
100
AcDbEntity
  8
0
  6
Continuous
 62
     7
370
    25
100
AcDbLine
 10
176.4445983556
 20
217.3551120007
 30
0.0
 11
176.4445983556
 21
204.4765016268
 31
0.0
  0
LINE
  5
46C
330
1F
100
AcDbEntity
  8
0
  6
Continuous
 62
     7
370
    25
100
AcDbLine
 10
176.4445983556
 20
220.4765016268
 30
0.0
 11
176.4445983556
 21
217.3551120007
 31
0.0
  0
LINE
  5
46D
330
1F
100
AcDbEntity
  8
0
  6
Continuous
 62
     7
370
    25
100
AcDbLine
 10
191.4445983556
 20
217.3551120007
 30
0.0
 11
191.4445983556
 21
204.4765016268
 31
0.0
  0
LINE
  5
46E
330
1F
100
AcDbEntity
  8
0
  6
Continuous
 62
     7
370
    25
100
AcDbLine
 10
191.4445983556
 20
220.4765016268
 30
0.0
 11
191.4445983556
 21
217.3551120007
 31
0.0
  0
LINE
  5
46F
330
1F
100
AcDbEntity
  8
0
  6
Continuous
 62
     7
370
    25
100
AcDbLine
 10
192.9445983556
 20
216.4403725556
 30
0.0
 11
192.9445983556
 21
205.9765016268
 31
0.0
  0
LINE
  5
470
330
1F
100
AcDbEntity
  8
0
  6
Continuous
 62
     7
370
    25
100
AcDbLine
 10
192.9445983556
 20
218.9765016268
 30
0.0
 11
192.9445983556
 21
216.4403725556
 31
0.0
  0
LINE
  5
471
330
1F
100
AcDbEntity
  8
0
  6
Continuous
 62
     7
370
    25
100
AcDbLine
 10
196.1945983556
 20
215.5256331105
 30
0.0
 11
196.1945983556
 21
207.4765016268
 31
0.0
  0
LINE
  5
472
330
1F
100
AcDbEntity
  8
0
  6
Continuous
 62
     7
370
    25
100
AcDbLine
 10
196.1945983556
 20
217.4765016268
 30
0.0
 11
196.1945983556
 21
215.5256331105
 31
0.0
  0
LINE
  5
473
330
1F
100
AcDbEntity
  8
0
  6
Continuous
 62
     7
370
    25
100
AcDbLine
 10
176.4445983556
 20
319.6154603457
 30
0.0
 11
176.4445983556
 21
316.4765016268
 31
0.0
  0
LINE
  5
474
330
1F
100
AcDbEntity
  8
0
  6
Continuous
 62
     7
370
    25
100
AcDbLine
 10
176.4445983556
 20
332.4765016268
 30
0.0
 11
176.4445983556
 21
319.6154603457
 31
0.0
  0
LINE
  5
475
330
1F
100
AcDbEntity
  8
0
  6
Continuous
 62
     7
370
    25
100
AcDbLine
 10
191.4445983556
 20
319.6154603457
 30
0.0
 11
191.4445983556
 21
316.4765016268
 31
0.0
  0
LINE
  5
476
330
1F
100
AcDbEntity
  8
0
  6
Continuous
 62
     7
370
    25
100
AcDbLine
 10
191.4445983556
 20
332.4765016268
 30
0.0
 11
191.4445983556
 21
319.6154603457
 31
0.0
  0
LINE
  5
477
330
1F
100
AcDbEntity
  8
0
  6
Continuous
 62
     7
370
    25
100
AcDbLine
 10
192.9445983556
 20
320.5269055859
 30
0.0
 11
192.9445983556
 21
317.9765016268
 31
0.0
  0
LINE
  5
478
330
1F
100
AcDbEntity
  8
0
  6
Continuous
 62
     7
370
    25
100
AcDbLine
 10
192.9445983556
 20
330.9765016268
 30
0.0
 11
192.9445983556
 21
320.5269055859
 31
0.0
  0
LINE
  5
479
330
1F
100
AcDbEntity
  8
0
  6
Continuous
 62
     7
370
    25
100
AcDbLine
 10
196.1945983556
 20
321.4383508261
 30
0.0
 11
196.1945983556
 21
319.4765016268
 31
0.0
  0
LINE
  5
47A
330
1F
100
AcDbEntity
  8
0
  6
Continuous
 62
     7
370
    25
100
AcDbLine
 10
196.1945983556
 20
329.4765016268
 30
0.0
 11
196.1945983556
 21
321.4383508261
 31
0.0
  0
LINE
  5
47B
330
1F
100
AcDbEntity
  8
0
  6
Continuous
 62
     7
370
    25
100
AcDbLine
 10
181.688405509
 20
314.2506511249
 30
0.0
 11
178.6636341228
 21
316.8680464067
 31
0.0
  0
LINE
  5
47C
330
1F
100
AcDbEntity
  8
0
  6
Continuous
 62
     7
370
    25
100
AcDbLine
 10
181.5869493658
 20
314.1105378637
 30
0.0
 11
181.688405509
 21
314.2506511249
 31
0.0
  0
LINE
  5
47D
330
1F
100
AcDbEntity
  8
0
  6
Continuous
 62
     7
370
    25
100
AcDbLine
 10
181.5869493658
 20
314.1105378637
 30
0.0
 11
178.1563534068
 21
316.1674801006
 31
0.0
  0
LINE
  5
47E
330
1F
100
AcDbEntity
  8
0
  6
Continuous
 62
     7
370
    25
100
AcDbLine
 10
178.1563534068
 20
316.1674801006
 30
0.0
 11
178.6636341228
 21
316.8680464067
 31
0.0
  0
ARC
  5
47F
330
1F
100
AcDbEntity
  8
0
  6
Continuous
 62
     7
370
    25
100
AcDbCircle
 10
182.4445983556
 20
313.5963023044
 30
0.0
 40
1.000000000000039
100
AcDbArc
 50
138.3664606634
 51
139.1297075021
  0
ARC
  5
480
330
1F
100
AcDbEntity
  8
0
  6
Continuous
 62
     7
370
    25
100
AcDbCircle
 10
182.4445983556
 20
313.5963023044
 30
0.0
 40
4.999999999999995
100
AcDbArc
 50
138.3664606634
 51
139.1297075021
  0
LINE
  5
481
330
1F
100
AcDbEntity
  8
0
  6
Continuous
 62
     7
370
    25
100
AcDbLine
 10
181.4619439983
 20
313.7817488307
 30
0.0
 11
177.5313265691
 21
314.5235349356
 31
0.0
  0
LINE
  5
482
330
1F
100
AcDbEntity
  8
0
  6
Continuous
 62
     7
370
    25
100
AcDbLine
 10
181.4446870811
 20
313.6096230808
 30
0.0
 11
181.4619439983
 21
313.7817488307
 31
0.0
  0
LINE
  5
483
330
1F
100
AcDbEntity
  8
0
  6
Continuous
 62
     7
370
    25
100
AcDbLine
 10
181.4446870811
 20
313.6096230808
 30
0.0
 11
177.445041983
 21
313.6629061862
 31
0.0
  0
LINE
  5
484
330
1F
100
AcDbEntity
  8
0
  6
Continuous
 62
     7
370
    25
100
AcDbLine
 10
177.445041983
 20
313.6629061862
 30
0.0
 11
177.5313265691
 21
314.5235349356
 31
0.0
  0
ARC
  5
485
330
1F
100
AcDbEntity
  8
0
  6
Continuous
 62
     7
370
    25
100
AcDbCircle
 10
182.4445983556
 20
313.5963023044
 30
0.0
 40
1.000000000000005
100
AcDbArc
 50
179.2367531613
 51
180.0
  0
ARC
  5
486
330
1F
100
AcDbEntity
  8
0
  6
Continuous
 62
     7
370
    25
100
AcDbCircle
 10
182.4445983556
 20
313.5963023044
 30
0.0
 40
5.0
100
AcDbArc
 50
179.2367531613
 51
180.0
  0
LINE
  5
487
330
1F
100
AcDbEntity
  8
0
  6
Continuous
 62
     7
370
    25
100
AcDbLine
 10
177.5313265691
 20
222.429468318
 30
0.0
 11
177.445041983
 21
223.2900970673
 31
0.0
  0
LINE
  5
488
330
1F
100
AcDbEntity
  8
0
  6
Continuous
 62
     7
370
    25
100
AcDbLine
 10
181.4446870811
 20
223.3433801728
 30
0.0
 11
177.445041983
 21
223.2900970673
 31
0.0
  0
LINE
  5
489
330
1F
100
AcDbEntity
  8
0
  6
Continuous
 62
     7
370
    25
100
AcDbLine
 10
181.4619439983
 20
223.1712544229
 30
0.0
 11
181.4446870811
 21
223.3433801728
 31
0.0
  0
LINE
  5
48A
330
1F
100
AcDbEntity
  8
0
  6
Continuous
 62
     7
370
    25
100
AcDbLine
 10
181.4619439983
 20
223.1712544229
 30
0.0
 11
177.5313265691
 21
222.429468318
 31
0.0
  0
ARC
  5
48B
330
1F
100
AcDbEntity
  8
0
  6
Continuous
 62
     7
370
    25
100
AcDbCircle
 10
182.4445983556
 20
223.3567009491
 30
0.0
 40
5.0
100
AcDbArc
 50
180.0
 51
180.7632468387
  0
ARC
  5
48C
330
1F
100
AcDbEntity
  8
0
  6
Continuous
 62
     7
370
    25
100
AcDbCircle
 10
182.4445983556
 20
223.3567009491
 30
0.0
 40
1.0
100
AcDbArc
 50
180.0
 51
180.7632468387
  0
LINE
  5
48D
330
1F
100
AcDbEntity
  8
0
  6
Continuous
 62
     7
370
    25
100
AcDbLine
 10
178.6636341228
 20
220.0849568469
 30
0.0
 11
178.1563534068
 21
220.785523153
 31
0.0
  0
LINE
  5
48E
330
1F
100
AcDbEntity
  8
0
  6
Continuous
 62
     7
370
    25
100
AcDbLine
 10
181.5869493658
 20
222.8424653899
 30
0.0
 11
178.1563534068
 21
220.785523153
 31
0.0
  0
LINE
  5
48F
330
1F
100
AcDbEntity
  8
0
  6
Continuous
 62
     7
370
    25
100
AcDbLine
 10
181.688405509
 20
222.7023521287
 30
0.0
 11
181.5869493658
 21
222.8424653899
 31
0.0
  0
LINE
  5
490
330
1F
100
AcDbEntity
  8
0
  6
Continuous
 62
     7
370
    25
100
AcDbLine
 10
181.688405509
 20
222.7023521287
 30
0.0
 11
178.6636341228
 21
220.0849568469
 31
0.0
  0
ARC
  5
491
330
1F
100
AcDbEntity
  8
0
  6
Continuous
 62
     7
370
    25
100
AcDbCircle
 10
182.4445983556
 20
223.3567009491
 30
0.0
 40
0.9999999999999991
100
AcDbArc
 50
220.8702924979
 51
221.6335393366
  0
ARC
  5
492
330
1F
100
AcDbEntity
  8
0
  6
Continuous
 62
     7
370
    25
100
AcDbCircle
 10
182.4445983556
 20
223.3567009491
 30
0.0
 40
4.999999999999998
100
AcDbArc
 50
220.8702924979
 51
221.6335393366
  0
LINE
  5
493
330
1F
100
AcDbEntity
  8
0
  6
Continuous
 62
     7
370
    25
100
AcDbLine
 10
181.9445983556
 20
314.5390016268
 30
0.0
 11
181.6971890369
 21
314.2606661433
 31
0.0
  0
LINE
  5
494
330
1F
100
AcDbEntity
  8
0
  6
Continuous
 62
     7
370
    25
100
AcDbLine
 10
181.9445983556
 20
320.5597989162
 30
0.0
 11
178.7075517622
 21
316.9181214986
 31
0.0
  0
LINE
  5
495
330
1F
100
AcDbEntity
  8
0
  6
Continuous
 62
     7
370
    25
100
AcDbLine
 10
181.4445983556
 20
313.5963023044
 30
0.0
 11
181.4445983556
 21
223.3567009491
 31
0.0
  0
LINE
  5
496
330
1F
100
AcDbEntity
  8
0
  6
Continuous
 62
     7
370
    25
100
AcDbLine
 10
177.4445983556
 20
313.5963023044
 30
0.0
 11
177.4445983556
 21
223.3567009491
 31
0.0
  0
LINE
  5
497
330
1F
100
AcDbEntity
  8
0
  6
Continuous
 62
     7
370
    25
100
AcDbLine
 10
178.7075517622
 20
220.034881755
 30
0.0
 11
181.9445983556
 21
216.3932043374
 31
0.0
  0
LINE
  5
498
330
1F
100
AcDbEntity
  8
0
  6
Continuous
 62
     7
370
    25
100
AcDbLine
 10
181.6971890369
 20
222.6923371103
 30
0.0
 11
181.9445983556
 21
222.4140016268
 31
0.0
  0
ARC
  5
499
330
1F
100
AcDbEntity
  8
0
  6
Continuous
 62
     7
370
    25
100
AcDbCircle
 10
182.4445983556
 20
313.5963023044
 30
0.0
 40
1.000000000000018
100
AcDbArc
 50
149.0536276197
 51
169.3128330437
  0
ARC
  5
49A
330
1F
100
AcDbEntity
  8
0
  6
Continuous
 62
     7
370
    25
100
AcDbCircle
 10
182.4445983556
 20
313.5963023044
 30
0.0
 40
5.000000000000014
100
AcDbArc
 50
149.0536276197
 51
169.3128330437
  0
ARC
  5
49B
330
1F
100
AcDbEntity
  8
0
  6
Continuous
 62
     7
370
    25
100
AcDbCircle
 10
182.4445983556
 20
223.3567009491
 30
0.0
 40
0.9999999999999931
100
AcDbArc
 50
190.6871669563
 51
210.9463723803
  0
ARC
  5
49C
330
1F
100
AcDbEntity
  8
0
  6
Continuous
 62
     7
370
    25
100
AcDbCircle
 10
182.4445983556
 20
223.3567009491
 30
0.0
 40
5.000000000000005
100
AcDbArc
 50
190.6871669563
 51
210.9463723803
  0
LINE
  5
49D
330
1F
100
AcDbEntity
  8
0
  6
Continuous
 62
     7
370
    25
100
AcDbLine
 10
181.4445983556
 20
313.5963023044
 30
0.0
 11
181.4540290869
 21
313.7028030926
 31
0.0
  0
LINE
  5
49E
330
1F
100
AcDbEntity
  8
0
  6
Continuous
 62
     7
370
    25
100
AcDbLine
 10
181.4809703538
 20
223.1212113154
 30
0.0
 11
181.4445983556
 21
223.3567009491
 31
0.0
  0
LINE
  5
49F
330
1F
100
AcDbEntity
  8
0
  6
Continuous
 62
     7
370
    25
100
AcDbLine
 10
189.4445983556
 20
324.4765016268
 30
0.0
 11
189.4445983556
 21
332.8192008595
 31
0.0
  0
LINE
  5
4A0
330
1F
100
AcDbEntity
  8
0
  6
Continuous
 62
     7
370
    25
100
AcDbLine
 10
189.4445983556
 20
212.4765016268
 30
0.0
 11
189.4445983556
 21
324.4765016268
 31
0.0
  0
LINE
  5
4A1
330
1F
100
AcDbEntity
  8
0
  6
Continuous
 62
     7
370
    25
100
AcDbLine
 10
189.4445983556
 20
204.1542830609
 30
0.0
 11
189.4445983556
 21
212.4765016268
 31
0.0
  0
LINE
  5
4A2
330
1F
100
AcDbEntity
  8
0
  6
Continuous
 62
     7
370
    25
100
AcDbLine
 10
181.4445983556
 20
319.9972989162
 30
0.0
 11
181.4445983556
 21
332.6511774132
 31
0.0
  0
LINE
  5
4A3
330
1F
100
AcDbEntity
  8
0
  6
Continuous
 62
     7
370
    25
100
AcDbLine
 10
181.4445983556
 20
212.4765016268
 30
0.0
 11
181.4445983556
 21
216.9557043374
 31
0.0
  0
LINE
  5
4A4
330
1F
100
AcDbEntity
  8
0
  6
Continuous
 62
     7
370
    25
100
AcDbLine
 10
181.4445983556
 20
204.3018258403
 30
0.0
 11
181.4445983556
 21
212.4765016268
 31
0.0
  0
DIMENSION
  5
4A5
330
1F
100
AcDbEntity
  8
FORMAT
100
AcDbDimension
  2
_D_9
 10
181.9445983556
 20
171.7156106738
 30
0.0
 11
175.0495446845
 21
171.7156106738
 31
0.0
 70
   160
  1
<>
 71
     2
 42
-1.0
  3
SLDDIMSTYLE2
100
AcDbAlignedDimension
 13
185.9445983556
 23
180.4765016268
 33
0.0
 14
181.9445983556
 24
180.4765016268
 34
0.0
100
AcDbRotatedDimension
  0
DIMENSION
  5
4B1
330
1F
100
AcDbEntity
  8
FORMAT
100
AcDbDimension
  2
_D_10
 10
189.9445983556
 20
160.2077642294
 30
0.0
 11
180.7407550932
 21
160.2077642294
 31
0.0
 70
   160
  1
<>
 71
     2
 42
-1.0
  3
SLDDIMSTYLE2
100
AcDbAlignedDimension
 13
185.9445983556
 23
180.4765016268
 33
0.0
 14
189.9445983556
 24
178.4765016268
 34
0.0
100
AcDbRotatedDimension
  0
DIMENSION
  5
4BE
330
1F
100
AcDbEntity
  8
FORMAT
100
AcDbDimension
  2
_D_11
 10
192.9445983556
 20
150.4765016268
 30
0.0
 11
200.7496318801
 21
150.4765016268
 31
0.0
 70
   160
  1
<>
 71
     2
 42
-1.0
  3
SLDDIMSTYLE2
100
AcDbAlignedDimension
 13
189.9445983556
 23
178.9765016268
 33
0.0
 14
192.9445983556
 24
178.4765016268
 34
0.0
 50
0.0
100
AcDbRotatedDimension
  0
DIMENSION
  5
4CC
330
1F
100
AcDbEntity
  8
FORMAT
100
AcDbDimension
  2
_D_12
 10
192.9445983556
 20
368.4765016268
 30
0.0
 11
182.4445983556
 21
368.4765016268
 31
0.0
 70
   160
  1
<>
 71
     2
 42
-1.0
  3
SLDDIMSTYLE1
100
AcDbAlignedDimension
 13
171.9445983556
 23
336.4765016268
 33
0.0
 14
192.9445983556
 24
358.4765016268
 34
0.0
100
AcDbRotatedDimension
  0
MTEXT
  5
4D6
330
1F
100
AcDbEntity
  8
FORMAT
100
AcDbMText
 10
37.2101351351
 20
49.3409035969
 30
0.0
 40
3.5
 41
0.0
 71
     1
 72
     1
  1
Für größere Futterstärken sind unterschiedliche Ausgleichsscheiben (D043-30578) separat erhältlich.
  7
SLDTEXTSTYLE0
 73
     1
 44
1.0
  0
LINE
  5
4D7
330
1F
100
AcDbEntity
  8
FORMAT
100
AcDbLine
 10
175.6165983556
 20
205.3045016268
 30
0.0
 11
181.1945983556
 21
205.3045016268
 31
0.0
  0
LINE
  5
4D8
330
1F
100
AcDbEntity
  8
FORMAT
100
AcDbLine
 10
189.1945983556
 20
205.3045016268
 30
0.0
 11
192.2725983556
 21
205.3045016268
 31
0.0
  0
LINE
  5
4D9
330
1F
100
AcDbEntity
  8
FORMAT
100
AcDbLine
 10
192.2725983556
 20
219.6485016268
 30
0.0
 11
189.1945983556
 21
219.6485016268
 31
0.0
  0
LINE
  5
4DA
330
1F
100
AcDbEntity
  8
FORMAT
100
AcDbLine
 10
179.4699782416
 20
219.6485016268
 30
0.0
 11
175.6165983556
 21
219.6485016268
 31
0.0
  0
LINE
  5
4DB
330
1F
100
AcDbEntity
  8
FORMAT
100
AcDbLine
 10
175.6165983556
 20
206.7924398757
 30
0.0
 11
175.6165983556
 21
207.6133544571
 31
0.0
  0
LWPOLYLINE
  5
4DC
330
1F
100
AcDbEntity
  8
FORMAT
100
AcDbPolyline
 90
       15
 70
   128
 43
0.0
 10
175.6165027618
 20
207.6133544571
 10
175.6165983556
 20
208.5741729284
 10
175.6165983556
 20
209.6472542913
 10
175.6165983556
 20
210.8017279489
 10
175.6165983556
 20
212.0043817959
 10
175.6165983556
 20
213.2206176709
 10
175.6165983556
 20
214.4154466821
 10
175.6165983556
 20
215.5544957743
 10
175.6165983556
 20
216.604996579
 10
175.6165983556
 20
217.5367281006
 10
175.6165983556
 20
218.3228861197
 10
175.6165983556
 20
218.9408543014
 10
175.6165983556
 20
219.3728548263
 10
175.6165983556
 20
219.6064598258
 10
175.6165983556
 20
219.6485016268
  0
LWPOLYLINE
  5
4DD
330
1F
100
AcDbEntity
  8
FORMAT
100
AcDbPolyline
 90
        5
 70
   128
 43
0.0
 10
175.6165027618
 20
205.3045016268
 10
175.6165983556
 20
205.3812167047
 10
175.6165983556
 20
205.6600830777
 10
175.6165983556
 20
206.1350454018
 10
175.6165983556
 20
206.7924398757
  0
LINE
  5
4DE
330
1F
100
AcDbEntity
  8
FORMAT
100
AcDbLine
 10
175.6165983556
 20
317.3045016268
 30
0.0
 11
179.4699782416
 21
317.3045016268
 31
0.0
  0
LINE
  5
4DF
330
1F
100
AcDbEntity
  8
FORMAT
100
AcDbLine
 10
189.1945983556
 20
317.3045016268
 30
0.0
 11
192.2725983556
 21
317.3045016268
 31
0.0
  0
LINE
  5
4E0
330
1F
100
AcDbEntity
  8
FORMAT
100
AcDbLine
 10
192.2725983556
 20
331.6485016268
 30
0.0
 11
189.1945983556
 21
331.6485016268
 31
0.0
  0
LINE
  5
4E1
330
1F
100
AcDbEntity
  8
FORMAT
100
AcDbLine
 10
181.1945983556
 20
331.6485016268
 30
0.0
 11
175.6165983556
 21
331.6485016268
 31
0.0
  0
LINE
  5
4E2
330
1F
100
AcDbEntity
  8
FORMAT
100
AcDbLine
 10
175.6165983556
 20
317.3045016268
 30
0.0
 11
175.6165983556
 21
317.3069611741
 31
0.0
  0
LWPOLYLINE
  5
4E3
330
1F
100
AcDbEntity
  8
FORMAT
100
AcDbPolyline
 90
       20
 70
   128
 43
0.0
 10
175.6165027618
 20
317.3069611741
 10
175.6165983556
 20
317.4418290261
 10
175.6165983556
 20
317.7790716008
 10
175.6165983556
 20
318.3089870434
 10
175.6165983556
 20
319.0163306514
 10
175.6165983556
 20
319.8807534371
 10
175.6165983556
 20
320.8773875307
 10
175.6165983556
 20
321.977561584
 10
175.6165983556
 20
323.1496255925
 10
175.6165983556
 20
324.3598614086
 10
175.6165983556
 20
325.5734527515
 10
175.6165983556
 20
326.7554868077
 10
175.6165983556
 20
327.8719586096
 10
175.6165983556
 20
328.8907492962
 10
175.6165983556
 20
329.7825501144
 10
175.6165983556
 20
330.5217055783
 10
175.6165983556
 20
331.0869515309
 10
175.6165983556
 20
331.4620268754
 10
175.6165983556
 20
331.6361413771
 10
175.6165983556
 20
331.6485016268
  0
LINE
  5
4E4
330
1F
100
AcDbEntity
  8
FORMAT
100
AcDbLine
 10
181.9445983556
 20
242.9352516268
 30
0.0
 11
181.1945983556
 21
242.9352516268
 31
0.0
  0
LINE
  5
4E5
330
1F
100
AcDbEntity
  8
FORMAT
100
AcDbLine
 10
177.6945983556
 20
242.9352516268
 30
0.0
 11
177.1945983556
 21
242.9352516268
 31
0.0
  0
LINE
  5
4E6
330
1F
100
AcDbEntity
  8
FORMAT
100
AcDbLine
 10
177.1945983556
 20
238.0177516268
 30
0.0
 11
177.6945983556
 21
238.0177516268
 31
0.0
  0
LINE
  5
4E7
330
1F
100
AcDbEntity
  8
FORMAT
100
AcDbLine
 10
181.1945983556
 20
238.0177516268
 30
0.0
 11
181.9445983556
 21
238.0177516268
 31
0.0
  0
LINE
  5
4E8
330
1F
100
AcDbEntity
  8
FORMAT
100
AcDbLine
 10
181.9445983556
 20
270.9352516268
 30
0.0
 11
181.1945983556
 21
270.9352516268
 31
0.0
  0
LINE
  5
4E9
330
1F
100
AcDbEntity
  8
FORMAT
100
AcDbLine
 10
177.6945983556
 20
270.9352516268
 30
0.0
 11
177.1945983556
 21
270.9352516268
 31
0.0
  0
LINE
  5
4EA
330
1F
100
AcDbEntity
  8
FORMAT
100
AcDbLine
 10
177.1945983556
 20
266.0177516268
 30
0.0
 11
177.6945983556
 21
266.0177516268
 31
0.0
  0
LINE
  5
4EB
330
1F
100
AcDbEntity
  8
FORMAT
100
AcDbLine
 10
181.1945983556
 20
266.0177516268
 30
0.0
 11
181.9445983556
 21
266.0177516268
 31
0.0
  0
LINE
  5
4EC
330
1F
100
AcDbEntity
  8
FORMAT
100
AcDbLine
 10
181.9445983556
 20
298.9352516268
 30
0.0
 11
181.1945983556
 21
298.9352516268
 31
0.0
  0
LINE
  5
4ED
330
1F
100
AcDbEntity
  8
FORMAT
100
AcDbLine
 10
177.6945983556
 20
298.9352516268
 30
0.0
 11
177.1945983556
 21
298.9352516268
 31
0.0
  0
LINE
  5
4EE
330
1F
100
AcDbEntity
  8
FORMAT
100
AcDbLine
 10
177.1945983556
 20
294.0177516268
 30
0.0
 11
177.6945983556
 21
294.0177516268
 31
0.0
  0
LINE
  5
4EF
330
1F
100
AcDbEntity
  8
FORMAT
100
AcDbLine
 10
181.1945983556
 20
294.0177516268
 30
0.0
 11
181.9445983556
 21
294.0177516268
 31
0.0
  0
LINE
  5
4F0
330
1F
100
AcDbEntity
  8
FORMAT
  6
CENTERX2
370
    18
100
AcDbLine
 10
197.3017422208
 20
323.9765016268
 30
0.0
 11
173.9445983556
 21
323.9765016268
 31
0.0
  0
LINE
  5
4F1
330
1F
100
AcDbEntity
  8
FORMAT
  6
CENTERX2
370
    18
100
AcDbLine
 10
197.8772261437
 20
212.9765016268
 30
0.0
 11
173.9445983556
 21
212.9765016268
 31
0.0
  0
LINE
  5
4F2
330
1F
100
AcDbEntity
  8
FORMAT
  6
CENTERX2
370
    18
100
AcDbLine
 10
195.1066009029
 20
296.4765016268
 30
0.0
 11
175.6945983556
 21
296.4765016268
 31
0.0
  0
LINE
  5
4F3
330
1F
100
AcDbEntity
  8
FORMAT
  6
CENTERX2
370
    18
100
AcDbLine
 10
175.6945983556
 20
268.4765016268
 30
0.0
 11
194.2048930152
 21
268.4765016268
 31
0.0
  0
LINE
  5
4F4
330
1F
100
AcDbEntity
  8
FORMAT
  6
CENTERX2
370
    18
100
AcDbLine
 10
175.6945983556
 20
240.4765016268
 30
0.0
 11
195.0126767719
 21
240.4765016268
 31
0.0
  0
LINE
  5
4F5
330
1F
100
AcDbEntity
  8
0
  6
Continuous
 62
     7
370
    25
100
AcDbLine
 10
113.7738765606
 20
113.4084389303
 30
0.0
 11
113.7738765606
 21
117.4084389303
 31
0.0
  0
LINE
  5
4F6
330
1F
100
AcDbEntity
  8
0
  6
Continuous
 62
     7
370
    25
100
AcDbLine
 10
90.7738765606
 20
117.4084389303
 30
0.0
 11
90.7738765606
 21
113.4084389303
 31
0.0
  0
LINE
  5
4F7
330
1F
100
AcDbEntity
  8
0
  6
Continuous
 62
     7
370
    25
100
AcDbLine
 10
109.8889264411
 20
109.5084389303
 30
0.0
 11
109.9676662383
 21
110.4084389303
 31
0.0
  0
LINE
  5
4F8
330
1F
100
AcDbEntity
  8
0
  6
Continuous
 62
     7
370
    25
100
AcDbLine
 10
107.2738765606
 20
107.1584389303
 30
0.0
 11
107.2738765606
 21
110.4084389303
 31
0.0
  0
LINE
  5
4F9
330
1F
100
AcDbEntity
  8
0
  6
Continuous
 62
     7
370
    25
100
AcDbLine
 10
97.2738765606
 20
110.4084389303
 30
0.0
 11
97.2738765606
 21
107.1584389303
 31
0.0
  0
LINE
  5
4FA
330
1F
100
AcDbEntity
  8
0
  6
Continuous
 62
     7
370
    25
100
AcDbLine
 10
111.7738765606
 20
121.4084389303
 30
0.0
 11
111.7738765606
 21
121.9084389303
 31
0.0
  0
LINE
  5
4FB
330
1F
100
AcDbEntity
  8
0
  6
Continuous
 62
     7
370
    25
100
AcDbLine
 10
92.7738765606
 20
121.9084389303
 30
0.0
 11
92.7738765606
 21
121.4084389303
 31
0.0
  0
LINE
  5
4FC
330
1F
100
AcDbEntity
  8
0
  6
Continuous
 62
     7
370
    25
100
AcDbLine
 10
114.2738765606
 20
117.4084389303
 30
0.0
 11
111.2738765606
 21
117.4084389303
 31
0.0
  0
LINE
  5
4FD
330
1F
100
AcDbEntity
  8
0
  6
Continuous
 62
     7
370
    25
100
AcDbLine
 10
114.2738765606
 20
121.4084389303
 30
0.0
 11
104.2738765606
 21
121.4084389303
 31
0.0
  0
LINE
  5
4FE
330
1F
100
AcDbEntity
  8
0
  6
Continuous
 62
     7
370
    25
100
AcDbLine
 10
114.2738765606
 20
121.4084389303
 30
0.0
 11
114.2738765606
 21
117.4084389303
 31
0.0
  0
LINE
  5
4FF
330
1F
100
AcDbEntity
  8
0
  6
Continuous
 62
     7
370
    25
100
AcDbLine
 10
37.2738765606
 20
117.4084389303
 30
0.0
 11
37.2738765606
 21
121.4084389303
 31
0.0
  0
LINE
  5
500
330
1F
100
AcDbEntity
  8
0
  6
Continuous
 62
     7
370
    25
100
AcDbLine
 10
37.2738765606
 20
117.4084389303
 30
0.0
 11
96.5949682148
 21
117.4084389303
 31
0.0
  0
LINE
  5
501
330
1F
100
AcDbEntity
  8
0
  6
Continuous
 62
     7
370
    25
100
AcDbLine
 10
37.2738765606
 20
121.4084389303
 30
0.0
 11
104.2738765606
 21
121.4084389303
 31
0.0
  0
LINE
  5
502
330
1F
100
AcDbEntity
  8
0
  6
Continuous
 62
     7
370
    25
100
AcDbLine
 10
96.5949682148
 20
117.4084389303
 30
0.0
 11
111.2738765606
 21
117.4084389303
 31
0.0
  0
LINE
  5
503
330
1F
100
AcDbEntity
  8
0
  6
Continuous
 62
     7
370
    25
100
AcDbLine
 10
90.3738765606
 20
113.4084389303
 30
0.0
 11
90.3738765606
 21
110.4084389303
 31
0.0
  0
LINE
  5
504
330
1F
100
AcDbEntity
  8
0
  6
Continuous
 62
     7
370
    25
100
AcDbLine
 10
114.1738765606
 20
110.4084389303
 30
0.0
 11
114.1738765606
 21
113.4084389303
 31
0.0
  0
LINE
  5
505
330
1F
100
AcDbEntity
  8
0
  6
Continuous
 62
     7
370
    25
100
AcDbLine
 10
114.1738765606
 20
110.4084389303
 30
0.0
 11
90.3738765606
 21
110.4084389303
 31
0.0
  0
LINE
  5
506
330
1F
100
AcDbEntity
  8
0
  6
Continuous
 62
     7
370
    25
100
AcDbLine
 10
114.1738765606
 20
113.4084389303
 30
0.0
 11
90.3738765606
 21
113.4084389303
 31
0.0
  0
LINE
  5
507
330
1F
100
AcDbEntity
  8
0
  6
Continuous
 62
     7
370
    25
100
AcDbLine
 10
93.2738765606
 20
121.4084389303
 30
0.0
 11
93.2738765606
 21
127.4084389303
 31
0.0
  0
LINE
  5
508
330
1F
100
AcDbEntity
  8
0
  6
Continuous
 62
     7
370
    25
100
AcDbLine
 10
111.2738765606
 20
127.4084389303
 30
0.0
 11
111.2738765606
 21
121.4084389303
 31
0.0
  0
LINE
  5
509
330
1F
100
AcDbEntity
  8
0
  6
Continuous
 62
     7
370
    25
100
AcDbLine
 10
111.2732047713
 20
131.4084389303
 30
0.0
 11
93.2745483499
 21
131.4084389303
 31
0.0
  0
LINE
  5
50A
330
1F
100
AcDbEntity
  8
0
  6
Continuous
 62
     7
370
    25
100
AcDbLine
 10
111.2738765606
 20
127.4084389303
 30
0.0
 11
111.2738765606
 21
131.40843883
 31
0.0
  0
LINE
  5
50B
330
1F
100
AcDbEntity
  8
0
  6
Continuous
 62
     7
370
    25
100
AcDbLine
 10
93.2738765606
 20
131.40843883
 30
0.0
 11
93.2738765606
 21
127.4084389306
 31
0.0
  0
LINE
  5
50C
330
1F
100
AcDbEntity
  8
0
  6
Continuous
 62
     7
370
    25
100
AcDbLine
 10
114.1738765606
 20
131.4084389303
 30
0.0
 11
114.1738765606
 21
128.4084389303
 31
0.0
  0
LINE
  5
50D
330
1F
100
AcDbEntity
  8
0
  6
Continuous
 62
     7
370
    25
100
AcDbLine
 10
114.1738765606
 20
128.4084389303
 30
0.0
 11
111.2738765606
 21
128.4084389303
 31
0.0
  0
LINE
  5
50E
330
1F
100
AcDbEntity
  8
0
  6
Continuous
 62
     7
370
    25
100
AcDbLine
 10
111.2738765606
 20
131.4084389303
 30
0.0
 11
114.1738765606
 21
131.4084389303
 31
0.0
  0
LINE
  5
50F
330
1F
100
AcDbEntity
  8
0
  6
Continuous
 62
     7
370
    25
100
AcDbLine
 10
90.3738765606
 20
128.4084389303
 30
0.0
 11
90.3738765606
 21
131.4084389303
 31
0.0
  0
LINE
  5
510
330
1F
100
AcDbEntity
  8
0
  6
Continuous
 62
     7
370
    25
100
AcDbLine
 10
93.2738765606
 20
128.4084389303
 30
0.0
 11
90.3738765606
 21
128.4084389303
 31
0.0
  0
LINE
  5
511
330
1F
100
AcDbEntity
  8
0
  6
Continuous
 62
     7
370
    25
100
AcDbLine
 10
90.3738765606
 20
131.4084389303
 30
0.0
 11
93.2738765606
 21
131.4084389303
 31
0.0
  0
LINE
  5
512
330
1F
100
AcDbEntity
  8
0
  6
Continuous
 62
     7
370
    25
100
AcDbLine
 10
107.2738765606
 20
109.5084389303
 30
0.0
 11
109.8889264411
 21
109.5084389303
 31
0.0
  0
LINE
  5
513
330
1F
100
AcDbEntity
  8
0
  6
Continuous
 62
     7
370
    25
100
AcDbLine
 10
107.2738765606
 20
107.1584389303
 30
0.0
 11
97.2738765606
 21
107.1584389303
 31
0.0
  0
LINE
  5
514
330
1F
100
AcDbEntity
  8
0
  6
Continuous
 62
     7
370
    25
100
AcDbLine
 10
113.7738765606
 20
121.4084389303
 30
0.0
 11
113.7738765606
 21
124.6454855238
 31
0.0
  0
LINE
  5
515
330
1F
100
AcDbEntity
  8
0
  6
Continuous
 62
     7
370
    25
100
AcDbLine
 10
111.7738765606
 20
121.9084389303
 30
0.0
 11
111.7738765606
 21
124.6454855238
 31
0.0
  0
LINE
  5
516
330
1F
100
AcDbEntity
  8
0
  6
Continuous
 62
     7
370
    25
100
AcDbLine
 10
90.7738765606
 20
121.4084389303
 30
0.0
 11
90.7738765606
 21
124.6454855238
 31
0.0
  0
LINE
  5
517
330
1F
100
AcDbEntity
  8
0
  6
Continuous
 62
     7
370
    25
100
AcDbLine
 10
92.7738765606
 20
124.6454855238
 30
0.0
 11
92.7738765606
 21
121.9084389303
 31
0.0
  0
LINE
  5
518
330
1F
100
AcDbEntity
  8
0
  6
Continuous
 62
     7
370
    25
100
AcDbLine
 10
111.7738765606
 20
124.9581782585
 30
0.0
 11
111.7738765606
 21
124.6454855238
 31
0.0
  0
LWPOLYLINE
  5
519
330
1F
100
AcDbEntity
  8
0
  6
Continuous
 62
     7
370
    25
100
AcDbPolyline
 90
        3
 70
   128
 43
0.0
 10
111.2738765606
 20
125.8342201117
 10
111.6149498319
 20
125.6782474512
 10
111.7738765606
 20
124.9581782585
  0
LINE
  5
51A
330
1F
100
AcDbEntity
  8
0
  6
Continuous
 62
     7
370
    25
100
AcDbLine
 10
113.7738765606
 20
125.9084389303
 30
0.0
 11
111.2738765606
 21
125.9084389303
 31
0.0
  0
LINE
  5
51B
330
1F
100
AcDbEntity
  8
0
  6
Continuous
 62
     7
370
    25
100
AcDbLine
 10
113.7738765606
 20
125.907995303
 30
0.0
 11
113.7738765606
 21
125.9084389303
 31
0.0
  0
LINE
  5
51C
330
1F
100
AcDbEntity
  8
0
  6
Continuous
 62
     7
370
    25
100
AcDbLine
 10
113.4738765606
 20
125.8217107168
 30
0.0
 11
113.7738765606
 21
125.907995303
 31
0.0
  0
LINE
  5
51D
330
1F
100
AcDbEntity
  8
0
  6
Continuous
 62
     7
370
    25
100
AcDbLine
 10
113.4738765606
 20
125.1966838791
 30
0.0
 11
113.4738765606
 21
125.8217107168
 31
0.0
  0
LINE
  5
51E
330
1F
100
AcDbEntity
  8
0
  6
Continuous
 62
     7
370
    25
100
AcDbLine
 10
113.7738765606
 20
124.6894031631
 30
0.0
 11
113.4738765606
 21
125.1966838791
 31
0.0
  0
LINE
  5
51F
330
1F
100
AcDbEntity
  8
0
  6
Continuous
 62
     7
370
    25
100
AcDbLine
 10
113.7738765606
 20
124.6454855238
 30
0.0
 11
113.7738765606
 21
124.6894031631
 31
0.0
  0
LWPOLYLINE
  5
520
330
1F
100
AcDbEntity
  8
0
  6
Continuous
 62
     7
370
    25
100
AcDbPolyline
 90
        3
 70
   128
 43
0.0
 10
92.7738765606
 20
124.9581782585
 10
92.9328350281
 20
125.6754410256
 10
93.2738765606
 20
125.833310521
  0
LINE
  5
521
330
1F
100
AcDbEntity
  8
0
  6
Continuous
 62
     7
370
    25
100
AcDbLine
 10
92.7738765606
 20
124.6454855238
 30
0.0
 11
92.7738765606
 21
124.9581782585
 31
0.0
  0
LINE
  5
522
330
1F
100
AcDbEntity
  8
0
  6
Continuous
 62
     7
370
    25
100
AcDbLine
 10
90.7738765606
 20
124.6894031631
 30
0.0
 11
90.7738765606
 21
124.6454855238
 31
0.0
  0
LINE
  5
523
330
1F
100
AcDbEntity
  8
0
  6
Continuous
 62
     7
370
    25
100
AcDbLine
 10
91.0738765606
 20
125.1966838791
 30
0.0
 11
90.7738765606
 21
124.6894031631
 31
0.0
  0
LINE
  5
524
330
1F
100
AcDbEntity
  8
0
  6
Continuous
 62
     7
370
    25
100
AcDbLine
 10
91.0738765606
 20
125.8217107168
 30
0.0
 11
91.0738765606
 21
125.1966838791
 31
0.0
  0
LINE
  5
525
330
1F
100
AcDbEntity
  8
0
  6
Continuous
 62
     7
370
    25
100
AcDbLine
 10
90.7738765606
 20
125.907995303
 30
0.0
 11
91.0738765606
 21
125.8217107168
 31
0.0
  0
LINE
  5
526
330
1F
100
AcDbEntity
  8
0
  6
Continuous
 62
     7
370
    25
100
AcDbLine
 10
90.7738765606
 20
125.9084389303
 30
0.0
 11
90.7738765606
 21
125.907995303
 31
0.0
  0
LINE
  5
527
330
1F
100
AcDbEntity
  8
0
  6
Continuous
 62
     7
370
    25
100
AcDbLine
 10
93.2738765606
 20
125.9084389303
 30
0.0
 11
90.7738765606
 21
125.9084389303
 31
0.0
  0
LINE
  5
528
330
1F
100
AcDbEntity
  8
0
  6
Continuous
 62
     7
370
    25
100
AcDbLine
 10
113.7738765606
 20
124.9216540753
 30
0.0
 11
113.7738765606
 21
125.907995303
 31
0.0
  0
LINE
  5
529
330
1F
100
AcDbEntity
  8
0
  6
Continuous
 62
     7
370
    25
100
AcDbLine
 10
90.7738765606
 20
124.9216540753
 30
0.0
 11
90.7738765606
 21
125.907995303
 31
0.0
  0
LINE
  5
52A
330
1F
100
AcDbEntity
  8
0
  6
Continuous
 62
     7
370
    25
100
AcDbLine
 10
90.7738765606
 20
117.4084389303
 30
0.0
 11
90.7738765606
 21
113.9084389303
 31
0.0
  0
LINE
  5
52B
330
1F
100
AcDbEntity
  8
0
  6
Continuous
 62
     7
370
    25
100
AcDbLine
 10
113.7738765606
 20
117.4084389303
 30
0.0
 11
113.7738765606
 21
113.9084389303
 31
0.0
  0
LINE
  5
52C
330
1F
100
AcDbEntity
  8
0
  6
Continuous
 62
     7
370
    25
100
AcDbLine
 10
92.7738765606
 20
121.9084389303
 30
0.0
 11
93.3155756989
 21
121.9084389303
 31
0.0
  0
LINE
  5
52D
330
1F
100
AcDbEntity
  8
0
  6
Continuous
 62
     7
370
    25
100
AcDbLine
 10
111.2738765606
 20
121.9084389303
 30
0.0
 11
111.7738765606
 21
121.9084389303
 31
0.0
  0
LINE
  5
52E
330
1F
100
AcDbEntity
  8
FORMAT
  6
CENTERX2
370
    18
100
AcDbLine
 10
102.2738765606
 20
104.942208813
 30
0.0
 11
102.2738765606
 21
132.672725089
 31
0.0
  0
LWPOLYLINE
  5
52F
330
1F
100
AcDbEntity
  8
0
  6
CENTER
 62
     7
370
    18
100
AcDbPolyline
 90
        5
 70
   128
 43
0.0
 10
314.9212241065
 20
376.7871796174
 10
314.9212241065
 20
184.2266856713
 10
326.0217030425
 20
184.2266856713
 10
369.0217031058
 20
184.2266856713
 10
371.0217034336
 20
184.2266856713
  0
LINE
  5
530
330
1F
100
AcDbEntity
  8
0
  6
CENTER
 62
     7
370
    18
100
AcDbLine
 10
371.0217034336
 20
376.7871796174
 30
0.0
 11
314.9212241065
 21
376.7871796174
 31
0.0
  0
LINE
  5
531
330
1F
100
AcDbEntity
  8
0
  6
Continuous
 62
     7
370
    25
100
AcDbLine
 10
326.0217030425
 20
184.2266856713
 30
0.0
 11
326.0217030425
 21
376.7871796174
 31
0.0
  0
LINE
  5
532
330
1F
100
AcDbEntity
  8
0
  6
Continuous
 62
     7
370
    25
100
AcDbLine
 10
369.0217031058
 20
184.2266856713
 30
0.0
 11
369.0217031058
 21
376.7871796174
 31
0.0
  0
ARC
  5
533
330
1F
100
AcDbEntity
  8
0
  6
Continuous
 62
     7
370
    25
100
AcDbCircle
 10
354.0217039067
 20
203.7325123985
 30
0.0
 40
12.0000005699707
100
AcDbArc
 50
180.000026541
 51
359.999973459
  0
LINE
  5
534
330
1F
100
AcDbEntity
  8
0
  6
Continuous
 62
     7
370
    25
100
AcDbLine
 10
366.0217044767
 20
203.7325068398
 30
0.0
 11
366.0217044767
 21
359.7325100584
 31
0.0
  0
ARC
  5
535
330
1F
100
AcDbEntity
  8
0
  6
Continuous
 62
     7
370
    25
100
AcDbCircle
 10
354.0217039067
 20
359.7325044225
 30
0.0
 40
12.00000056997074
100
AcDbArc
 50
0.0000269094
 51
179.9999730906
  0
LINE
  5
536
330
1F
100
AcDbEntity
  8
0
  6
Continuous
 62
     7
370
    25
100
AcDbLine
 10
342.0217033368
 20
359.7325100584
 30
0.0
 11
342.0217033368
 21
203.7325068398
 31
0.0
  0
LINE
  5
537
330
1F
100
AcDbEntity
  8
0
  6
Continuous
 62
     7
370
    25
100
AcDbLine
 10
371.0217034336
 20
376.7871796174
 30
0.0
 11
371.0217034336
 21
184.2266856713
 31
0.0
  0
LINE
  5
538
330
1F
100
AcDbEntity
  8
0
  6
Continuous
 62
     7
370
    25
100
AcDbLine
 10
359.0217033293
 20
192.8237988634
 30
0.0
 11
359.0217033293
 21
370.6412180348
 31
0.0
  0
DIMENSION
  5
539
330
1F
100
AcDbEntity
  8
FORMAT
100
AcDbDimension
  2
_D_13
 10
387.0217029866
 20
191.7325084491
 30
0.0
 11
387.0217029866
 21
281.7325084491
 31
0.0
 70
   160
  1
<>
 71
     2
 42
-1.0
  3
SLDDIMSTYLE1
100
AcDbAlignedDimension
 13
354.0217029866
 23
371.7325084491
 33
0.0
 14
354.0217029866
 24
191.7325084491
 34
0.0
 50
90.0
100
AcDbRotatedDimension
  0
DIMENSION
  5
543
330
1F
100
AcDbEntity
  8
FORMAT
100
AcDbDimension
  2
_D_14
 10
354.0217029866
 20
203.7325084491
 30
0.0
 11
336.205686396
 21
189.8055539126
 31
0.0
 70
   164
  1
<>
 71
     1
 42
-1.0
  3
SLDDIMSTYLE3
100
AcDbRadialDimension
 15
344.5675203209
 25
196.3420801717
 35
0.0
 40
0.0
  0
MTEXT
  5
54B
330
1F
100
AcDbEntity
  8
FORMAT
100
AcDbMText
 10
329.1273727354
 20
286.3596203382
 30
0.0
 40
3.5
 41
0.0
 71
     1
 72
     1
  1
BBL
  7
SLDTEXTSTYLE0
 73
     1
 44
1.0
  0
INSERT
  5
551
330
1F
100
AcDbEntity
  8
FORMAT
100
AcDbBlockReference
  2
SW_NOTE_0_7
 10
279.3448196889
 20
390.5189196026
 30
0.0
  0
LINE
  5
552
330
1F
100
AcDbEntity
  8
0
  6
CENTER
 62
     7
370
    18
100
AcDbLine
 10
378.5428056484
 20
281.7325084491
 30
0.0
 11
307.5506679127
 21
281.7325084491
 31
0.0
  0
LINE
  5
553
330
1F
100
AcDbEntity
  8
0
  6
Continuous
 62
     7
370
    18
100
AcDbLine
 10
376.5428056484
 20
294.4325084491
 30
0.0
 11
376.5428056484
 21
281.7325084491
 31
0.0
  0
SOLID
  5
554
330
1F
100
AcDbEntity
  8
0
  6
Continuous
 62
     7
370
    18
100
AcDbTrace
 10
376.5428056484
 20
281.7325084491
 30
0.0
 11
377.5588056484
 21
288.0825084491
 31
0.0
 12
375.5268056484
 22
288.0825084491
 32
0.0
 13
375.5268056484
 23
288.0825084491
 33
0.0
  0
LINE
  5
555
330
1F
100
AcDbEntity
  8
0
  6
Continuous
 62
     7
370
    18
100
AcDbLine
 10
309.5506679127
 20
294.4325084491
 30
0.0
 11
309.5506679127
 21
281.7325084491
 31
0.0
  0
SOLID
  5
556
330
1F
100
AcDbEntity
  8
0
  6
Continuous
 62
     7
370
    18
100
AcDbTrace
 10
309.5506679127
 20
281.7325084491
 30
0.0
 11
310.5666679127
 21
288.0825084491
 31
0.0
 12
308.5346679127
 22
288.0825084491
 32
0.0
 13
308.5346679127
 23
288.0825084491
 33
0.0
  0
LINE
  5
557
330
1F
100
AcDbEntity
  8
FORMAT
  6
CENTERX2
370
    18
100
AcDbLine
 10
354.0217025098
 20
187.9166453166
 30
0.0
 11
354.0217025098
 21
374.8403876109
 31
0.0
  0
LINE
  5
558
330
1F
100
AcDbEntity
  8
0
  6
CENTER
 62
     7
370
    18
100
AcDbLine
 10
371.0217034336
 20
162.187362165
 30
0.0
 11
359.0217033293
 21
162.187362165
 31
0.0
  0
LINE
  5
559
330
1F
100
AcDbEntity
  8
0
  6
Continuous
 62
     7
370
    25
100
AcDbLine
 10
371.0217034336
 20
146.6221477192
 30
0.0
 11
371.0217034336
 21
162.187362165
 31
0.0
  0
LINE
  5
55A
330
1F
100
AcDbEntity
  8
0
  6
Continuous
 62
     7
370
    25
100
AcDbLine
 10
366.0217044767
 20
146.6221477192
 30
0.0
 11
371.0217034336
 21
146.6221477192
 31
0.0
  0
LINE
  5
55B
330
1F
100
AcDbEntity
  8
0
  6
Continuous
 62
     7
370
    25
100
AcDbLine
 10
366.0217044767
 20
153.6221477024
 30
0.0
 11
366.0217044767
 21
146.6221477192
 31
0.0
  0
LINE
  5
55C
330
1F
100
AcDbEntity
  8
0
  6
Continuous
 62
     7
370
    25
100
AcDbLine
 10
366.0217044767
 20
153.6221477024
 30
0.0
 11
359.0217033293
 21
153.6221477024
 31
0.0
  0
LINE
  5
55D
330
1F
100
AcDbEntity
  8
0
  6
Continuous
 62
     7
370
    25
100
AcDbLine
 10
359.0217033293
 20
162.187362165
 30
0.0
 11
359.0217033293
 21
153.6221477024
 31
0.0
  0
LINE
  5
55E
330
1F
100
AcDbEntity
  8
0
  6
Continuous
 62
     7
370
    25
100
AcDbLine
 10
342.0217033368
 20
139.6221472703
 30
0.0
 11
314.9212241065
 21
139.6221472703
 31
0.0
  0
LINE
  5
55F
330
1F
100
AcDbEntity
  8
0
  6
Continuous
 62
     7
370
    25
100
AcDbLine
 10
326.0217030425
 20
129.6221474938
 30
0.0
 11
342.0217033368
 21
129.6221474938
 31
0.0
  0
LINE
  5
560
330
1F
100
AcDbEntity
  8
0
  6
Continuous
 62
     7
370
    25
100
AcDbLine
 10
326.0217030425
 20
124.6221485369
 30
0.0
 11
326.0217030425
 21
129.6221474938
 31
0.0
  0
LINE
  5
561
330
1F
100
AcDbEntity
  8
0
  6
Continuous
 62
     7
370
    25
100
AcDbLine
 10
320.0217025247
 20
124.6221485369
 30
0.0
 11
326.0217030425
 21
124.6221485369
 31
0.0
  0
LINE
  5
562
330
1F
100
AcDbEntity
  8
0
  6
Continuous
 62
     7
370
    25
100
AcDbLine
 10
320.0217025247
 20
120.6221478812
 30
0.0
 11
320.0217025247
 21
124.6221485369
 31
0.0
  0
LINE
  5
563
330
1F
100
AcDbEntity
  8
0
  6
Continuous
 62
     7
370
    25
100
AcDbLine
 10
326.0217030425
 20
120.6221478812
 30
0.0
 11
320.0217025247
 21
120.6221478812
 31
0.0
  0
LINE
  5
564
330
1F
100
AcDbEntity
  8
0
  6
Continuous
 62
     7
370
    25
100
AcDbLine
 10
326.0217030425
 20
116.6221472256
 30
0.0
 11
326.0217030425
 21
120.6221478812
 31
0.0
  0
LINE
  5
565
330
1F
100
AcDbEntity
  8
0
  6
Continuous
 62
     7
370
    25
100
AcDbLine
 10
314.9212241065
 20
116.6221472256
 30
0.0
 11
326.0217030425
 21
116.6221472256
 31
0.0
  0
LINE
  5
566
330
1F
100
AcDbEntity
  8
0
  6
Continuous
 62
     7
370
    25
100
AcDbLine
 10
314.9212241065
 20
116.6221472256
 30
0.0
 11
314.9212241065
 21
139.6221472703
 31
0.0
  0
LINE
  5
567
330
1F
100
AcDbEntity
  8
0
  6
Continuous
 62
     7
370
    25
100
AcDbLine
 10
342.0217033368
 20
129.6221474938
 30
0.0
 11
342.0217033368
 21
139.6221472703
 31
0.0
  0
LINE
  5
568
330
1F
100
AcDbEntity
  8
0
  6
Continuous
 62
     7
370
    25
100
AcDbLine
 10
366.0217044767
 20
129.6221474938
 30
0.0
 11
369.0217031058
 21
129.6221474938
 31
0.0
  0
LINE
  5
569
330
1F
100
AcDbEntity
  8
0
  6
Continuous
 62
     7
370
    25
100
AcDbLine
 10
371.0217034336
 20
136.6221477099
 30
0.0
 11
366.0217044767
 21
136.6221477099
 31
0.0
  0
LINE
  5
56A
330
1F
100
AcDbEntity
  8
0
  6
Continuous
 62
     7
370
    25
100
AcDbLine
 10
371.0217034336
 20
131.6221478216
 30
0.0
 11
369.0217031058
 21
129.6221474938
 31
0.0
  0
LINE
  5
56B
330
1F
100
AcDbEntity
  8
0
  6
Continuous
 62
     7
370
    25
100
AcDbLine
 10
366.0217044767
 20
136.6221477099
 30
0.0
 11
366.0217044767
 21
129.6221474938
 31
0.0
  0
LINE
  5
56C
330
1F
100
AcDbEntity
  8
0
  6
Continuous
 62
     7
370
    25
100
AcDbLine
 10
371.0217034336
 20
131.6221478216
 30
0.0
 11
371.0217034336
 21
136.6221477099
 31
0.0
  0
LINE
  5
56D
330
1F
100
AcDbEntity
  8
0
  6
Continuous
 62
     7
370
    25
100
AcDbLine
 10
366.0217044767
 20
136.6221477099
 30
0.0
 11
366.0217044767
 21
146.6221477192
 31
0.0
  0
LINE
  5
56E
330
1F
100
AcDbEntity
  8
0
  6
Continuous
 62
     7
370
    25
100
AcDbLine
 10
371.0217034336
 20
136.6221477099
 30
0.0
 11
371.0217034336
 21
146.6221477192
 31
0.0
  0
LINE
  5
56F
330
1F
100
AcDbEntity
  8
0
  6
Continuous
 62
     7
370
    25
100
AcDbLine
 10
342.0217033368
 20
129.6221474938
 30
0.0
 11
366.0217044767
 21
129.6221474938
 31
0.0
  0
LINE
  5
570
330
1F
100
AcDbEntity
  8
0
  6
Continuous
 62
     7
370
    25
100
AcDbLine
 10
359.0217033293
 20
139.6221472703
 30
0.0
 11
342.0217033368
 21
139.6221472703
 31
0.0
  0
LINE
  5
571
330
1F
100
AcDbEntity
  8
0
  6
Continuous
 62
     7
370
    25
100
AcDbLine
 10
359.0217033293
 20
153.6221477024
 30
0.0
 11
359.0217033293
 21
139.6221472703
 31
0.0
  0
INSERT
  5
589
330
1F
100
AcDbEntity
  8
0
  6
Continuous
 62
     7
370
    18
100
AcDbBlockReference
  2
SW_HATCH_0
 10
362.8796083745
 20
162.187362165
 30
0.0
  0
DIMENSION
  5
58A
330
1F
100
AcDbEntity
  8
FORMAT
100
AcDbDimension
  2
_D_15
 10
371.0217029866
 20
106.6221477322
 30
0.0
 11
356.5217029866
 21
106.6221477322
 31
0.0
 70
   160
  1
<> 
 71
     2
 42
-1.0
  3
SLDDIMSTYLE1
100
AcDbAlignedDimension
 13
342.0217029866
 23
129.6221477322
 33
0.0
 14
371.0217029866
 24
131.6221478216
 34
0.0
100
AcDbRotatedDimension
  0
DIMENSION
  5
595
330
1F
100
AcDbEntity
  8
FORMAT
100
AcDbDimension
  2
_D_16
 10
366.0217029866
 20
115.8817530393
 30
0.0
 11
354.0217029866
 21
115.8817530393
 31
0.0
 70
   160
  1
<>
 71
     2
 42
-1.0
  3
SLDDIMSTYLE1
100
AcDbAlignedDimension
 13
342.0217029866
 23
129.6221477322
 33
0.0
 14
366.0217029866
 24
129.6221477322
 34
0.0
100
AcDbRotatedDimension
  0
DIMENSION
  5
59F
330
1F
100
AcDbEntity
  8
FORMAT
100
AcDbDimension
  2
_D_17
 10
389.2286139742
 20
153.6221477322
 30
0.0
 11
389.2286139742
 21
141.6221477322
 31
0.0
 70
   160
  1
<>
 71
     2
 42
-1.0
  3
SLDDIMSTYLE1
100
AcDbAlignedDimension
 13
369.0217029866
 23
129.6221477322
 33
0.0
 14
366.0217029866
 24
153.6221477322
 34
0.0
 50
90.0
100
AcDbRotatedDimension
  0
DIMENSION
  5
5A9
330
1F
100
AcDbEntity
  8
FORMAT
100
AcDbDimension
  2
_D_18
 10
381.0217029866
 20
129.6221477322
 30
0.0
 11
381.0217029866
 21
135.6221477322
 31
0.0
 70
   160
  1
<>
 71
     2
 42
-1.0
  3
SLDDIMSTYLE1
100
AcDbAlignedDimension
 13
373.0217029866
 23
141.6221477322
 33
0.0
 14
369.0217029866
 24
129.6221477322
 34
0.0
 50
90.0
100
AcDbRotatedDimension
  0
DIMENSION
  5
5B3
330
1F
100
AcDbEntity
  8
FORMAT
100
AcDbDimension
  2
_D_19
 10
308.3898875383
 20
153.6221477322
 30
0.0
 11
308.3898875383
 21
146.6221477322
 31
0.0
 70
   160
  1
<>
 71
     2
 42
-1.0
  3
SLDDIMSTYLE1
100
AcDbAlignedDimension
 13
314.9212239045
 23
139.6221477322
 33
0.0
 14
359.0217029866
 24
153.6221477322
 34
0.0
 50
90.0
100
AcDbRotatedDimension
  0
LINE
  5
5BD
330
1F
100
AcDbEntity
  8
FORMAT
  6
CENTERX2
370
    18
100
AcDbLine
 10
373.0217037615
 20
141.6221475981
 30
0.0
 11
364.0217041489
 21
141.6221475981
 31
0.0
  0
LINE
  5
5BE
330
1F
100
AcDbEntity
  8
FORMAT
  6
CENTERX2
370
    18
100
AcDbLine
 10
354.0217025098
 20
148.622147756
 30
0.0
 11
354.0217025098
 21
127.622147166
 31
0.0
  0
LWPOLYLINE
  5
5BF
330
1F
100
AcDbEntity
  8
0
  6
CENTER
 62
     7
370
    18
100
AcDbPolyline
 90
       12
 70
   128
 43
0.0
 10
246.1956669182
 20
184.6666424556
 10
250.1956675738
 20
184.6666424556
 10
254.1956682295
 20
184.6666424556
 10
259.1956671864
 20
184.6666424556
 10
261.1956675142
 20
184.6666424556
 10
287.6203213424
 20
184.6666424556
 10
287.6203213424
 20
376.5493719859
 10
261.1956675142
 20
376.5493719859
 10
259.1956671864
 20
376.5493719859
 10
254.1956682295
 20
376.5493719859
 10
250.1956675738
 20
376.5493719859
 10
246.1956669182
 20
376.5493719859
  0
LINE
  5
5C0
330
1F
100
AcDbEntity
  8
0
  6
Continuous
 62
     7
370
    25
100
AcDbLine
 10
261.1956675142
 20
376.5493719859
 30
0.0
 11
261.1956675142
 21
184.6666424556
 31
0.0
  0
ARC
  5
5C1
330
1F
100
AcDbEntity
  8
0
  6
Continuous
 62
     7
370
    25
100
AcDbCircle
 10
271.1956674071
 20
326.7325091895
 30
0.0
 40
5.000000004656723
100
AcDbArc
 50
0.0000120062
 51
179.9999879938
  0
LINE
  5
5C2
330
1F
100
AcDbEntity
  8
0
  6
Continuous
 62
     7
370
    25
100
AcDbLine
 10
266.1956674025
 20
326.7325102372
 30
0.0
 11
266.1956674025
 21
236.7325066609
 31
0.0
  0
ARC
  5
5C3
330
1F
100
AcDbEntity
  8
0
  6
Continuous
 62
     7
370
    25
100
AcDbCircle
 10
271.1956674071
 20
236.7325077087
 30
0.0
 40
5.000000004656723
100
AcDbArc
 50
180.0000120062
 51
359.9999879938
  0
LINE
  5
5C4
330
1F
100
AcDbEntity
  8
0
  6
Continuous
 62
     7
370
    25
100
AcDbLine
 10
276.1956674118
 20
236.7325066609
 30
0.0
 11
276.1956674118
 21
326.7325102372
 31
0.0
  0
LINE
  5
5C5
330
1F
100
AcDbEntity
  8
0
  6
Continuous
 62
     7
370
    25
100
AcDbLine
 10
259.1956671864
 20
184.6666424556
 30
0.0
 11
259.1956671864
 21
376.5493719859
 31
0.0
  0
LINE
  5
5C6
330
1F
100
AcDbEntity
  8
0
  6
Continuous
 62
     7
370
    25
100
AcDbLine
 10
269.1956669629
 20
232.1499339325
 30
0.0
 11
269.1956669629
 21
331.3150829656
 31
0.0
  0
LINE
  5
5C7
330
1F
100
AcDbEntity
  8
0
  6
Continuous
 62
     7
370
    25
100
AcDbLine
 10
254.1956682295
 20
184.6666424556
 30
0.0
 11
254.1956682295
 21
376.5493719859
 31
0.0
  0
LINE
  5
5C8
330
1F
100
AcDbEntity
  8
0
  6
Continuous
 62
     7
370
    25
100
AcDbLine
 10
246.1956669182
 20
184.6666424556
 30
0.0
 11
246.1956669182
 21
376.5493719859
 31
0.0
  0
LINE
  5
5C9
330
1F
100
AcDbEntity
  8
0
  6
Continuous
 62
     7
370
    25
100
AcDbLine
 10
250.1956675738
 20
184.6666424556
 30
0.0
 11
250.1956675738
 21
376.5493719859
 31
0.0
  0
DIMENSION
  5
5CA
330
1F
100
AcDbEntity
  8
FORMAT
100
AcDbDimension
  2
_D_20
 10
276.1956674248
 20
172.9883715859
 30
0.0
 11
271.1956674248
 21
172.9883715859
 31
0.0
 70
   160
  1
<>
 71
     2
 42
-1.0
  3
SLDDIMSTYLE2
100
AcDbAlignedDimension
 13
266.1956674248
 23
236.7325084491
 33
0.0
 14
276.1956674248
 24
236.7325084491
 34
0.0
100
AcDbRotatedDimension
  0
DIMENSION
  5
5D6
330
1F
100
AcDbEntity
  8
FORMAT
100
AcDbDimension
  2
_D_21
 10
297.3440617501
 20
231.7325084491
 30
0.0
 11
297.3440617501
 21
281.7325084491
 31
0.0
 70
   160
  1
<>
 71
     2
 42
-1.0
  3
SLDDIMSTYLE1
100
AcDbAlignedDimension
 13
271.1956674248
 23
331.7325084491
 33
0.0
 14
271.1956674248
 24
231.7325084491
 34
0.0
 50
90.0
100
AcDbRotatedDimension
  0
INSERT
  5
5F3
330
1F
100
AcDbEntity
  8
FORMAT
100
AcDbBlockReference
  2
SW_CENTERMARKSYMBOL_38
 10
271.1956672907
 20
326.7325102372
 30
0.0
  0
INSERT
  5
5FF
330
1F
100
AcDbEntity
  8
FORMAT
100
AcDbBlockReference
  2
SW_CENTERMARKSYMBOL_39
 10
271.1956672907
 20
281.7325084491
 30
0.0
  0
LWPOLYLINE
  5
600
330
1F
100
AcDbEntity
  8
0
  6
CENTER
 62
     7
370
    18
100
AcDbPolyline
 90
        5
 70
   128
 43
0.0
 10
493.1007462665
 20
374.5593491088
 10
493.1007462665
 20
181.9988551628
 10
504.2012252024
 20
181.9988551628
 10
547.2012252658
 20
181.9988551628
 10
549.2012255936
 20
181.9988551628
  0
LINE
  5
601
330
1F
100
AcDbEntity
  8
0
  6
CENTER
 62
     7
370
    18
100
AcDbLine
 10
549.2012255936
 20
374.5593491088
 30
0.0
 11
493.1007462665
 21
374.5593491088
 31
0.0
  0
LINE
  5
602
330
1F
100
AcDbEntity
  8
0
  6
Continuous
 62
     7
370
    25
100
AcDbLine
 10
504.2012252024
 20
181.9988551628
 30
0.0
 11
504.2012252024
 21
374.5593491088
 31
0.0
  0
LINE
  5
603
330
1F
100
AcDbEntity
  8
0
  6
Continuous
 62
     7
370
    25
100
AcDbLine
 10
547.2012252658
 20
326.5046763312
 30
0.0
 11
547.2012252658
 21
374.5593491088
 31
0.0
  0
LINE
  5
604
330
1F
100
AcDbEntity
  8
0
  6
Continuous
 62
     7
370
    25
100
AcDbLine
 10
547.2012252658
 20
326.5046763312
 30
0.0
 11
544.2012266367
 21
326.5046763312
 31
0.0
  0
LINE
  5
605
330
1F
100
AcDbEntity
  8
0
  6
Continuous
 62
     7
370
    25
100
AcDbLine
 10
544.2012266367
 20
326.5046763312
 30
0.0
 11
544.2012266367
 21
357.5046795498
 31
0.0
  0
ARC
  5
606
330
1F
100
AcDbEntity
  8
0
  6
Continuous
 62
     7
370
    25
100
AcDbCircle
 10
532.2012260667
 20
357.5046739139
 30
0.0
 40
12.00000056997074
100
AcDbArc
 50
0.0000269094
 51
179.9999730906
  0
LINE
  5
607
330
1F
100
AcDbEntity
  8
0
  6
Continuous
 62
     7
370
    25
100
AcDbLine
 10
520.2012254967
 20
357.5046795498
 30
0.0
 11
520.2012254967
 21
201.5046763312
 31
0.0
  0
ARC
  5
608
330
1F
100
AcDbEntity
  8
0
  6
Continuous
 62
     7
370
    25
100
AcDbCircle
 10
532.2012260667
 20
201.5046818899
 30
0.0
 40
12.0000005699707
100
AcDbArc
 50
180.000026541
 51
359.999973459
  0
LINE
  5
609
330
1F
100
AcDbEntity
  8
0
  6
Continuous
 62
     7
370
    25
100
AcDbLine
 10
544.2012266367
 20
201.5046763312
 30
0.0
 11
544.2012266367
 21
232.5046795498
 31
0.0
  0
LINE
  5
60A
330
1F
100
AcDbEntity
  8
0
  6
Continuous
 62
     7
370
    25
100
AcDbLine
 10
544.2012266367
 20
232.5046795498
 30
0.0
 11
547.2012252658
 21
232.5046795498
 31
0.0
  0
LINE
  5
60B
330
1F
100
AcDbEntity
  8
0
  6
Continuous
 62
     7
370
    25
100
AcDbLine
 10
547.2012252658
 20
181.9988551628
 30
0.0
 11
547.2012252658
 21
232.5046795498
 31
0.0
  0
LINE
  5
60C
330
1F
100
AcDbEntity
  8
0
  6
Continuous
 62
     7
370
    25
100
AcDbLine
 10
549.2012255936
 20
374.5593491088
 30
0.0
 11
549.2012255936
 21
326.5046763312
 31
0.0
  0
LINE
  5
60D
330
1F
100
AcDbEntity
  8
0
  6
Continuous
 62
     7
370
    25
100
AcDbLine
 10
549.2012255936
 20
326.5046763312
 30
0.0
 11
547.2012252658
 21
326.5046763312
 31
0.0
  0
LINE
  5
60E
330
1F
100
AcDbEntity
  8
0
  6
Continuous
 62
     7
370
    25
100
AcDbLine
 10
547.2012252658
 20
232.5046795498
 30
0.0
 11
549.2012255936
 21
232.5046795498
 31
0.0
  0
LINE
  5
60F
330
1F
100
AcDbEntity
  8
0
  6
Continuous
 62
     7
370
    25
100
AcDbLine
 10
549.2012255936
 20
232.5046795498
 30
0.0
 11
549.2012255936
 21
181.9988551628
 31
0.0
  0
LINE
  5
610
330
1F
100
AcDbEntity
  8
0
  6
Continuous
 62
     7
370
    25
100
AcDbLine
 10
537.2012254893
 20
190.5959683548
 30
0.0
 11
537.2012254893
 21
368.4133875262
 31
0.0
  0
LINE
  5
611
330
1F
100
AcDbEntity
  8
0
  6
Continuous
 62
     7
370
    25
100
AcDbLine
 10
549.2012255936
 20
232.5046795498
 30
0.0
 11
549.2012255936
 21
326.5046763312
 31
0.0
  0
DIMENSION
  5
612
330
1F
100
AcDbEntity
  8
FORMAT
100
AcDbDimension
  2
_D_22
 10
563.1839833071
 20
232.5046779405
 30
0.0
 11
563.1839833071
 21
279.5046779405
 31
0.0
 70
   160
  1
<>
 71
     2
 42
-1.0
  3
SLDDIMSTYLE1
100
AcDbAlignedDimension
 13
549.2012251466
 23
326.5046779405
 33
0.0
 14
549.2012251466
 24
232.5046779405
 34
0.0
 50
90.0
100
AcDbRotatedDimension
  0
DIMENSION
  5
61C
330
1F
100
AcDbEntity
  8
FORMAT
100
AcDbDimension
  2
_D_23
 10
571.2012251466
 20
189.5046779405
 30
0.0
 11
571.2012251466
 21
279.5046779405
 31
0.0
 70
   160
  1
<>
 71
     2
 42
-1.0
  3
SLDDIMSTYLE1
100
AcDbAlignedDimension
 13
532.2012251466
 23
369.5046779405
 33
0.0
 14
532.2012251466
 24
189.5046779405
 34
0.0
 50
90.0
100
AcDbRotatedDimension
  0
DIMENSION
  5
626
330
1F
100
AcDbEntity
  8
FORMAT
100
AcDbDimension
  2
_D_24
 10
532.2012251466
 20
201.5046779405
 30
0.0
 11
516.8170691145
 21
186.1205219084
 31
0.0
 70
   164
  1
<>
 71
     1
 42
-1.0
  3
SLDDIMSTYLE3
100
AcDbRadialDimension
 15
523.7159437723
 25
193.0193965663
 35
0.0
 40
0.0
  0
MTEXT
  5
62D
330
1F
100
AcDbEntity
  8
FORMAT
100
AcDbMText
 10
506.1362120037
 20
284.3973738331
 30
0.0
 40
3.5
 41
0.0
 71
     1
 72
     1
  1
BBL
  7
SLDTEXTSTYLE0
 73
     1
 44
1.0
  0
INSERT
  5
633
330
1F
100
AcDbEntity
  8
FORMAT
100
AcDbBlockReference
  2
SW_NOTE_0_8
 10
456.8391231796
 20
390.4717940667
 30
0.0
  0
LINE
  5
634
330
1F
100
AcDbEntity
  8
0
  6
CENTER
 62
     7
370
    18
100
AcDbLine
 10
556.7223278084
 20
279.5046779405
 30
0.0
 11
485.7301900726
 21
279.5046779405
 31
0.0
  0
LINE
  5
635
330
1F
100
AcDbEntity
  8
0
  6
Continuous
 62
     7
370
    18
100
AcDbLine
 10
554.7223278084
 20
292.2046779405
 30
0.0
 11
554.7223278084
 21
279.5046779405
 31
0.0
  0
SOLID
  5
636
330
1F
100
AcDbEntity
  8
0
  6
Continuous
 62
     7
370
    18
100
AcDbTrace
 10
554.7223278084
 20
279.5046779405
 30
0.0
 11
555.7383278084
 21
285.8546779405
 31
0.0
 12
553.7063278084
 22
285.8546779405
 32
0.0
 13
553.7063278084
 23
285.8546779405
 33
0.0
  0
LINE
  5
637
330
1F
100
AcDbEntity
  8
0
  6
Continuous
 62
     7
370
    18
100
AcDbLine
 10
487.7301900726
 20
292.2046779405
 30
0.0
 11
487.7301900726
 21
279.5046779405
 31
0.0
  0
SOLID
  5
638
330
1F
100
AcDbEntity
  8
0
  6
Continuous
 62
     7
370
    18
100
AcDbTrace
 10
487.7301900726
 20
279.5046779405
 30
0.0
 11
488.7461900726
 21
285.8546779405
 31
0.0
 12
486.7141900726
 22
285.8546779405
 32
0.0
 13
486.7141900726
 23
285.8546779405
 33
0.0
  0
LINE
  5
639
330
1F
100
AcDbEntity
  8
FORMAT
  6
CENTERX2
370
    18
100
AcDbLine
 10
532.2012246697
 20
185.688814808
 30
0.0
 11
532.2012246697
 21
372.6125571023
 31
0.0
  0
LINE
  5
63A
330
1F
100
AcDbEntity
  8
0
  6
CENTER
 62
     7
370
    18
100
AcDbLine
 10
549.2012255936
 20
163.8303299875
 30
0.0
 11
537.2012254893
 21
163.8303299875
 31
0.0
  0
LINE
  5
63B
330
1F
100
AcDbEntity
  8
0
  6
Continuous
 62
     7
370
    25
100
AcDbLine
 10
549.2012255936
 20
155.2651155249
 30
0.0
 11
537.2012254893
 21
155.2651155249
 31
0.0
  0
LINE
  5
63C
330
1F
100
AcDbEntity
  8
0
  6
Continuous
 62
     7
370
    25
100
AcDbLine
 10
537.2012254893
 20
163.8303299875
 30
0.0
 11
537.2012254893
 21
155.2651155249
 31
0.0
  0
LINE
  5
63D
330
1F
100
AcDbEntity
  8
0
  6
Continuous
 62
     7
370
    25
100
AcDbLine
 10
549.2012255936
 20
155.2651155249
 30
0.0
 11
549.2012255936
 21
163.8303299875
 31
0.0
  0
LINE
  5
63E
330
1F
100
AcDbEntity
  8
0
  6
Continuous
 62
     7
370
    25
100
AcDbLine
 10
520.2012254967
 20
131.2651153163
 30
0.0
 11
520.2012254967
 21
141.2651150928
 31
0.0
  0
LINE
  5
63F
330
1F
100
AcDbEntity
  8
0
  6
Continuous
 62
     7
370
    25
100
AcDbLine
 10
504.2012252024
 20
131.2651153163
 30
0.0
 11
520.2012254967
 21
131.2651153163
 31
0.0
  0
LINE
  5
640
330
1F
100
AcDbEntity
  8
0
  6
Continuous
 62
     7
370
    25
100
AcDbLine
 10
504.2012252024
 20
126.2651163594
 30
0.0
 11
504.2012252024
 21
131.2651153163
 31
0.0
  0
LINE
  5
641
330
1F
100
AcDbEntity
  8
0
  6
Continuous
 62
     7
370
    25
100
AcDbLine
 10
498.2012246846
 20
126.2651163594
 30
0.0
 11
504.2012252024
 21
126.2651163594
 31
0.0
  0
LINE
  5
642
330
1F
100
AcDbEntity
  8
0
  6
Continuous
 62
     7
370
    25
100
AcDbLine
 10
498.2012246846
 20
122.2651157037
 30
0.0
 11
498.2012246846
 21
126.2651163594
 31
0.0
  0
LINE
  5
643
330
1F
100
AcDbEntity
  8
0
  6
Continuous
 62
     7
370
    25
100
AcDbLine
 10
504.2012252024
 20
122.2651157037
 30
0.0
 11
498.2012246846
 21
122.2651157037
 31
0.0
  0
LINE
  5
644
330
1F
100
AcDbEntity
  8
0
  6
Continuous
 62
     7
370
    25
100
AcDbLine
 10
504.2012252024
 20
118.2651150481
 30
0.0
 11
504.2012252024
 21
122.2651157037
 31
0.0
  0
LINE
  5
645
330
1F
100
AcDbEntity
  8
0
  6
Continuous
 62
     7
370
    25
100
AcDbLine
 10
493.1007462665
 20
118.2651150481
 30
0.0
 11
504.2012252024
 21
118.2651150481
 31
0.0
  0
LINE
  5
646
330
1F
100
AcDbEntity
  8
0
  6
Continuous
 62
     7
370
    25
100
AcDbLine
 10
493.1007462665
 20
118.2651150481
 30
0.0
 11
493.1007462665
 21
141.2651150928
 31
0.0
  0
LINE
  5
647
330
1F
100
AcDbEntity
  8
0
  6
Continuous
 62
     7
370
    25
100
AcDbLine
 10
520.2012254967
 20
141.2651150928
 30
0.0
 11
493.1007462665
 21
141.2651150928
 31
0.0
  0
LINE
  5
648
330
1F
100
AcDbEntity
  8
0
  6
Continuous
 62
     7
370
    25
100
AcDbLine
 10
544.2012266367
 20
155.2651155249
 30
0.0
 11
544.2012266367
 21
131.2651153163
 31
0.0
  0
LINE
  5
649
330
1F
100
AcDbEntity
  8
0
  6
Continuous
 62
     7
370
    25
100
AcDbLine
 10
547.2012252658
 20
131.2651153163
 30
0.0
 11
549.2012255936
 21
133.2651156441
 31
0.0
  0
LINE
  5
64A
330
1F
100
AcDbEntity
  8
0
  6
Continuous
 62
     7
370
    25
100
AcDbLine
 10
544.2012266367
 20
131.2651153163
 30
0.0
 11
547.2012252658
 21
131.2651153163
 31
0.0
  0
LINE
  5
64B
330
1F
100
AcDbEntity
  8
0
  6
Continuous
 62
     7
370
    25
100
AcDbLine
 10
549.2012255936
 20
155.2651155249
 30
0.0
 11
549.2012255936
 21
133.2651156441
 31
0.0
  0
LINE
  5
64C
330
1F
100
AcDbEntity
  8
0
  6
Continuous
 62
     7
370
    25
100
AcDbLine
 10
520.2012254967
 20
131.2651153163
 30
0.0
 11
544.2012266367
 21
131.2651153163
 31
0.0
  0
LINE
  5
64D
330
1F
100
AcDbEntity
  8
0
  6
Continuous
 62
     7
370
    25
100
AcDbLine
 10
537.2012254893
 20
141.2651150928
 30
0.0
 11
520.2012254967
 21
141.2651150928
 31
0.0
  0
LINE
  5
64E
330
1F
100
AcDbEntity
  8
0
  6
Continuous
 62
     7
370
    25
100
AcDbLine
 10
537.2012254893
 20
155.2651155249
 30
0.0
 11
537.2012254893
 21
141.2651150928
 31
0.0
  0
INSERT
  5
662
330
1F
100
AcDbEntity
  8
0
  6
Continuous
 62
     7
370
    18
100
AcDbBlockReference
  2
SW_HATCH_1
 10
541.0591305344
 20
163.8303299875
 30
0.0
  0
DIMENSION
  5
663
330
1F
100
AcDbEntity
  8
FORMAT
100
AcDbDimension
  2
_D_25
 10
549.2012251466
 20
112.2698384477
 30
0.0
 11
534.7012251466
 21
112.2698384477
 31
0.0
 70
   160
  1
<> 
 71
     2
 42
-1.0
  3
SLDDIMSTYLE1
100
AcDbAlignedDimension
 13
520.2012251466
 23
131.2651155547
 33
0.0
 14
549.2012251466
 24
133.2651156441
 34
0.0
100
AcDbRotatedDimension
  0
DIMENSION
  5
66E
330
1F
100
AcDbEntity
  8
FORMAT
100
AcDbDimension
  2
_D_26
 10
544.2012251466
 20
121.3287033928
 30
0.0
 11
532.2012251466
 21
121.3287033928
 31
0.0
 70
   160
  1
<>
 71
     2
 42
-1.0
  3
SLDDIMSTYLE1
100
AcDbAlignedDimension
 13
520.2012251466
 23
131.2651155547
 33
0.0
 14
544.2012251466
 24
131.2651155547
 34
0.0
100
AcDbRotatedDimension
  0
DIMENSION
  5
678
330
1F
100
AcDbEntity
  8
FORMAT
100
AcDbDimension
  2
_D_27
 10
559.2012255936
 20
155.2651155547
 30
0.0
 11
559.2012255936
 21
143.2651155547
 31
0.0
 70
   160
  1
<>
 71
     2
 42
-1.0
  3
SLDDIMSTYLE1
100
AcDbAlignedDimension
 13
547.2012251466
 23
131.2651155547
 33
0.0
 14
549.2012251466
 24
155.2651155547
 34
0.0
 50
90.0
100
AcDbRotatedDimension
  0
DIMENSION
  5
682
330
1F
100
AcDbEntity
  8
FORMAT
100
AcDbDimension
  2
_D_28
 10
483.1007460645
 20
141.2651155547
 30
0.0
 11
483.1007460645
 21
148.2651155547
 31
0.0
 70
   160
  1
<>
 71
     2
 42
-1.0
  3
SLDDIMSTYLE1
100
AcDbAlignedDimension
 13
537.2012251466
 23
155.2651155547
 33
0.0
 14
493.1007460645
 24
141.2651155547
 34
0.0
 50
90.0
100
AcDbRotatedDimension
  0
LINE
  5
68C
330
1F
100
AcDbEntity
  8
FORMAT
  6
CENTERX2
370
    18
100
AcDbLine
 10
532.2012246697
 20
150.2651155784
 30
0.0
 11
532.2012246697
 21
129.2651149885
 31
0.0
  0
LWPOLYLINE
  5
68D
330
1F
100
AcDbEntity
  8
0
  6
CENTER
 62
     7
370
    18
100
AcDbPolyline
 90
       12
 70
   128
 43
0.0
 10
427.050292306
 20
182.2013619434
 10
431.0502929616
 20
182.2013619434
 10
435.0502936173
 20
182.2013619434
 10
440.0502925742
 20
182.2013619434
 10
442.050292902
 20
182.2013619434
 10
473.4423298392
 20
182.2013619434
 10
473.4423298392
 20
374.6701317917
 10
442.050292902
 20
374.6701317917
 10
440.0502925742
 20
374.6701317917
 10
435.0502936173
 20
374.6701317917
 10
431.0502929616
 20
374.6701317917
 10
427.050292306
 20
374.6701317917
  0
LINE
  5
68E
330
1F
100
AcDbEntity
  8
0
  6
Continuous
 62
     7
370
    25
100
AcDbLine
 10
464.0502927828
 20
232.5046795498
 30
0.0
 11
464.0502927828
 21
326.5046763312
 31
0.0
  0
LINE
  5
68F
330
1F
100
AcDbEntity
  8
0
  6
Continuous
 62
     7
370
    25
100
AcDbLine
 10
464.0502927828
 20
326.5046763312
 30
0.0
 11
442.050292902
 21
326.5046763312
 31
0.0
  0
LINE
  5
690
330
1F
100
AcDbEntity
  8
0
  6
Continuous
 62
     7
370
    25
100
AcDbLine
 10
442.050292902
 20
374.6701317917
 30
0.0
 11
442.050292902
 21
326.5046763312
 31
0.0
  0
LINE
  5
691
330
1F
100
AcDbEntity
  8
0
  6
Continuous
 62
     7
370
    25
100
AcDbLine
 10
442.050292902
 20
232.5046795498
 30
0.0
 11
442.050292902
 21
182.2013619434
 31
0.0
  0
LINE
  5
692
330
1F
100
AcDbEntity
  8
0
  6
Continuous
 62
     7
370
    25
100
AcDbLine
 10
464.0502927828
 20
232.5046795498
 30
0.0
 11
442.050292902
 21
232.5046795498
 31
0.0
  0
LINE
  5
693
330
1F
100
AcDbEntity
  8
0
  6
Continuous
 62
     7
370
    25
100
AcDbLine
 10
440.0502925742
 20
182.2013619434
 30
0.0
 11
440.0502925742
 21
232.5046795498
 31
0.0
  0
LINE
  5
694
330
1F
100
AcDbEntity
  8
0
  6
Continuous
 62
     7
370
    25
100
AcDbLine
 10
440.0502925742
 20
232.5046795498
 30
0.0
 11
442.050292902
 21
232.5046795498
 31
0.0
  0
LINE
  5
695
330
1F
100
AcDbEntity
  8
0
  6
Continuous
 62
     7
370
    25
100
AcDbLine
 10
440.0502925742
 20
326.5046763312
 30
0.0
 11
440.0502925742
 21
374.6701317917
 31
0.0
  0
LINE
  5
696
330
1F
100
AcDbEntity
  8
0
  6
Continuous
 62
     7
370
    25
100
AcDbLine
 10
442.050292902
 20
326.5046763312
 30
0.0
 11
440.0502925742
 21
326.5046763312
 31
0.0
  0
LINE
  5
697
330
1F
100
AcDbEntity
  8
0
  6
Continuous
 62
     7
370
    25
100
AcDbLine
 10
450.0502923507
 20
232.5046795498
 30
0.0
 11
450.0502923507
 21
326.5046763312
 31
0.0
  0
LINE
  5
698
330
1F
100
AcDbEntity
  8
0
  6
Continuous
 62
     7
370
    25
100
AcDbLine
 10
440.0502925742
 20
326.5046763312
 30
0.0
 11
440.0502925742
 21
232.5046795498
 31
0.0
  0
LINE
  5
699
330
1F
100
AcDbEntity
  8
0
  6
Continuous
 62
     7
370
    25
100
AcDbLine
 10
435.0502936173
 20
182.2013619434
 30
0.0
 11
435.0502936173
 21
374.6701317917
 31
0.0
  0
LINE
  5
69A
330
1F
100
AcDbEntity
  8
0
  6
Continuous
 62
     7
370
    25
100
AcDbLine
 10
431.0502929616
 20
182.2013619434
 30
0.0
 11
431.0502929616
 21
374.6701317917
 31
0.0
  0
LINE
  5
69B
330
1F
100
AcDbEntity
  8
0
  6
Continuous
 62
     7
370
    25
100
AcDbLine
 10
427.050292306
 20
182.2013619434
 30
0.0
 11
427.050292306
 21
374.6701317917
 31
0.0
  0
ARC
  5
69C
330
1F
100
AcDbEntity
  8
FORMAT
370
    25
100
AcDbCircle
 10
459.0502928126
 20
321.5046779405
 30
0.0
 40
5.0
100
AcDbArc
 50
0.0
 51
90.0
  0
ARC
  5
69D
330
1F
100
AcDbEntity
  8
FORMAT
370
    25
100
AcDbCircle
 10
459.0502928126
 20
237.5046779405
 30
0.0
 40
5.0
100
AcDbArc
 50
270.0
 51
0.0
  0
INSERT
  5
6A4
102
{ACAD_REACTORS
330
6AB
102
}
330
1F
100
AcDbEntity
  8
FORMAT
100
AcDbBlockReference
  2
SW_NOTE_0_9
 10
449.0552264925
 20
164.7598035497
 30
0.0
  0
LEADER
  5
6AB
330
1F
100
AcDbEntity
  8
FORMAT
100
AcDbLeader
  3
SLDDIMSTYLE4
 73
     2
 76
     3
 10
463.2443601441
 20
233.3884227213
 30
0.0
 10
467.1739773389
 20
164.7598035497
 30
0.0
 10
449.0552264925
 20
164.7598035497
 30
0.0
340
6A4
  0
LINE
  5
6AC
330
1F
100
AcDbEntity
  8
FORMAT
  6
CENTERX2
370
    18
100
AcDbLine
 10
475.4423292357
 20
279.5046779405
 30
0.0
 11
425.4887698222
 21
279.5046779405
 31
0.0
  0
ENDSEC
  0
SECTION
  2
OBJECTS
  0
DICTIONARY
  5
C
330
0
100
AcDbDictionary
281
     1
  3
ACAD_GROUP
350
D
  3
ACAD_LAYOUT
350
1A
  3
ACAD_MLINESTYLE
350
17
  3
ACAD_PLOTSETTINGS
350
19
  3
ACAD_PLOTSTYLENAME
350
E
  3
ACAD_SCALELIST
350
47
  3
DWGPROPS
350
6AD
  0
DICTIONARY
  5
D
102
{ACAD_REACTORS
330
C
102
}
330
C
100
AcDbDictionary
281
     1
  0
DICTIONARY
  5
1A
102
{ACAD_REACTORS
330
C
102
}
330
C
100
AcDbDictionary
281
     1
  3
Layout1
350
1E
  3
Layout2
350
26
  3
Model
350
22
  0
DICTIONARY
  5
17
102
{ACAD_REACTORS
330
C
102
}
330
C
100
AcDbDictionary
281
     1
  3
Standard
350
18
  0
DICTIONARY
  5
19
102
{ACAD_REACTORS
330
C
102
}
330
C
100
AcDbDictionary
281
     1
  0
ACDBDICTIONARYWDFLT
  5
E
102
{ACAD_REACTORS
330
C
102
}
330
C
100
AcDbDictionary
281
     1
  3
Normal
350
F
100
AcDbDictionaryWithDefault
340
F
  0
DICTIONARY
  5
47
102
{ACAD_REACTORS
330
C
102
}
330
C
100
AcDbDictionary
281
     1
  3
A0
350
48
  3
A1
350
49
  3
A2
350
4A
  3
A3
350
4B
  3
A4
350
4C
  3
A5
350
4D
  3
A6
350
4E
  3
A7
350
4F
  3
A8
350
50
  3
A9
350
51
  3
B0
350
52
  3
B1
350
53
  3
B2
350
54
  3
B3
350
55
  3
B4
350
56
  3
B5
350
57
  3
B6
350
58
  3
B7
350
59
  3
B8
350
5A
  3
B9
350
5B
  3
C0
350
5C
  3
C1
350
5D
  3
C2
350
5E
  3
C3
350
5F
  3
C4
350
60
  3
C5
350
61
  3
C6
350
62
  3
C7
350
63
  3
C8
350
64
  3
C9
350
65
  3
D0
350
66
  3
D1
350
67
  3
D2
350
68
  0
XRECORD
  5
6AD
102
{ACAD_REACTORS
330
C
102
}
330
C
100
AcDbXrecord
280
     1
  1
DWGPROPS COOKIE
  2

  3

  4

  6

  7

  8
pieper
  9

300
=
301
=
302
=
303
=
304
=
305
=
306
=
307
=
308
=
309
=
 40
0.0
 41
2459551.413927523
 42
2459551.413932269
  1

 90
        0
  0
LAYOUT
  5
1E
102
{ACAD_REACTORS
330
1A
102
}
330
1A
100
AcDbPlotSettings
  1

  2
none_device
  4

  6

 40
0.0
 41
0.0
 42
0.0
 43
0.0
 44
0.0
 45
0.0
 46
0.0
 47
0.0
 48
0.0
 49
0.0
140
0.0
141
0.0
142
1.0
143
1.0
 70
   688
 72
     1
 73
     0
 74
     5
  7

 75
    16
147
1.0
148
0.0
149
0.0
100
AcDbLayout
  1
Layout1
 70
     1
 71
     1
 10
0.0
 20
0.0
 11
420.0
 21
297.0
 12
0.0
 22
0.0
 32
0.0
 14
1.0000000000E+20
 24
1.0000000000E+20
 34
1.0000000000E+20
 15
-1.0000000000E+20
 25
-1.0000000000E+20
 35
-1.0000000000E+20
146
0.0
 13
0.0
 23
0.0
 33
0.0
 16
1.0
 26
0.0
 36
0.0
 17
0.0
 27
1.0
 37
0.0
 76
     0
330
1B
  0
LAYOUT
  5
26
102
{ACAD_REACTORS
330
1A
102
}
330
1A
100
AcDbPlotSettings
  1

  2
none_device
  4

  6

 40
0.0
 41
0.0
 42
0.0
 43
0.0
 44
0.0
 45
0.0
 46
0.0
 47
0.0
 48
0.0
 49
0.0
140
0.0
141
0.0
142
1.0
143
1.0
 70
   688
 72
     1
 73
     0
 74
     5
  7

 75
    16
147
1.0
148
0.0
149
0.0
100
AcDbLayout
  1
Layout2
 70
     1
 71
     2
 10
0.0
 20
0.0
 11
0.0
 21
0.0
 12
0.0
 22
0.0
 32
0.0
 14
0.0
 24
0.0
 34
0.0
 15
0.0
 25
0.0
 35
0.0
146
0.0
 13
0.0
 23
0.0
 33
0.0
 16
1.0
 26
0.0
 36
0.0
 17
0.0
 27
1.0
 37
0.0
 76
     0
330
23
  0
LAYOUT
  5
22
102
{ACAD_REACTORS
330
1A
102
}
330
1A
100
AcDbPlotSettings
  1

  2
none_device
  4
Letter_(8.50_x_11.00_Inches)
  6

 40
6.35
 41
6.35
 42
6.35000508
 43
6.35000508
 44
215.9
 45
279.4
 46
0.0
 47
0.0
 48
0.0
 49
0.0
140
0.0
141
0.0
142
1.0
143
1.0
 70
  1712
 72
     1
 73
     0
 74
     0
  7

 75
     0
147
1.0
148
0.0
149
0.0
100
AcDbLayout
  1
Model
 70
     1
 71
     0
 10
0.0
 20
0.0
 11
594.0
 21
420.0
 12
0.0
 22
0.0
 32
0.0
 14
0.0
 24
0.0
 34
0.0
 15
594.0
 25
420.0
 35
0.0
146
0.0
 13
0.0
 23
0.0
 33
0.0
 16
1.0
 26
0.0
 36
0.0
 17
0.0
 27
1.0
 37
0.0
 76
     0
330
1F
331
29
  0
MLINESTYLE
  5
18
102
{ACAD_REACTORS
330
17
102
}
330
17
100
AcDbMlineStyle
  2
Standard
 70
     0
  3

 62
   256
 51
90.0
 52
90.0
 71
     2
 49
0.5
 62
   256
  6
BYLAYER
 49
-0.5
 62
   256
  6
BYLAYER
  0
ACDBPLACEHOLDER
  5
F
102
{ACAD_REACTORS
330
E
102
}
330
E
  0
SCALE
  5
48
102
{ACAD_REACTORS
330
47
102
}
330
47
100
AcDbScale
 70
     0
300
1:1
140
1.0
141
1.0
290
     1
  0
SCALE
  5
49
102
{ACAD_REACTORS
330
47
102
}
330
47
100
AcDbScale
 70
     0
300
1:2
140
1.0
141
2.0
290
     0
  0
SCALE
  5
4A
102
{ACAD_REACTORS
330
47
102
}
330
47
100
AcDbScale
 70
     0
300
1:4
140
1.0
141
4.0
290
     0
  0
SCALE
  5
4B
102
{ACAD_REACTORS
330
47
102
}
330
47
100
AcDbScale
 70
     0
300
1:5
140
1.0
141
5.0
290
     0
  0
SCALE
  5
4C
102
{ACAD_REACTORS
330
47
102
}
330
47
100
AcDbScale
 70
     0
300
1:8
140
1.0
141
8.0
290
     0
  0
SCALE
  5
4D
102
{ACAD_REACTORS
330
47
102
}
330
47
100
AcDbScale
 70
     0
300
1:10
140
1.0
141
10.0
290
     0
  0
SCALE
  5
4E
102
{ACAD_REACTORS
330
47
102
}
330
47
100
AcDbScale
 70
     0
300
1:16
140
1.0
141
16.0
290
     0
  0
SCALE
  5
4F
102
{ACAD_REACTORS
330
47
102
}
330
47
100
AcDbScale
 70
     0
300
1:20
140
1.0
141
20.0
290
     0
  0
SCALE
  5
50
102
{ACAD_REACTORS
330
47
102
}
330
47
100
AcDbScale
 70
     0
300
1:30
140
1.0
141
30.0
290
     0
  0
SCALE
  5
51
102
{ACAD_REACTORS
330
47
102
}
330
47
100
AcDbScale
 70
     0
300
1:40
140
1.0
141
40.0
290
     0
  0
SCALE
  5
52
102
{ACAD_REACTORS
330
47
102
}
330
47
100
AcDbScale
 70
     0
300
1:50
140
1.0
141
50.0
290
     0
  0
SCALE
  5
53
102
{ACAD_REACTORS
330
47
102
}
330
47
100
AcDbScale
 70
     0
300
1:100
140
1.0
141
100.0
290
     0
  0
SCALE
  5
54
102
{ACAD_REACTORS
330
47
102
}
330
47
100
AcDbScale
 70
     0
300
2:1
140
2.0
141
1.0
290
     0
  0
SCALE
  5
55
102
{ACAD_REACTORS
330
47
102
}
330
47
100
AcDbScale
 70
     0
300
4:1
140
4.0
141
1.0
290
     0
  0
SCALE
  5
56
102
{ACAD_REACTORS
330
47
102
}
330
47
100
AcDbScale
 70
     0
300
8:1
140
8.0
141
1.0
290
     0
  0
SCALE
  5
57
102
{ACAD_REACTORS
330
47
102
}
330
47
100
AcDbScale
 70
     0
300
10:1
140
10.0
141
1.0
290
     0
  0
SCALE
  5
58
102
{ACAD_REACTORS
330
47
102
}
330
47
100
AcDbScale
 70
     0
300
100:1
140
100.0
141
1.0
290
     0
  0
SCALE
  5
59
102
{ACAD_REACTORS
330
47
102
}
330
47
100
AcDbScale
 70
     0
300
1/128" = 1'-0"
140
0.0078125
141
12.0
290
     0
  0
SCALE
  5
5A
102
{ACAD_REACTORS
330
47
102
}
330
47
100
AcDbScale
 70
     0
300
1/64" = 1'-0"
140
0.015625
141
12.0
290
     0
  0
SCALE
  5
5B
102
{ACAD_REACTORS
330
47
102
}
330
47
100
AcDbScale
 70
     0
300
1/32" = 1'-0"
140
0.03125
141
12.0
290
     0
  0
SCALE
  5
5C
102
{ACAD_REACTORS
330
47
102
}
330
47
100
AcDbScale
 70
     0
300
1/16" = 1'-0"
140
0.0625
141
12.0
290
     0
  0
SCALE
  5
5D
102
{ACAD_REACTORS
330
47
102
}
330
47
100
AcDbScale
 70
     0
300
3/32" = 1'-0"
140
0.09375
141
12.0
290
     0
  0
SCALE
  5
5E
102
{ACAD_REACTORS
330
47
102
}
330
47
100
AcDbScale
 70
     0
300
1/8" = 1'-0"
140
0.125
141
12.0
290
     0
  0
SCALE
  5
5F
102
{ACAD_REACTORS
330
47
102
}
330
47
100
AcDbScale
 70
     0
300
3/16" = 1'-0"
140
0.1875
141
12.0
290
     0
  0
SCALE
  5
60
102
{ACAD_REACTORS
330
47
102
}
330
47
100
AcDbScale
 70
     0
300
1/4" = 1'-0"
140
0.25
141
12.0
290
     0
  0
SCALE
  5
61
102
{ACAD_REACTORS
330
47
102
}
330
47
100
AcDbScale
 70
     0
300
3/8" = 1'-0"
140
0.375
141
12.0
290
     0
  0
SCALE
  5
62
102
{ACAD_REACTORS
330
47
102
}
330
47
100
AcDbScale
 70
     0
300
1/2" = 1'-0"
140
0.5
141
12.0
290
     0
  0
SCALE
  5
63
102
{ACAD_REACTORS
330
47
102
}
330
47
100
AcDbScale
 70
     0
300
3/4" = 1'-0"
140
0.75
141
12.0
290
     0
  0
SCALE
  5
64
102
{ACAD_REACTORS
330
47
102
}
330
47
100
AcDbScale
 70
     0
300
1" = 1'-0"
140
1.0
141
12.0
290
     0
  0
SCALE
  5
65
102
{ACAD_REACTORS
330
47
102
}
330
47
100
AcDbScale
 70
     0
300
1-1/2" = 1'-0"
140
1.5
141
12.0
290
     0
  0
SCALE
  5
66
102
{ACAD_REACTORS
330
47
102
}
330
47
100
AcDbScale
 70
     0
300
3" = 1'-0"
140
3.0
141
12.0
290
     0
  0
SCALE
  5
67
102
{ACAD_REACTORS
330
47
102
}
330
47
100
AcDbScale
 70
     0
300
6" = 1'-0"
140
6.0
141
12.0
290
     0
  0
SCALE
  5
68
102
{ACAD_REACTORS
330
47
102
}
330
47
100
AcDbScale
 70
     0
300
1'-0" = 1'-0"
140
12.0
141
12.0
290
     0
  0
ENDSEC
  0
EOF
