  0
SECTION
  2
HEADER
  9
$ACADVER
  1
AC1015
  9
$ACADMAINTVER
 70
     6
  9
$DWGCODEPAGE
  3
ANSI_1252
  9
$INSBASE
 10
0.0
 20
0.0
 30
0.0
  9
$EXTMIN
 10
0.0
 20
0.0
 30
0.0
  9
$EXTMAX
 10
594.0
 20
420.0
 30
0.0
  9
$LIMMIN
 10
0.0
 20
0.0
  9
$LIMMAX
 10
594.0
 20
420.0
  9
$ORTHOMODE
 70
     0
  9
$REGENMODE
 70
     1
  9
$FILLMODE
 70
     1
  9
$QTEXTMODE
 70
     0
  9
$MIRRTEXT
 70
     1
  9
$LTSCALE
 40
1.0
  9
$ATTMODE
 70
     1
  9
$TEXTSIZE
 40
3.5
  9
$TRACEWID
 40
1.0
  9
$TEXTSTYLE
  7
STANDARD
  9
$CLAYER
  8
0
  9
$CELTYPE
  6
ByLayer
  9
$CECOLOR
 62
   256
  9
$CELTSCALE
 40
1.0
  9
$DISPSILH
 70
     0
  9
$DIMSCALE
 40
1.0
  9
$DIMASZ
 40
3.302
  9
$DIMEXO
 40
1.0
  9
$DIMDLI
 40
3.75
  9
$DIMRND
 40
0.0
  9
$DIMDLE
 40
0.0
  9
$DIMEXE
 40
1.0
  9
$DIMTP
 40
0.0
  9
$DIMTM
 40
0.0
  9
$DIMTXT
 40
3.5
  9
$DIMCEN
 40
2.5
  9
$DIMTSZ
 40
0.0
  9
$DIMTOL
 70
     0
  9
$DIMLIM
 70
     0
  9
$DIMTIH
 70
     1
  9
$DIMTOH
 70
     1
  9
$DIMSE1
 70
     0
  9
$DIMSE2
 70
     0
  9
$DIMTAD
 70
     1
  9
$DIMZIN
 70
     0
  9
$DIMBLK
  1

  9
$DIMASO
 70
     1
  9
$DIMSHO
 70
     1
  9
$DIMPOST
  1

  9
$DIMAPOST
  1

  9
$DIMALT
 70
     0
  9
$DIMALTD
 70
     3
  9
$DIMALTF
 40
0.0393700787
  9
$DIMLFAC
 40
1.0
  9
$DIMTOFL
 70
     1
  9
$DIMTVP
 40
0.0
  9
$DIMTIX
 70
     0
  9
$DIMSOXD
 70
     0
  9
$DIMSAH
 70
     0
  9
$DIMBLK1
  1

  9
$DIMBLK2
  1

  9
$DIMSTYLE
  2
ISO-25
  9
$DIMCLRD
 70
     0
  9
$DIMCLRE
 70
     0
  9
$DIMCLRT
 70
     0
  9
$DIMTFAC
 40
1.0
  9
$DIMGAP
 40
3.0
  9
$DIMJUST
 70
     0
  9
$DIMSD1
 70
     0
  9
$DIMSD2
 70
     0
  9
$DIMTOLJ
 70
     0
  9
$DIMTZIN
 70
     0
  9
$DIMALTZ
 70
     0
  9
$DIMALTTZ
 70
     0
  9
$DIMUPT
 70
     0
  9
$DIMDEC
 70
     2
  9
$DIMTDEC
 70
     2
  9
$DIMALTU
 70
     2
  9
$DIMALTTD
 70
     3
  9
$DIMTXSTY
  7
STANDARD
  9
$DIMAUNIT
 70
     0
  9
$DIMADEC
 70
     2
  9
$DIMALTRND
 40
0.0
  9
$DIMAZIN
 70
     0
  9
$DIMDSEP
 70
    44
  9
$DIMATFIT
 70
     3
  9
$DIMFRAC
 70
     0
  9
$DIMLDRBLK
  1

  9
$DIMLUNIT
 70
     2
  9
$DIMLWD
 70
    -2
  9
$DIMLWE
 70
    -2
  9
$DIMTMOVE
 70
     0
  9
$LUNITS
 70
     2
  9
$LUPREC
 70
     2
  9
$SKETCHINC
 40
1.0
  9
$FILLETRAD
 40
10.0
  9
$AUNITS
 70
     0
  9
$AUPREC
 70
     2
  9
$MENU
  1
.
  9
$ELEVATION
 40
0.0
  9
$PELEVATION
 40
0.0
  9
$THICKNESS
 40
0.0
  9
$LIMCHECK
 70
     0
  9
$CHAMFERA
 40
0.0
  9
$CHAMFERB
 40
0.0
  9
$CHAMFERC
 40
0.0
  9
$CHAMFERD
 40
0.0
  9
$SKPOLY
 70
     0
  9
$TDCREATE
 40
2459551.453982778
  9
$TDUCREATE
 40
2459551.412316111
  9
$TDUPDATE
 40
2459551.4539889
  9
$TDUUPDATE
 40
2459551.412322234
  9
$TDINDWG
 40
0.0000000116
  9
$TDUSRTIMER
 40
0.0000000116
  9
$USRTIMER
 70
     1
  9
$ANGBASE
 50
0.0
  9
$ANGDIR
 70
     0
  9
$PDMODE
 70
     0
  9
$PDSIZE
 40
-1.0
  9
$PLINEWID
 40
0.0
  9
$SPLFRAME
 70
     0
  9
$SPLINETYPE
 70
     6
  9
$SPLINESEGS
 70
     8
  9
$HANDSEED
  5
625
  9
$SURFTAB1
 70
     6
  9
$SURFTAB2
 70
     6
  9
$SURFTYPE
 70
     6
  9
$SURFU
 70
     6
  9
$SURFV
 70
     6
  9
$UCSBASE
  2

  9
$UCSNAME
  2

  9
$UCSORG
 10
0.0
 20
0.0
 30
0.0
  9
$UCSXDIR
 10
1.0
 20
0.0
 30
0.0
  9
$UCSYDIR
 10
0.0
 20
1.0
 30
0.0
  9
$UCSORTHOREF
  2

  9
$UCSORTHOVIEW
 70
     0
  9
$UCSORGTOP
 10
0.0
 20
0.0
 30
0.0
  9
$UCSORGBOTTOM
 10
0.0
 20
0.0
 30
0.0
  9
$UCSORGLEFT
 10
0.0
 20
0.0
 30
0.0
  9
$UCSORGRIGHT
 10
0.0
 20
0.0
 30
0.0
  9
$UCSORGFRONT
 10
0.0
 20
0.0
 30
0.0
  9
$UCSORGBACK
 10
0.0
 20
0.0
 30
0.0
  9
$PUCSBASE
  2

  9
$PUCSNAME
  2

  9
$PUCSORG
 10
0.0
 20
0.0
 30
0.0
  9
$PUCSXDIR
 10
1.0
 20
0.0
 30
0.0
  9
$PUCSYDIR
 10
0.0
 20
1.0
 30
0.0
  9
$PUCSORTHOREF
  2

  9
$PUCSORTHOVIEW
 70
     0
  9
$PUCSORGTOP
 10
0.0
 20
0.0
 30
0.0
  9
$PUCSORGBOTTOM
 10
0.0
 20
0.0
 30
0.0
  9
$PUCSORGLEFT
 10
0.0
 20
0.0
 30
0.0
  9
$PUCSORGRIGHT
 10
0.0
 20
0.0
 30
0.0
  9
$PUCSORGFRONT
 10
0.0
 20
0.0
 30
0.0
  9
$PUCSORGBACK
 10
0.0
 20
0.0
 30
0.0
  9
$USERI1
 70
     0
  9
$USERI2
 70
     0
  9
$USERI3
 70
     0
  9
$USERI4
 70
     0
  9
$USERI5
 70
     0
  9
$USERR1
 40
0.0
  9
$USERR2
 40
0.0
  9
$USERR3
 40
0.0
  9
$USERR4
 40
0.0
  9
$USERR5
 40
0.0
  9
$WORLDVIEW
 70
     1
  9
$SHADEDGE
 70
     3
  9
$SHADEDIF
 70
    70
  9
$TILEMODE
 70
     1
  9
$MAXACTVP
 70
    64
  9
$PINSBASE
 10
0.0
 20
0.0
 30
0.0
  9
$PLIMCHECK
 70
     0
  9
$PEXTMIN
 10
1.0000000000E+20
 20
1.0000000000E+20
 30
1.0000000000E+20
  9
$PEXTMAX
 10
-1.0000000000E+20
 20
-1.0000000000E+20
 30
-1.0000000000E+20
  9
$PLIMMIN
 10
0.0
 20
0.0
  9
$PLIMMAX
 10
420.0
 20
297.0
  9
$UNITMODE
 70
     0
  9
$VISRETAIN
 70
     1
  9
$PLINEGEN
 70
     0
  9
$PSLTSCALE
 70
     1
  9
$TREEDEPTH
 70
  3020
  9
$CMLSTYLE
  2
Standard
  9
$CMLJUST
 70
     0
  9
$CMLSCALE
 40
20.0
  9
$PROXYGRAPHICS
 70
     1
  9
$MEASUREMENT
 70
     1
  9
$CELWEIGHT
370
    -1
  9
$ENDCAPS
280
     0
  9
$JOINSTYLE
280
     0
  9
$LWDISPLAY
290
     1
  9
$INSUNITS
 70
     4
  9
$HYPERLINKBASE
  1

  9
$STYLESHEET
  1

  9
$XEDIT
290
     1
  9
$CEPSNTYPE
380
     0
  9
$PSTYLEMODE
290
     1
  9
$FINGERPRINTGUID
  2
{9ab73e7f-95a5-4f8c-b1f1-edfe8cf175a9}
  9
$VERSIONGUID
  2
{FAEB1C32-E019-11D5-929B-00C0DF256EC4}
  9
$EXTNAMES
290
     1
  9
$PSVPSCALE
 40
0.0
  9
$OLESTARTUP
290
     0
  0
ENDSEC
  0
SECTION
  2
CLASSES
  0
CLASS
  1
ACDBDICTIONARYWDFLT
  2
AcDbDictionaryWithDefault
  3
ObjectDBX Classes
 90
        0
280
     0
281
     0
  0
CLASS
  1
VISUALSTYLE
  2
AcDbVisualStyle
  3
ObjectDBX Classes
 90
     4095
280
     0
281
     0
  0
CLASS
  1
MATERIAL
  2
AcDbMaterial
  3
ObjectDBX Classes
 90
     1153
280
     0
281
     0
  0
CLASS
  1
SCALE
  2
AcDbScale
  3
ObjectDBX Classes
 90
     1153
280
     0
281
     0
  0
CLASS
  1
TABLESTYLE
  2
AcDbTableStyle
  3
ObjectDBX Classes
 90
     4095
280
     0
281
     0
  0
CLASS
  1
MLEADERSTYLE
  2
AcDbMLeaderStyle
  3
ACDB_MLEADERSTYLE_CLASS
 90
     4095
280
     0
281
     0
  0
CLASS
  1
SUN
  2
AcDbSun
  3
SCENEOE
 90
     1153
280
     0
281
     0
  0
CLASS
  1
ACDBPLACEHOLDER
  2
AcDbPlaceHolder
  3
ObjectDBX Classes
 90
        0
280
     0
281
     0
  0
CLASS
  1
LAYOUT
  2
AcDbLayout
  3
ObjectDBX Classes
 90
        0
280
     0
281
     0
  0
ENDSEC
  0
SECTION
  2
TABLES
  0
TABLE
  2
VPORT
  5
8
330
0
100
AcDbSymbolTable
 70
     1
  0
VPORT
  5
29
330
8
100
AcDbSymbolTableRecord
100
AcDbViewportTableRecord
  2
*Active
 70
     0
 10
0.0
 20
0.0
 11
1.0
 21
1.0
 12
297.0
 22
210.0
 13
0.0
 23
0.0
 14
10.0
 24
10.0
 15
10.0
 25
10.0
 16
0.0
 26
0.0
 36
1.0
 17
0.0
 27
0.0
 37
0.0
 40
420.0
 41
1.4142857143
 42
50.0
 43
0.0
 44
0.0
 50
0.0
 51
0.0
 71
     0
 72
  2000
 73
     1
 74
     3
 75
     0
 76
     0
 77
     0
 78
     0
281
     0
 65
     1
110
0.0
120
0.0
130
0.0
111
1.0
121
0.0
131
0.0
112
0.0
122
1.0
132
0.0
 79
     0
146
0.0
  0
ENDTAB
  0
TABLE
  2
LTYPE
  5
5
330
0
100
AcDbSymbolTable
 70
     6
  0
LTYPE
  5
14
330
5
100
AcDbSymbolTableRecord
100
AcDbLinetypeTableRecord
  2
ByBlock
 70
     0
  3

 72
    65
 73
     0
 40
0.0
  0
LTYPE
  5
15
330
5
100
AcDbSymbolTableRecord
100
AcDbLinetypeTableRecord
  2
ByLayer
 70
     0
  3

 72
    65
 73
     0
 40
0.0
  0
LTYPE
  5
16
330
5
100
AcDbSymbolTableRecord
100
AcDbLinetypeTableRecord
  2
Continuous
 70
     0
  3
Solid line
 72
    65
 73
     0
 40
0.0
  0
LTYPE
  5
6E
330
5
100
AcDbSymbolTableRecord
100
AcDbLinetypeTableRecord
  2
HIDDEN
 70
     0
  3
Hidden __ __ __ __ __ __ __ __ __ __ __ __ __ __
 72
    65
 73
     2
 40
1.905
 49
1.27
 74
     0
 49
-0.635
 74
     0
  0
LTYPE
  5
6F
330
5
100
AcDbSymbolTableRecord
100
AcDbLinetypeTableRecord
  2
PHANTOM
 70
     0
  3
Phantom ______  __  __  ______  __  __  ______
 72
    65
 73
     6
 40
12.7
 49
6.35
 74
     0
 49
-1.27
 74
     0
 49
1.27
 74
     0
 49
-1.27
 74
     0
 49
1.27
 74
     0
 49
-1.27
 74
     0
  0
LTYPE
  5
70
330
5
100
AcDbSymbolTableRecord
100
AcDbLinetypeTableRecord
  2
CENTER
 70
     0
  3
Center ____ _ ____ _ ____ _ ____ _ ____ _ ____
 72
    65
 73
     4
 40
10.16
 49
6.35
 74
     0
 49
-1.27
 74
     0
 49
1.27
 74
     0
 49
-1.27
 74
     0
  0
LTYPE
  5
71
330
5
100
AcDbSymbolTableRecord
100
AcDbLinetypeTableRecord
  2
CENTERX2
 70
     0
  3
Center (2x) ________  __  ________  __  _____
 72
    65
 73
     4
 40
20.32
 49
12.7
 74
     0
 49
-2.54
 74
     0
 49
2.54
 74
     0
 49
-2.54
 74
     0
  0
LTYPE
  5
72
330
5
100
AcDbSymbolTableRecord
100
AcDbLinetypeTableRecord
  2
DOT2
 70
     0
  3
Dot (.5x) ........................................
 72
    65
 73
     2
 40
0.635
 49
0.0
 74
     0
 49
-0.635
 74
     0
  0
ENDTAB
  0
TABLE
  2
LAYER
  5
2
330
0
100
AcDbSymbolTable
 70
     7
  0
LAYER
  5
10
330
2
100
AcDbSymbolTableRecord
100
AcDbLayerTableRecord
  2
0
 70
     0
 62
     7
  6
Continuous
370
    -3
390
F
  0
LAYER
  5
73
330
2
100
AcDbSymbolTableRecord
100
AcDbLayerTableRecord
  2
FORMAT
 70
     0
 62
     7
  6
Continuous
370
    -3
390
F
  0
LAYER
  5
74
330
2
100
AcDbSymbolTableRecord
100
AcDbLayerTableRecord
  2
VORLAGE
 70
     0
 62
     7
  6
Continuous
370
    -3
390
F
  0
LAYER
  5
75
330
2
100
AcDbSymbolTableRecord
100
AcDbLayerTableRecord
  2
1
 70
     0
 62
   179
  6
Continuous
370
    -3
390
F
  0
LAYER
  5
76
330
2
100
AcDbSymbolTableRecord
100
AcDbLayerTableRecord
  2
LAYER0
 70
     0
 62
     7
  6
Continuous
370
    -3
390
F
  0
LAYER
  5
77
330
2
100
AcDbSymbolTableRecord
100
AcDbLayerTableRecord
  2
BEMASSUNG
 70
     0
 62
     1
  6
Continuous
370
    -3
390
F
  0
LAYER
  5
78
330
2
100
AcDbSymbolTableRecord
100
AcDbLayerTableRecord
  2
ÄNDERUNG
 70
     0
 62
     1
  6
Continuous
370
    -3
390
F
  0
ENDTAB
  0
TABLE
  2
STYLE
  5
3
330
0
100
AcDbSymbolTable
 70
     5
  0
STYLE
  5
11
330
3
100
AcDbSymbolTableRecord
100
AcDbTextStyleTableRecord
  2
STANDARD
 70
     0
 40
0.0
 41
1.0
 50
0.0
 71
     0
 42
3.5
  3
ARIAL.TTF
  4

1001
ACAD
1000
ARIAL
1071
       34
  0
STYLE
  5
83
330
3
100
AcDbSymbolTableRecord
100
AcDbTextStyleTableRecord
  2
SLDTEXTSTYLE0
 70
     0
 40
0.0
 41
0.948
 50
0.0
 71
     0
 42
3.5
  3
ARIAL.TTF
  4

1001
ACAD
1000
Arial
1071
      290
  0
STYLE
  5
EE
330
3
100
AcDbSymbolTableRecord
100
AcDbTextStyleTableRecord
  2
SLDTEXTSTYLE1
 70
     0
 40
0.0
 41
1.0
 50
0.0
 71
     0
 42
3.5
  3
ARIALUNI.TTF
  4

1001
ACAD
1000
Arial Unicode MS
1071
 33554722
  0
STYLE
  5
F4
330
3
100
AcDbSymbolTableRecord
100
AcDbTextStyleTableRecord
  2
SLDTEXTSTYLE2
 70
     0
 40
0.0
 41
0.87
 50
0.0
 71
     0
 42
3.5
  3
ARIALN.TTF
  4

1001
ACAD
1000
Arial Narrow
1071
      290
  0
STYLE
  5
119
330
3
100
AcDbSymbolTableRecord
100
AcDbTextStyleTableRecord
  2
SLDTEXTSTYLE3
 70
     0
 40
0.0
 41
0.948
 50
0.0
 71
     0
 42
3.5
  3
ARIALBD.TTF
  4

1001
ACAD
1000
Arial
1071
 33554722
  0
ENDTAB
  0
TABLE
  2
VIEW
  5
6
330
0
100
AcDbSymbolTable
 70
     0
  0
ENDTAB
  0
TABLE
  2
UCS
  5
7
330
0
100
AcDbSymbolTable
 70
     0
  0
ENDTAB
  0
TABLE
  2
APPID
  5
9
330
0
100
AcDbSymbolTable
 70
     1
  0
APPID
  5
12
330
9
100
AcDbSymbolTableRecord
100
AcDbRegAppTableRecord
  2
ACAD
 70
     0
  0
ENDTAB
  0
TABLE
  2
DIMSTYLE
  5
A
330
0
100
AcDbSymbolTable
 70
     7
100
AcDbDimStyleTable
  0
DIMSTYLE
105
27
330
A
100
AcDbSymbolTableRecord
100
AcDbDimStyleTableRecord
  2
ISO-25
 70
     0
 41
2.5
 42
0.625
 43
3.75
 44
1.25
 73
     0
 74
     0
 77
     1
 78
     8
140
2.5
141
2.5
143
0.0393700787
147
0.625
171
     3
172
     1
178
     0
271
     2
272
     2
274
     3
278
    44
283
     0
284
     8
340
11
  0
DIMSTYLE
105
1CE
102
{ACAD_REACTORS
330
1CD
330
27A
330
284
330
28E
330
298
330
2A2
330
37D
330
387
330
3A0
330
3AA
330
3B4
330
45E
330
474
330
47E
330
4A4
330
4BC
330
4C6
330
4D0
330
572
330
5E4
330
5EF
330
5F9
330
603
102
}
330
A
100
AcDbSymbolTableRecord
100
AcDbDimStyleTableRecord
  2
SLDDIMSTYLE0
 70
     0
 41
3.302
 44
0.0
 45
0.000000001
 73
     0
 74
     0
 77
     1
 78
    12
 79
     3
140
3.5
147
0.875
173
     1
178
     0
271
     2
272
     2
276
     2
284
    12
340
83
  0
DIMSTYLE
105
1D9
102
{ACAD_REACTORS
330
1D8
330
2AC
330
468
330
57C
330
616
102
}
330
A
100
AcDbSymbolTableRecord
100
AcDbDimStyleTableRecord
  2
SLDDIMSTYLE1
 70
     0
 41
3.302
 44
0.0
 45
0.000000001
 73
     0
 74
     0
 77
     1
 78
    12
 79
     3
140
3.5
147
0.875
172
     1
173
     1
178
     0
271
     2
272
     2
276
     2
284
    12
289
     0
340
83
  0
DIMSTYLE
105
2B9
102
{ACAD_REACTORS
330
2B8
102
}
330
A
100
AcDbSymbolTableRecord
100
AcDbDimStyleTableRecord
  2
SLDDIMSTYLE2
 70
     0
 41
3.302
 44
0.0
 45
0.000000001
 73
     0
 74
     0
 77
     1
 78
    12
 79
     3
140
3.5
147
0.875
173
     1
178
     0
271
     0
272
     2
276
     2
284
    12
340
83
  0
DIMSTYLE
105
392
102
{ACAD_REACTORS
330
391
330
399
330
4AE
330
4B5
102
}
330
A
100
AcDbSymbolTableRecord
100
AcDbDimStyleTableRecord
  2
SLDDIMSTYLE3
 70
     0
 41
3.302
 44
0.0
 45
0.000000001
 73
     0
 74
     0
 77
     1
 78
    12
 79
     3
140
3.5
141
0.0
147
0.875
173
     1
178
     0
271
     2
272
     2
276
     2
284
    12
340
83
  0
DIMSTYLE
105
489
102
{ACAD_REACTORS
330
488
330
60D
102
}
330
A
100
AcDbSymbolTableRecord
100
AcDbDimStyleTableRecord
  2
SLDDIMSTYLE4
 70
     0
 41
3.302
 44
0.0
 45
0.000000001
 73
     0
 74
     0
 77
     1
 78
    12
 79
     3
140
3.5
147
0.875
173
     1
178
     0
271
     2
272
     2
276
     2
284
    12
340
83
344
48A
  0
DIMSTYLE
105
55F
330
A
100
AcDbSymbolTableRecord
100
AcDbDimStyleTableRecord
  2
SLDDIMSTYLE5
 70
     0
 41
1.016
 44
0.0
 45
0.000000001
146
1.016
147
0.0
173
     1
178
     0
271
     0
272
     0
276
     2
340
11
341
560
343
560
344
560
  0
ENDTAB
  0
TABLE
  2
BLOCK_RECORD
  5
1
330
0
100
AcDbSymbolTable
 70
    85
  0
BLOCK_RECORD
  5
1F
330
1
100
AcDbSymbolTableRecord
100
AcDbBlockTableRecord
  2
*Model_Space
340
22
  0
BLOCK_RECORD
  5
1B
330
1
100
AcDbSymbolTableRecord
100
AcDbBlockTableRecord
  2
*Paper_Space
340
1E
  0
BLOCK_RECORD
  5
23
330
1
100
AcDbSymbolTableRecord
100
AcDbBlockTableRecord
  2
*Paper_Space0
340
26
  0
BLOCK_RECORD
  5
79
330
1
100
AcDbSymbolTableRecord
100
AcDbBlockTableRecord
  2
Prüfmaß DE
340
0
  0
BLOCK_RECORD
  5
80
330
1
100
AcDbSymbolTableRecord
100
AcDbBlockTableRecord
  2
SW_NOTE_0
340
0
102
{BLKREFS
331
85
102
}
  0
BLOCK_RECORD
  5
86
330
1
100
AcDbSymbolTableRecord
100
AcDbBlockTableRecord
  2
Werkstückkanten DE
340
0
  0
BLOCK_RECORD
  5
9D
330
1
100
AcDbSymbolTableRecord
100
AcDbBlockTableRecord
  2
SW_NOTE_0_1
340
0
102
{BLKREFS
331
A2
102
}
  0
BLOCK_RECORD
  5
A5
330
1
100
AcDbSymbolTableRecord
100
AcDbBlockTableRecord
  2
Änderung a
340
0
  0
BLOCK_RECORD
  5
A9
330
1
100
AcDbSymbolTableRecord
100
AcDbBlockTableRecord
  2
SW_NOTE_0_2
340
0
102
{BLKREFS
331
AD
102
}
  0
BLOCK_RECORD
  5
AE
330
1
100
AcDbSymbolTableRecord
100
AcDbBlockTableRecord
  2
Detailordner2
340
0
  0
BLOCK_RECORD
  5
B2
330
1
100
AcDbSymbolTableRecord
100
AcDbBlockTableRecord
  2
SW_NOTE_0_3
340
0
102
{BLKREFS
331
B6
102
}
  0
BLOCK_RECORD
  5
B7
330
1
100
AcDbSymbolTableRecord
100
AcDbBlockTableRecord
  2
Block1_4
340
0
102
{BLKREFS
331
10F
102
}
  0
BLOCK_RECORD
  5
C5
330
1
100
AcDbSymbolTableRecord
100
AcDbBlockTableRecord
  2
SW_NOTE_0_4
340
0
102
{BLKREFS
331
CA
102
}
  0
BLOCK_RECORD
  5
CB
330
1
100
AcDbSymbolTableRecord
100
AcDbBlockTableRecord
  2
Block2_4
340
0
102
{BLKREFS
331
110
102
}
  0
BLOCK_RECORD
  5
EB
330
1
100
AcDbSymbolTableRecord
100
AcDbBlockTableRecord
  2
SW_NOTE_0_5
340
0
102
{BLKREFS
331
F0
102
}
  0
BLOCK_RECORD
  5
F1
330
1
100
AcDbSymbolTableRecord
100
AcDbBlockTableRecord
  2
SW_NOTE_0_6
340
0
102
{BLKREFS
331
F8
102
}
  0
BLOCK_RECORD
  5
111
330
1
100
AcDbSymbolTableRecord
100
AcDbBlockTableRecord
  2
SW_NOTE_0_7
340
0
102
{BLKREFS
331
118
102
}
  0
BLOCK_RECORD
  5
12C
330
1
100
AcDbSymbolTableRecord
100
AcDbBlockTableRecord
  2
SW_NOTE_0_8
340
0
102
{BLKREFS
331
138
102
}
  0
BLOCK_RECORD
  5
1CF
330
1
100
AcDbSymbolTableRecord
100
AcDbBlockTableRecord
  2
_D
340
0
  0
BLOCK_RECORD
  5
1DA
330
1
100
AcDbSymbolTableRecord
100
AcDbBlockTableRecord
  2
_D_1
340
0
  0
BLOCK_RECORD
  5
27B
330
1
100
AcDbSymbolTableRecord
100
AcDbBlockTableRecord
  2
_D_2
340
0
  0
BLOCK_RECORD
  5
285
330
1
100
AcDbSymbolTableRecord
100
AcDbBlockTableRecord
  2
_D_3
340
0
  0
BLOCK_RECORD
  5
28F
330
1
100
AcDbSymbolTableRecord
100
AcDbBlockTableRecord
  2
_D_4
340
0
  0
BLOCK_RECORD
  5
299
330
1
100
AcDbSymbolTableRecord
100
AcDbBlockTableRecord
  2
_D_5
340
0
  0
BLOCK_RECORD
  5
2A3
330
1
100
AcDbSymbolTableRecord
100
AcDbBlockTableRecord
  2
_D_6
340
0
  0
BLOCK_RECORD
  5
2AD
330
1
100
AcDbSymbolTableRecord
100
AcDbBlockTableRecord
  2
_D_7
340
0
  0
BLOCK_RECORD
  5
2BA
330
1
100
AcDbSymbolTableRecord
100
AcDbBlockTableRecord
  2
_D_8
340
0
  0
BLOCK_RECORD
  5
2C6
330
1
100
AcDbSymbolTableRecord
100
AcDbBlockTableRecord
  2
SW_CENTERMARKSYMBOL_0
340
0
102
{BLKREFS
331
2D1
102
}
  0
BLOCK_RECORD
  5
2D2
330
1
100
AcDbSymbolTableRecord
100
AcDbBlockTableRecord
  2
SW_CENTERMARKSYMBOL_1
340
0
102
{BLKREFS
331
2DD
102
}
  0
BLOCK_RECORD
  5
2DE
330
1
100
AcDbSymbolTableRecord
100
AcDbBlockTableRecord
  2
SW_CENTERMARKSYMBOL_2
340
0
102
{BLKREFS
331
2E9
102
}
  0
BLOCK_RECORD
  5
2EA
330
1
100
AcDbSymbolTableRecord
100
AcDbBlockTableRecord
  2
SW_CENTERMARKSYMBOL_3
340
0
102
{BLKREFS
331
2F5
102
}
  0
BLOCK_RECORD
  5
2F6
330
1
100
AcDbSymbolTableRecord
100
AcDbBlockTableRecord
  2
SW_CENTERMARKSYMBOL_4
340
0
102
{BLKREFS
331
301
102
}
  0
BLOCK_RECORD
  5
302
330
1
100
AcDbSymbolTableRecord
100
AcDbBlockTableRecord
  2
SW_CENTERMARKSYMBOL_5
340
0
102
{BLKREFS
331
30D
102
}
  0
BLOCK_RECORD
  5
30E
330
1
100
AcDbSymbolTableRecord
100
AcDbBlockTableRecord
  2
SW_CENTERMARKSYMBOL_6
340
0
102
{BLKREFS
331
319
102
}
  0
BLOCK_RECORD
  5
31A
330
1
100
AcDbSymbolTableRecord
100
AcDbBlockTableRecord
  2
SW_CENTERMARKSYMBOL_7
340
0
102
{BLKREFS
331
325
102
}
  0
BLOCK_RECORD
  5
326
330
1
100
AcDbSymbolTableRecord
100
AcDbBlockTableRecord
  2
SW_CENTERMARKSYMBOL_8
340
0
102
{BLKREFS
331
331
102
}
  0
BLOCK_RECORD
  5
37E
330
1
100
AcDbSymbolTableRecord
100
AcDbBlockTableRecord
  2
_D_9
340
0
  0
BLOCK_RECORD
  5
388
330
1
100
AcDbSymbolTableRecord
100
AcDbBlockTableRecord
  2
_D_10
340
0
  0
BLOCK_RECORD
  5
393
330
1
100
AcDbSymbolTableRecord
100
AcDbBlockTableRecord
  2
_D_11
340
0
  0
BLOCK_RECORD
  5
39A
330
1
100
AcDbSymbolTableRecord
100
AcDbBlockTableRecord
  2
_D_12
340
0
  0
BLOCK_RECORD
  5
3A1
330
1
100
AcDbSymbolTableRecord
100
AcDbBlockTableRecord
  2
_D_13
340
0
  0
BLOCK_RECORD
  5
3AB
330
1
100
AcDbSymbolTableRecord
100
AcDbBlockTableRecord
  2
_D_14
340
0
  0
BLOCK_RECORD
  5
3B5
330
1
100
AcDbSymbolTableRecord
100
AcDbBlockTableRecord
  2
_D_15
340
0
  0
BLOCK_RECORD
  5
3BF
330
1
100
AcDbSymbolTableRecord
100
AcDbBlockTableRecord
  2
SW_NOTE_0_9
340
0
102
{BLKREFS
331
3C4
102
}
  0
BLOCK_RECORD
  5
3C5
330
1
100
AcDbSymbolTableRecord
100
AcDbBlockTableRecord
  2
SW_CENTERMARKSYMBOL_9
340
0
102
{BLKREFS
331
3D0
102
}
  0
BLOCK_RECORD
  5
3D1
330
1
100
AcDbSymbolTableRecord
100
AcDbBlockTableRecord
  2
SW_CENTERMARKSYMBOL_10
340
0
102
{BLKREFS
331
3DC
102
}
  0
BLOCK_RECORD
  5
3DD
330
1
100
AcDbSymbolTableRecord
100
AcDbBlockTableRecord
  2
SW_CENTERMARKSYMBOL_11
340
0
102
{BLKREFS
331
3E8
102
}
  0
BLOCK_RECORD
  5
3E9
330
1
100
AcDbSymbolTableRecord
100
AcDbBlockTableRecord
  2
SW_CENTERMARKSYMBOL_12
340
0
102
{BLKREFS
331
3F4
102
}
  0
BLOCK_RECORD
  5
3F5
330
1
100
AcDbSymbolTableRecord
100
AcDbBlockTableRecord
  2
SW_CENTERMARKSYMBOL_13
340
0
102
{BLKREFS
331
400
102
}
  0
BLOCK_RECORD
  5
401
330
1
100
AcDbSymbolTableRecord
100
AcDbBlockTableRecord
  2
SW_CENTERMARKSYMBOL_14
340
0
102
{BLKREFS
331
40C
102
}
  0
BLOCK_RECORD
  5
40D
330
1
100
AcDbSymbolTableRecord
100
AcDbBlockTableRecord
  2
SW_CENTERMARKSYMBOL_15
340
0
102
{BLKREFS
331
418
102
}
  0
BLOCK_RECORD
  5
419
330
1
100
AcDbSymbolTableRecord
100
AcDbBlockTableRecord
  2
SW_CENTERMARKSYMBOL_16
340
0
102
{BLKREFS
331
424
102
}
  0
BLOCK_RECORD
  5
43E
330
1
100
AcDbSymbolTableRecord
100
AcDbBlockTableRecord
  2
SW_HATCH_0
340
0
102
{BLKREFS
331
45D
102
}
  0
BLOCK_RECORD
  5
45F
330
1
100
AcDbSymbolTableRecord
100
AcDbBlockTableRecord
  2
_D_16
340
0
  0
BLOCK_RECORD
  5
469
330
1
100
AcDbSymbolTableRecord
100
AcDbBlockTableRecord
  2
_D_17
340
0
  0
BLOCK_RECORD
  5
475
330
1
100
AcDbSymbolTableRecord
100
AcDbBlockTableRecord
  2
_D_18
340
0
  0
BLOCK_RECORD
  5
47F
330
1
100
AcDbSymbolTableRecord
100
AcDbBlockTableRecord
  2
_D_19
340
0
  0
BLOCK_RECORD
  5
48A
330
1
100
AcDbSymbolTableRecord
100
AcDbBlockTableRecord
  2
_None
340
0
  0
BLOCK_RECORD
  5
48D
330
1
100
AcDbSymbolTableRecord
100
AcDbBlockTableRecord
  2
_D_20
340
0
  0
BLOCK_RECORD
  5
4A5
330
1
100
AcDbSymbolTableRecord
100
AcDbBlockTableRecord
  2
_D_21
340
0
  0
BLOCK_RECORD
  5
4AF
330
1
100
AcDbSymbolTableRecord
100
AcDbBlockTableRecord
  2
_D_22
340
0
  0
BLOCK_RECORD
  5
4B6
330
1
100
AcDbSymbolTableRecord
100
AcDbBlockTableRecord
  2
_D_23
340
0
  0
BLOCK_RECORD
  5
4BD
330
1
100
AcDbSymbolTableRecord
100
AcDbBlockTableRecord
  2
_D_24
340
0
  0
BLOCK_RECORD
  5
4C7
330
1
100
AcDbSymbolTableRecord
100
AcDbBlockTableRecord
  2
_D_25
340
0
  0
BLOCK_RECORD
  5
4D1
330
1
100
AcDbSymbolTableRecord
100
AcDbBlockTableRecord
  2
_D_26
340
0
  0
BLOCK_RECORD
  5
4DB
330
1
100
AcDbSymbolTableRecord
100
AcDbBlockTableRecord
  2
SW_NOTE_0_10
340
0
102
{BLKREFS
331
4E0
102
}
  0
BLOCK_RECORD
  5
4E1
330
1
100
AcDbSymbolTableRecord
100
AcDbBlockTableRecord
  2
SW_CENTERMARKSYMBOL_17
340
0
102
{BLKREFS
331
4EC
102
}
  0
BLOCK_RECORD
  5
4ED
330
1
100
AcDbSymbolTableRecord
100
AcDbBlockTableRecord
  2
SW_CENTERMARKSYMBOL_18
340
0
102
{BLKREFS
331
4F8
102
}
  0
BLOCK_RECORD
  5
4F9
330
1
100
AcDbSymbolTableRecord
100
AcDbBlockTableRecord
  2
SW_CENTERMARKSYMBOL_19
340
0
102
{BLKREFS
331
504
102
}
  0
BLOCK_RECORD
  5
505
330
1
100
AcDbSymbolTableRecord
100
AcDbBlockTableRecord
  2
SW_CENTERMARKSYMBOL_20
340
0
102
{BLKREFS
331
510
102
}
  0
BLOCK_RECORD
  5
511
330
1
100
AcDbSymbolTableRecord
100
AcDbBlockTableRecord
  2
SW_CENTERMARKSYMBOL_21
340
0
102
{BLKREFS
331
51C
102
}
  0
BLOCK_RECORD
  5
51D
330
1
100
AcDbSymbolTableRecord
100
AcDbBlockTableRecord
  2
SW_CENTERMARKSYMBOL_22
340
0
102
{BLKREFS
331
528
102
}
  0
BLOCK_RECORD
  5
529
330
1
100
AcDbSymbolTableRecord
100
AcDbBlockTableRecord
  2
SW_CENTERMARKSYMBOL_23
340
0
102
{BLKREFS
331
534
102
}
  0
BLOCK_RECORD
  5
535
330
1
100
AcDbSymbolTableRecord
100
AcDbBlockTableRecord
  2
SW_CENTERMARKSYMBOL_24
340
0
102
{BLKREFS
331
540
102
}
  0
BLOCK_RECORD
  5
558
330
1
100
AcDbSymbolTableRecord
100
AcDbBlockTableRecord
  2
SW_NOTE_0_11
340
0
102
{BLKREFS
331
55E
102
}
  0
BLOCK_RECORD
  5
560
330
1
100
AcDbSymbolTableRecord
100
AcDbBlockTableRecord
  2
_Dot
340
0
  0
BLOCK_RECORD
  5
573
330
1
100
AcDbSymbolTableRecord
100
AcDbBlockTableRecord
  2
_D_27
340
0
  0
BLOCK_RECORD
  5
57D
330
1
100
AcDbSymbolTableRecord
100
AcDbBlockTableRecord
  2
_D_28
340
0
  0
BLOCK_RECORD
  5
588
330
1
100
AcDbSymbolTableRecord
100
AcDbBlockTableRecord
  2
SW_CENTERMARKSYMBOL_25
340
0
102
{BLKREFS
331
593
102
}
  0
BLOCK_RECORD
  5
594
330
1
100
AcDbSymbolTableRecord
100
AcDbBlockTableRecord
  2
SW_CENTERMARKSYMBOL_26
340
0
102
{BLKREFS
331
5A7
102
}
  0
BLOCK_RECORD
  5
5C1
330
1
100
AcDbSymbolTableRecord
100
AcDbBlockTableRecord
  2
SW_HATCH_1
340
0
102
{BLKREFS
331
5E3
102
}
  0
BLOCK_RECORD
  5
5E5
330
1
100
AcDbSymbolTableRecord
100
AcDbBlockTableRecord
  2
_D_29
340
0
  0
BLOCK_RECORD
  5
5F0
330
1
100
AcDbSymbolTableRecord
100
AcDbBlockTableRecord
  2
_D_30
340
0
  0
BLOCK_RECORD
  5
5FA
330
1
100
AcDbSymbolTableRecord
100
AcDbBlockTableRecord
  2
_D_31
340
0
  0
BLOCK_RECORD
  5
604
330
1
100
AcDbSymbolTableRecord
100
AcDbBlockTableRecord
  2
_D_32
340
0
  0
BLOCK_RECORD
  5
60E
330
1
100
AcDbSymbolTableRecord
100
AcDbBlockTableRecord
  2
_D_33
340
0
  0
BLOCK_RECORD
  5
617
330
1
100
AcDbSymbolTableRecord
100
AcDbBlockTableRecord
  2
_D_34
340
0
  0
ENDTAB
  0
ENDSEC
  0
SECTION
  2
BLOCKS
  0
BLOCK
  5
20
330
1F
100
AcDbEntity
  8
0
100
AcDbBlockBegin
  2
*Model_Space
 70
     0
 10
0.0
 20
0.0
 30
0.0
  3
*Model_Space
  1

  0
ENDBLK
  5
21
330
1F
100
AcDbEntity
  8
0
100
AcDbBlockEnd
  0
BLOCK
  5
1C
330
1B
100
AcDbEntity
 67
     1
  8
0
100
AcDbBlockBegin
  2
*Paper_Space
 70
     0
 10
0.0
 20
0.0
 30
0.0
  3
*Paper_Space
  1

  0
ENDBLK
  5
1D
330
1B
100
AcDbEntity
 67
     1
  8
0
100
AcDbBlockEnd
  0
BLOCK
  5
24
330
23
100
AcDbEntity
  8
0
100
AcDbBlockBegin
  2
*Paper_Space0
 70
     0
 10
0.0
 20
0.0
 30
0.0
  3
*Paper_Space0
  1

  0
ENDBLK
  5
25
330
23
100
AcDbEntity
  8
0
100
AcDbBlockEnd
  0
BLOCK
  5
7A
330
79
100
AcDbEntity
  8
0
100
AcDbBlockBegin
  2
Prüfmaß DE
 70
     0
 10
0.0
 20
0.0
 30
0.0
  3
Prüfmaß DE
  1

  0
ARC
  5
7C
330
79
100
AcDbEntity
  8
0
  6
Continuous
 62
     7
370
    18
100
AcDbCircle
 10
540.152787322
 20
157.1730042205
 30
0.0
 40
2.041521022103069
100
AcDbArc
 50
270.0
 51
90.0
  0
ARC
  5
7D
330
79
100
AcDbEntity
  8
0
  6
Continuous
 62
     7
370
    18
100
AcDbCircle
 10
533.7278363882
 20
157.1730042205
 30
0.0
 40
2.041521022103069
100
AcDbArc
 50
90.0
 51
270.0
  0
LINE
  5
7E
330
79
100
AcDbEntity
  8
0
  6
Continuous
 62
     7
370
    18
100
AcDbLine
 10
533.7278363882
 20
159.2145252426
 30
0.0
 11
540.152787322
 21
159.2145252426
 31
0.0
  0
LINE
  5
7F
330
79
100
AcDbEntity
  8
0
  6
Continuous
 62
     7
370
    18
100
AcDbLine
 10
540.152787322
 20
155.1314831984
 30
0.0
 11
533.7278363882
 21
155.1314831984
 31
0.0
  0
INSERT
  5
85
330
79
100
AcDbEntity
  8
0
  6
Continuous
 62
     7
370
     0
100
AcDbBlockReference
  2
SW_NOTE_0
 10
545.3826769281
 20
154.3828978528
 30
0.0
  0
ENDBLK
  5
7B
330
79
100
AcDbEntity
  8
0
100
AcDbBlockEnd
  0
BLOCK
  5
81
330
80
100
AcDbEntity
  8
0
100
AcDbBlockBegin
  2
SW_NOTE_0
 70
     0
 10
0.0
 20
0.0
 30
0.0
  3
SW_NOTE_0
  1

  0
MTEXT
  5
84
330
80
100
AcDbEntity
  8
0
  6
Continuous
 62
     0
370
     0
100
AcDbMText
 10
0.0
 20
4.5117370892
 30
0.0
 40
3.5
 41
0.0
 71
     1
 72
     1
  1
Prüfmaß
  7
SLDTEXTSTYLE0
 73
     1
 44
1.0
  0
ENDBLK
  5
82
330
80
100
AcDbEntity
  8
0
100
AcDbBlockEnd
  0
BLOCK
  5
87
330
86
100
AcDbEntity
  8
0
100
AcDbBlockBegin
  2
Werkstückkanten DE
 70
     2
 10
0.0
 20
0.0
 30
0.0
  3
Werkstückkanten DE
  1

  0
LINE
  5
89
330
86
100
AcDbEntity
  8
0
  6
Continuous
 62
     7
370
    18
100
AcDbLine
 10
27.0931409182
 20
7.7123106012
 30
0.0
 11
27.0931409182
 21
12.7123106012
 31
0.0
  0
LINE
  5
8A
330
86
100
AcDbEntity
  8
0
  6
Continuous
 62
     7
370
    18
100
AcDbLine
 10
26.0931409182
 20
6.7123106012
 30
0.0
 11
36.0931409182
 21
6.7123106012
 31
0.0
  0
LINE
  5
8B
330
86
100
AcDbEntity
  8
0
  6
Continuous
 62
     7
370
    18
100
AcDbLine
 10
26.0931409182
 20
6.7123106012
 30
0.0
 11
20.880830317
 21
1.5
 31
0.0
  0
LINE
  5
8C
330
86
100
AcDbEntity
  8
0
  6
Continuous
 62
     7
370
    18
100
AcDbLine
 10
20.880830317
 20
1.5
 30
0.0
 11
22.4158663354
 21
3.5004978875
 31
0.0
  0
LINE
  5
8D
330
86
100
AcDbEntity
  8
0
  6
Continuous
 62
     7
370
    18
100
AcDbLine
 10
22.4158663354
 20
3.5004978875
 30
0.0
 11
22.8813282044
 21
3.0350360185
 31
0.0
  0
LINE
  5
8E
330
86
100
AcDbEntity
  8
0
  6
Continuous
 62
     7
370
    18
100
AcDbLine
 10
22.8813282044
 20
3.0350360185
 30
0.0
 11
20.880830317
 21
1.5
 31
0.0
  0
LINE
  5
8F
330
86
100
AcDbEntity
  8
0
  6
Continuous
 62
     7
370
    35
100
AcDbLine
 10
20.880830317
 20
1.5
 30
0.0
 11
20.880830317
 21
7.5
 31
0.0
  0
LINE
  5
90
330
86
100
AcDbEntity
  8
0
  6
Continuous
 62
     7
370
    35
100
AcDbLine
 10
20.880830317
 20
1.5
 30
0.0
 11
26.880830317
 21
1.5
 31
0.0
  0
LINE
  5
91
330
86
100
AcDbEntity
  8
0
  6
Continuous
 62
     7
370
    35
100
AcDbLine
 10
34.0931409182
 20
3.0
 30
0.0
 11
40.0931409182
 21
3.0
 31
0.0
  0
LINE
  5
92
330
86
100
AcDbEntity
  8
0
  6
Continuous
 62
     7
370
    35
100
AcDbLine
 10
40.0931409182
 20
3.0
 30
0.0
 11
40.0931409182
 21
-3.0
 31
0.0
  0
LINE
  5
93
330
86
100
AcDbEntity
  8
0
  6
Continuous
 62
     7
370
    18
100
AcDbLine
 10
40.0931409182
 20
3.0
 30
0.0
 11
43.8054515194
 21
6.7123106012
 31
0.0
  0
LINE
  5
94
330
86
100
AcDbEntity
  8
0
  6
Continuous
 62
     7
370
    18
100
AcDbLine
 10
43.8054515194
 20
6.7123106012
 30
0.0
 11
53.8054515194
 21
6.7123106012
 31
0.0
  0
LINE
  5
95
330
86
100
AcDbEntity
  8
0
  6
Continuous
 62
     7
370
    18
100
AcDbLine
 10
27.0931409182
 20
7.7123106012
 30
0.0
 11
32.0931409182
 21
7.7123106012
 31
0.0
  0
LINE
  5
96
330
86
100
AcDbEntity
  8
0
  6
Continuous
 62
     7
370
    18
100
AcDbLine
 10
40.0931409182
 20
3.0
 30
0.0
 11
41.6281769367
 21
5.0004978875
 31
0.0
  0
LINE
  5
97
330
86
100
AcDbEntity
  8
0
  6
Continuous
 62
     7
370
    18
100
AcDbLine
 10
41.6281769367
 20
5.0004978875
 30
0.0
 11
42.0936388057
 21
4.5350360185
 31
0.0
  0
LINE
  5
98
330
86
100
AcDbEntity
  8
0
  6
Continuous
 62
     7
370
    18
100
AcDbLine
 10
42.0936388057
 20
4.5350360185
 30
0.0
 11
40.0931409182
 21
3.0
 31
0.0
  0
LINE
  5
99
330
86
100
AcDbEntity
  8
0
  6
Continuous
 62
     7
370
    18
100
AcDbLine
 10
44.8054515194
 20
12.7123106012
 30
0.0
 11
44.8054515194
 21
7.7123106012
 31
0.0
  0
LINE
  5
9A
330
86
100
AcDbEntity
  8
0
  6
Continuous
 62
     7
370
    18
100
AcDbLine
 10
44.8054515194
 20
7.7123106012
 30
0.0
 11
49.8054515194
 21
7.7123106012
 31
0.0
  0
HATCH
  5
9B
330
86
100
AcDbEntity
  8
0
  6
Continuous
 62
     7
100
AcDbHatch
 10
0.0
 20
0.0
 30
0.0
210
0.0
220
0.0
230
1.0
  2
SOLID
 70
     1
 71
     0
 91
        1
 92
        0
 93
        3
 72
     1
 10
20.88083031696525
 20
1.499999999999918
 11
22.41586633542109
 21
3.500497887476778
 72
     1
 10
22.41586633542109
 20
3.500497887476778
 11
22.88132820444211
 21
3.035036018455783
 72
     1
 10
22.88132820444211
 20
3.035036018455783
 11
20.88083031696525
 21
1.499999999999918
 97
        0
 75
     0
 76
     1
 98
        1
 10
0.0
 20
0.0
  0
HATCH
  5
9C
330
86
100
AcDbEntity
  8
0
  6
Continuous
 62
     7
100
AcDbHatch
 10
0.0
 20
0.0
 30
0.0
210
0.0
220
0.0
230
1.0
  2
SOLID
 70
     1
 71
     0
 91
        1
 92
        0
 93
        3
 72
     1
 10
42.0936388056714
 20
4.535036018455754
 11
40.09314091819458
 21
2.999999999999892
 72
     1
 10
40.09314091819458
 20
2.999999999999892
 11
41.6281769366504
 21
5.000497887476764
 72
     1
 10
41.6281769366504
 20
5.000497887476764
 11
42.0936388056714
 21
4.535036018455754
 97
        0
 75
     0
 76
     1
 98
        1
 10
0.0
 20
0.0
  0
INSERT
  5
A2
330
86
100
AcDbEntity
  8
0
  6
Continuous
 62
     7
370
    18
100
AcDbBlockReference
  2
SW_NOTE_0_1
 10
-16.5296667739
 20
8.0719974576
 30
0.0
  0
ATTDEF
  5
A3
330
86
100
AcDbEntity
  8
0
  6
Continuous
 62
     7
370
    18
100
AcDbText
 10
45.5382827001
 20
8.730024094
 30
0.0
 40
3.5
  1
-0,3
 41
0.948
  7
SLDTEXTSTYLE0
 11
45.5382827001
 21
7.6943422758
 31
0.0
100
AcDbAttributeDefinition
  3

  2
WERT_2
 70
     0
 74
     1
  0
ATTDEF
  5
A4
330
86
100
AcDbEntity
  8
0
  6
Continuous
 62
     7
370
    18
100
AcDbText
 10
27.3508161078
 20
8.7387064472
 30
0.0
 40
3.5
  1
+0,3
 41
0.948
  7
SLDTEXTSTYLE0
 11
27.3508161078
 21
7.703024629
 31
0.0
100
AcDbAttributeDefinition
  3

  2
WERT_1
 70
     0
 74
     1
  0
ENDBLK
  5
88
330
86
100
AcDbEntity
  8
0
100
AcDbBlockEnd
  0
BLOCK
  5
9E
330
9D
100
AcDbEntity
  8
0
100
AcDbBlockBegin
  2
SW_NOTE_0_1
 70
     0
 10
0.0
 20
0.0
 30
0.0
  3
SW_NOTE_0_1
  1

  0
MTEXT
  5
A0
330
9D
100
AcDbEntity
  8
0
  6
Continuous
 62
     0
370
    18
100
AcDbMText
 10
0.0
 20
4.5117370892
 30
0.0
 40
3.5
 41
0.0
 71
     1
 72
     1
  1
Werkstückkanten
  7
SLDTEXTSTYLE0
 73
     1
 44
1.0
  0
MTEXT
  5
A1
330
9D
100
AcDbEntity
  8
0
  6
Continuous
 62
     0
370
    18
100
AcDbMText
 10
0.0
 20
0.0006261389
 30
0.0
 40
3.5
 41
0.0
 71
     1
 72
     1
  1
DIN ISO 13715
  7
SLDTEXTSTYLE0
 73
     1
 44
1.0
  0
ENDBLK
  5
9F
330
9D
100
AcDbEntity
  8
0
100
AcDbBlockEnd
  0
BLOCK
  5
A6
330
A5
100
AcDbEntity
  8
0
100
AcDbBlockBegin
  2
Änderung a
 70
     0
 10
0.0
 20
0.0
 30
0.0
  3
Änderung a
  1

  0
CIRCLE
  5
A8
330
A5
100
AcDbEntity
  8
FORMAT
 62
     7
100
AcDbCircle
 10
1.1638359766
 20
1.1638359766
 30
0.0
 40
1.163835976649359
  0
INSERT
  5
AD
330
A5
100
AcDbEntity
  8
FORMAT
 62
     7
100
AcDbBlockReference
  2
SW_NOTE_0_2
 10
0.4980838732
 20
0.0632960535
 30
0.0
  0
ENDBLK
  5
A7
330
A5
100
AcDbEntity
  8
0
100
AcDbBlockEnd
  0
BLOCK
  5
AA
330
A9
100
AcDbEntity
  8
0
100
AcDbBlockBegin
  2
SW_NOTE_0_2
 70
     0
 10
0.0
 20
0.0
 30
0.0
  3
SW_NOTE_0_2
  1

  0
MTEXT
  5
AC
330
A9
100
AcDbEntity
  8
FORMAT
 62
     0
100
AcDbMText
 10
0.0
 20
2.2558685446
 30
0.0
 40
1.75
 41
0.0
 71
     1
 72
     1
  1
a
  7
SLDTEXTSTYLE0
 73
     1
 44
1.0
  0
ENDBLK
  5
AB
330
A9
100
AcDbEntity
  8
0
100
AcDbBlockEnd
  0
BLOCK
  5
AF
330
AE
100
AcDbEntity
  8
0
100
AcDbBlockBegin
  2
Detailordner2
 70
     0
 10
0.0
 20
0.0
 30
0.0
  3
Detailordner2
  1

  0
CIRCLE
  5
B1
330
AE
100
AcDbEntity
  8
FORMAT
 62
     7
100
AcDbCircle
 10
1.1638359766
 20
1.1638359766
 30
0.0
 40
1.163835976649359
  0
INSERT
  5
B6
330
AE
100
AcDbEntity
  8
FORMAT
 62
     7
100
AcDbBlockReference
  2
SW_NOTE_0_3
 10
0.4980838732
 20
0.0632960535
 30
0.0
  0
ENDBLK
  5
B0
330
AE
100
AcDbEntity
  8
0
100
AcDbBlockEnd
  0
BLOCK
  5
B3
330
B2
100
AcDbEntity
  8
0
100
AcDbBlockBegin
  2
SW_NOTE_0_3
 70
     0
 10
0.0
 20
0.0
 30
0.0
  3
SW_NOTE_0_3
  1

  0
MTEXT
  5
B5
330
B2
100
AcDbEntity
  8
FORMAT
 62
     0
100
AcDbMText
 10
0.0
 20
2.2558685446
 30
0.0
 40
1.75
 41
0.0
 71
     1
 72
     1
  1
a
  7
SLDTEXTSTYLE0
 73
     1
 44
1.0
  0
ENDBLK
  5
B4
330
B2
100
AcDbEntity
  8
0
100
AcDbBlockEnd
  0
BLOCK
  5
B8
330
B7
100
AcDbEntity
  8
0
100
AcDbBlockBegin
  2
Block1_4
 70
     0
 10
0.0
 20
0.0
 30
0.0
  3
Block1_4
  1

  0
CIRCLE
  5
BA
330
B7
100
AcDbEntity
  8
0
  6
Continuous
 62
     7
370
    18
100
AcDbCircle
 10
11.6137544821
 20
9.0896586992
 30
0.0
 40
1.255909011058753
  0
CIRCLE
  5
BB
330
B7
100
AcDbEntity
  8
0
  6
Continuous
 62
     7
370
    18
100
AcDbCircle
 10
11.6137544821
 20
9.0896586992
 30
0.0
 40
2.216014863655655
  0
LINE
  5
BC
330
B7
100
AcDbEntity
  8
0
  6
CENTERX2
 62
     7
370
    18
100
AcDbLine
 10
11.6137544821
 20
9.0896586992
 30
0.0
 11
7.8977396184
 21
9.0896586992
 31
0.0
  0
LINE
  5
BD
330
B7
100
AcDbEntity
  8
0
  6
Continuous
 62
     7
370
    18
100
AcDbLine
 10
8.165753588
 20
6.8736438356
 30
0.0
 11
8.165753588
 21
11.3071584591
 31
0.0
  0
LINE
  5
BE
330
B7
100
AcDbEntity
  8
0
  6
Continuous
 62
     7
370
    18
100
AcDbLine
 10
2.6797147895
 20
10.3455677103
 30
0.0
 11
2.6797147895
 21
7.8337496881
 31
0.0
  0
LINE
  5
BF
330
B7
100
AcDbEntity
  8
0
  6
Continuous
 62
     7
370
    18
100
AcDbLine
 10
2.6797147895
 20
7.8337496881
 30
0.0
 11
8.165753588
 21
6.8736438356
 31
0.0
  0
LINE
  5
C0
330
B7
100
AcDbEntity
  8
0
  6
CENTERX2
 62
     7
370
    18
100
AcDbLine
 10
9.665753588
 20
9.0896586992
 30
0.0
 11
1.1797147895
 21
9.0896586992
 31
0.0
  0
LINE
  5
C1
330
B7
100
AcDbEntity
  8
0
  6
Continuous
 62
     7
370
    18
100
AcDbLine
 10
8.165753588
 20
11.3071584591
 30
0.0
 11
2.6797147895
 21
10.3455677103
 31
0.0
  0
LINE
  5
C2
330
B7
100
AcDbEntity
  8
0
  6
CENTERX2
 62
     7
370
    18
100
AcDbLine
 10
11.6137544821
 20
9.0896586992
 30
0.0
 11
11.6137544821
 21
5.3736438356
 31
0.0
  0
LINE
  5
C3
330
B7
100
AcDbEntity
  8
0
  6
CENTERX2
 62
     7
370
    18
100
AcDbLine
 10
11.6137544821
 20
9.0896586992
 30
0.0
 11
11.6137544821
 21
12.8056735629
 31
0.0
  0
LINE
  5
C4
330
B7
100
AcDbEntity
  8
0
  6
CENTERX2
 62
     7
370
    18
100
AcDbLine
 10
11.6137544821
 20
9.0896586992
 30
0.0
 11
15.3297693458
 21
9.0896586992
 31
0.0
  0
INSERT
  5
CA
330
B7
100
AcDbEntity
  8
0
  6
Continuous
 62
     7
370
     0
100
AcDbBlockReference
  2
SW_NOTE_0_4
 10
2.1031832889
 20
2.3754472768
 30
0.0
  0
ENDBLK
  5
B9
330
B7
100
AcDbEntity
  8
0
100
AcDbBlockEnd
  0
BLOCK
  5
C6
330
C5
100
AcDbEntity
  8
0
100
AcDbBlockBegin
  2
SW_NOTE_0_4
 70
     0
 10
0.0
 20
0.0
 30
0.0
  3
SW_NOTE_0_4
  1

  0
MTEXT
  5
C8
330
C5
100
AcDbEntity
  8
0
  6
Continuous
 62
     0
370
     0
100
AcDbMText
 10
6.590625
 20
2.4492287056
 30
0.0
 40
1.9
 41
0.0
 71
     2
 72
     1
  1
DIN 6  T1 - 
  7
SLDTEXTSTYLE0
 73
     1
 44
1.0
  0
MTEXT
  5
C9
330
C5
100
AcDbEntity
  8
0
  6
Continuous
 62
     0
370
     0
100
AcDbMText
 10
6.6569262624
 20
0.0003397443
 30
0.0
 40
1.9
 41
0.0
 71
     2
 72
     1
  1
Proj.methode 1
  7
SLDTEXTSTYLE0
 73
     1
 44
1.0
  0
ENDBLK
  5
C7
330
C5
100
AcDbEntity
  8
0
100
AcDbBlockEnd
  0
BLOCK
  5
CC
330
CB
100
AcDbEntity
  8
0
100
AcDbBlockBegin
  2
Block2_4
 70
     0
 10
0.0
 20
0.0
 30
0.0
  3
Block2_4
  1

  0
ARC
  5
CE
330
CB
100
AcDbEntity
  8
FORMAT
100
AcDbCircle
 10
236.7496365382
 20
57.0990600997
 30
0.0
 40
3.75000000000001
100
AcDbArc
 50
93.8225537293
 51
266.1774462707
  0
ARC
  5
CF
330
CB
100
AcDbEntity
  8
FORMAT
100
AcDbCircle
 10
236.7496365382
 20
57.0990600997
 30
0.0
 40
3.000000000000012
100
AcDbArc
 50
94.7801918472
 51
265.2198081528
  0
ARC
  5
D0
330
CB
100
AcDbEntity
  8
FORMAT
100
AcDbCircle
 10
236.7496365382
 20
57.0990600997
 30
0.0
 40
3.75000000000001
100
AcDbArc
 50
273.8225537293
 51
86.1774462707
  0
ARC
  5
D1
330
CB
100
AcDbEntity
  8
FORMAT
100
AcDbCircle
 10
236.7496365382
 20
57.0990600997
 30
0.0
 40
3.000000000000012
100
AcDbArc
 50
274.7801918472
 51
85.2198081528
  0
ARC
  5
D2
330
CB
100
AcDbEntity
  8
FORMAT
100
AcDbCircle
 10
236.7496365382
 20
58.2320416436
 30
0.0
 40
0.8604027828068846
100
AcDbArc
 50
304.8395134495
 51
73.1084194601
  0
ARC
  5
D3
330
CB
100
AcDbEntity
  8
FORMAT
100
AcDbCircle
 10
236.7496365382
 20
58.2320416436
 30
0.0
 40
1.402314431660661
100
AcDbArc
 50
313.8988153445
 51
79.7306010333
  0
ARC
  5
D4
330
CB
100
AcDbEntity
  8
FORMAT
100
AcDbCircle
 10
236.7496365382
 20
55.4979572256
 30
0.0
 40
0.4915306686725103
100
AcDbArc
 50
300.5716370086
 51
0.0
  0
ARC
  5
D5
330
CB
100
AcDbEntity
  8
FORMAT
100
AcDbCircle
 10
236.7496365382
 20
58.2320416436
 30
0.0
 40
1.402314431660661
100
AcDbArc
 50
100.2693989667
 51
226.1011846555
  0
ARC
  5
D6
330
CB
100
AcDbEntity
  8
FORMAT
100
AcDbCircle
 10
236.7496365382
 20
55.4979572256
 30
0.0
 40
0.9723464985416115
100
AcDbArc
 50
180.0
 51
255.1013518888
  0
ARC
  5
D7
330
CB
100
AcDbEntity
  8
FORMAT
100
AcDbCircle
 10
236.7496365382
 20
55.4979572256
 30
0.0
 40
0.9723464985416115
100
AcDbArc
 50
284.8986481112
 51
0.0
  0
ARC
  5
D8
330
CB
100
AcDbEntity
  8
FORMAT
100
AcDbCircle
 10
236.7496365382
 20
55.4979572256
 30
0.0
 40
0.4915306686725099
100
AcDbArc
 50
180.0
 51
239.4283629914
  0
ARC
  5
D9
330
CB
100
AcDbEntity
  8
FORMAT
100
AcDbCircle
 10
236.7496365382
 20
58.2320416436
 30
0.0
 40
0.8604027828068846
100
AcDbArc
 50
106.8915805399
 51
235.1604865505
  0
LINE
  5
DA
330
CB
100
AcDbEntity
  8
FORMAT
100
AcDbLine
 10
232.5312401271
 20
52.8806636887
 30
0.0
 11
240.9680329492
 21
52.8806636887
 31
0.0
  0
LINE
  5
DB
330
CB
100
AcDbEntity
  8
FORMAT
100
AcDbLine
 10
232.5312401271
 20
61.3174565107
 30
0.0
 11
240.9680329492
 21
61.3174565107
 31
0.0
  0
LINE
  5
DC
330
CB
100
AcDbEntity
  8
FORMAT
100
AcDbLine
 10
232.5312401271
 20
61.3174565107
 30
0.0
 11
232.5312401271
 21
52.8806636887
 31
0.0
  0
LINE
  5
DD
330
CB
100
AcDbEntity
  8
FORMAT
100
AcDbLine
 10
240.9680329492
 20
61.3174565107
 30
0.0
 11
240.9680329492
 21
52.8806636887
 31
0.0
  0
LINE
  5
DE
330
CB
100
AcDbEntity
  8
FORMAT
100
AcDbLine
 10
236.4996365382
 20
60.8407174865
 30
0.0
 11
236.4996365382
 21
60.0886252855
 31
0.0
  0
LINE
  5
DF
330
CB
100
AcDbEntity
  8
FORMAT
100
AcDbLine
 10
236.9996365382
 20
60.8407174865
 30
0.0
 11
236.9996365382
 21
60.0886252855
 31
0.0
  0
LINE
  5
E0
330
CB
100
AcDbEntity
  8
FORMAT
100
AcDbLine
 10
236.4996365382
 20
54.1094949139
 30
0.0
 11
236.4996365382
 21
53.3574027129
 31
0.0
  0
LINE
  5
E1
330
CB
100
AcDbEntity
  8
FORMAT
100
AcDbLine
 10
236.9996365382
 20
54.1094949139
 30
0.0
 11
236.9996365382
 21
53.3574027129
 31
0.0
  0
LINE
  5
E2
330
CB
100
AcDbEntity
  8
FORMAT
100
AcDbLine
 10
236.9996365382
 20
59.6118915504
 30
0.0
 11
236.9996365382
 21
59.0553234597
 31
0.0
  0
LINE
  5
E3
330
CB
100
AcDbEntity
  8
FORMAT
100
AcDbLine
 10
236.4996365382
 20
59.6118915504
 30
0.0
 11
236.4996365382
 21
59.0553234597
 31
0.0
  0
LINE
  5
E4
330
CB
100
AcDbEntity
  8
FORMAT
100
AcDbLine
 10
235.7772900396
 20
55.4979572256
 30
0.0
 11
235.7772900396
 21
57.2215823164
 31
0.0
  0
LINE
  5
E5
330
CB
100
AcDbEntity
  8
FORMAT
100
AcDbLine
 10
237.7219830367
 20
55.4979572256
 30
0.0
 11
237.7219830367
 21
57.2215823164
 31
0.0
  0
LINE
  5
E6
330
CB
100
AcDbEntity
  8
FORMAT
100
AcDbLine
 10
237.2411672068
 20
55.4979572256
 30
0.0
 11
237.2411672068
 21
57.5258613901
 31
0.0
  0
LINE
  5
E7
330
CB
100
AcDbEntity
  8
FORMAT
100
AcDbLine
 10
236.2581058695
 20
55.4979572256
 30
0.0
 11
236.2581058695
 21
57.5258613901
 31
0.0
  0
LINE
  5
E8
330
CB
100
AcDbEntity
  8
FORMAT
100
AcDbLine
 10
236.4996365382
 20
55.0747523127
 30
0.0
 11
236.4996365382
 21
54.5582989296
 31
0.0
  0
LINE
  5
E9
330
CB
100
AcDbEntity
  8
FORMAT
100
AcDbLine
 10
236.9996365382
 20
55.0747523127
 30
0.0
 11
236.9996365382
 21
54.5582989296
 31
0.0
  0
HATCH
  5
EA
330
CB
100
AcDbEntity
  8
0
  6
Continuous
 62
     7
100
AcDbHatch
 10
0.0
 20
0.0
 30
0.0
210
0.0
220
0.0
230
1.0
  2
SOLID
 70
     1
 71
     0
 91
        5
 92
        0
 93
        4
 72
     1
 10
240.9680329492058
 20
61.31745651073599
 11
240.9680329492058
 21
52.88066368865002
 72
     1
 10
240.9680329492058
 20
52.88066368865002
 11
232.5312401271199
 21
52.88066368865002
 72
     1
 10
232.5312401271199
 20
52.88066368865002
 11
232.5312401271199
 21
61.31745651073599
 72
     1
 10
232.5312401271199
 20
61.31745651073599
 11
240.9680329492058
 21
61.31745651073599
 97
        0
 92
        0
 93
        4
 72
     2
 10
236.7496365381628
 20
57.09906009969301
 40
3.000000000000011
 50
94.78019184719915
 51
265.2198081528016
 73
     0
 72
     1
 10
236.4996365381628
 20
60.08862528546836
 11
236.4996365381628
 21
60.84071748646695
 72
     2
 10
236.7496365381628
 20
57.09906009969301
 40
3.750000000000007
 50
93.82255372927435
 51
266.1774462707265
 73
     1
 72
     1
 10
236.4996365381628
 20
53.35740271291905
 11
236.4996365381628
 21
54.10949491391764
 97
        0
 92
        0
 93
        8
 72
     1
 10
237.7219830367044
 20
55.49795722557887
 11
237.7219830367044
 21
57.22158231636488
 72
     2
 10
236.7496365381628
 20
58.23204164361047
 40
1.402314431660656
 50
313.8988153445118
 51
439.730601033339
 73
     1
 72
     1
 10
236.9996365381628
 20
59.61189155039155
 11
236.9996365381628
 21
59.05532345967459
 72
     2
 10
236.7496365381628
 20
58.23204164361047
 40
0.8604027828068782
 50
286.8915805399266
 51
415.1604865505413
 73
     0
 72
     1
 10
237.2411672068353
 20
57.52586139012261
 11
237.2411672068353
 21
55.49795722557887
 72
     2
 10
236.7496365381628
 20
55.49795722557887
 40
0.4915306686725041
 50
0.0
 51
59.42836299135124
 73
     0
 72
     1
 10
236.9996365381628
 20
55.07475231274628
 11
236.9996365381628
 21
54.55829892958712
 72
     2
 10
236.7496365381628
 20
55.49795722557887
 40
0.9723464985416097
 50
284.8986481111874
 51
360.0000000000008
 73
     1
 97
        0
 92
        0
 93
        8
 72
     2
 10
236.7496365381628
 20
55.49795722557887
 40
0.4915306686725041
 50
120.5716370086484
 51
180.0
 73
     0
 72
     1
 10
236.2581058694904
 20
55.49795722557887
 11
236.2581058694904
 21
57.52586139012261
 72
     2
 10
236.7496365381628
 20
58.23204164361047
 40
0.8604027828068782
 50
124.839513449458
 51
253.108419460075
 73
     0
 72
     1
 10
236.4996365381628
 20
59.05532345967459
 11
236.4996365381628
 21
59.61189155039155
 72
     2
 10
236.7496365381628
 20
58.23204164361047
 40
1.402314431660656
 50
100.2693989666618
 51
226.1011846554898
 73
     1
 72
     1
 10
235.7772900396212
 20
57.22158231636488
 11
235.7772900396212
 21
55.49795722557887
 72
     2
 10
236.7496365381628
 20
55.49795722557887
 40
0.9723464985416097
 50
180.0
 51
255.1013518888143
 73
     1
 72
     1
 10
236.4996365381628
 20
54.55829892958712
 11
236.4996365381628
 21
55.07475231274628
 97
        0
 92
        0
 93
        4
 72
     2
 10
236.7496365381628
 20
57.09906009969301
 40
3.000000000000011
 50
274.7801918471999
 51
445.2198081528016
 73
     0
 72
     1
 10
236.9996365381628
 20
54.10949491391764
 11
236.9996365381628
 21
53.35740271291905
 72
     2
 10
236.7496365381628
 20
57.09906009969301
 40
3.750000000000007
 50
273.8225537292751
 51
446.1774462707265
 73
     1
 72
     1
 10
236.9996365381628
 20
60.84071748646695
 11
236.9996365381628
 21
60.08862528546836
 97
        0
 75
     0
 76
     1
 98
        1
 10
0.0
 20
0.0
  0
INSERT
  5
F0
330
CB
100
AcDbEntity
  8
FORMAT
 62
     7
100
AcDbBlockReference
  2
SW_NOTE_0_5
 10
232.2514665163
 20
47.7232938825
 30
0.0
  0
INSERT
  5
F8
330
CB
100
AcDbEntity
  8
0
  6
Continuous
 62
     7
370
     0
100
AcDbBlockReference
  2
SW_NOTE_0_6
 10
244.0723034979
 20
57.1176018272
 30
0.0
  0
ENDBLK
  5
CD
330
CB
100
AcDbEntity
  8
0
100
AcDbBlockEnd
  0
BLOCK
  5
EC
330
EB
100
AcDbEntity
  8
0
100
AcDbBlockBegin
  2
SW_NOTE_0_5
 70
     0
 10
0.0
 20
0.0
 30
0.0
  3
SW_NOTE_0_5
  1

  0
MTEXT
  5
EF
330
EB
100
AcDbEntity
  8
FORMAT
 62
     0
100
AcDbMText
 10
0.0
 20
3.8651911469
 30
0.0
 40
3.0
 41
0.0
 71
     1
 72
     1
  1
ECO
  7
SLDTEXTSTYLE1
 73
     1
 44
1.0
  0
ENDBLK
  5
ED
330
EB
100
AcDbEntity
  8
0
100
AcDbBlockEnd
  0
BLOCK
  5
F2
330
F1
100
AcDbEntity
  8
0
100
AcDbBlockBegin
  2
SW_NOTE_0_6
 70
     0
 10
0.0
 20
0.0
 30
0.0
  3
SW_NOTE_0_6
  1

  0
MTEXT
  5
F5
330
F1
100
AcDbEntity
  8
0
  6
Continuous
 62
     0
370
     0
100
AcDbMText
 10
0.0
 20
3.2226693494
 30
0.0
 40
2.5
 41
0.0
 71
     1
 72
     1
  1
ECO Schulte GmbH & Co. KG
  7
SLDTEXTSTYLE2
 73
     1
 44
1.0
  0
MTEXT
  5
F6
330
F1
100
AcDbEntity
  8
0
  6
Continuous
 62
     0
370
     0
100
AcDbMText
 10
0.0
 20
-0.2773307586
 30
0.0
 40
2.5
 41
0.0
 71
     1
 72
     1
  1
Postfach 206
  7
SLDTEXTSTYLE2
 73
     1
 44
1.0
  0
MTEXT
  5
F7
330
F1
100
AcDbEntity
  8
0
  6
Continuous
 62
     0
370
     0
100
AcDbMText
 10
0.0
 20
-3.7773308666
 30
0.0
 40
2.5
 41
0.0
 71
     1
 72
     1
  1
58682 Menden
  7
SLDTEXTSTYLE2
 73
     1
 44
1.0
  0
ENDBLK
  5
F3
330
F1
100
AcDbEntity
  8
0
100
AcDbBlockEnd
  0
BLOCK
  5
112
330
111
100
AcDbEntity
  8
0
100
AcDbBlockBegin
  2
SW_NOTE_0_7
 70
     0
 10
0.0
 20
0.0
 30
0.0
  3
SW_NOTE_0_7
  1

  0
MTEXT
  5
114
330
111
100
AcDbEntity
  8
FORMAT
 62
     0
100
AcDbMText
 10
0.0
 20
4.5117370892
 30
0.0
 40
3.5
 41
0.0
 71
     1
 72
     1
  1
Einsetzbar nur mit separat zu bestellendem 
  7
SLDTEXTSTYLE0
 73
     1
 44
1.0
  0
MTEXT
  5
115
330
111
100
AcDbEntity
  8
FORMAT
 62
     0
100
AcDbMText
 10
0.0
 20
-0.0090964031
 30
0.0
 40
3.5
 41
0.0
 71
     1
 72
     1
  1
Abdeckwinkel/Abdeckblech!
  7
SLDTEXTSTYLE0
 73
     1
 44
1.0
  0
MTEXT
  5
116
330
111
100
AcDbEntity
  8
FORMAT
 62
     0
100
AcDbMText
 10
0.0
 20
-4.5299298954
 30
0.0
 40
3.5
 41
0.0
 71
     1
 72
     1
  1
(OBX-3196, OBX-3197, OBX-3198, OBX-3199 
  7
SLDTEXTSTYLE0
 73
     1
 44
1.0
  0
MTEXT
  5
117
330
111
100
AcDbEntity
  8
FORMAT
 62
     0
100
AcDbMText
 10
0.0
 20
-9.0507633876
 30
0.0
 40
3.5
 41
0.0
 71
     1
 72
     1
  1
oder OBX-3180)
  7
SLDTEXTSTYLE0
 73
     1
 44
1.0
  0
ENDBLK
  5
113
330
111
100
AcDbEntity
  8
0
100
AcDbBlockEnd
  0
BLOCK
  5
12D
330
12C
100
AcDbEntity
  8
0
100
AcDbBlockBegin
  2
SW_NOTE_0_8
 70
     0
 10
0.0
 20
0.0
 30
0.0
  3
SW_NOTE_0_8
  1

  0
MTEXT
  5
12F
330
12C
100
AcDbEntity
  8
FORMAT
 62
     0
100
AcDbMText
 10
0.0
 20
2.5781354795
 30
0.0
 40
2.0
 41
0.0
 71
     1
 72
     1
  1
Technische Änderungen und Irrtümer vorbehalten. Aus dem Gebrauch der 
  7
SLDTEXTSTYLE0
 73
     1
 44
1.0
  0
MTEXT
  5
130
330
12C
100
AcDbEntity
  8
FORMAT
 62
     0
100
AcDbMText
 10
0.0
 20
-0.4218645465
 30
0.0
 40
2.0
 41
0.0
 71
     1
 72
     1
  1
Zeichnung können keinerlei Ansprüche (inkl. Schadenersatzansprüche) erhoben und 
  7
SLDTEXTSTYLE0
 73
     1
 44
1.0
  0
MTEXT
  5
131
330
12C
100
AcDbEntity
  8
FORMAT
 62
     0
100
AcDbMText
 10
0.0
 20
-3.4218645726
 30
0.0
 40
2.0
 41
0.0
 71
     1
 72
     1
  1
gegen ECO Schulte geltend gemacht werden. Die Zeichnung bleibt unser Eigentum. 
  7
SLDTEXTSTYLE0
 73
     1
 44
1.0
  0
MTEXT
  5
132
330
12C
100
AcDbEntity
  8
FORMAT
 62
     0
100
AcDbMText
 10
0.0
 20
-6.4218645987
 30
0.0
 40
2.0
 41
0.0
 71
     1
 72
     1
  1
Sämtliche sich aus der Zeichnung ergebenden Ansprüche stehen ausschließlich 
  7
SLDTEXTSTYLE0
 73
     1
 44
1.0
  0
MTEXT
  5
133
330
12C
100
AcDbEntity
  8
FORMAT
 62
     0
100
AcDbMText
 10
0.0
 20
-9.4218646248
 30
0.0
 40
2.0
 41
0.0
 71
     1
 72
     1
  1
ECO Schulte zu. 
  7
SLDTEXTSTYLE0
 73
     1
 44
1.0
  0
MTEXT
  5
134
330
12C
100
AcDbEntity
  8
FORMAT
 62
     0
100
AcDbMText
 10
0.0
 20
-15.4218646769
 30
0.0
 40
2.0
 41
0.0
 71
     1
 72
     1
  1
Technical changes and errors excepted. No claims (including compensation claims) 
  7
SLDTEXTSTYLE0
 73
     1
 44
1.0
  0
MTEXT
  5
135
330
12C
100
AcDbEntity
  8
FORMAT
 62
     0
100
AcDbMText
 10
0.0
 20
-18.421864703
 30
0.0
 40
2.0
 41
0.0
 71
     1
 72
     1
  1
may be raised against ECO Schulte by using of this drawing. The drawing remains 
  7
SLDTEXTSTYLE0
 73
     1
 44
1.0
  0
MTEXT
  5
136
330
12C
100
AcDbEntity
  8
FORMAT
 62
     0
100
AcDbMText
 10
0.0
 20
-21.4218647291
 30
0.0
 40
2.0
 41
0.0
 71
     1
 72
     1
  1
the property of ECO Schulte. All claims resulting from this drawing are solely entitled 
  7
SLDTEXTSTYLE0
 73
     1
 44
1.0
  0
MTEXT
  5
137
330
12C
100
AcDbEntity
  8
FORMAT
 62
     0
100
AcDbMText
 10
0.0
 20
-24.4218647551
 30
0.0
 40
2.0
 41
0.0
 71
     1
 72
     1
  1
to ECO Schulte.
  7
SLDTEXTSTYLE0
 73
     1
 44
1.0
  0
ENDBLK
  5
12E
330
12C
100
AcDbEntity
  8
0
100
AcDbBlockEnd
  0
BLOCK
  5
1D0
330
1CF
100
AcDbEntity
  8
0
100
AcDbBlockBegin
  2
_D
 70
     0
 10
0.0
 20
0.0
 30
0.0
  3
_D
  1

  0
SOLID
  5
1D2
330
1CF
100
AcDbEntity
  8
FORMAT
100
AcDbTrace
 10
123.3574650618
 20
377.6533071323
 30
0.0
 11
126.6594650618
 21
377.1453071323
 31
0.0
 12
126.6594650618
 22
378.1613071323
 32
0.0
 13
126.6594650618
 23
378.1613071323
 33
0.0
  0
SOLID
  5
1D3
330
1CF
100
AcDbEntity
  8
FORMAT
100
AcDbTrace
 10
144.3574650618
 20
377.6533071323
 30
0.0
 11
141.0554650618
 21
378.1613071323
 31
0.0
 12
141.0554650618
 22
377.1453071323
 32
0.0
 13
141.0554650618
 23
377.1453071323
 33
0.0
  0
LINE
  5
1D4
330
1CF
100
AcDbEntity
  8
FORMAT
100
AcDbLine
 10
123.3574650618
 20
342.2576498799
 30
0.0
 11
123.3574650618
 21
378.6533071323
 31
0.0
  0
LINE
  5
1D5
330
1CF
100
AcDbEntity
  8
FORMAT
100
AcDbLine
 10
144.3574650618
 20
370.7576498799
 30
0.0
 11
144.3574650618
 21
378.6533071323
 31
0.0
  0
LINE
  5
1D6
330
1CF
100
AcDbEntity
  8
FORMAT
100
AcDbLine
 10
123.3574650618
 20
377.6533071323
 30
0.0
 11
144.3574650618
 21
377.6533071323
 31
0.0
  0
MTEXT
  5
1D7
330
1CF
100
AcDbEntity
  8
FORMAT
100
AcDbMText
 10
131.1838540169
 20
382.1650444544
 30
0.0
 40
3.5
 41
0.0
 71
     1
 72
     1
  1
21
  7
SLDTEXTSTYLE0
 73
     1
 44
1.0
  0
ENDBLK
  5
1D1
330
1CF
100
AcDbEntity
  8
0
100
AcDbBlockEnd
  0
BLOCK
  5
1DB
330
1DA
100
AcDbEntity
  8
0
100
AcDbBlockBegin
  2
_D_1
 70
     0
 10
0.0
 20
0.0
 30
0.0
  3
_D_1
  1

  0
SOLID
  5
1DD
330
1DA
100
AcDbEntity
  8
FORMAT
100
AcDbTrace
 10
141.3574650618
 20
179.7576498799
 30
0.0
 11
138.0554650618
 21
180.2656498799
 31
0.0
 12
138.0554650618
 22
179.2496498799
 32
0.0
 13
138.0554650618
 23
179.2496498799
 33
0.0
  0
SOLID
  5
1DE
330
1DA
100
AcDbEntity
  8
FORMAT
100
AcDbTrace
 10
144.3574650618
 20
179.7576498799
 30
0.0
 11
147.6594650618
 21
179.2496498799
 31
0.0
 12
147.6594650618
 22
180.2656498799
 32
0.0
 13
147.6594650618
 23
180.2656498799
 33
0.0
  0
LINE
  5
1DF
330
1DA
100
AcDbEntity
  8
FORMAT
100
AcDbLine
 10
141.3574650618
 20
188.7576498799
 30
0.0
 11
141.3574650618
 21
178.7576498799
 31
0.0
  0
LINE
  5
1E0
330
1DA
100
AcDbEntity
  8
FORMAT
100
AcDbLine
 10
144.3574650618
 20
188.7576498799
 30
0.0
 11
144.3574650618
 21
178.7576498799
 31
0.0
  0
LINE
  5
1E1
330
1DA
100
AcDbEntity
  8
FORMAT
100
AcDbLine
 10
141.3574650618
 20
179.7576498799
 30
0.0
 11
135.0074650618
 21
179.7576498799
 31
0.0
  0
LINE
  5
1E2
330
1DA
100
AcDbEntity
  8
FORMAT
100
AcDbLine
 10
141.3574650618
 20
179.7576498799
 30
0.0
 11
144.3574650618
 21
179.7576498799
 31
0.0
  0
LINE
  5
1E3
330
1DA
100
AcDbEntity
  8
FORMAT
100
AcDbLine
 10
144.3574650618
 20
179.7576498799
 30
0.0
 11
154.7178816291
 21
179.7576498799
 31
0.0
  0
MTEXT
  5
1E4
330
1DA
100
AcDbEntity
  8
FORMAT
100
AcDbMText
 10
152.0442705842
 20
184.2693872019
 30
0.0
 40
3.5
 41
0.0
 71
     1
 72
     1
  1
3
  7
SLDTEXTSTYLE0
 73
     1
 44
1.0
  0
ENDBLK
  5
1DC
330
1DA
100
AcDbEntity
  8
0
100
AcDbBlockEnd
  0
BLOCK
  5
27C
330
27B
100
AcDbEntity
  8
0
100
AcDbBlockBegin
  2
_D_2
 70
     0
 10
0.0
 20
0.0
 30
0.0
  3
_D_2
  1

  0
SOLID
  5
27E
330
27B
100
AcDbEntity
  8
FORMAT
100
AcDbTrace
 10
74.2873537664
 20
251.7576498799
 30
0.0
 11
74.7953537664
 21
255.0596498799
 31
0.0
 12
73.7793537664
 22
255.0596498799
 32
0.0
 13
73.7793537664
 23
255.0596498799
 33
0.0
  0
SOLID
  5
27F
330
27B
100
AcDbEntity
  8
FORMAT
100
AcDbTrace
 10
74.2873537664
 20
279.7576498799
 30
0.0
 11
73.7793537664
 21
276.4556498799
 31
0.0
 12
74.7953537664
 22
276.4556498799
 32
0.0
 13
74.7953537664
 23
276.4556498799
 33
0.0
  0
LINE
  5
280
330
27B
100
AcDbEntity
  8
FORMAT
100
AcDbLine
 10
57.3940049327
 20
251.7576498799
 30
0.0
 11
75.2873537664
 21
251.7576498799
 31
0.0
  0
LINE
  5
281
330
27B
100
AcDbEntity
  8
FORMAT
100
AcDbLine
 10
69.7653857034
 20
279.7576498799
 30
0.0
 11
75.2873537664
 21
279.7576498799
 31
0.0
  0
LINE
  5
282
330
27B
100
AcDbEntity
  8
FORMAT
100
AcDbLine
 10
74.2873537664
 20
251.7576498799
 30
0.0
 11
74.2873537664
 21
279.7576498799
 31
0.0
  0
MTEXT
  5
283
330
27B
100
AcDbEntity
  8
FORMAT
100
AcDbMText
 10
69.7756164443
 20
263.084038835
 30
0.0
 40
3.5
 41
0.0
 71
     1
 72
     1
  1
28
  7
SLDTEXTSTYLE0
 11
-7.044195017643634E-15
 21
1.0
 31
0.0
 73
     1
 44
1.0
  0
ENDBLK
  5
27D
330
27B
100
AcDbEntity
  8
0
100
AcDbBlockEnd
  0
BLOCK
  5
286
330
285
100
AcDbEntity
  8
0
100
AcDbBlockBegin
  2
_D_3
 70
     0
 10
0.0
 20
0.0
 30
0.0
  3
_D_3
  1

  0
SOLID
  5
288
330
285
100
AcDbEntity
  8
FORMAT
100
AcDbTrace
 10
74.2873537664
 20
279.7576498799
 30
0.0
 11
74.7953537664
 21
283.0596498799
 31
0.0
 12
73.7793537664
 22
283.0596498799
 32
0.0
 13
73.7793537664
 23
283.0596498799
 33
0.0
  0
SOLID
  5
289
330
285
100
AcDbEntity
  8
FORMAT
100
AcDbTrace
 10
74.2873537664
 20
307.7576498799
 30
0.0
 11
73.7793537664
 21
304.4556498799
 31
0.0
 12
74.7953537664
 22
304.4556498799
 32
0.0
 13
74.7953537664
 23
304.4556498799
 33
0.0
  0
LINE
  5
28A
330
285
100
AcDbEntity
  8
FORMAT
100
AcDbLine
 10
69.7653857034
 20
279.7576498799
 30
0.0
 11
75.2873537664
 21
279.7576498799
 31
0.0
  0
LINE
  5
28B
330
285
100
AcDbEntity
  8
FORMAT
100
AcDbLine
 10
57.3940049327
 20
307.7576498799
 30
0.0
 11
75.2873537664
 21
307.7576498799
 31
0.0
  0
LINE
  5
28C
330
285
100
AcDbEntity
  8
FORMAT
100
AcDbLine
 10
74.2873537664
 20
279.7576498799
 30
0.0
 11
74.2873537664
 21
307.7576498799
 31
0.0
  0
MTEXT
  5
28D
330
285
100
AcDbEntity
  8
FORMAT
100
AcDbMText
 10
69.7756164443
 20
291.084038835
 30
0.0
 40
3.5
 41
0.0
 71
     1
 72
     1
  1
28
  7
SLDTEXTSTYLE0
 11
-7.044195017643634E-15
 21
1.0
 31
0.0
 73
     1
 44
1.0
  0
ENDBLK
  5
287
330
285
100
AcDbEntity
  8
0
100
AcDbBlockEnd
  0
BLOCK
  5
290
330
28F
100
AcDbEntity
  8
0
100
AcDbBlockBegin
  2
_D_4
 70
     0
 10
0.0
 20
0.0
 30
0.0
  3
_D_4
  1

  0
SOLID
  5
292
330
28F
100
AcDbEntity
  8
FORMAT
100
AcDbTrace
 10
81.4165608902
 20
223.7576498799
 30
0.0
 11
81.9245608902
 21
227.0596498799
 31
0.0
 12
80.9085608902
 22
227.0596498799
 32
0.0
 13
80.9085608902
 23
227.0596498799
 33
0.0
  0
SOLID
  5
293
330
28F
100
AcDbEntity
  8
FORMAT
100
AcDbTrace
 10
81.4165608902
 20
335.7576498799
 30
0.0
 11
80.9085608902
 21
332.4556498799
 31
0.0
 12
81.9245608902
 22
332.4556498799
 32
0.0
 13
81.9245608902
 23
332.4556498799
 33
0.0
  0
LINE
  5
294
330
28F
100
AcDbEntity
  8
FORMAT
100
AcDbLine
 10
54.3940049327
 20
223.7576498799
 30
0.0
 11
82.4165608902
 21
223.7576498799
 31
0.0
  0
LINE
  5
295
330
28F
100
AcDbEntity
  8
FORMAT
100
AcDbLine
 10
54.3940049327
 20
335.7576498799
 30
0.0
 11
82.4165608902
 21
335.7576498799
 31
0.0
  0
LINE
  5
296
330
28F
100
AcDbEntity
  8
FORMAT
100
AcDbLine
 10
81.4165608902
 20
223.7576498799
 30
0.0
 11
81.4165608902
 21
335.7576498799
 31
0.0
  0
MTEXT
  5
297
330
28F
100
AcDbEntity
  8
FORMAT
100
AcDbMText
 10
76.9048235682
 20
275.7472333126
 30
0.0
 40
3.5
 41
0.0
 71
     1
 72
     1
  1
112
  7
SLDTEXTSTYLE0
 11
-7.044195017643634E-15
 21
1.0
 31
0.0
 73
     1
 44
1.0
  0
ENDBLK
  5
291
330
28F
100
AcDbEntity
  8
0
100
AcDbBlockEnd
  0
BLOCK
  5
29A
330
299
100
AcDbEntity
  8
0
100
AcDbBlockBegin
  2
_D_5
 70
     0
 10
0.0
 20
0.0
 30
0.0
  3
_D_5
  1

  0
SOLID
  5
29C
330
299
100
AcDbEntity
  8
FORMAT
100
AcDbTrace
 10
88.8804380552
 20
201.7576498799
 30
0.0
 11
89.3884380552
 21
205.0596498799
 31
0.0
 12
88.3724380552
 22
205.0596498799
 32
0.0
 13
88.3724380552
 23
205.0596498799
 33
0.0
  0
SOLID
  5
29D
330
299
100
AcDbEntity
  8
FORMAT
100
AcDbTrace
 10
88.8804380552
 20
357.7576498799
 30
0.0
 11
88.3724380552
 21
354.4556498799
 31
0.0
 12
89.3884380552
 22
354.4556498799
 32
0.0
 13
89.3884380552
 23
354.4556498799
 33
0.0
  0
LINE
  5
29E
330
299
100
AcDbEntity
  8
FORMAT
100
AcDbLine
 10
60.3940049327
 20
201.7576498799
 30
0.0
 11
89.8804380552
 21
201.7576498799
 31
0.0
  0
LINE
  5
29F
330
299
100
AcDbEntity
  8
FORMAT
100
AcDbLine
 10
54.3940049327
 20
357.7576498799
 30
0.0
 11
89.8804380552
 21
357.7576498799
 31
0.0
  0
LINE
  5
2A0
330
299
100
AcDbEntity
  8
FORMAT
100
AcDbLine
 10
88.8804380552
 20
201.7576498799
 30
0.0
 11
88.8804380552
 21
357.7576498799
 31
0.0
  0
MTEXT
  5
2A1
330
299
100
AcDbEntity
  8
FORMAT
100
AcDbMText
 10
84.3687007332
 20
275.7472333126
 30
0.0
 40
3.5
 41
0.0
 71
     1
 72
     1
  1
156
  7
SLDTEXTSTYLE0
 11
-7.044195017643634E-15
 21
1.0
 31
0.0
 73
     1
 44
1.0
  0
ENDBLK
  5
29B
330
299
100
AcDbEntity
  8
0
100
AcDbBlockEnd
  0
BLOCK
  5
2A4
330
2A3
100
AcDbEntity
  8
0
100
AcDbBlockBegin
  2
_D_6
 70
     0
 10
0.0
 20
0.0
 30
0.0
  3
_D_6
  1

  0
SOLID
  5
2A6
330
2A3
100
AcDbEntity
  8
FORMAT
100
AcDbTrace
 10
95.523985693
 20
189.7576498799
 30
0.0
 11
96.031985693
 21
193.0596498799
 31
0.0
 12
95.015985693
 22
193.0596498799
 32
0.0
 13
95.015985693
 23
193.0596498799
 33
0.0
  0
SOLID
  5
2A7
330
2A3
100
AcDbEntity
  8
FORMAT
100
AcDbTrace
 10
95.523985693
 20
369.7576498799
 30
0.0
 11
95.015985693
 21
366.4556498799
 31
0.0
 12
96.031985693
 22
366.4556498799
 32
0.0
 13
96.031985693
 23
366.4556498799
 33
0.0
  0
LINE
  5
2A8
330
2A3
100
AcDbEntity
  8
FORMAT
100
AcDbLine
 10
54.3940049327
 20
189.7576498799
 30
0.0
 11
96.523985693
 21
189.7576498799
 31
0.0
  0
LINE
  5
2A9
330
2A3
100
AcDbEntity
  8
FORMAT
100
AcDbLine
 10
54.3940049327
 20
369.7576498799
 30
0.0
 11
96.523985693
 21
369.7576498799
 31
0.0
  0
LINE
  5
2AA
330
2A3
100
AcDbEntity
  8
FORMAT
100
AcDbLine
 10
95.523985693
 20
189.7576498799
 30
0.0
 11
95.523985693
 21
369.7576498799
 31
0.0
  0
MTEXT
  5
2AB
330
2A3
100
AcDbEntity
  8
FORMAT
100
AcDbMText
 10
91.0122483709
 20
275.7472333126
 30
0.0
 40
3.5
 41
0.0
 71
     1
 72
     1
  1
180
  7
SLDTEXTSTYLE0
 11
-7.044195017643634E-15
 21
1.0
 31
0.0
 73
     1
 44
1.0
  0
ENDBLK
  5
2A5
330
2A3
100
AcDbEntity
  8
0
100
AcDbBlockEnd
  0
BLOCK
  5
2AE
330
2AD
100
AcDbEntity
  8
0
100
AcDbBlockBegin
  2
_D_7
 70
     0
 10
0.0
 20
0.0
 30
0.0
  3
_D_7
  1

  0
SOLID
  5
2B0
330
2AD
100
AcDbEntity
  8
FORMAT
100
AcDbTrace
 10
53.3940049327
 20
318.9895072325
 30
0.0
 11
50.0920049327
 21
319.4975072325
 31
0.0
 12
50.0920049327
 22
318.4815072325
 32
0.0
 13
50.0920049327
 23
318.4815072325
 33
0.0
  0
SOLID
  5
2B1
330
2AD
100
AcDbEntity
  8
FORMAT
100
AcDbTrace
 10
56.3940049327
 20
318.9895072325
 30
0.0
 11
59.6960049327
 21
318.4815072325
 31
0.0
 12
59.6960049327
 22
319.4975072325
 32
0.0
 13
59.6960049327
 23
319.4975072325
 33
0.0
  0
LINE
  5
2B2
330
2AD
100
AcDbEntity
  8
FORMAT
100
AcDbLine
 10
53.3940049327
 20
326.7576498799
 30
0.0
 11
53.3940049327
 21
317.9895072325
 31
0.0
  0
LINE
  5
2B3
330
2AD
100
AcDbEntity
  8
FORMAT
100
AcDbLine
 10
56.3940049327
 20
308.7576498799
 30
0.0
 11
56.3940049327
 21
319.9895072325
 31
0.0
  0
LINE
  5
2B4
330
2AD
100
AcDbEntity
  8
FORMAT
100
AcDbLine
 10
53.3940049327
 20
318.9895072325
 30
0.0
 11
45.8635898087
 21
318.9895072325
 31
0.0
  0
LINE
  5
2B5
330
2AD
100
AcDbEntity
  8
FORMAT
100
AcDbLine
 10
53.3940049327
 20
318.9895072325
 30
0.0
 11
56.3940049327
 21
318.9895072325
 31
0.0
  0
LINE
  5
2B6
330
2AD
100
AcDbEntity
  8
FORMAT
100
AcDbLine
 10
56.3940049327
 20
318.9895072325
 30
0.0
 11
62.7440049327
 21
318.9895072325
 31
0.0
  0
MTEXT
  5
2B7
330
2AD
100
AcDbEntity
  8
FORMAT
100
AcDbMText
 10
45.8635898087
 20
323.5012445545
 30
0.0
 40
3.5
 41
0.0
 71
     1
 72
     1
  1
3
  7
SLDTEXTSTYLE0
 73
     1
 44
1.0
  0
ENDBLK
  5
2AF
330
2AD
100
AcDbEntity
  8
0
100
AcDbBlockEnd
  0
BLOCK
  5
2BB
330
2BA
100
AcDbEntity
  8
0
100
AcDbBlockBegin
  2
_D_8
 70
     0
 10
0.0
 20
0.0
 30
0.0
  3
_D_8
  1

  0
SOLID
  5
2BD
330
2BA
100
AcDbEntity
  8
FORMAT
100
AcDbTrace
 10
41.4940049327
 20
376.845377444
 30
0.0
 11
44.7960049327
 21
376.337377444
 31
0.0
 12
44.7960049327
 22
377.353377444
 32
0.0
 13
44.7960049327
 23
377.353377444
 33
0.0
  0
SOLID
  5
2BE
330
2BA
100
AcDbEntity
  8
FORMAT
100
AcDbTrace
 10
65.2940049327
 20
376.845377444
 30
0.0
 11
61.9920049327
 21
377.353377444
 31
0.0
 12
61.9920049327
 22
376.337377444
 32
0.0
 13
61.9920049327
 23
376.337377444
 33
0.0
  0
LINE
  5
2BF
330
2BA
100
AcDbEntity
  8
FORMAT
100
AcDbLine
 10
41.4940049327
 20
335.8576498799
 30
0.0
 11
41.4940049327
 21
377.845377444
 31
0.0
  0
LINE
  5
2C0
330
2BA
100
AcDbEntity
  8
FORMAT
100
AcDbLine
 10
65.2940049327
 20
335.8576498799
 30
0.0
 11
65.2940049327
 21
356.2576498799
 31
0.0
  0
LINE
  5
2C1
330
2BA
100
AcDbEntity
  8
FORMAT
100
AcDbLine
 10
65.2940049327
 20
359.2576498799
 30
0.0
 11
65.2940049327
 21
368.2576498799
 31
0.0
  0
LINE
  5
2C2
330
2BA
100
AcDbEntity
  8
FORMAT
100
AcDbLine
 10
65.2940049327
 20
371.2576498799
 30
0.0
 11
65.2940049327
 21
377.845377444
 31
0.0
  0
LINE
  5
2C3
330
2BA
100
AcDbEntity
  8
FORMAT
100
AcDbLine
 10
41.4940049327
 20
376.845377444
 30
0.0
 11
65.2940049327
 21
376.845377444
 31
0.0
  0
MTEXT
  5
2C4
330
2BA
100
AcDbEntity
  8
FORMAT
100
AcDbMText
 10
50.7203938878
 20
381.3571147661
 30
0.0
 40
3.5
 41
0.0
 71
     1
 72
     1
  1
24
  7
SLDTEXTSTYLE0
 73
     1
 44
1.0
  0
ENDBLK
  5
2BC
330
2BA
100
AcDbEntity
  8
0
100
AcDbBlockEnd
  0
BLOCK
  5
2C7
330
2C6
100
AcDbEntity
  8
0
100
AcDbBlockBegin
  2
SW_CENTERMARKSYMBOL_0
 70
     0
 10
0.0
 20
0.0
 30
0.0
  3
SW_CENTERMARKSYMBOL_0
  1

  0
LINE
  5
2C9
330
2C6
100
AcDbEntity
  8
FORMAT
 62
     0
100
AcDbLine
 10
0.0
 20
0.0
 30
0.0
 11
0.0
 21
-2.5
 31
0.0
  0
LINE
  5
2CA
330
2C6
100
AcDbEntity
  8
FORMAT
 62
     0
100
AcDbLine
 10
0.0
 20
0.0
 30
0.0
 11
2.5
 21
0.0
 31
0.0
  0
LINE
  5
2CB
330
2C6
100
AcDbEntity
  8
FORMAT
 62
     0
100
AcDbLine
 10
0.0
 20
0.0
 30
0.0
 11
0.0
 21
2.5
 31
0.0
  0
LINE
  5
2CC
330
2C6
100
AcDbEntity
  8
FORMAT
 62
     0
100
AcDbLine
 10
0.0
 20
0.0
 30
0.0
 11
-2.5
 21
0.0
 31
0.0
  0
LINE
  5
2CD
330
2C6
100
AcDbEntity
  8
FORMAT
 62
     0
100
AcDbLine
 10
0.0
 20
-5.0
 30
0.0
 11
0.0
 21
-6.0
 31
0.0
  0
LINE
  5
2CE
330
2C6
100
AcDbEntity
  8
FORMAT
 62
     0
100
AcDbLine
 10
5.0
 20
0.0
 30
0.0
 11
6.0
 21
0.0
 31
0.0
  0
LINE
  5
2CF
330
2C6
100
AcDbEntity
  8
FORMAT
 62
     0
100
AcDbLine
 10
0.0
 20
5.0
 30
0.0
 11
0.0
 21
6.0
 31
0.0
  0
LINE
  5
2D0
330
2C6
100
AcDbEntity
  8
FORMAT
 62
     0
100
AcDbLine
 10
-5.0
 20
0.0
 30
0.0
 11
-6.0
 21
0.0
 31
0.0
  0
ENDBLK
  5
2C8
330
2C6
100
AcDbEntity
  8
0
100
AcDbBlockEnd
  0
BLOCK
  5
2D3
330
2D2
100
AcDbEntity
  8
0
100
AcDbBlockBegin
  2
SW_CENTERMARKSYMBOL_1
 70
     0
 10
0.0
 20
0.0
 30
0.0
  3
SW_CENTERMARKSYMBOL_1
  1

  0
LINE
  5
2D5
330
2D2
100
AcDbEntity
  8
FORMAT
 62
     0
100
AcDbLine
 10
0.0
 20
0.0
 30
0.0
 11
0.0
 21
-2.5
 31
0.0
  0
LINE
  5
2D6
330
2D2
100
AcDbEntity
  8
FORMAT
 62
     0
100
AcDbLine
 10
0.0
 20
0.0
 30
0.0
 11
2.5
 21
0.0
 31
0.0
  0
LINE
  5
2D7
330
2D2
100
AcDbEntity
  8
FORMAT
 62
     0
100
AcDbLine
 10
0.0
 20
0.0
 30
0.0
 11
0.0
 21
2.5
 31
0.0
  0
LINE
  5
2D8
330
2D2
100
AcDbEntity
  8
FORMAT
 62
     0
100
AcDbLine
 10
0.0
 20
0.0
 30
0.0
 11
-2.5
 21
0.0
 31
0.0
  0
LINE
  5
2D9
330
2D2
100
AcDbEntity
  8
FORMAT
 62
     0
100
AcDbLine
 10
0.0
 20
-5.0
 30
0.0
 11
0.0
 21
-6.0
 31
0.0
  0
LINE
  5
2DA
330
2D2
100
AcDbEntity
  8
FORMAT
 62
     0
100
AcDbLine
 10
5.0
 20
0.0
 30
0.0
 11
6.0
 21
0.0
 31
0.0
  0
LINE
  5
2DB
330
2D2
100
AcDbEntity
  8
FORMAT
 62
     0
100
AcDbLine
 10
0.0
 20
5.0
 30
0.0
 11
0.0
 21
6.0
 31
0.0
  0
LINE
  5
2DC
330
2D2
100
AcDbEntity
  8
FORMAT
 62
     0
100
AcDbLine
 10
-5.0
 20
0.0
 30
0.0
 11
-6.0
 21
0.0
 31
0.0
  0
ENDBLK
  5
2D4
330
2D2
100
AcDbEntity
  8
0
100
AcDbBlockEnd
  0
BLOCK
  5
2DF
330
2DE
100
AcDbEntity
  8
0
100
AcDbBlockBegin
  2
SW_CENTERMARKSYMBOL_2
 70
     0
 10
0.0
 20
0.0
 30
0.0
  3
SW_CENTERMARKSYMBOL_2
  1

  0
LINE
  5
2E1
330
2DE
100
AcDbEntity
  8
FORMAT
 62
     0
100
AcDbLine
 10
0.0
 20
0.0
 30
0.0
 11
0.0
 21
-2.5
 31
0.0
  0
LINE
  5
2E2
330
2DE
100
AcDbEntity
  8
FORMAT
 62
     0
100
AcDbLine
 10
0.0
 20
0.0
 30
0.0
 11
2.5
 21
0.0
 31
0.0
  0
LINE
  5
2E3
330
2DE
100
AcDbEntity
  8
FORMAT
 62
     0
100
AcDbLine
 10
0.0
 20
0.0
 30
0.0
 11
0.0
 21
2.5
 31
0.0
  0
LINE
  5
2E4
330
2DE
100
AcDbEntity
  8
FORMAT
 62
     0
100
AcDbLine
 10
0.0
 20
0.0
 30
0.0
 11
-2.5
 21
0.0
 31
0.0
  0
LINE
  5
2E5
330
2DE
100
AcDbEntity
  8
FORMAT
 62
     0
100
AcDbLine
 10
0.0
 20
-5.0
 30
0.0
 11
0.0
 21
-8.0
 31
0.0
  0
LINE
  5
2E6
330
2DE
100
AcDbEntity
  8
FORMAT
 62
     0
100
AcDbLine
 10
5.0
 20
0.0
 30
0.0
 11
8.0
 21
0.0
 31
0.0
  0
LINE
  5
2E7
330
2DE
100
AcDbEntity
  8
FORMAT
 62
     0
100
AcDbLine
 10
0.0
 20
5.0
 30
0.0
 11
0.0
 21
8.0
 31
0.0
  0
LINE
  5
2E8
330
2DE
100
AcDbEntity
  8
FORMAT
 62
     0
100
AcDbLine
 10
-5.0
 20
0.0
 30
0.0
 11
-8.0
 21
0.0
 31
0.0
  0
ENDBLK
  5
2E0
330
2DE
100
AcDbEntity
  8
0
100
AcDbBlockEnd
  0
BLOCK
  5
2EB
330
2EA
100
AcDbEntity
  8
0
100
AcDbBlockBegin
  2
SW_CENTERMARKSYMBOL_3
 70
     0
 10
0.0
 20
0.0
 30
0.0
  3
SW_CENTERMARKSYMBOL_3
  1

  0
LINE
  5
2ED
330
2EA
100
AcDbEntity
  8
FORMAT
 62
     0
100
AcDbLine
 10
0.0
 20
0.0
 30
0.0
 11
0.0
 21
-2.5
 31
0.0
  0
LINE
  5
2EE
330
2EA
100
AcDbEntity
  8
FORMAT
 62
     0
100
AcDbLine
 10
0.0
 20
0.0
 30
0.0
 11
2.5
 21
0.0
 31
0.0
  0
LINE
  5
2EF
330
2EA
100
AcDbEntity
  8
FORMAT
 62
     0
100
AcDbLine
 10
0.0
 20
0.0
 30
0.0
 11
0.0
 21
2.5
 31
0.0
  0
LINE
  5
2F0
330
2EA
100
AcDbEntity
  8
FORMAT
 62
     0
100
AcDbLine
 10
0.0
 20
0.0
 30
0.0
 11
-2.5
 21
0.0
 31
0.0
  0
LINE
  5
2F1
330
2EA
100
AcDbEntity
  8
FORMAT
 62
     0
100
AcDbLine
 10
0.0
 20
-5.0
 30
0.0
 11
0.0
 21
-8.0
 31
0.0
  0
LINE
  5
2F2
330
2EA
100
AcDbEntity
  8
FORMAT
 62
     0
100
AcDbLine
 10
5.0
 20
0.0
 30
0.0
 11
8.0
 21
0.0
 31
0.0
  0
LINE
  5
2F3
330
2EA
100
AcDbEntity
  8
FORMAT
 62
     0
100
AcDbLine
 10
0.0
 20
5.0
 30
0.0
 11
0.0
 21
8.0
 31
0.0
  0
LINE
  5
2F4
330
2EA
100
AcDbEntity
  8
FORMAT
 62
     0
100
AcDbLine
 10
-5.0
 20
0.0
 30
0.0
 11
-8.0
 21
0.0
 31
0.0
  0
ENDBLK
  5
2EC
330
2EA
100
AcDbEntity
  8
0
100
AcDbBlockEnd
  0
BLOCK
  5
2F7
330
2F6
100
AcDbEntity
  8
0
100
AcDbBlockBegin
  2
SW_CENTERMARKSYMBOL_4
 70
     0
 10
0.0
 20
0.0
 30
0.0
  3
SW_CENTERMARKSYMBOL_4
  1

  0
LINE
  5
2F9
330
2F6
100
AcDbEntity
  8
FORMAT
 62
     0
100
AcDbLine
 10
0.0
 20
0.0
 30
0.0
 11
0.0
 21
-2.5
 31
0.0
  0
LINE
  5
2FA
330
2F6
100
AcDbEntity
  8
FORMAT
 62
     0
100
AcDbLine
 10
0.0
 20
0.0
 30
0.0
 11
2.5
 21
0.0
 31
0.0
  0
LINE
  5
2FB
330
2F6
100
AcDbEntity
  8
FORMAT
 62
     0
100
AcDbLine
 10
0.0
 20
0.0
 30
0.0
 11
0.0
 21
2.5
 31
0.0
  0
LINE
  5
2FC
330
2F6
100
AcDbEntity
  8
FORMAT
 62
     0
100
AcDbLine
 10
0.0
 20
0.0
 30
0.0
 11
-2.5
 21
0.0
 31
0.0
  0
LINE
  5
2FD
330
2F6
100
AcDbEntity
  8
FORMAT
 62
     0
100
AcDbLine
 10
0.0
 20
-5.0
 30
0.0
 11
0.0
 21
-5.25
 31
0.0
  0
LINE
  5
2FE
330
2F6
100
AcDbEntity
  8
FORMAT
 62
     0
100
AcDbLine
 10
5.0
 20
0.0
 30
0.0
 11
5.25
 21
0.0
 31
0.0
  0
LINE
  5
2FF
330
2F6
100
AcDbEntity
  8
FORMAT
 62
     0
100
AcDbLine
 10
0.0
 20
5.0
 30
0.0
 11
0.0
 21
5.25
 31
0.0
  0
LINE
  5
300
330
2F6
100
AcDbEntity
  8
FORMAT
 62
     0
100
AcDbLine
 10
-5.0
 20
0.0
 30
0.0
 11
-5.25
 21
0.0
 31
0.0
  0
ENDBLK
  5
2F8
330
2F6
100
AcDbEntity
  8
0
100
AcDbBlockEnd
  0
BLOCK
  5
303
330
302
100
AcDbEntity
  8
0
100
AcDbBlockBegin
  2
SW_CENTERMARKSYMBOL_5
 70
     0
 10
0.0
 20
0.0
 30
0.0
  3
SW_CENTERMARKSYMBOL_5
  1

  0
LINE
  5
305
330
302
100
AcDbEntity
  8
FORMAT
 62
     0
100
AcDbLine
 10
0.0
 20
0.0
 30
0.0
 11
0.0
 21
-2.5
 31
0.0
  0
LINE
  5
306
330
302
100
AcDbEntity
  8
FORMAT
 62
     0
100
AcDbLine
 10
0.0
 20
0.0
 30
0.0
 11
2.5
 21
0.0
 31
0.0
  0
LINE
  5
307
330
302
100
AcDbEntity
  8
FORMAT
 62
     0
100
AcDbLine
 10
0.0
 20
0.0
 30
0.0
 11
0.0
 21
2.5
 31
0.0
  0
LINE
  5
308
330
302
100
AcDbEntity
  8
FORMAT
 62
     0
100
AcDbLine
 10
0.0
 20
0.0
 30
0.0
 11
-2.5
 21
0.0
 31
0.0
  0
LINE
  5
309
330
302
100
AcDbEntity
  8
FORMAT
 62
     0
100
AcDbLine
 10
0.0
 20
-5.0
 30
0.0
 11
0.0
 21
-5.25
 31
0.0
  0
LINE
  5
30A
330
302
100
AcDbEntity
  8
FORMAT
 62
     0
100
AcDbLine
 10
5.0
 20
0.0
 30
0.0
 11
5.25
 21
0.0
 31
0.0
  0
LINE
  5
30B
330
302
100
AcDbEntity
  8
FORMAT
 62
     0
100
AcDbLine
 10
0.0
 20
5.0
 30
0.0
 11
0.0
 21
5.25
 31
0.0
  0
LINE
  5
30C
330
302
100
AcDbEntity
  8
FORMAT
 62
     0
100
AcDbLine
 10
-5.0
 20
0.0
 30
0.0
 11
-6.2095978255
 21
0.0
 31
0.0
  0
ENDBLK
  5
304
330
302
100
AcDbEntity
  8
0
100
AcDbBlockEnd
  0
BLOCK
  5
30F
330
30E
100
AcDbEntity
  8
0
100
AcDbBlockBegin
  2
SW_CENTERMARKSYMBOL_6
 70
     0
 10
0.0
 20
0.0
 30
0.0
  3
SW_CENTERMARKSYMBOL_6
  1

  0
LINE
  5
311
330
30E
100
AcDbEntity
  8
FORMAT
 62
     0
100
AcDbLine
 10
0.0
 20
0.0
 30
0.0
 11
0.0
 21
-2.5
 31
0.0
  0
LINE
  5
312
330
30E
100
AcDbEntity
  8
FORMAT
 62
     0
100
AcDbLine
 10
0.0
 20
0.0
 30
0.0
 11
2.5
 21
0.0
 31
0.0
  0
LINE
  5
313
330
30E
100
AcDbEntity
  8
FORMAT
 62
     0
100
AcDbLine
 10
0.0
 20
0.0
 30
0.0
 11
0.0
 21
2.5
 31
0.0
  0
LINE
  5
314
330
30E
100
AcDbEntity
  8
FORMAT
 62
     0
100
AcDbLine
 10
0.0
 20
0.0
 30
0.0
 11
-2.5
 21
0.0
 31
0.0
  0
LINE
  5
315
330
30E
100
AcDbEntity
  8
FORMAT
 62
     0
100
AcDbLine
 10
0.0
 20
-5.0
 30
0.0
 11
0.0
 21
-5.75
 31
0.0
  0
LINE
  5
316
330
30E
100
AcDbEntity
  8
FORMAT
 62
     0
100
AcDbLine
 10
5.0
 20
0.0
 30
0.0
 11
5.75
 21
0.0
 31
0.0
  0
LINE
  5
317
330
30E
100
AcDbEntity
  8
FORMAT
 62
     0
100
AcDbLine
 10
0.0
 20
5.0
 30
0.0
 11
0.0
 21
5.75
 31
0.0
  0
LINE
  5
318
330
30E
100
AcDbEntity
  8
FORMAT
 62
     0
100
AcDbLine
 10
-5.0
 20
0.0
 30
0.0
 11
-5.75
 21
0.0
 31
0.0
  0
ENDBLK
  5
310
330
30E
100
AcDbEntity
  8
0
100
AcDbBlockEnd
  0
BLOCK
  5
31B
330
31A
100
AcDbEntity
  8
0
100
AcDbBlockBegin
  2
SW_CENTERMARKSYMBOL_7
 70
     0
 10
0.0
 20
0.0
 30
0.0
  3
SW_CENTERMARKSYMBOL_7
  1

  0
LINE
  5
31D
330
31A
100
AcDbEntity
  8
FORMAT
 62
     0
100
AcDbLine
 10
0.0
 20
0.0
 30
0.0
 11
0.0
 21
-2.5
 31
0.0
  0
LINE
  5
31E
330
31A
100
AcDbEntity
  8
FORMAT
 62
     0
100
AcDbLine
 10
0.0
 20
0.0
 30
0.0
 11
2.5
 21
0.0
 31
0.0
  0
LINE
  5
31F
330
31A
100
AcDbEntity
  8
FORMAT
 62
     0
100
AcDbLine
 10
0.0
 20
0.0
 30
0.0
 11
0.0
 21
2.5
 31
0.0
  0
LINE
  5
320
330
31A
100
AcDbEntity
  8
FORMAT
 62
     0
100
AcDbLine
 10
0.0
 20
0.0
 30
0.0
 11
-2.5
 21
0.0
 31
0.0
  0
LINE
  5
321
330
31A
100
AcDbEntity
  8
FORMAT
 62
     0
100
AcDbLine
 10
0.0
 20
-5.0
 30
0.0
 11
0.0
 21
-5.75
 31
0.0
  0
LINE
  5
322
330
31A
100
AcDbEntity
  8
FORMAT
 62
     0
100
AcDbLine
 10
5.0
 20
0.0
 30
0.0
 11
12.3713807707
 21
0.0
 31
0.0
  0
LINE
  5
323
330
31A
100
AcDbEntity
  8
FORMAT
 62
     0
100
AcDbLine
 10
0.0
 20
5.0
 30
0.0
 11
0.0
 21
5.75
 31
0.0
  0
LINE
  5
324
330
31A
100
AcDbEntity
  8
FORMAT
 62
     0
100
AcDbLine
 10
-5.0
 20
0.0
 30
0.0
 11
-25.7261535827
 21
0.0
 31
0.0
  0
ENDBLK
  5
31C
330
31A
100
AcDbEntity
  8
0
100
AcDbBlockEnd
  0
BLOCK
  5
327
330
326
100
AcDbEntity
  8
0
100
AcDbBlockBegin
  2
SW_CENTERMARKSYMBOL_8
 70
     0
 10
0.0
 20
0.0
 30
0.0
  3
SW_CENTERMARKSYMBOL_8
  1

  0
LINE
  5
329
330
326
100
AcDbEntity
  8
FORMAT
 62
     0
100
AcDbLine
 10
0.0
 20
0.0
 30
0.0
 11
0.0
 21
-2.5
 31
0.0
  0
LINE
  5
32A
330
326
100
AcDbEntity
  8
FORMAT
 62
     0
100
AcDbLine
 10
0.0
 20
0.0
 30
0.0
 11
2.5
 21
0.0
 31
0.0
  0
LINE
  5
32B
330
326
100
AcDbEntity
  8
FORMAT
 62
     0
100
AcDbLine
 10
0.0
 20
0.0
 30
0.0
 11
0.0
 21
2.5
 31
0.0
  0
LINE
  5
32C
330
326
100
AcDbEntity
  8
FORMAT
 62
     0
100
AcDbLine
 10
0.0
 20
0.0
 30
0.0
 11
-2.5
 21
0.0
 31
0.0
  0
LINE
  5
32D
330
326
100
AcDbEntity
  8
FORMAT
 62
     0
100
AcDbLine
 10
0.0
 20
-5.0
 30
0.0
 11
0.0
 21
-5.75
 31
0.0
  0
LINE
  5
32E
330
326
100
AcDbEntity
  8
FORMAT
 62
     0
100
AcDbLine
 10
5.0
 20
0.0
 30
0.0
 11
5.75
 21
0.0
 31
0.0
  0
LINE
  5
32F
330
326
100
AcDbEntity
  8
FORMAT
 62
     0
100
AcDbLine
 10
0.0
 20
5.0
 30
0.0
 11
0.0
 21
5.75
 31
0.0
  0
LINE
  5
330
330
326
100
AcDbEntity
  8
FORMAT
 62
     0
100
AcDbLine
 10
-5.0
 20
0.0
 30
0.0
 11
-5.75
 21
0.0
 31
0.0
  0
ENDBLK
  5
328
330
326
100
AcDbEntity
  8
0
100
AcDbBlockEnd
  0
BLOCK
  5
37F
330
37E
100
AcDbEntity
  8
0
100
AcDbBlockBegin
  2
_D_9
 70
     0
 10
0.0
 20
0.0
 30
0.0
  3
_D_9
  1

  0
SOLID
  5
381
330
37E
100
AcDbEntity
  8
FORMAT
100
AcDbTrace
 10
553.7152480068
 20
320.0571037427
 30
0.0
 11
553.2072480068
 21
316.7551037427
 31
0.0
 12
554.2232480068
 22
316.7551037427
 32
0.0
 13
554.2232480068
 23
316.7551037427
 33
0.0
  0
SOLID
  5
382
330
37E
100
AcDbEntity
  8
FORMAT
100
AcDbTrace
 10
553.7152480068
 20
226.0571037427
 30
0.0
 11
554.2232480068
 21
229.3591037427
 31
0.0
 12
553.2072480068
 22
229.3591037427
 32
0.0
 13
553.2072480068
 23
229.3591037427
 33
0.0
  0
LINE
  5
383
330
37E
100
AcDbEntity
  8
FORMAT
100
AcDbLine
 10
537.9678439679
 20
320.0571037427
 30
0.0
 11
554.7152480068
 21
320.0571037427
 31
0.0
  0
LINE
  5
384
330
37E
100
AcDbEntity
  8
FORMAT
100
AcDbLine
 10
537.9678439679
 20
226.0571037427
 30
0.0
 11
554.7152480068
 21
226.0571037427
 31
0.0
  0
LINE
  5
385
330
37E
100
AcDbEntity
  8
FORMAT
100
AcDbLine
 10
553.7152480068
 20
320.0571037427
 30
0.0
 11
553.7152480068
 21
226.0571037427
 31
0.0
  0
MTEXT
  5
386
330
37E
100
AcDbEntity
  8
FORMAT
100
AcDbMText
 10
549.2035106848
 20
270.3834926978
 30
0.0
 40
3.5
 41
0.0
 71
     1
 72
     1
  1
94
  7
SLDTEXTSTYLE0
 11
-7.044195017643634E-15
 21
1.0
 31
0.0
 73
     1
 44
1.0
  0
ENDBLK
  5
380
330
37E
100
AcDbEntity
  8
0
100
AcDbBlockEnd
  0
BLOCK
  5
389
330
388
100
AcDbEntity
  8
0
100
AcDbBlockBegin
  2
_D_10
 70
     0
 10
0.0
 20
0.0
 30
0.0
  3
_D_10
  1

  0
SOLID
  5
38B
330
388
100
AcDbEntity
  8
FORMAT
100
AcDbTrace
 10
560.3116762486
 20
345.5571037427
 30
0.0
 11
559.8036762486
 21
342.2551037427
 31
0.0
 12
560.8196762486
 22
342.2551037427
 32
0.0
 13
560.8196762486
 23
342.2551037427
 33
0.0
  0
SOLID
  5
38C
330
388
100
AcDbEntity
  8
FORMAT
100
AcDbTrace
 10
560.3116762486
 20
200.5571037427
 30
0.0
 11
560.8196762486
 21
203.8591037427
 31
0.0
 12
559.8036762486
 22
203.8591037427
 32
0.0
 13
559.8036762486
 23
203.8591037427
 33
0.0
  0
LINE
  5
38D
330
388
100
AcDbEntity
  8
FORMAT
100
AcDbLine
 10
520.9678439679
 20
345.5571037427
 30
0.0
 11
561.3116762486
 21
345.5571037427
 31
0.0
  0
LINE
  5
38E
330
388
100
AcDbEntity
  8
FORMAT
100
AcDbLine
 10
520.9678439679
 20
200.5571037427
 30
0.0
 11
561.3116762486
 21
200.5571037427
 31
0.0
  0
LINE
  5
38F
330
388
100
AcDbEntity
  8
FORMAT
100
AcDbLine
 10
560.3116762486
 20
345.5571037427
 30
0.0
 11
560.3116762486
 21
200.5571037427
 31
0.0
  0
MTEXT
  5
390
330
388
100
AcDbEntity
  8
FORMAT
100
AcDbMText
 10
555.7999389265
 20
269.0466871754
 30
0.0
 40
3.5
 41
0.0
 71
     1
 72
     1
  1
145
  7
SLDTEXTSTYLE0
 11
-7.044195017643634E-15
 21
1.0
 31
0.0
 73
     1
 44
1.0
  0
ENDBLK
  5
38A
330
388
100
AcDbEntity
  8
0
100
AcDbBlockEnd
  0
BLOCK
  5
394
330
393
100
AcDbEntity
  8
0
100
AcDbBlockBegin
  2
_D_11
 70
     0
 10
0.0
 20
0.0
 30
0.0
  3
_D_11
  1

  0
SOLID
  5
396
330
393
100
AcDbEntity
  8
FORMAT
100
AcDbTrace
 10
511.4557847432
 20
204.0986849924
 30
0.0
 11
508.7554767195
 21
202.1315539401
 31
0.0
 12
509.4716228404
 22
201.410866259
 32
0.0
 13
509.4716228404
 23
201.410866259
 33
0.0
  0
LINE
  5
397
330
393
100
AcDbEntity
  8
FORMAT
100
AcDbLine
 10
511.4557847432
 20
204.0986849924
 30
0.0
 11
499.159746659
 21
191.8801328956
 31
0.0
  0
MTEXT
  5
398
330
393
100
AcDbEntity
  8
FORMAT
100
AcDbMText
 10
495.9903388971
 20
195.0696399857
 30
0.0
 40
3.5
 41
0.0
 71
     1
 72
     1
  1
R12
  7
SLDTEXTSTYLE0
 11
0.7093382687176729
 21
0.7048682291979221
 31
0.0
 73
     1
 44
1.0
  0
ENDBLK
  5
395
330
393
100
AcDbEntity
  8
0
100
AcDbBlockEnd
  0
BLOCK
  5
39B
330
39A
100
AcDbEntity
  8
0
100
AcDbBlockBegin
  2
_D_12
 70
     0
 10
0.0
 20
0.0
 30
0.0
  3
_D_12
  1

  0
SOLID
  5
39D
330
39A
100
AcDbEntity
  8
FORMAT
100
AcDbTrace
 10
511.1643997571
 20
186.9023891537
 30
0.0
 11
508.3967691075
 21
185.0311626609
 31
0.0
 12
509.0872016093
 22
184.2858043844
 32
0.0
 13
509.0872016093
 23
184.2858043844
 33
0.0
  0
LINE
  5
39E
330
39A
100
AcDbEntity
  8
FORMAT
100
AcDbLine
 10
511.1643997571
 20
186.9023891537
 30
0.0
 11
501.8297347027
 21
178.2555996155
 31
0.0
  0
MTEXT
  5
39F
330
39A
100
AcDbEntity
  8
FORMAT
100
AcDbMText
 10
498.7792219688
 20
181.5487888956
 30
0.0
 40
3.5
 41
0.0
 71
     1
 72
     1
  1
R12
  7
SLDTEXTSTYLE0
 11
0.7336203508977697
 21
0.6795595490820751
 31
0.0
 73
     1
 44
1.0
  0
ENDBLK
  5
39C
330
39A
100
AcDbEntity
  8
0
100
AcDbBlockEnd
  0
BLOCK
  5
3A2
330
3A1
100
AcDbEntity
  8
0
100
AcDbBlockBegin
  2
_D_13
 70
     0
 10
0.0
 20
0.0
 30
0.0
  3
_D_13
  1

  0
SOLID
  5
3A4
330
3A1
100
AcDbEntity
  8
FORMAT
100
AcDbTrace
 10
546.9678432824
 20
287.0571037427
 30
0.0
 11
546.4598432824
 21
283.7551037427
 31
0.0
 12
547.4758432824
 22
283.7551037427
 32
0.0
 13
547.4758432824
 23
283.7551037427
 33
0.0
  0
SOLID
  5
3A5
330
3A1
100
AcDbEntity
  8
FORMAT
100
AcDbTrace
 10
546.9678432824
 20
259.0571037427
 30
0.0
 11
547.4758432824
 21
262.3591037427
 31
0.0
 12
546.4598432824
 22
262.3591037427
 32
0.0
 13
546.4598432824
 23
262.3591037427
 33
0.0
  0
LINE
  5
3A6
330
3A1
100
AcDbEntity
  8
FORMAT
100
AcDbLine
 10
524.7178439679
 20
287.0571037427
 30
0.0
 11
547.9678432824
 21
287.0571037427
 31
0.0
  0
LINE
  5
3A7
330
3A1
100
AcDbEntity
  8
FORMAT
100
AcDbLine
 10
524.7178439679
 20
259.0571037427
 30
0.0
 11
547.9678432824
 21
259.0571037427
 31
0.0
  0
LINE
  5
3A8
330
3A1
100
AcDbEntity
  8
FORMAT
100
AcDbLine
 10
546.9678432824
 20
287.0571037427
 30
0.0
 11
546.9678432824
 21
259.0571037427
 31
0.0
  0
MTEXT
  5
3A9
330
3A1
100
AcDbEntity
  8
FORMAT
100
AcDbMText
 10
542.4561059604
 20
270.3834926978
 30
0.0
 40
3.5
 41
0.0
 71
     1
 72
     1
  1
28
  7
SLDTEXTSTYLE0
 11
-7.044195017643634E-15
 21
1.0
 31
0.0
 73
     1
 44
1.0
  0
ENDBLK
  5
3A3
330
3A1
100
AcDbEntity
  8
0
100
AcDbBlockEnd
  0
BLOCK
  5
3AC
330
3AB
100
AcDbEntity
  8
0
100
AcDbBlockBegin
  2
_D_14
 70
     0
 10
0.0
 20
0.0
 30
0.0
  3
_D_14
  1

  0
SOLID
  5
3AE
330
3AB
100
AcDbEntity
  8
FORMAT
100
AcDbTrace
 10
566.9007673881
 20
351.0571037427
 30
0.0
 11
566.3927673881
 21
347.7551037427
 31
0.0
 12
567.4087673881
 22
347.7551037427
 32
0.0
 13
567.4087673881
 23
347.7551037427
 33
0.0
  0
SOLID
  5
3AF
330
3AB
100
AcDbEntity
  8
FORMAT
100
AcDbTrace
 10
566.9007673881
 20
195.0571037427
 30
0.0
 11
567.4087673881
 21
198.3591037427
 31
0.0
 12
566.3927673881
 22
198.3591037427
 32
0.0
 13
566.3927673881
 23
198.3591037427
 33
0.0
  0
LINE
  5
3B0
330
3AB
100
AcDbEntity
  8
FORMAT
100
AcDbLine
 10
525.4678439679
 20
351.0571037427
 30
0.0
 11
567.9007673881
 21
351.0571037427
 31
0.0
  0
LINE
  5
3B1
330
3AB
100
AcDbEntity
  8
FORMAT
100
AcDbLine
 10
525.4678439679
 20
195.0571037427
 30
0.0
 11
567.9007673881
 21
195.0571037427
 31
0.0
  0
LINE
  5
3B2
330
3AB
100
AcDbEntity
  8
FORMAT
100
AcDbLine
 10
566.9007673881
 20
351.0571037427
 30
0.0
 11
566.9007673881
 21
195.0571037427
 31
0.0
  0
MTEXT
  5
3B3
330
3AB
100
AcDbEntity
  8
FORMAT
100
AcDbMText
 10
562.389030066
 20
269.0466871754
 30
0.0
 40
3.5
 41
0.0
 71
     1
 72
     1
  1
156
  7
SLDTEXTSTYLE0
 11
-7.044195017643634E-15
 21
1.0
 31
0.0
 73
     1
 44
1.0
  0
ENDBLK
  5
3AD
330
3AB
100
AcDbEntity
  8
0
100
AcDbBlockEnd
  0
BLOCK
  5
3B6
330
3B5
100
AcDbEntity
  8
0
100
AcDbBlockBegin
  2
_D_15
 70
     0
 10
0.0
 20
0.0
 30
0.0
  3
_D_15
  1

  0
SOLID
  5
3B8
330
3B5
100
AcDbEntity
  8
FORMAT
100
AcDbTrace
 10
573.6141810019
 20
363.0571037427
 30
0.0
 11
573.1061810019
 21
359.7551037427
 31
0.0
 12
574.1221810019
 22
359.7551037427
 32
0.0
 13
574.1221810019
 23
359.7551037427
 33
0.0
  0
SOLID
  5
3B9
330
3B5
100
AcDbEntity
  8
FORMAT
100
AcDbTrace
 10
573.6141810019
 20
183.0571037427
 30
0.0
 11
574.1221810019
 21
186.3591037427
 31
0.0
 12
573.1061810019
 22
186.3591037427
 32
0.0
 13
573.1061810019
 23
186.3591037427
 33
0.0
  0
LINE
  5
3BA
330
3B5
100
AcDbEntity
  8
FORMAT
100
AcDbLine
 10
520.9678439679
 20
363.0571037427
 30
0.0
 11
574.6141810019
 21
363.0571037427
 31
0.0
  0
LINE
  5
3BB
330
3B5
100
AcDbEntity
  8
FORMAT
100
AcDbLine
 10
520.9678439679
 20
183.0571037427
 30
0.0
 11
574.6141810019
 21
183.0571037427
 31
0.0
  0
LINE
  5
3BC
330
3B5
100
AcDbEntity
  8
FORMAT
100
AcDbLine
 10
573.6141810019
 20
363.0571037427
 30
0.0
 11
573.6141810019
 21
183.0571037427
 31
0.0
  0
MTEXT
  5
3BD
330
3B5
100
AcDbEntity
  8
FORMAT
100
AcDbMText
 10
569.1024436799
 20
269.0466871754
 30
0.0
 40
3.5
 41
0.0
 71
     1
 72
     1
  1
180
  7
SLDTEXTSTYLE0
 11
-7.044195017643634E-15
 21
1.0
 31
0.0
 73
     1
 44
1.0
  0
ENDBLK
  5
3B7
330
3B5
100
AcDbEntity
  8
0
100
AcDbBlockEnd
  0
BLOCK
  5
3C0
330
3BF
100
AcDbEntity
  8
0
100
AcDbBlockBegin
  2
SW_NOTE_0_9
 70
     0
 10
0.0
 20
0.0
 30
0.0
  3
SW_NOTE_0_9
  1

  0
MTEXT
  5
3C2
330
3BF
100
AcDbEntity
  8
FORMAT
 62
     0
100
AcDbMText
 10
32.4296875
 20
4.5117370892
 30
0.0
 40
3.5
 41
0.0
 71
     2
 72
     1
  1
Fräsbild für Aufnahmeelement 
  7
SLDTEXTSTYLE0
 73
     1
 44
1.0
  0
MTEXT
  5
3C3
330
3BF
100
AcDbEntity
  8
FORMAT
 62
     0
100
AcDbMText
 10
32.5500001907
 20
-0.0090964031
 30
0.0
 40
3.5
 41
0.0
 71
     2
 72
     1
  1
mit Abdeckwinkel 
  7
SLDTEXTSTYLE0
 73
     1
 44
1.0
  0
ENDBLK
  5
3C1
330
3BF
100
AcDbEntity
  8
0
100
AcDbBlockEnd
  0
BLOCK
  5
3C6
330
3C5
100
AcDbEntity
  8
0
100
AcDbBlockBegin
  2
SW_CENTERMARKSYMBOL_9
 70
     0
 10
0.0
 20
0.0
 30
0.0
  3
SW_CENTERMARKSYMBOL_9
  1

  0
LINE
  5
3C8
330
3C5
100
AcDbEntity
  8
FORMAT
 62
     0
100
AcDbLine
 10
0.0
 20
0.0
 30
0.0
 11
0.0
 21
2.5000050664
 31
0.0
  0
LINE
  5
3C9
330
3C5
100
AcDbEntity
  8
FORMAT
 62
     0
100
AcDbLine
 10
0.0
 20
0.0
 30
0.0
 11
-2.5000004098
 21
0.0
 31
0.0
  0
LINE
  5
3CA
330
3C5
100
AcDbEntity
  8
FORMAT
 62
     0
100
AcDbLine
 10
0.0
 20
0.0
 30
0.0
 11
0.0
 21
-2.4999976158
 31
0.0
  0
LINE
  5
3CB
330
3C5
100
AcDbEntity
  8
FORMAT
 62
     0
100
AcDbLine
 10
0.0
 20
0.0
 30
0.0
 11
2.4999994785
 21
0.0
 31
0.0
  0
LINE
  5
3CC
330
3C5
100
AcDbEntity
  8
FORMAT
 62
     0
100
AcDbLine
 10
0.0
 20
2.5000050664
 30
0.0
 11
0.0
 21
4.5000016689
 31
0.0
  0
LINE
  5
3CD
330
3C5
100
AcDbEntity
  8
FORMAT
 62
     0
100
AcDbLine
 10
-2.5000004098
 20
0.0
 30
0.0
 11
-4.4999998063
 21
0.0
 31
0.0
  0
LINE
  5
3CE
330
3C5
100
AcDbEntity
  8
FORMAT
 62
     0
100
AcDbLine
 10
0.0
 20
-2.4999976158
 30
0.0
 11
0.0
 21
-14.1223296523
 31
0.0
  0
LINE
  5
3CF
330
3C5
100
AcDbEntity
  8
FORMAT
 62
     0
100
AcDbLine
 10
2.4999994785
 20
0.0
 30
0.0
 11
4.4999998063
 21
0.0
 31
0.0
  0
ENDBLK
  5
3C7
330
3C5
100
AcDbEntity
  8
0
100
AcDbBlockEnd
  0
BLOCK
  5
3D2
330
3D1
100
AcDbEntity
  8
0
100
AcDbBlockBegin
  2
SW_CENTERMARKSYMBOL_10
 70
     0
 10
0.0
 20
0.0
 30
0.0
  3
SW_CENTERMARKSYMBOL_10
  1

  0
LINE
  5
3D4
330
3D1
100
AcDbEntity
  8
FORMAT
 62
     0
100
AcDbLine
 10
0.0
 20
0.0
 30
0.0
 11
0.0
 21
2.4999976158
 31
0.0
  0
LINE
  5
3D5
330
3D1
100
AcDbEntity
  8
FORMAT
 62
     0
100
AcDbLine
 10
0.0
 20
0.0
 30
0.0
 11
-2.5000004098
 21
0.0
 31
0.0
  0
LINE
  5
3D6
330
3D1
100
AcDbEntity
  8
FORMAT
 62
     0
100
AcDbLine
 10
0.0
 20
0.0
 30
0.0
 11
0.0
 21
-2.5000050664
 31
0.0
  0
LINE
  5
3D7
330
3D1
100
AcDbEntity
  8
FORMAT
 62
     0
100
AcDbLine
 10
0.0
 20
0.0
 30
0.0
 11
2.4999994785
 21
0.0
 31
0.0
  0
LINE
  5
3D8
330
3D1
100
AcDbEntity
  8
FORMAT
 62
     0
100
AcDbLine
 10
0.0
 20
2.4999976158
 30
0.0
 11
0.0
 21
15.9932598472
 31
0.0
  0
LINE
  5
3D9
330
3D1
100
AcDbEntity
  8
FORMAT
 62
     0
100
AcDbLine
 10
-2.5000004098
 20
0.0
 30
0.0
 11
-4.4999998063
 21
0.0
 31
0.0
  0
LINE
  5
3DA
330
3D1
100
AcDbEntity
  8
FORMAT
 62
     0
100
AcDbLine
 10
0.0
 20
-2.5000050664
 30
0.0
 11
0.0
 21
-57.665804401
 31
0.0
  0
LINE
  5
3DB
330
3D1
100
AcDbEntity
  8
FORMAT
 62
     0
100
AcDbLine
 10
2.4999994785
 20
0.0
 30
0.0
 11
4.4999998063
 21
0.0
 31
0.0
  0
ENDBLK
  5
3D3
330
3D1
100
AcDbEntity
  8
0
100
AcDbBlockEnd
  0
BLOCK
  5
3DE
330
3DD
100
AcDbEntity
  8
0
100
AcDbBlockBegin
  2
SW_CENTERMARKSYMBOL_11
 70
     0
 10
0.0
 20
0.0
 30
0.0
  3
SW_CENTERMARKSYMBOL_11
  1

  0
LINE
  5
3E0
330
3DD
100
AcDbEntity
  8
FORMAT
 62
     0
100
AcDbLine
 10
0.0
 20
0.0
 30
0.0
 11
0.0
 21
2.5000004098
 31
0.0
  0
LINE
  5
3E1
330
3DD
100
AcDbEntity
  8
FORMAT
 62
     0
100
AcDbLine
 10
0.0
 20
0.0
 30
0.0
 11
-2.5000004098
 21
0.0
 31
0.0
  0
LINE
  5
3E2
330
3DD
100
AcDbEntity
  8
FORMAT
 62
     0
100
AcDbLine
 10
0.0
 20
0.0
 30
0.0
 11
0.0
 21
-2.4999994785
 31
0.0
  0
LINE
  5
3E3
330
3DD
100
AcDbEntity
  8
FORMAT
 62
     0
100
AcDbLine
 10
0.0
 20
0.0
 30
0.0
 11
2.4999994785
 21
0.0
 31
0.0
  0
LINE
  5
3E4
330
3DD
100
AcDbEntity
  8
FORMAT
 62
     0
100
AcDbLine
 10
0.0
 20
2.5000004098
 30
0.0
 11
0.0
 21
12.7307062503
 31
0.0
  0
LINE
  5
3E5
330
3DD
100
AcDbEntity
  8
FORMAT
 62
     0
100
AcDbLine
 10
-2.5000004098
 20
0.0
 30
0.0
 11
-3.750000149
 21
0.0
 31
0.0
  0
LINE
  5
3E6
330
3DD
100
AcDbEntity
  8
FORMAT
 62
     0
100
AcDbLine
 10
0.0
 20
-2.4999994785
 30
0.0
 11
0.0
 21
-56.2228988856
 31
0.0
  0
LINE
  5
3E7
330
3DD
100
AcDbEntity
  8
FORMAT
 62
     0
100
AcDbLine
 10
2.4999994785
 20
0.0
 30
0.0
 11
3.750000149
 21
0.0
 31
0.0
  0
ENDBLK
  5
3DF
330
3DD
100
AcDbEntity
  8
0
100
AcDbBlockEnd
  0
BLOCK
  5
3EA
330
3E9
100
AcDbEntity
  8
0
100
AcDbBlockBegin
  2
SW_CENTERMARKSYMBOL_12
 70
     0
 10
0.0
 20
0.0
 30
0.0
  3
SW_CENTERMARKSYMBOL_12
  1

  0
LINE
  5
3EC
330
3E9
100
AcDbEntity
  8
FORMAT
 62
     0
100
AcDbLine
 10
0.0
 20
0.0
 30
0.0
 11
0.0
 21
2.4999994785
 31
0.0
  0
LINE
  5
3ED
330
3E9
100
AcDbEntity
  8
FORMAT
 62
     0
100
AcDbLine
 10
0.0
 20
0.0
 30
0.0
 11
-2.5000004098
 21
0.0
 31
0.0
  0
LINE
  5
3EE
330
3E9
100
AcDbEntity
  8
FORMAT
 62
     0
100
AcDbLine
 10
0.0
 20
0.0
 30
0.0
 11
0.0
 21
-2.5000004098
 31
0.0
  0
LINE
  5
3EF
330
3E9
100
AcDbEntity
  8
FORMAT
 62
     0
100
AcDbLine
 10
0.0
 20
0.0
 30
0.0
 11
2.4999994785
 21
0.0
 31
0.0
  0
LINE
  5
3F0
330
3E9
100
AcDbEntity
  8
FORMAT
 62
     0
100
AcDbLine
 10
0.0
 20
2.4999994785
 30
0.0
 11
0.0
 21
3.750000149
 31
0.0
  0
LINE
  5
3F1
330
3E9
100
AcDbEntity
  8
FORMAT
 62
     0
100
AcDbLine
 10
-2.5000004098
 20
0.0
 30
0.0
 11
-3.750000149
 21
0.0
 31
0.0
  0
LINE
  5
3F2
330
3E9
100
AcDbEntity
  8
FORMAT
 62
     0
100
AcDbLine
 10
0.0
 20
-2.5000004098
 30
0.0
 11
0.0
 21
-8.4627154283
 31
0.0
  0
LINE
  5
3F3
330
3E9
100
AcDbEntity
  8
FORMAT
 62
     0
100
AcDbLine
 10
2.4999994785
 20
0.0
 30
0.0
 11
3.750000149
 21
0.0
 31
0.0
  0
ENDBLK
  5
3EB
330
3E9
100
AcDbEntity
  8
0
100
AcDbBlockEnd
  0
BLOCK
  5
3F6
330
3F5
100
AcDbEntity
  8
0
100
AcDbBlockBegin
  2
SW_CENTERMARKSYMBOL_13
 70
     0
 10
0.0
 20
0.0
 30
0.0
  3
SW_CENTERMARKSYMBOL_13
  1

  0
LINE
  5
3F8
330
3F5
100
AcDbEntity
  8
FORMAT
 62
     0
100
AcDbLine
 10
0.0
 20
0.0
 30
0.0
 11
0.0
 21
2.5000050664
 31
0.0
  0
LINE
  5
3F9
330
3F5
100
AcDbEntity
  8
FORMAT
 62
     0
100
AcDbLine
 10
0.0
 20
0.0
 30
0.0
 11
-2.5000004098
 21
0.0
 31
0.0
  0
LINE
  5
3FA
330
3F5
100
AcDbEntity
  8
FORMAT
 62
     0
100
AcDbLine
 10
0.0
 20
0.0
 30
0.0
 11
0.0
 21
-2.4999976158
 31
0.0
  0
LINE
  5
3FB
330
3F5
100
AcDbEntity
  8
FORMAT
 62
     0
100
AcDbLine
 10
0.0
 20
0.0
 30
0.0
 11
2.4999994785
 21
0.0
 31
0.0
  0
LINE
  5
3FC
330
3F5
100
AcDbEntity
  8
FORMAT
 62
     0
100
AcDbLine
 10
0.0
 20
2.5000050664
 30
0.0
 11
0.0
 21
4.5000016689
 31
0.0
  0
LINE
  5
3FD
330
3F5
100
AcDbEntity
  8
FORMAT
 62
     0
100
AcDbLine
 10
-2.5000004098
 20
0.0
 30
0.0
 11
-4.4999998063
 21
0.0
 31
0.0
  0
LINE
  5
3FE
330
3F5
100
AcDbEntity
  8
FORMAT
 62
     0
100
AcDbLine
 10
0.0
 20
-2.4999976158
 30
0.0
 11
0.0
 21
-4.5000016689
 31
0.0
  0
LINE
  5
3FF
330
3F5
100
AcDbEntity
  8
FORMAT
 62
     0
100
AcDbLine
 10
2.4999994785
 20
0.0
 30
0.0
 11
4.4999998063
 21
0.0
 31
0.0
  0
ENDBLK
  5
3F7
330
3F5
100
AcDbEntity
  8
0
100
AcDbBlockEnd
  0
BLOCK
  5
402
330
401
100
AcDbEntity
  8
0
100
AcDbBlockBegin
  2
SW_CENTERMARKSYMBOL_14
 70
     0
 10
0.0
 20
0.0
 30
0.0
  3
SW_CENTERMARKSYMBOL_14
  1

  0
LINE
  5
404
330
401
100
AcDbEntity
  8
FORMAT
 62
     0
100
AcDbLine
 10
0.0
 20
0.0
 30
0.0
 11
0.0
 21
2.4999976158
 31
0.0
  0
LINE
  5
405
330
401
100
AcDbEntity
  8
FORMAT
 62
     0
100
AcDbLine
 10
0.0
 20
0.0
 30
0.0
 11
-2.5000004098
 21
0.0
 31
0.0
  0
LINE
  5
406
330
401
100
AcDbEntity
  8
FORMAT
 62
     0
100
AcDbLine
 10
0.0
 20
0.0
 30
0.0
 11
0.0
 21
-2.5000050664
 31
0.0
  0
LINE
  5
407
330
401
100
AcDbEntity
  8
FORMAT
 62
     0
100
AcDbLine
 10
0.0
 20
0.0
 30
0.0
 11
2.4999994785
 21
0.0
 31
0.0
  0
LINE
  5
408
330
401
100
AcDbEntity
  8
FORMAT
 62
     0
100
AcDbLine
 10
0.0
 20
2.4999976158
 30
0.0
 11
0.0
 21
4.5000016689
 31
0.0
  0
LINE
  5
409
330
401
100
AcDbEntity
  8
FORMAT
 62
     0
100
AcDbLine
 10
-2.5000004098
 20
0.0
 30
0.0
 11
-4.4999998063
 21
0.0
 31
0.0
  0
LINE
  5
40A
330
401
100
AcDbEntity
  8
FORMAT
 62
     0
100
AcDbLine
 10
0.0
 20
-2.5000050664
 30
0.0
 11
0.0
 21
-4.5000016689
 31
0.0
  0
LINE
  5
40B
330
401
100
AcDbEntity
  8
FORMAT
 62
     0
100
AcDbLine
 10
2.4999994785
 20
0.0
 30
0.0
 11
4.4999998063
 21
0.0
 31
0.0
  0
ENDBLK
  5
403
330
401
100
AcDbEntity
  8
0
100
AcDbBlockEnd
  0
BLOCK
  5
40E
330
40D
100
AcDbEntity
  8
0
100
AcDbBlockBegin
  2
SW_CENTERMARKSYMBOL_15
 70
     0
 10
0.0
 20
0.0
 30
0.0
  3
SW_CENTERMARKSYMBOL_15
  1

  0
LINE
  5
410
330
40D
100
AcDbEntity
  8
FORMAT
 62
     0
100
AcDbLine
 10
0.0
 20
0.0
 30
0.0
 11
0.0
 21
2.5000004098
 31
0.0
  0
LINE
  5
411
330
40D
100
AcDbEntity
  8
FORMAT
 62
     0
100
AcDbLine
 10
0.0
 20
0.0
 30
0.0
 11
-2.5000004098
 21
0.0
 31
0.0
  0
LINE
  5
412
330
40D
100
AcDbEntity
  8
FORMAT
 62
     0
100
AcDbLine
 10
0.0
 20
0.0
 30
0.0
 11
0.0
 21
-2.4999994785
 31
0.0
  0
LINE
  5
413
330
40D
100
AcDbEntity
  8
FORMAT
 62
     0
100
AcDbLine
 10
0.0
 20
0.0
 30
0.0
 11
2.4999994785
 21
0.0
 31
0.0
  0
LINE
  5
414
330
40D
100
AcDbEntity
  8
FORMAT
 62
     0
100
AcDbLine
 10
0.0
 20
2.5000004098
 30
0.0
 11
0.0
 21
3.750000149
 31
0.0
  0
LINE
  5
415
330
40D
100
AcDbEntity
  8
FORMAT
 62
     0
100
AcDbLine
 10
-2.5000004098
 20
0.0
 30
0.0
 11
-3.750000149
 21
0.0
 31
0.0
  0
LINE
  5
416
330
40D
100
AcDbEntity
  8
FORMAT
 62
     0
100
AcDbLine
 10
0.0
 20
-2.4999994785
 30
0.0
 11
0.0
 21
-3.750000149
 31
0.0
  0
LINE
  5
417
330
40D
100
AcDbEntity
  8
FORMAT
 62
     0
100
AcDbLine
 10
2.4999994785
 20
0.0
 30
0.0
 11
3.750000149
 21
0.0
 31
0.0
  0
ENDBLK
  5
40F
330
40D
100
AcDbEntity
  8
0
100
AcDbBlockEnd
  0
BLOCK
  5
41A
330
419
100
AcDbEntity
  8
0
100
AcDbBlockBegin
  2
SW_CENTERMARKSYMBOL_16
 70
     0
 10
0.0
 20
0.0
 30
0.0
  3
SW_CENTERMARKSYMBOL_16
  1

  0
LINE
  5
41C
330
419
100
AcDbEntity
  8
FORMAT
 62
     0
100
AcDbLine
 10
0.0
 20
0.0
 30
0.0
 11
0.0
 21
2.4999994785
 31
0.0
  0
LINE
  5
41D
330
419
100
AcDbEntity
  8
FORMAT
 62
     0
100
AcDbLine
 10
0.0
 20
0.0
 30
0.0
 11
-2.5000004098
 21
0.0
 31
0.0
  0
LINE
  5
41E
330
419
100
AcDbEntity
  8
FORMAT
 62
     0
100
AcDbLine
 10
0.0
 20
0.0
 30
0.0
 11
0.0
 21
-2.5000004098
 31
0.0
  0
LINE
  5
41F
330
419
100
AcDbEntity
  8
FORMAT
 62
     0
100
AcDbLine
 10
0.0
 20
0.0
 30
0.0
 11
2.4999994785
 21
0.0
 31
0.0
  0
LINE
  5
420
330
419
100
AcDbEntity
  8
FORMAT
 62
     0
100
AcDbLine
 10
0.0
 20
2.4999994785
 30
0.0
 11
0.0
 21
3.750000149
 31
0.0
  0
LINE
  5
421
330
419
100
AcDbEntity
  8
FORMAT
 62
     0
100
AcDbLine
 10
-2.5000004098
 20
0.0
 30
0.0
 11
-3.750000149
 21
0.0
 31
0.0
  0
LINE
  5
422
330
419
100
AcDbEntity
  8
FORMAT
 62
     0
100
AcDbLine
 10
0.0
 20
-2.5000004098
 30
0.0
 11
0.0
 21
-3.750000149
 31
0.0
  0
LINE
  5
423
330
419
100
AcDbEntity
  8
FORMAT
 62
     0
100
AcDbLine
 10
2.4999994785
 20
0.0
 30
0.0
 11
3.750000149
 21
0.0
 31
0.0
  0
ENDBLK
  5
41B
330
419
100
AcDbEntity
  8
0
100
AcDbBlockEnd
  0
BLOCK
  5
43F
330
43E
100
AcDbEntity
  8
0
100
AcDbBlockBegin
  2
SW_HATCH_0
 70
     0
 10
0.0
 20
0.0
 30
0.0
  3
SW_HATCH_0
  1

  0
LINE
  5
441
330
43E
100
AcDbEntity
  8
0
  6
Continuous
 62
     0
370
    18
100
AcDbLine
 10
0.0
 20
0.0
 30
0.0
 11
-2.184227109
 21
-2.1842280403
 31
0.0
  0
LINE
  5
442
330
43E
100
AcDbEntity
  8
0
  6
Continuous
 62
     0
370
    18
100
AcDbLine
 10
4.490127787
 20
0.0
 30
0.0
 11
-2.184227109
 21
-6.6743558273
 31
0.0
  0
LINE
  5
443
330
43E
100
AcDbEntity
  8
0
  6
Continuous
 62
     0
370
    18
100
AcDbLine
 10
8.9802574366
 20
0.0
 30
0.0
 11
-2.184227109
 21
-11.1644839635
 31
0.0
  0
LINE
  5
444
330
43E
100
AcDbEntity
  8
0
  6
Continuous
 62
     0
370
    18
100
AcDbLine
 10
13.4703852236
 20
0.0
 30
0.0
 11
-2.184227109
 21
-15.6546118669
 31
0.0
  0
LINE
  5
445
330
43E
100
AcDbEntity
  8
0
  6
Continuous
 62
     0
370
    18
100
AcDbLine
 10
17.9605130106
 20
0.0
 30
0.0
 11
-2.184227109
 21
-20.1447401196
 31
0.0
  0
LINE
  5
446
330
43E
100
AcDbEntity
  8
0
  6
Continuous
 62
     0
370
    18
100
AcDbLine
 10
22.4506407976
 20
0.0
 30
0.0
 11
-2.184227109
 21
-24.6348679066
 31
0.0
  0
LINE
  5
447
330
43E
100
AcDbEntity
  8
0
  6
Continuous
 62
     0
370
    18
100
AcDbLine
 10
26.9407692831
 20
0.0
 30
0.0
 11
-2.184227109
 21
-29.1249966249
 31
0.0
  0
LINE
  5
448
330
43E
100
AcDbEntity
  8
0
  6
Continuous
 62
     0
370
    18
100
AcDbLine
 10
31.4308970701
 20
0.0
 30
0.0
 11
-2.184227109
 21
-33.6151244119
 31
0.0
  0
LINE
  5
449
330
43E
100
AcDbEntity
  8
0
  6
Continuous
 62
     0
370
    18
100
AcDbLine
 10
35.9210236929
 20
0.0
 30
0.0
 11
-2.184227109
 21
-38.1052521989
 31
0.0
  0
LINE
  5
44A
330
43E
100
AcDbEntity
  8
0
  6
Continuous
 62
     0
370
    18
100
AcDbLine
 10
40.4111528769
 20
0.0
 30
0.0
 11
-2.184227109
 21
-42.5953799859
 31
0.0
  0
LINE
  5
44B
330
43E
100
AcDbEntity
  8
0
  6
Continuous
 62
     0
370
    18
100
AcDbLine
 10
34.3157721218
 20
-10.5855084257
 30
0.0
 11
-2.184227109
 21
-47.0855096355
 31
0.0
  0
LINE
  5
44C
330
43E
100
AcDbEntity
  8
0
  6
Continuous
 62
     0
370
    18
100
AcDbLine
 10
44.9012806639
 20
0.0
 30
0.0
 11
34.4670529012
 21
-10.4342278792
 31
0.0
  0
LINE
  5
44D
330
43E
100
AcDbEntity
  8
0
  6
Continuous
 62
     0
370
    18
100
AcDbLine
 10
34.3157721218
 20
-15.075636562
 30
0.0
 11
-0.0428184867
 21
-49.4342269376
 31
0.0
  0
LINE
  5
44E
330
43E
100
AcDbEntity
  8
0
  6
Continuous
 62
     0
370
    18
100
AcDbLine
 10
49.3914075196
 20
0.0
 30
0.0
 11
38.9571804553
 21
-10.4342278792
 31
0.0
  0
LINE
  5
44F
330
43E
100
AcDbEntity
  8
0
  6
Continuous
 62
     0
370
    18
100
AcDbLine
 10
14.3157728016
 20
-39.5657652989
 30
0.0
 11
4.4473093003
 21
-49.4342269376
 31
0.0
  0
LINE
  5
450
330
43E
100
AcDbEntity
  8
0
  6
Continuous
 62
     0
370
    18
100
AcDbLine
 10
34.3157721218
 20
-19.5657648146
 30
0.0
 11
14.4473090768
 21
-39.4342271611
 31
0.0
  0
LINE
  5
451
330
43E
100
AcDbEntity
  8
0
  6
Continuous
 62
     0
370
    18
100
AcDbLine
 10
53.8815371692
 20
0.0
 30
0.0
 11
43.4473091736
 21
-10.4342278792
 31
0.0
  0
LINE
  5
452
330
43E
100
AcDbEntity
  8
0
  6
Continuous
 62
     0
370
    18
100
AcDbLine
 10
14.9374362081
 20
-43.4342296794
 30
0.0
 11
8.9374370873
 21
-49.4342269376
 31
0.0
  0
LINE
  5
453
330
43E
100
AcDbEntity
  8
0
  6
Continuous
 62
     0
370
    18
100
AcDbLine
 10
20.3157719225
 20
-38.0558921024
 30
0.0
 11
18.9374368638
 21
-39.4342271611
 31
0.0
  0
LINE
  5
454
330
43E
100
AcDbEntity
  8
0
  6
Continuous
 62
     0
370
    18
100
AcDbLine
 10
34.3157721218
 20
-24.0558926016
 30
0.0
 11
23.9374372177
 21
-34.4342282042
 31
0.0
  0
LINE
  5
455
330
43E
100
AcDbEntity
  8
0
  6
Continuous
 62
     0
370
    18
100
AcDbLine
 10
58.3716649562
 20
0.0
 30
0.0
 11
47.937437892
 21
-10.4342278792
 31
0.0
  0
LINE
  5
456
330
43E
100
AcDbEntity
  8
0
  6
Continuous
 62
     0
370
    18
100
AcDbLine
 10
19.4275649264
 20
-43.4342296794
 30
0.0
 11
13.4275648743
 21
-49.4342269376
 31
0.0
  0
LINE
  5
457
330
43E
100
AcDbEntity
  8
0
  6
Continuous
 62
     0
370
    18
100
AcDbLine
 10
34.3157721218
 20
-28.5460213199
 30
0.0
 11
28.4275650047
 21
-34.4342282042
 31
0.0
  0
LINE
  5
458
330
43E
100
AcDbEntity
  8
0
  6
Continuous
 62
     0
370
    18
100
AcDbLine
 10
62.8617927432
 20
0.0
 30
0.0
 11
52.427565679
 21
-10.4342278792
 31
0.0
  0
LINE
  5
459
330
43E
100
AcDbEntity
  8
0
  6
Continuous
 62
     0
370
    18
100
AcDbLine
 10
20.3157719225
 20
-47.0361495391
 30
0.0
 11
17.9176926613
 21
-49.4342269376
 31
0.0
  0
LINE
  5
45A
330
43E
100
AcDbEntity
  8
0
  6
Continuous
 62
     0
370
    18
100
AcDbLine
 10
34.3157721218
 20
-33.0361491069
 30
0.0
 11
32.9176930245
 21
-34.4342282042
 31
0.0
  0
LINE
  5
45B
330
43E
100
AcDbEntity
  8
0
  6
Continuous
 62
     0
370
    18
100
AcDbLine
 10
63.3157715201
 20
-4.0361485444
 30
0.0
 11
56.9176934659
 21
-10.4342278792
 31
0.0
  0
LINE
  5
45C
330
43E
100
AcDbEntity
  8
0
  6
Continuous
 62
     0
370
    18
100
AcDbLine
 10
63.3157715201
 20
-8.5262767971
 30
0.0
 11
61.4078212529
 21
-10.4342278792
 31
0.0
  0
ENDBLK
  5
440
330
43E
100
AcDbEntity
  8
0
100
AcDbBlockEnd
  0
BLOCK
  5
460
330
45F
100
AcDbEntity
  8
0
100
AcDbBlockBegin
  2
_D_16
 70
     0
 10
0.0
 20
0.0
 30
0.0
  3
_D_16
  1

  0
SOLID
  5
462
330
45F
100
AcDbEntity
  8
FORMAT
100
AcDbTrace
 10
553.9073871485
 20
141.8012458986
 30
0.0
 11
553.3993871485
 21
138.4992458986
 31
0.0
 12
554.4153871485
 22
138.4992458986
 32
0.0
 13
554.4153871485
 23
138.4992458986
 33
0.0
  0
SOLID
  5
463
330
45F
100
AcDbEntity
  8
FORMAT
100
AcDbTrace
 10
553.9073871485
 20
117.8012458986
 30
0.0
 11
554.4153871485
 21
121.1032458986
 31
0.0
 12
553.3993871485
 22
121.1032458986
 32
0.0
 13
553.3993871485
 23
121.1032458986
 33
0.0
  0
LINE
  5
464
330
45F
100
AcDbEntity
  8
FORMAT
100
AcDbLine
 10
537.9678439679
 20
141.8012458986
 30
0.0
 11
554.9073871485
 21
141.8012458986
 31
0.0
  0
LINE
  5
465
330
45F
100
AcDbEntity
  8
FORMAT
100
AcDbLine
 10
535.9678439679
 20
117.8012458986
 30
0.0
 11
554.9073871485
 21
117.8012458986
 31
0.0
  0
LINE
  5
466
330
45F
100
AcDbEntity
  8
FORMAT
100
AcDbLine
 10
553.9073871485
 20
141.8012458986
 30
0.0
 11
553.9073871485
 21
117.8012458986
 31
0.0
  0
MTEXT
  5
467
330
45F
100
AcDbEntity
  8
FORMAT
100
AcDbMText
 10
549.3956498265
 20
127.1276348537
 30
0.0
 40
3.5
 41
0.0
 71
     1
 72
     1
  1
24
  7
SLDTEXTSTYLE0
 11
-1.059690869644414E-14
 21
1.0
 31
0.0
 73
     1
 44
1.0
  0
ENDBLK
  5
461
330
45F
100
AcDbEntity
  8
0
100
AcDbBlockEnd
  0
BLOCK
  5
46A
330
469
100
AcDbEntity
  8
0
100
AcDbBlockBegin
  2
_D_17
 70
     0
 10
0.0
 20
0.0
 30
0.0
  3
_D_17
  1

  0
SOLID
  5
46C
330
469
100
AcDbEntity
  8
FORMAT
100
AcDbTrace
 10
546.9678439679
 20
123.8012458986
 30
0.0
 11
547.4758439679
 21
127.1032458986
 31
0.0
 12
546.4598439679
 22
127.1032458986
 32
0.0
 13
546.4598439679
 23
127.1032458986
 33
0.0
  0
SOLID
  5
46D
330
469
100
AcDbEntity
  8
FORMAT
100
AcDbTrace
 10
546.9678439679
 20
117.8012458986
 30
0.0
 11
546.4598439679
 21
114.4992458986
 31
0.0
 12
547.4758439679
 22
114.4992458986
 32
0.0
 13
547.4758439679
 23
114.4992458986
 33
0.0
  0
LINE
  5
46E
330
469
100
AcDbEntity
  8
FORMAT
100
AcDbLine
 10
532.9678439679
 20
123.8012458986
 30
0.0
 11
547.9678439679
 21
123.8012458986
 31
0.0
  0
LINE
  5
46F
330
469
100
AcDbEntity
  8
FORMAT
100
AcDbLine
 10
535.9678439679
 20
117.8012458986
 30
0.0
 11
547.9678439679
 21
117.8012458986
 31
0.0
  0
LINE
  5
470
330
469
100
AcDbEntity
  8
FORMAT
100
AcDbLine
 10
546.9678439679
 20
123.8012458986
 30
0.0
 11
546.9678439678
 21
130.1512458986
 31
0.0
  0
LINE
  5
471
330
469
100
AcDbEntity
  8
FORMAT
100
AcDbLine
 10
546.9678439679
 20
123.8012458986
 30
0.0
 11
546.9678439679
 21
117.8012458986
 31
0.0
  0
LINE
  5
472
330
469
100
AcDbEntity
  8
FORMAT
100
AcDbLine
 10
546.9678439679
 20
117.8012458986
 30
0.0
 11
546.9678439679
 21
105.2821845632
 31
0.0
  0
MTEXT
  5
473
330
469
100
AcDbEntity
  8
FORMAT
100
AcDbMText
 10
542.4561066458
 20
105.2821845632
 30
0.0
 40
3.5
 41
0.0
 71
     1
 72
     1
  1
6
  7
SLDTEXTSTYLE0
 11
-1.059690869644414E-14
 21
1.0
 31
0.0
 73
     1
 44
1.0
  0
ENDBLK
  5
46B
330
469
100
AcDbEntity
  8
0
100
AcDbBlockEnd
  0
BLOCK
  5
476
330
475
100
AcDbEntity
  8
0
100
AcDbBlockBegin
  2
_D_18
 70
     0
 10
0.0
 20
0.0
 30
0.0
  3
_D_18
  1

  0
SOLID
  5
478
330
475
100
AcDbEntity
  8
FORMAT
100
AcDbTrace
 10
507.9678439679
 20
108.322079163
 30
0.0
 11
511.2698439679
 21
107.814079163
 31
0.0
 12
511.2698439679
 22
108.830079163
 32
0.0
 13
511.2698439679
 23
108.830079163
 33
0.0
  0
SOLID
  5
479
330
475
100
AcDbEntity
  8
FORMAT
100
AcDbTrace
 10
531.9678439679
 20
108.322079163
 30
0.0
 11
528.6658439679
 21
108.830079163
 31
0.0
 12
528.6658439679
 22
107.814079163
 32
0.0
 13
528.6658439679
 23
107.814079163
 33
0.0
  0
LINE
  5
47A
330
475
100
AcDbEntity
  8
FORMAT
100
AcDbLine
 10
507.9678439679
 20
116.8012458986
 30
0.0
 11
507.9678439679
 21
107.322079163
 31
0.0
  0
LINE
  5
47B
330
475
100
AcDbEntity
  8
FORMAT
100
AcDbLine
 10
531.9678439679
 20
116.8012458986
 30
0.0
 11
531.9678439679
 21
107.322079163
 31
0.0
  0
LINE
  5
47C
330
475
100
AcDbEntity
  8
FORMAT
100
AcDbLine
 10
507.9678439679
 20
108.322079163
 30
0.0
 11
531.9678439679
 21
108.322079163
 31
0.0
  0
MTEXT
  5
47D
330
475
100
AcDbEntity
  8
FORMAT
100
AcDbMText
 10
517.294232923
 20
112.833816485
 30
0.0
 40
3.5
 41
0.0
 71
     1
 72
     1
  1
24
  7
SLDTEXTSTYLE0
 73
     1
 44
1.0
  0
ENDBLK
  5
477
330
475
100
AcDbEntity
  8
0
100
AcDbBlockEnd
  0
BLOCK
  5
480
330
47F
100
AcDbEntity
  8
0
100
AcDbBlockBegin
  2
_D_19
 70
     0
 10
0.0
 20
0.0
 30
0.0
  3
_D_19
  1

  0
SOLID
  5
482
330
47F
100
AcDbEntity
  8
FORMAT
100
AcDbTrace
 10
507.9678439679
 20
100.567577598
 30
0.0
 11
511.2698439679
 21
100.059577598
 31
0.0
 12
511.2698439679
 22
101.075577598
 32
0.0
 13
511.2698439679
 23
101.075577598
 33
0.0
  0
SOLID
  5
483
330
47F
100
AcDbEntity
  8
FORMAT
100
AcDbTrace
 10
536.9678439679
 20
100.567577598
 30
0.0
 11
533.6658439679
 21
101.075577598
 31
0.0
 12
533.6658439679
 22
100.059577598
 32
0.0
 13
533.6658439679
 23
100.059577598
 33
0.0
  0
LINE
  5
484
330
47F
100
AcDbEntity
  8
FORMAT
100
AcDbLine
 10
507.9678439679
 20
116.8012458986
 30
0.0
 11
507.9678439679
 21
99.567577598
 31
0.0
  0
LINE
  5
485
330
47F
100
AcDbEntity
  8
FORMAT
100
AcDbLine
 10
536.9678439679
 20
118.8012458539
 30
0.0
 11
536.9678439679
 21
99.567577598
 31
0.0
  0
LINE
  5
486
330
47F
100
AcDbEntity
  8
FORMAT
100
AcDbLine
 10
507.9678439679
 20
100.567577598
 30
0.0
 11
536.9678439679
 21
100.567577598
 31
0.0
  0
MTEXT
  5
487
330
47F
100
AcDbEntity
  8
FORMAT
100
AcDbMText
 10
519.794232923
 20
105.07931492
 30
0.0
 40
3.5
 41
0.0
 71
     1
 72
     1
  1
29
  7
SLDTEXTSTYLE0
 73
     1
 44
1.0
  0
ENDBLK
  5
481
330
47F
100
AcDbEntity
  8
0
100
AcDbBlockEnd
  0
BLOCK
  5
48B
330
48A
100
AcDbEntity
  8
0
100
AcDbBlockBegin
  2
_None
 70
     0
 10
0.0
 20
0.0
 30
0.0
  3
_None
  1

  0
ENDBLK
  5
48C
330
48A
100
AcDbEntity
  8
0
100
AcDbBlockEnd
  0
BLOCK
  5
48E
330
48D
100
AcDbEntity
  8
0
100
AcDbBlockBegin
  2
_D_20
 70
     0
 10
0.0
 20
0.0
 30
0.0
  3
_D_20
  1

  0
SOLID
  5
490
330
48D
100
AcDbEntity
  8
FORMAT
100
AcDbTrace
 10
458.9685992733
 20
102.8012458986
 30
0.0
 11
459.4765992733
 21
106.1032458986
 31
0.0
 12
458.4605992733
 22
106.1032458986
 32
0.0
 13
458.4605992733
 23
106.1032458986
 33
0.0
  0
LINE
  5
491
330
48D
100
AcDbEntity
  8
FORMAT
100
AcDbLine
 10
472.4678439679
 20
102.8012458986
 30
0.0
 11
457.9685992733
 21
102.8012458986
 31
0.0
  0
LINE
  5
492
330
48D
100
AcDbEntity
  8
FORMAT
100
AcDbLine
 10
458.9685992733
 20
102.8012458986
 30
0.0
 11
458.9685992733
 21
152.2354735044
 31
0.0
  0
MTEXT
  5
493
330
48D
100
AcDbEntity
  8
FORMAT
100
AcDbMText
 10
454.4560842049
 20
121.6465403491
 30
0.0
 40
3.5
 41
0.0
 71
     1
 72
     1
  1
60
  7
SLDTEXTSTYLE0
 11
1.393499969507555E-15
 21
1.0
 31
0.0
 73
     1
 44
1.0
  0
MTEXT
  5
494
330
48D
100
AcDbEntity
  8
FORMAT
100
AcDbMText
 10
459.8276119512
 20
107.7510510736
 30
0.0
 40
3.5
 41
0.0
 71
     1
 72
     1
  1
min. Holzstärke
  7
SLDTEXTSTYLE0
 11
1.393499969507555E-15
 21
1.0
 31
0.0
 73
     1
 44
1.0
  0
ENDBLK
  5
48F
330
48D
100
AcDbEntity
  8
0
100
AcDbBlockEnd
  0
BLOCK
  5
4A6
330
4A5
100
AcDbEntity
  8
0
100
AcDbBlockBegin
  2
_D_21
 70
     0
 10
0.0
 20
0.0
 30
0.0
  3
_D_21
  1

  0
SOLID
  5
4A8
330
4A5
100
AcDbEntity
  8
FORMAT
100
AcDbTrace
 10
363.1276337771
 20
345.5571037427
 30
0.0
 11
362.6196337771
 21
342.2551037427
 31
0.0
 12
363.6356337771
 22
342.2551037427
 32
0.0
 13
363.6356337771
 23
342.2551037427
 33
0.0
  0
SOLID
  5
4A9
330
4A5
100
AcDbEntity
  8
FORMAT
100
AcDbTrace
 10
363.1276337771
 20
200.5571037427
 30
0.0
 11
363.6356337771
 21
203.8591037427
 31
0.0
 12
362.6196337771
 22
203.8591037427
 32
0.0
 13
362.6196337771
 23
203.8591037427
 33
0.0
  0
LINE
  5
4AA
330
4A5
100
AcDbEntity
  8
FORMAT
100
AcDbLine
 10
326.6287170281
 20
345.5571037427
 30
0.0
 11
364.1276337771
 21
345.5571037427
 31
0.0
  0
LINE
  5
4AB
330
4A5
100
AcDbEntity
  8
FORMAT
100
AcDbLine
 10
326.6287170281
 20
200.5571037427
 30
0.0
 11
364.1276337771
 21
200.5571037427
 31
0.0
  0
LINE
  5
4AC
330
4A5
100
AcDbEntity
  8
FORMAT
100
AcDbLine
 10
363.1276337771
 20
345.5571037427
 30
0.0
 11
363.1276337771
 21
200.5571037427
 31
0.0
  0
MTEXT
  5
4AD
330
4A5
100
AcDbEntity
  8
FORMAT
100
AcDbMText
 10
358.6158964551
 20
269.0466871754
 30
0.0
 40
3.5
 41
0.0
 71
     1
 72
     1
  1
145
  7
SLDTEXTSTYLE0
 11
-7.044195017643634E-15
 21
1.0
 31
0.0
 73
     1
 44
1.0
  0
ENDBLK
  5
4A7
330
4A5
100
AcDbEntity
  8
0
100
AcDbBlockEnd
  0
BLOCK
  5
4B0
330
4AF
100
AcDbEntity
  8
0
100
AcDbBlockBegin
  2
_D_22
 70
     0
 10
0.0
 20
0.0
 30
0.0
  3
_D_22
  1

  0
SOLID
  5
4B2
330
4AF
100
AcDbEntity
  8
FORMAT
100
AcDbTrace
 10
317.1166578035
 20
204.0986849924
 30
0.0
 11
314.4163497798
 21
202.1315539401
 31
0.0
 12
315.1324959006
 22
201.410866259
 32
0.0
 13
315.1324959006
 23
201.410866259
 33
0.0
  0
LINE
  5
4B3
330
4AF
100
AcDbEntity
  8
FORMAT
100
AcDbLine
 10
317.1166578035
 20
204.0986849924
 30
0.0
 11
304.8206197193
 21
191.8801328956
 31
0.0
  0
MTEXT
  5
4B4
330
4AF
100
AcDbEntity
  8
FORMAT
100
AcDbMText
 10
301.6512119574
 20
195.0696399857
 30
0.0
 40
3.5
 41
0.0
 71
     1
 72
     1
  1
R12
  7
SLDTEXTSTYLE0
 11
0.7093382687176729
 21
0.7048682291979221
 31
0.0
 73
     1
 44
1.0
  0
ENDBLK
  5
4B1
330
4AF
100
AcDbEntity
  8
0
100
AcDbBlockEnd
  0
BLOCK
  5
4B7
330
4B6
100
AcDbEntity
  8
0
100
AcDbBlockBegin
  2
_D_23
 70
     0
 10
0.0
 20
0.0
 30
0.0
  3
_D_23
  1

  0
SOLID
  5
4B9
330
4B6
100
AcDbEntity
  8
FORMAT
100
AcDbTrace
 10
316.8252728174
 20
186.9023891537
 30
0.0
 11
314.0576421678
 21
185.0311626609
 31
0.0
 12
314.7480746696
 22
184.2858043844
 32
0.0
 13
314.7480746696
 23
184.2858043844
 33
0.0
  0
LINE
  5
4BA
330
4B6
100
AcDbEntity
  8
FORMAT
100
AcDbLine
 10
316.8252728174
 20
186.9023891537
 30
0.0
 11
307.490607763
 21
178.2555996155
 31
0.0
  0
MTEXT
  5
4BB
330
4B6
100
AcDbEntity
  8
FORMAT
100
AcDbMText
 10
304.4400950291
 20
181.5487888956
 30
0.0
 40
3.5
 41
0.0
 71
     1
 72
     1
  1
R12
  7
SLDTEXTSTYLE0
 11
0.7336203508977697
 21
0.6795595490820751
 31
0.0
 73
     1
 44
1.0
  0
ENDBLK
  5
4B8
330
4B6
100
AcDbEntity
  8
0
100
AcDbBlockEnd
  0
BLOCK
  5
4BE
330
4BD
100
AcDbEntity
  8
0
100
AcDbBlockBegin
  2
_D_24
 70
     0
 10
0.0
 20
0.0
 30
0.0
  3
_D_24
  1

  0
SOLID
  5
4C0
330
4BD
100
AcDbEntity
  8
FORMAT
100
AcDbTrace
 10
355.365468845
 20
287.0571037427
 30
0.0
 11
354.857468845
 21
283.7551037427
 31
0.0
 12
355.873468845
 22
283.7551037427
 32
0.0
 13
355.873468845
 23
283.7551037427
 33
0.0
  0
SOLID
  5
4C1
330
4BD
100
AcDbEntity
  8
FORMAT
100
AcDbTrace
 10
355.365468845
 20
259.0571037427
 30
0.0
 11
355.873468845
 21
262.3591037427
 31
0.0
 12
354.857468845
 22
262.3591037427
 32
0.0
 13
354.857468845
 23
262.3591037427
 33
0.0
  0
LINE
  5
4C2
330
4BD
100
AcDbEntity
  8
FORMAT
100
AcDbLine
 10
330.3787170281
 20
287.0571037427
 30
0.0
 11
356.365468845
 21
287.0571037427
 31
0.0
  0
LINE
  5
4C3
330
4BD
100
AcDbEntity
  8
FORMAT
100
AcDbLine
 10
330.3787170281
 20
259.0571037427
 30
0.0
 11
356.365468845
 21
259.0571037427
 31
0.0
  0
LINE
  5
4C4
330
4BD
100
AcDbEntity
  8
FORMAT
100
AcDbLine
 10
355.365468845
 20
287.0571037427
 30
0.0
 11
355.365468845
 21
259.0571037427
 31
0.0
  0
MTEXT
  5
4C5
330
4BD
100
AcDbEntity
  8
FORMAT
100
AcDbMText
 10
350.8537315229
 20
270.3834926978
 30
0.0
 40
3.5
 41
0.0
 71
     1
 72
     1
  1
28
  7
SLDTEXTSTYLE0
 11
-7.044195017643634E-15
 21
1.0
 31
0.0
 73
     1
 44
1.0
  0
ENDBLK
  5
4BF
330
4BD
100
AcDbEntity
  8
0
100
AcDbBlockEnd
  0
BLOCK
  5
4C8
330
4C7
100
AcDbEntity
  8
0
100
AcDbBlockBegin
  2
_D_25
 70
     0
 10
0.0
 20
0.0
 30
0.0
  3
_D_25
  1

  0
SOLID
  5
4CA
330
4C7
100
AcDbEntity
  8
FORMAT
100
AcDbTrace
 10
370.6287170281
 20
351.0571037427
 30
0.0
 11
370.1207170281
 21
347.7551037427
 31
0.0
 12
371.1367170281
 22
347.7551037427
 32
0.0
 13
371.1367170281
 23
347.7551037427
 33
0.0
  0
SOLID
  5
4CB
330
4C7
100
AcDbEntity
  8
FORMAT
100
AcDbTrace
 10
370.6287170281
 20
195.0571037427
 30
0.0
 11
371.1367170281
 21
198.3591037427
 31
0.0
 12
370.1207170281
 22
198.3591037427
 32
0.0
 13
370.1207170281
 23
198.3591037427
 33
0.0
  0
LINE
  5
4CC
330
4C7
100
AcDbEntity
  8
FORMAT
100
AcDbLine
 10
331.1287170281
 20
351.0571037427
 30
0.0
 11
371.6287170281
 21
351.0571037427
 31
0.0
  0
LINE
  5
4CD
330
4C7
100
AcDbEntity
  8
FORMAT
100
AcDbLine
 10
331.1287170281
 20
195.0571037427
 30
0.0
 11
371.6287170281
 21
195.0571037427
 31
0.0
  0
LINE
  5
4CE
330
4C7
100
AcDbEntity
  8
FORMAT
100
AcDbLine
 10
370.6287170281
 20
351.0571037427
 30
0.0
 11
370.6287170281
 21
195.0571037427
 31
0.0
  0
MTEXT
  5
4CF
330
4C7
100
AcDbEntity
  8
FORMAT
100
AcDbMText
 10
366.1169797061
 20
269.0466871754
 30
0.0
 40
3.5
 41
0.0
 71
     1
 72
     1
  1
156
  7
SLDTEXTSTYLE0
 11
-7.044195017643634E-15
 21
1.0
 31
0.0
 73
     1
 44
1.0
  0
ENDBLK
  5
4C9
330
4C7
100
AcDbEntity
  8
0
100
AcDbBlockEnd
  0
BLOCK
  5
4D2
330
4D1
100
AcDbEntity
  8
0
100
AcDbBlockBegin
  2
_D_26
 70
     0
 10
0.0
 20
0.0
 30
0.0
  3
_D_26
  1

  0
SOLID
  5
4D4
330
4D1
100
AcDbEntity
  8
FORMAT
100
AcDbTrace
 10
378.3238370332
 20
363.0571037427
 30
0.0
 11
377.8158370332
 21
359.7551037427
 31
0.0
 12
378.8318370332
 22
359.7551037427
 32
0.0
 13
378.8318370332
 23
359.7551037427
 33
0.0
  0
SOLID
  5
4D5
330
4D1
100
AcDbEntity
  8
FORMAT
100
AcDbTrace
 10
378.3238370332
 20
183.0571037427
 30
0.0
 11
378.8318370332
 21
186.3591037427
 31
0.0
 12
377.8158370332
 22
186.3591037427
 32
0.0
 13
377.8158370332
 23
186.3591037427
 33
0.0
  0
LINE
  5
4D6
330
4D1
100
AcDbEntity
  8
FORMAT
100
AcDbLine
 10
326.6287170281
 20
363.0571037427
 30
0.0
 11
379.3238370332
 21
363.0571037427
 31
0.0
  0
LINE
  5
4D7
330
4D1
100
AcDbEntity
  8
FORMAT
100
AcDbLine
 10
326.6287170281
 20
183.0571037427
 30
0.0
 11
379.3238370332
 21
183.0571037427
 31
0.0
  0
LINE
  5
4D8
330
4D1
100
AcDbEntity
  8
FORMAT
100
AcDbLine
 10
378.3238370332
 20
363.0571037427
 30
0.0
 11
378.3238370332
 21
183.0571037427
 31
0.0
  0
MTEXT
  5
4D9
330
4D1
100
AcDbEntity
  8
FORMAT
100
AcDbMText
 10
373.8120997111
 20
269.0466871754
 30
0.0
 40
3.5
 41
0.0
 71
     1
 72
     1
  1
180
  7
SLDTEXTSTYLE0
 11
-7.044195017643634E-15
 21
1.0
 31
0.0
 73
     1
 44
1.0
  0
ENDBLK
  5
4D3
330
4D1
100
AcDbEntity
  8
0
100
AcDbBlockEnd
  0
BLOCK
  5
4DC
330
4DB
100
AcDbEntity
  8
0
100
AcDbBlockBegin
  2
SW_NOTE_0_10
 70
     0
 10
0.0
 20
0.0
 30
0.0
  3
SW_NOTE_0_10
  1

  0
MTEXT
  5
4DE
330
4DB
100
AcDbEntity
  8
FORMAT
 62
     0
100
AcDbMText
 10
32.4296875
 20
4.5117370892
 30
0.0
 40
3.5
 41
0.0
 71
     2
 72
     1
  1
Fräsbild für Aufnahmeelement 
  7
SLDTEXTSTYLE0
 73
     1
 44
1.0
  0
MTEXT
  5
4DF
330
4DB
100
AcDbEntity
  8
FORMAT
 62
     0
100
AcDbMText
 10
32.6630219221
 20
-0.0090964031
 30
0.0
 40
3.5
 41
0.0
 71
     2
 72
     1
  1
mit Abdeckblech 
  7
SLDTEXTSTYLE0
 73
     1
 44
1.0
  0
ENDBLK
  5
4DD
330
4DB
100
AcDbEntity
  8
0
100
AcDbBlockEnd
  0
BLOCK
  5
4E2
330
4E1
100
AcDbEntity
  8
0
100
AcDbBlockBegin
  2
SW_CENTERMARKSYMBOL_17
 70
     0
 10
0.0
 20
0.0
 30
0.0
  3
SW_CENTERMARKSYMBOL_17
  1

  0
LINE
  5
4E4
330
4E1
100
AcDbEntity
  8
FORMAT
 62
     0
100
AcDbLine
 10
0.0
 20
0.0
 30
0.0
 11
0.0
 21
2.5000050664
 31
0.0
  0
LINE
  5
4E5
330
4E1
100
AcDbEntity
  8
FORMAT
 62
     0
100
AcDbLine
 10
0.0
 20
0.0
 30
0.0
 11
-2.5000004098
 21
0.0
 31
0.0
  0
LINE
  5
4E6
330
4E1
100
AcDbEntity
  8
FORMAT
 62
     0
100
AcDbLine
 10
0.0
 20
0.0
 30
0.0
 11
0.0
 21
-2.4999976158
 31
0.0
  0
LINE
  5
4E7
330
4E1
100
AcDbEntity
  8
FORMAT
 62
     0
100
AcDbLine
 10
0.0
 20
0.0
 30
0.0
 11
2.4999994785
 21
0.0
 31
0.0
  0
LINE
  5
4E8
330
4E1
100
AcDbEntity
  8
FORMAT
 62
     0
100
AcDbLine
 10
0.0
 20
2.5000050664
 30
0.0
 11
0.0
 21
4.5000016689
 31
0.0
  0
LINE
  5
4E9
330
4E1
100
AcDbEntity
  8
FORMAT
 62
     0
100
AcDbLine
 10
-2.5000004098
 20
0.0
 30
0.0
 11
-4.4999998063
 21
0.0
 31
0.0
  0
LINE
  5
4EA
330
4E1
100
AcDbEntity
  8
FORMAT
 62
     0
100
AcDbLine
 10
0.0
 20
-2.4999976158
 30
0.0
 11
0.0
 21
-14.1223296523
 31
0.0
  0
LINE
  5
4EB
330
4E1
100
AcDbEntity
  8
FORMAT
 62
     0
100
AcDbLine
 10
2.4999994785
 20
0.0
 30
0.0
 11
4.4999998063
 21
0.0
 31
0.0
  0
ENDBLK
  5
4E3
330
4E1
100
AcDbEntity
  8
0
100
AcDbBlockEnd
  0
BLOCK
  5
4EE
330
4ED
100
AcDbEntity
  8
0
100
AcDbBlockBegin
  2
SW_CENTERMARKSYMBOL_18
 70
     0
 10
0.0
 20
0.0
 30
0.0
  3
SW_CENTERMARKSYMBOL_18
  1

  0
LINE
  5
4F0
330
4ED
100
AcDbEntity
  8
FORMAT
 62
     0
100
AcDbLine
 10
0.0
 20
0.0
 30
0.0
 11
0.0
 21
2.4999976158
 31
0.0
  0
LINE
  5
4F1
330
4ED
100
AcDbEntity
  8
FORMAT
 62
     0
100
AcDbLine
 10
0.0
 20
0.0
 30
0.0
 11
-2.5000004098
 21
0.0
 31
0.0
  0
LINE
  5
4F2
330
4ED
100
AcDbEntity
  8
FORMAT
 62
     0
100
AcDbLine
 10
0.0
 20
0.0
 30
0.0
 11
0.0
 21
-2.5000050664
 31
0.0
  0
LINE
  5
4F3
330
4ED
100
AcDbEntity
  8
FORMAT
 62
     0
100
AcDbLine
 10
0.0
 20
0.0
 30
0.0
 11
2.4999994785
 21
0.0
 31
0.0
  0
LINE
  5
4F4
330
4ED
100
AcDbEntity
  8
FORMAT
 62
     0
100
AcDbLine
 10
0.0
 20
2.4999976158
 30
0.0
 11
0.0
 21
15.9932598472
 31
0.0
  0
LINE
  5
4F5
330
4ED
100
AcDbEntity
  8
FORMAT
 62
     0
100
AcDbLine
 10
-2.5000004098
 20
0.0
 30
0.0
 11
-4.4999998063
 21
0.0
 31
0.0
  0
LINE
  5
4F6
330
4ED
100
AcDbEntity
  8
FORMAT
 62
     0
100
AcDbLine
 10
0.0
 20
-2.5000050664
 30
0.0
 11
0.0
 21
-57.665804401
 31
0.0
  0
LINE
  5
4F7
330
4ED
100
AcDbEntity
  8
FORMAT
 62
     0
100
AcDbLine
 10
2.4999994785
 20
0.0
 30
0.0
 11
4.4999998063
 21
0.0
 31
0.0
  0
ENDBLK
  5
4EF
330
4ED
100
AcDbEntity
  8
0
100
AcDbBlockEnd
  0
BLOCK
  5
4FA
330
4F9
100
AcDbEntity
  8
0
100
AcDbBlockBegin
  2
SW_CENTERMARKSYMBOL_19
 70
     0
 10
0.0
 20
0.0
 30
0.0
  3
SW_CENTERMARKSYMBOL_19
  1

  0
LINE
  5
4FC
330
4F9
100
AcDbEntity
  8
FORMAT
 62
     0
100
AcDbLine
 10
0.0
 20
0.0
 30
0.0
 11
0.0
 21
2.5000004098
 31
0.0
  0
LINE
  5
4FD
330
4F9
100
AcDbEntity
  8
FORMAT
 62
     0
100
AcDbLine
 10
0.0
 20
0.0
 30
0.0
 11
-2.5000004098
 21
0.0
 31
0.0
  0
LINE
  5
4FE
330
4F9
100
AcDbEntity
  8
FORMAT
 62
     0
100
AcDbLine
 10
0.0
 20
0.0
 30
0.0
 11
0.0
 21
-2.4999994785
 31
0.0
  0
LINE
  5
4FF
330
4F9
100
AcDbEntity
  8
FORMAT
 62
     0
100
AcDbLine
 10
0.0
 20
0.0
 30
0.0
 11
2.4999994785
 21
0.0
 31
0.0
  0
LINE
  5
500
330
4F9
100
AcDbEntity
  8
FORMAT
 62
     0
100
AcDbLine
 10
0.0
 20
2.5000004098
 30
0.0
 11
0.0
 21
12.7307062503
 31
0.0
  0
LINE
  5
501
330
4F9
100
AcDbEntity
  8
FORMAT
 62
     0
100
AcDbLine
 10
-2.5000004098
 20
0.0
 30
0.0
 11
-3.750000149
 21
0.0
 31
0.0
  0
LINE
  5
502
330
4F9
100
AcDbEntity
  8
FORMAT
 62
     0
100
AcDbLine
 10
0.0
 20
-2.4999994785
 30
0.0
 11
0.0
 21
-56.2228988856
 31
0.0
  0
LINE
  5
503
330
4F9
100
AcDbEntity
  8
FORMAT
 62
     0
100
AcDbLine
 10
2.4999994785
 20
0.0
 30
0.0
 11
3.750000149
 21
0.0
 31
0.0
  0
ENDBLK
  5
4FB
330
4F9
100
AcDbEntity
  8
0
100
AcDbBlockEnd
  0
BLOCK
  5
506
330
505
100
AcDbEntity
  8
0
100
AcDbBlockBegin
  2
SW_CENTERMARKSYMBOL_20
 70
     0
 10
0.0
 20
0.0
 30
0.0
  3
SW_CENTERMARKSYMBOL_20
  1

  0
LINE
  5
508
330
505
100
AcDbEntity
  8
FORMAT
 62
     0
100
AcDbLine
 10
0.0
 20
0.0
 30
0.0
 11
0.0
 21
2.4999994785
 31
0.0
  0
LINE
  5
509
330
505
100
AcDbEntity
  8
FORMAT
 62
     0
100
AcDbLine
 10
0.0
 20
0.0
 30
0.0
 11
-2.5000004098
 21
0.0
 31
0.0
  0
LINE
  5
50A
330
505
100
AcDbEntity
  8
FORMAT
 62
     0
100
AcDbLine
 10
0.0
 20
0.0
 30
0.0
 11
0.0
 21
-2.5000004098
 31
0.0
  0
LINE
  5
50B
330
505
100
AcDbEntity
  8
FORMAT
 62
     0
100
AcDbLine
 10
0.0
 20
0.0
 30
0.0
 11
2.4999994785
 21
0.0
 31
0.0
  0
LINE
  5
50C
330
505
100
AcDbEntity
  8
FORMAT
 62
     0
100
AcDbLine
 10
0.0
 20
2.4999994785
 30
0.0
 11
0.0
 21
3.750000149
 31
0.0
  0
LINE
  5
50D
330
505
100
AcDbEntity
  8
FORMAT
 62
     0
100
AcDbLine
 10
-2.5000004098
 20
0.0
 30
0.0
 11
-3.750000149
 21
0.0
 31
0.0
  0
LINE
  5
50E
330
505
100
AcDbEntity
  8
FORMAT
 62
     0
100
AcDbLine
 10
0.0
 20
-2.5000004098
 30
0.0
 11
0.0
 21
-8.4627154283
 31
0.0
  0
LINE
  5
50F
330
505
100
AcDbEntity
  8
FORMAT
 62
     0
100
AcDbLine
 10
2.4999994785
 20
0.0
 30
0.0
 11
3.750000149
 21
0.0
 31
0.0
  0
ENDBLK
  5
507
330
505
100
AcDbEntity
  8
0
100
AcDbBlockEnd
  0
BLOCK
  5
512
330
511
100
AcDbEntity
  8
0
100
AcDbBlockBegin
  2
SW_CENTERMARKSYMBOL_21
 70
     0
 10
0.0
 20
0.0
 30
0.0
  3
SW_CENTERMARKSYMBOL_21
  1

  0
LINE
  5
514
330
511
100
AcDbEntity
  8
FORMAT
 62
     0
100
AcDbLine
 10
0.0
 20
0.0
 30
0.0
 11
0.0
 21
2.5000050664
 31
0.0
  0
LINE
  5
515
330
511
100
AcDbEntity
  8
FORMAT
 62
     0
100
AcDbLine
 10
0.0
 20
0.0
 30
0.0
 11
-2.5000004098
 21
0.0
 31
0.0
  0
LINE
  5
516
330
511
100
AcDbEntity
  8
FORMAT
 62
     0
100
AcDbLine
 10
0.0
 20
0.0
 30
0.0
 11
0.0
 21
-2.4999976158
 31
0.0
  0
LINE
  5
517
330
511
100
AcDbEntity
  8
FORMAT
 62
     0
100
AcDbLine
 10
0.0
 20
0.0
 30
0.0
 11
2.4999994785
 21
0.0
 31
0.0
  0
LINE
  5
518
330
511
100
AcDbEntity
  8
FORMAT
 62
     0
100
AcDbLine
 10
0.0
 20
2.5000050664
 30
0.0
 11
0.0
 21
4.5000016689
 31
0.0
  0
LINE
  5
519
330
511
100
AcDbEntity
  8
FORMAT
 62
     0
100
AcDbLine
 10
-2.5000004098
 20
0.0
 30
0.0
 11
-4.4999998063
 21
0.0
 31
0.0
  0
LINE
  5
51A
330
511
100
AcDbEntity
  8
FORMAT
 62
     0
100
AcDbLine
 10
0.0
 20
-2.4999976158
 30
0.0
 11
0.0
 21
-4.5000016689
 31
0.0
  0
LINE
  5
51B
330
511
100
AcDbEntity
  8
FORMAT
 62
     0
100
AcDbLine
 10
2.4999994785
 20
0.0
 30
0.0
 11
4.4999998063
 21
0.0
 31
0.0
  0
ENDBLK
  5
513
330
511
100
AcDbEntity
  8
0
100
AcDbBlockEnd
  0
BLOCK
  5
51E
330
51D
100
AcDbEntity
  8
0
100
AcDbBlockBegin
  2
SW_CENTERMARKSYMBOL_22
 70
     0
 10
0.0
 20
0.0
 30
0.0
  3
SW_CENTERMARKSYMBOL_22
  1

  0
LINE
  5
520
330
51D
100
AcDbEntity
  8
FORMAT
 62
     0
100
AcDbLine
 10
0.0
 20
0.0
 30
0.0
 11
0.0
 21
2.4999976158
 31
0.0
  0
LINE
  5
521
330
51D
100
AcDbEntity
  8
FORMAT
 62
     0
100
AcDbLine
 10
0.0
 20
0.0
 30
0.0
 11
-2.5000004098
 21
0.0
 31
0.0
  0
LINE
  5
522
330
51D
100
AcDbEntity
  8
FORMAT
 62
     0
100
AcDbLine
 10
0.0
 20
0.0
 30
0.0
 11
0.0
 21
-2.5000050664
 31
0.0
  0
LINE
  5
523
330
51D
100
AcDbEntity
  8
FORMAT
 62
     0
100
AcDbLine
 10
0.0
 20
0.0
 30
0.0
 11
2.4999994785
 21
0.0
 31
0.0
  0
LINE
  5
524
330
51D
100
AcDbEntity
  8
FORMAT
 62
     0
100
AcDbLine
 10
0.0
 20
2.4999976158
 30
0.0
 11
0.0
 21
4.5000016689
 31
0.0
  0
LINE
  5
525
330
51D
100
AcDbEntity
  8
FORMAT
 62
     0
100
AcDbLine
 10
-2.5000004098
 20
0.0
 30
0.0
 11
-4.4999998063
 21
0.0
 31
0.0
  0
LINE
  5
526
330
51D
100
AcDbEntity
  8
FORMAT
 62
     0
100
AcDbLine
 10
0.0
 20
-2.5000050664
 30
0.0
 11
0.0
 21
-4.5000016689
 31
0.0
  0
LINE
  5
527
330
51D
100
AcDbEntity
  8
FORMAT
 62
     0
100
AcDbLine
 10
2.4999994785
 20
0.0
 30
0.0
 11
4.4999998063
 21
0.0
 31
0.0
  0
ENDBLK
  5
51F
330
51D
100
AcDbEntity
  8
0
100
AcDbBlockEnd
  0
BLOCK
  5
52A
330
529
100
AcDbEntity
  8
0
100
AcDbBlockBegin
  2
SW_CENTERMARKSYMBOL_23
 70
     0
 10
0.0
 20
0.0
 30
0.0
  3
SW_CENTERMARKSYMBOL_23
  1

  0
LINE
  5
52C
330
529
100
AcDbEntity
  8
FORMAT
 62
     0
100
AcDbLine
 10
0.0
 20
0.0
 30
0.0
 11
0.0
 21
2.5000004098
 31
0.0
  0
LINE
  5
52D
330
529
100
AcDbEntity
  8
FORMAT
 62
     0
100
AcDbLine
 10
0.0
 20
0.0
 30
0.0
 11
-2.5000004098
 21
0.0
 31
0.0
  0
LINE
  5
52E
330
529
100
AcDbEntity
  8
FORMAT
 62
     0
100
AcDbLine
 10
0.0
 20
0.0
 30
0.0
 11
0.0
 21
-2.4999994785
 31
0.0
  0
LINE
  5
52F
330
529
100
AcDbEntity
  8
FORMAT
 62
     0
100
AcDbLine
 10
0.0
 20
0.0
 30
0.0
 11
2.4999994785
 21
0.0
 31
0.0
  0
LINE
  5
530
330
529
100
AcDbEntity
  8
FORMAT
 62
     0
100
AcDbLine
 10
0.0
 20
2.5000004098
 30
0.0
 11
0.0
 21
3.750000149
 31
0.0
  0
LINE
  5
531
330
529
100
AcDbEntity
  8
FORMAT
 62
     0
100
AcDbLine
 10
-2.5000004098
 20
0.0
 30
0.0
 11
-3.750000149
 21
0.0
 31
0.0
  0
LINE
  5
532
330
529
100
AcDbEntity
  8
FORMAT
 62
     0
100
AcDbLine
 10
0.0
 20
-2.4999994785
 30
0.0
 11
0.0
 21
-3.750000149
 31
0.0
  0
LINE
  5
533
330
529
100
AcDbEntity
  8
FORMAT
 62
     0
100
AcDbLine
 10
2.4999994785
 20
0.0
 30
0.0
 11
3.750000149
 21
0.0
 31
0.0
  0
ENDBLK
  5
52B
330
529
100
AcDbEntity
  8
0
100
AcDbBlockEnd
  0
BLOCK
  5
536
330
535
100
AcDbEntity
  8
0
100
AcDbBlockBegin
  2
SW_CENTERMARKSYMBOL_24
 70
     0
 10
0.0
 20
0.0
 30
0.0
  3
SW_CENTERMARKSYMBOL_24
  1

  0
LINE
  5
538
330
535
100
AcDbEntity
  8
FORMAT
 62
     0
100
AcDbLine
 10
0.0
 20
0.0
 30
0.0
 11
0.0
 21
2.4999994785
 31
0.0
  0
LINE
  5
539
330
535
100
AcDbEntity
  8
FORMAT
 62
     0
100
AcDbLine
 10
0.0
 20
0.0
 30
0.0
 11
-2.5000004098
 21
0.0
 31
0.0
  0
LINE
  5
53A
330
535
100
AcDbEntity
  8
FORMAT
 62
     0
100
AcDbLine
 10
0.0
 20
0.0
 30
0.0
 11
0.0
 21
-2.5000004098
 31
0.0
  0
LINE
  5
53B
330
535
100
AcDbEntity
  8
FORMAT
 62
     0
100
AcDbLine
 10
0.0
 20
0.0
 30
0.0
 11
2.4999994785
 21
0.0
 31
0.0
  0
LINE
  5
53C
330
535
100
AcDbEntity
  8
FORMAT
 62
     0
100
AcDbLine
 10
0.0
 20
2.4999994785
 30
0.0
 11
0.0
 21
3.750000149
 31
0.0
  0
LINE
  5
53D
330
535
100
AcDbEntity
  8
FORMAT
 62
     0
100
AcDbLine
 10
-2.5000004098
 20
0.0
 30
0.0
 11
-3.750000149
 21
0.0
 31
0.0
  0
LINE
  5
53E
330
535
100
AcDbEntity
  8
FORMAT
 62
     0
100
AcDbLine
 10
0.0
 20
-2.5000004098
 30
0.0
 11
0.0
 21
-3.750000149
 31
0.0
  0
LINE
  5
53F
330
535
100
AcDbEntity
  8
FORMAT
 62
     0
100
AcDbLine
 10
2.4999994785
 20
0.0
 30
0.0
 11
3.750000149
 21
0.0
 31
0.0
  0
ENDBLK
  5
537
330
535
100
AcDbEntity
  8
0
100
AcDbBlockEnd
  0
BLOCK
  5
559
330
558
100
AcDbEntity
  8
0
100
AcDbBlockBegin
  2
SW_NOTE_0_11
 70
     0
 10
0.0
 20
0.0
 30
0.0
  3
SW_NOTE_0_11
  1

  0
MTEXT
  5
55B
330
558
100
AcDbEntity
  8
FORMAT
 62
     0
100
AcDbMText
 10
-30.149025197
 20
10.8476335497
 30
0.0
 40
3.5
 41
0.0
 71
     1
 72
     1
  1
je nach Ausführung
  7
SLDTEXTSTYLE0
 73
     1
 44
1.0
  0
MTEXT
  5
55C
330
558
100
AcDbEntity
  8
FORMAT
 62
     0
100
AcDbMText
 10
-30.149025197
 20
6.3268000574
 30
0.0
 40
3.5
 41
0.0
 71
     1
 72
     1
  1
des Abdeckwinkels
  7
SLDTEXTSTYLE0
 73
     1
 44
1.0
  0
MTEXT
  5
55D
330
558
100
AcDbEntity
  8
FORMAT
 62
     0
100
AcDbMText
 10
-30.149025197
 20
1.8059665651
 30
0.0
 40
3.5
 41
0.0
 71
     1
 72
     1
  1
eckig oder R5
  7
SLDTEXTSTYLE0
 73
     1
 44
1.0
  0
ENDBLK
  5
55A
330
558
100
AcDbEntity
  8
0
100
AcDbBlockEnd
  0
BLOCK
  5
561
330
560
100
AcDbEntity
  8
0
100
AcDbBlockBegin
  2
_Dot
 70
     0
 10
0.0
 20
0.0
 30
0.0
  3
_Dot
  1

  0
LWPOLYLINE
  5
563
330
560
100
AcDbEntity
  8
0
  6
ByBlock
 62
     0
100
AcDbPolyline
 90
        2
 70
     1
 43
0.5
 10
-0.25
 20
0.0
 42
1.0
 10
0.25
 20
0.0
 42
1.0
  0
LINE
  5
564
330
560
100
AcDbEntity
  8
0
  6
ByBlock
 62
     0
370
    -2
100
AcDbLine
 10
-0.5
 20
0.0
 30
0.0
 11
-1.0
 21
0.0
 31
0.0
  0
ENDBLK
  5
562
330
560
100
AcDbEntity
  8
0
100
AcDbBlockEnd
  0
BLOCK
  5
574
330
573
100
AcDbEntity
  8
0
100
AcDbBlockBegin
  2
_D_27
 70
     0
 10
0.0
 20
0.0
 30
0.0
  3
_D_27
  1

  0
SOLID
  5
576
330
573
100
AcDbEntity
  8
FORMAT
100
AcDbTrace
 10
260.2489040586
 20
322.5496653291
 30
0.0
 11
259.7409040586
 21
319.2476653291
 31
0.0
 12
260.7569040586
 22
319.2476653291
 32
0.0
 13
260.7569040586
 23
319.2476653291
 33
0.0
  0
SOLID
  5
577
330
573
100
AcDbEntity
  8
FORMAT
100
AcDbTrace
 10
260.2489040586
 20
222.5496653291
 30
0.0
 11
260.7569040586
 21
225.8516653291
 31
0.0
 12
259.7409040586
 22
225.8516653291
 32
0.0
 13
259.7409040586
 23
225.8516653291
 33
0.0
  0
LINE
  5
578
330
573
100
AcDbEntity
  8
FORMAT
100
AcDbLine
 10
235.6580895905
 20
322.5496653291
 30
0.0
 11
261.2489040586
 21
322.5496653291
 31
0.0
  0
LINE
  5
579
330
573
100
AcDbEntity
  8
FORMAT
100
AcDbLine
 10
235.6580895905
 20
222.5496653291
 30
0.0
 11
261.2489040586
 21
222.5496653291
 31
0.0
  0
LINE
  5
57A
330
573
100
AcDbEntity
  8
FORMAT
100
AcDbLine
 10
260.2489040586
 20
322.5496653291
 30
0.0
 11
260.2489040586
 21
222.5496653291
 31
0.0
  0
MTEXT
  5
57B
330
573
100
AcDbEntity
  8
FORMAT
100
AcDbMText
 10
255.7371667366
 20
268.5392487618
 30
0.0
 40
3.5
 41
0.0
 71
     1
 72
     1
  1
100
  7
SLDTEXTSTYLE0
 11
-7.044195017643634E-15
 21
1.0
 31
0.0
 73
     1
 44
1.0
  0
ENDBLK
  5
575
330
573
100
AcDbEntity
  8
0
100
AcDbBlockEnd
  0
BLOCK
  5
57E
330
57D
100
AcDbEntity
  8
0
100
AcDbBlockBegin
  2
_D_28
 70
     0
 10
0.0
 20
0.0
 30
0.0
  3
_D_28
  1

  0
SOLID
  5
580
330
57D
100
AcDbEntity
  8
FORMAT
100
AcDbTrace
 10
229.6580895905
 20
209.7948708923
 30
0.0
 11
226.3560895905
 21
210.3028708923
 31
0.0
 12
226.3560895905
 22
209.2868708923
 32
0.0
 13
226.3560895905
 23
209.2868708923
 33
0.0
  0
SOLID
  5
581
330
57D
100
AcDbEntity
  8
FORMAT
100
AcDbTrace
 10
239.6580895905
 20
209.7948708923
 30
0.0
 11
242.9600895905
 21
209.2868708923
 31
0.0
 12
242.9600895905
 22
210.3028708923
 32
0.0
 13
242.9600895905
 23
210.3028708923
 33
0.0
  0
LINE
  5
582
330
57D
100
AcDbEntity
  8
FORMAT
100
AcDbLine
 10
229.6580895905
 20
226.5496653291
 30
0.0
 11
229.6580895905
 21
208.7948708923
 31
0.0
  0
LINE
  5
583
330
57D
100
AcDbEntity
  8
FORMAT
100
AcDbLine
 10
239.6580895905
 20
226.5496653291
 30
0.0
 11
239.6580895905
 21
208.7948708923
 31
0.0
  0
LINE
  5
584
330
57D
100
AcDbEntity
  8
FORMAT
100
AcDbLine
 10
229.6580895905
 20
209.7948708923
 30
0.0
 11
223.3080895905
 21
209.7948708923
 31
0.0
  0
LINE
  5
585
330
57D
100
AcDbEntity
  8
FORMAT
100
AcDbLine
 10
229.6580895905
 20
209.7948708923
 30
0.0
 11
239.6580895905
 21
209.7948708923
 31
0.0
  0
LINE
  5
586
330
57D
100
AcDbEntity
  8
FORMAT
100
AcDbLine
 10
239.6580895905
 20
209.7948708923
 30
0.0
 11
246.0080895905
 21
209.7948708923
 31
0.0
  0
MTEXT
  5
587
330
57D
100
AcDbEntity
  8
FORMAT
100
AcDbMText
 10
231.9844785456
 20
214.3066082143
 30
0.0
 40
3.5
 41
0.0
 71
     1
 72
     1
  1
10
  7
SLDTEXTSTYLE0
 73
     1
 44
1.0
  0
ENDBLK
  5
57F
330
57D
100
AcDbEntity
  8
0
100
AcDbBlockEnd
  0
BLOCK
  5
589
330
588
100
AcDbEntity
  8
0
100
AcDbBlockBegin
  2
SW_CENTERMARKSYMBOL_25
 70
     0
 10
0.0
 20
0.0
 30
0.0
  3
SW_CENTERMARKSYMBOL_25
  1

  0
LINE
  5
58B
330
588
100
AcDbEntity
  8
FORMAT
 62
     0
100
AcDbLine
 10
0.0
 20
0.0
 30
0.0
 11
0.0
 21
2.4999999441
 31
0.0
  0
LINE
  5
58C
330
588
100
AcDbEntity
  8
FORMAT
 62
     0
100
AcDbLine
 10
0.0
 20
0.0
 30
0.0
 11
-2.4999994785
 21
0.0
 31
0.0
  0
LINE
  5
58D
330
588
100
AcDbEntity
  8
FORMAT
 62
     0
100
AcDbLine
 10
0.0
 20
0.0
 30
0.0
 11
0.0
 21
-2.4999999441
 31
0.0
  0
LINE
  5
58E
330
588
100
AcDbEntity
  8
FORMAT
 62
     0
100
AcDbLine
 10
0.0
 20
0.0
 30
0.0
 11
2.5000004098
 21
0.0
 31
0.0
  0
LINE
  5
58F
330
588
100
AcDbEntity
  8
FORMAT
 62
     0
100
AcDbLine
 10
0.0
 20
4.9999998882
 30
0.0
 11
0.0
 21
7.4999998324
 31
0.0
  0
LINE
  5
590
330
588
100
AcDbEntity
  8
FORMAT
 62
     0
100
AcDbLine
 10
-4.9999989569
 20
0.0
 30
0.0
 11
-29.2914137244
 21
0.0
 31
0.0
  0
LINE
  5
591
330
588
100
AcDbEntity
  8
FORMAT
 62
     0
100
AcDbLine
 10
0.0
 20
-4.9999998882
 30
0.0
 11
0.0
 21
-7.4999998324
 31
0.0
  0
LINE
  5
592
330
588
100
AcDbEntity
  8
FORMAT
 62
     0
100
AcDbLine
 10
4.9999998882
 20
0.0
 30
0.0
 11
15.937568387
 21
0.0
 31
0.0
  0
ENDBLK
  5
58A
330
588
100
AcDbEntity
  8
0
100
AcDbBlockEnd
  0
BLOCK
  5
595
330
594
100
AcDbEntity
  8
0
100
AcDbBlockBegin
  2
SW_CENTERMARKSYMBOL_26
 70
     0
 10
0.0
 20
0.0
 30
0.0
  3
SW_CENTERMARKSYMBOL_26
  1

  0
LINE
  5
597
330
594
100
AcDbEntity
  8
FORMAT
 62
     0
100
AcDbLine
 10
0.0
 20
0.0
 30
0.0
 11
0.0
 21
2.4999976158
 31
0.0
  0
LINE
  5
598
330
594
100
AcDbEntity
  8
FORMAT
 62
     0
100
AcDbLine
 10
0.0
 20
0.0
 30
0.0
 11
-2.4999994785
 21
0.0
 31
0.0
  0
LINE
  5
599
330
594
100
AcDbEntity
  8
FORMAT
 62
     0
100
AcDbLine
 10
0.0
 20
0.0
 30
0.0
 11
0.0
 21
-2.5000013411
 31
0.0
  0
LINE
  5
59A
330
594
100
AcDbEntity
  8
FORMAT
 62
     0
100
AcDbLine
 10
0.0
 20
0.0
 30
0.0
 11
2.5000004098
 21
0.0
 31
0.0
  0
LINE
  5
59B
330
594
100
AcDbEntity
  8
FORMAT
 62
     0
100
AcDbLine
 10
0.0
 20
4.9999989569
 30
0.0
 11
0.0
 21
7.4999965727
 31
0.0
  0
LINE
  5
59C
330
594
100
AcDbEntity
  8
FORMAT
 62
     0
100
AcDbLine
 10
-4.9999989569
 20
0.0
 30
0.0
 11
-7.500000298
 21
0.0
 31
0.0
  0
LINE
  5
59D
330
594
100
AcDbEntity
  8
FORMAT
 62
     0
100
AcDbLine
 10
0.0
 20
-5.0000026822
 30
0.0
 11
0.0
 21
-33.3552798256
 31
0.0
  0
LINE
  5
59E
330
594
100
AcDbEntity
  8
FORMAT
 62
     0
100
AcDbLine
 10
4.9999998882
 20
0.0
 30
0.0
 11
7.500000298
 21
0.0
 31
0.0
  0
LINE
  5
59F
330
594
100
AcDbEntity
  8
FORMAT
 62
     0
100
AcDbLine
 10
0.0
 20
-90.0000035763
 30
0.0
 11
0.0
 21
-87.5000022352
 31
0.0
  0
LINE
  5
5A0
330
594
100
AcDbEntity
  8
FORMAT
 62
     0
100
AcDbLine
 10
0.0
 20
-90.0000035763
 30
0.0
 11
-2.4999994785
 21
-90.0000035763
 31
0.0
  0
LINE
  5
5A1
330
594
100
AcDbEntity
  8
FORMAT
 62
     0
100
AcDbLine
 10
0.0
 20
-90.0000035763
 30
0.0
 11
0.0
 21
-92.5000011921
 31
0.0
  0
LINE
  5
5A2
330
594
100
AcDbEntity
  8
FORMAT
 62
     0
100
AcDbLine
 10
0.0
 20
-90.0000035763
 30
0.0
 11
2.5000004098
 21
-90.0000035763
 31
0.0
  0
LINE
  5
5A3
330
594
100
AcDbEntity
  8
FORMAT
 62
     0
100
AcDbLine
 10
0.0
 20
-85.0000008941
 30
0.0
 11
0.0
 21
-55.4270045832
 31
0.0
  0
LINE
  5
5A4
330
594
100
AcDbEntity
  8
FORMAT
 62
     0
100
AcDbLine
 10
-4.9999989569
 20
-90.0000035763
 30
0.0
 11
-7.500000298
 21
-90.0000035763
 31
0.0
  0
LINE
  5
5A5
330
594
100
AcDbEntity
  8
FORMAT
 62
     0
100
AcDbLine
 10
0.0
 20
-95.0000025332
 30
0.0
 11
0.0
 21
-97.500000149
 31
0.0
  0
LINE
  5
5A6
330
594
100
AcDbEntity
  8
FORMAT
 62
     0
100
AcDbLine
 10
4.9999998882
 20
-90.0000035763
 30
0.0
 11
7.500000298
 21
-90.0000035763
 31
0.0
  0
ENDBLK
  5
596
330
594
100
AcDbEntity
  8
0
100
AcDbBlockEnd
  0
BLOCK
  5
5C2
330
5C1
100
AcDbEntity
  8
0
100
AcDbBlockBegin
  2
SW_HATCH_1
 70
     0
 10
0.0
 20
0.0
 30
0.0
  3
SW_HATCH_1
  1

  0
LINE
  5
5C4
330
5C1
100
AcDbEntity
  8
0
  6
Continuous
 62
     0
370
    18
100
AcDbLine
 10
0.0
 20
0.0
 30
0.0
 11
-2.2981148213
 21
-2.2981148213
 31
0.0
  0
LINE
  5
5C5
330
5C1
100
AcDbEntity
  8
0
  6
Continuous
 62
     0
370
    18
100
AcDbLine
 10
4.490127787
 20
0.0
 30
0.0
 11
-2.2981148213
 21
-6.7882426083
 31
0.0
  0
LINE
  5
5C6
330
5C1
100
AcDbEntity
  8
0
  6
Continuous
 62
     0
370
    18
100
AcDbLine
 10
8.980255574
 20
0.0
 30
0.0
 11
-2.2981148213
 21
-11.2783707445
 31
0.0
  0
LINE
  5
5C7
330
5C1
100
AcDbEntity
  8
0
  6
Continuous
 62
     0
370
    18
100
AcDbLine
 10
13.470383361
 20
0.0
 30
0.0
 11
-2.2981148213
 21
-15.768498648
 31
0.0
  0
LINE
  5
5C8
330
5C1
100
AcDbEntity
  8
0
  6
Continuous
 62
     0
370
    18
100
AcDbLine
 10
17.9605120793
 20
0.0
 30
0.0
 11
-2.2981148213
 21
-20.2586269006
 31
0.0
  0
LINE
  5
5C9
330
5C1
100
AcDbEntity
  8
0
  6
Continuous
 62
     0
370
    18
100
AcDbLine
 10
22.4506398663
 20
0.0
 30
0.0
 11
-2.2981148213
 21
-24.7487546876
 31
0.0
  0
LINE
  5
5CA
330
5C1
100
AcDbEntity
  8
0
  6
Continuous
 62
     0
370
    18
100
AcDbLine
 10
26.9407683518
 20
0.0
 30
0.0
 11
-2.2981148213
 21
-29.2388834059
 31
0.0
  0
LINE
  5
5CB
330
5C1
100
AcDbEntity
  8
0
  6
Continuous
 62
     0
370
    18
100
AcDbLine
 10
31.4308960224
 20
0.0
 30
0.0
 11
-2.2981148213
 21
-33.7290111929
 31
0.0
  0
LINE
  5
5CC
330
5C1
100
AcDbEntity
  8
0
  6
Continuous
 62
     0
370
    18
100
AcDbLine
 10
35.9210227616
 20
0.0
 30
0.0
 11
-2.2981148213
 21
-38.2191389799
 31
0.0
  0
LINE
  5
5CD
330
5C1
100
AcDbEntity
  8
0
  6
Continuous
 62
     0
370
    18
100
AcDbLine
 10
40.4111519456
 20
0.0
 30
0.0
 11
-2.2981148213
 21
-42.7092667669
 31
0.0
  0
LINE
  5
5CE
330
5C1
100
AcDbEntity
  8
0
  6
Continuous
 62
     0
370
    18
100
AcDbLine
 10
34.2018844094
 20
-10.6993952068
 30
0.0
 11
-2.2981148213
 21
-47.1993964165
 31
0.0
  0
LINE
  5
5CF
330
5C1
100
AcDbEntity
  8
0
  6
Continuous
 62
     0
370
    18
100
AcDbLine
 10
44.9012797326
 20
0.0
 30
0.0
 11
34.3531651888
 21
-10.5481146602
 31
0.0
  0
LINE
  5
5D0
330
5C1
100
AcDbEntity
  8
0
  6
Continuous
 62
     0
370
    18
100
AcDbLine
 10
34.2018844094
 20
-15.189523343
 30
0.0
 11
-0.156706199
 21
-49.5481137186
 31
0.0
  0
LINE
  5
5D1
330
5C1
100
AcDbEntity
  8
0
  6
Continuous
 62
     0
370
    18
100
AcDbLine
 10
49.3914075196
 20
0.0
 30
0.0
 11
38.843292743
 21
-10.5481146602
 31
0.0
  0
LINE
  5
5D2
330
5C1
100
AcDbEntity
  8
0
  6
Continuous
 62
     0
370
    18
100
AcDbLine
 10
14.2018850893
 20
-39.6796520799
 30
0.0
 11
4.3334215879
 21
-49.5481137186
 31
0.0
  0
LINE
  5
5D3
330
5C1
100
AcDbEntity
  8
0
  6
Continuous
 62
     0
370
    18
100
AcDbLine
 10
34.2018844094
 20
-19.6796515957
 30
0.0
 11
14.3334213644
 21
-39.5481139421
 31
0.0
  0
LINE
  5
5D4
330
5C1
100
AcDbEntity
  8
0
  6
Continuous
 62
     0
370
    18
100
AcDbLine
 10
53.8815353066
 20
0.0
 30
0.0
 11
43.3334214613
 21
-10.5481146602
 31
0.0
  0
LINE
  5
5D5
330
5C1
100
AcDbEntity
  8
0
  6
Continuous
 62
     0
370
    18
100
AcDbLine
 10
14.8235484958
 20
-43.5481164604
 30
0.0
 11
8.8235493749
 21
-49.5481137186
 31
0.0
  0
LINE
  5
5D6
330
5C1
100
AcDbEntity
  8
0
  6
Continuous
 62
     0
370
    18
100
AcDbLine
 10
20.2018842101
 20
-38.1697788835
 30
0.0
 11
18.8235491514
 21
-39.5481139421
 31
0.0
  0
LINE
  5
5D7
330
5C1
100
AcDbEntity
  8
0
  6
Continuous
 62
     0
370
    18
100
AcDbLine
 10
34.2018844094
 20
-24.1697793826
 30
0.0
 11
23.8235495053
 21
-34.5481149852
 31
0.0
  0
LINE
  5
5D8
330
5C1
100
AcDbEntity
  8
0
  6
Continuous
 62
     0
370
    18
100
AcDbLine
 10
58.3716630936
 20
0.0
 30
0.0
 11
47.8235501796
 21
-10.5481146602
 31
0.0
  0
LINE
  5
5D9
330
5C1
100
AcDbEntity
  8
0
  6
Continuous
 62
     0
370
    18
100
AcDbLine
 10
19.3136772141
 20
-43.5481164604
 30
0.0
 11
13.3136771619
 21
-49.5481137186
 31
0.0
  0
LINE
  5
5DA
330
5C1
100
AcDbEntity
  8
0
  6
Continuous
 62
     0
370
    18
100
AcDbLine
 10
34.2018844094
 20
-28.659908101
 30
0.0
 11
28.3136772923
 21
-34.5481149852
 31
0.0
  0
LINE
  5
5DB
330
5C1
100
AcDbEntity
  8
0
  6
Continuous
 62
     0
370
    18
100
AcDbLine
 10
62.8617908806
 20
0.0
 30
0.0
 11
52.3136779666
 21
-10.5481146602
 31
0.0
  0
LINE
  5
5DC
330
5C1
100
AcDbEntity
  8
0
  6
Continuous
 62
     0
370
    18
100
AcDbLine
 10
20.2018842101
 20
-47.1500363201
 30
0.0
 11
17.8038049489
 21
-49.5481137186
 31
0.0
  0
LINE
  5
5DD
330
5C1
100
AcDbEntity
  8
0
  6
Continuous
 62
     0
370
    18
100
AcDbLine
 10
34.2018844094
 20
-33.150035888
 30
0.0
 11
32.8038053121
 21
-34.5481149852
 31
0.0
  0
LINE
  5
5DE
330
5C1
100
AcDbEntity
  8
0
  6
Continuous
 62
     0
370
    18
100
AcDbLine
 10
63.2018838078
 20
-4.1500353254
 30
0.0
 11
56.8038057536
 21
-10.5481146602
 31
0.0
  0
LINE
  5
5DF
330
5C1
100
AcDbEntity
  8
0
  6
Continuous
 62
     0
370
    18
100
AcDbLine
 10
63.2018838078
 20
-8.6401635781
 30
0.0
 11
58.2018848509
 21
-13.6401634663
 31
0.0
  0
LINE
  5
5E0
330
5C1
100
AcDbEntity
  8
0
  6
Continuous
 62
     0
370
    18
100
AcDbLine
 10
63.2018838078
 20
-13.1302915979
 30
0.0
 11
58.7840620428
 21
-17.5481149927
 31
0.0
  0
LINE
  5
5E1
330
5C1
100
AcDbEntity
  8
0
  6
Continuous
 62
     0
370
    18
100
AcDbLine
 10
62.2544456273
 20
-27.5481138378
 30
0.0
 11
58.2018848509
 21
-31.600676477
 31
0.0
  0
LINE
  5
5E2
330
5C1
100
AcDbEntity
  8
0
  6
Continuous
 62
     0
370
    18
100
AcDbLine
 10
63.2018838078
 20
-31.0908034444
 30
0.0
 11
59.7445741296
 21
-34.5481149852
 31
0.0
  0
ENDBLK
  5
5C3
330
5C1
100
AcDbEntity
  8
0
100
AcDbBlockEnd
  0
BLOCK
  5
5E6
330
5E5
100
AcDbEntity
  8
0
100
AcDbBlockBegin
  2
_D_29
 70
     0
 10
0.0
 20
0.0
 30
0.0
  3
_D_29
  1

  0
SOLID
  5
5E8
330
5E5
100
AcDbEntity
  8
FORMAT
100
AcDbTrace
 10
362.6701863503
 20
117.900171381
 30
0.0
 11
363.1781863503
 21
121.202171381
 31
0.0
 12
362.1621863503
 22
121.202171381
 32
0.0
 13
362.1621863503
 23
121.202171381
 33
0.0
  0
SOLID
  5
5E9
330
5E5
100
AcDbEntity
  8
FORMAT
100
AcDbTrace
 10
362.6701863503
 20
129.900171381
 30
0.0
 11
362.1621863503
 21
126.598171381
 31
0.0
 12
363.1781863503
 22
126.598171381
 32
0.0
 13
363.1781863503
 23
126.598171381
 33
0.0
  0
LINE
  5
5EA
330
5E5
100
AcDbEntity
  8
FORMAT
100
AcDbLine
 10
344.1287170281
 20
117.900171381
 30
0.0
 11
363.6701863503
 21
117.900171381
 31
0.0
  0
LINE
  5
5EB
330
5E5
100
AcDbEntity
  8
FORMAT
100
AcDbLine
 10
345.6287170281
 20
129.900171381
 30
0.0
 11
350.5716353748
 21
129.900171381
 31
0.0
  0
LINE
  5
5EC
330
5E5
100
AcDbEntity
  8
FORMAT
100
AcDbLine
 10
353.5716353748
 20
129.900171381
 30
0.0
 11
363.6701863503
 21
129.900171381
 31
0.0
  0
LINE
  5
5ED
330
5E5
100
AcDbEntity
  8
FORMAT
100
AcDbLine
 10
362.6701863503
 20
117.900171381
 30
0.0
 11
362.6701863503
 21
129.900171381
 31
0.0
  0
MTEXT
  5
5EE
330
5E5
100
AcDbEntity
  8
FORMAT
100
AcDbMText
 10
358.1584490282
 20
121.2265603361
 30
0.0
 40
3.5
 41
0.0
 71
     1
 72
     1
  1
12
  7
SLDTEXTSTYLE0
 11
6.123233995736766E-17
 21
1.0
 31
0.0
 73
     1
 44
1.0
  0
ENDBLK
  5
5E7
330
5E5
100
AcDbEntity
  8
0
100
AcDbBlockEnd
  0
BLOCK
  5
5F1
330
5F0
100
AcDbEntity
  8
0
100
AcDbBlockBegin
  2
_D_30
 70
     0
 10
0.0
 20
0.0
 30
0.0
  3
_D_30
  1

  0
SOLID
  5
5F3
330
5F0
100
AcDbEntity
  8
FORMAT
100
AcDbTrace
 10
370.6287163427
 20
141.900171381
 30
0.0
 11
370.1207163427
 21
138.598171381
 31
0.0
 12
371.1367163427
 22
138.598171381
 32
0.0
 13
371.1367163427
 23
138.598171381
 33
0.0
  0
SOLID
  5
5F4
330
5F0
100
AcDbEntity
  8
FORMAT
100
AcDbTrace
 10
370.6287163427
 20
117.900171381
 30
0.0
 11
371.1367163427
 21
121.202171381
 31
0.0
 12
370.1207163427
 22
121.202171381
 32
0.0
 13
370.1207163427
 23
121.202171381
 33
0.0
  0
LINE
  5
5F5
330
5F0
100
AcDbEntity
  8
FORMAT
100
AcDbLine
 10
338.6287170281
 20
141.900171381
 30
0.0
 11
371.6287163427
 21
141.900171381
 31
0.0
  0
LINE
  5
5F6
330
5F0
100
AcDbEntity
  8
FORMAT
100
AcDbLine
 10
341.6287170281
 20
117.900171381
 30
0.0
 11
371.6287163427
 21
117.900171381
 31
0.0
  0
LINE
  5
5F7
330
5F0
100
AcDbEntity
  8
FORMAT
100
AcDbLine
 10
370.6287163427
 20
141.900171381
 30
0.0
 11
370.6287163427
 21
117.900171381
 31
0.0
  0
MTEXT
  5
5F8
330
5F0
100
AcDbEntity
  8
FORMAT
100
AcDbMText
 10
366.1169790206
 20
127.2265603361
 30
0.0
 40
3.5
 41
0.0
 71
     1
 72
     1
  1
24
  7
SLDTEXTSTYLE0
 11
-7.044195017643634E-15
 21
1.0
 31
0.0
 73
     1
 44
1.0
  0
ENDBLK
  5
5F2
330
5F0
100
AcDbEntity
  8
0
100
AcDbBlockEnd
  0
BLOCK
  5
5FB
330
5FA
100
AcDbEntity
  8
0
100
AcDbBlockBegin
  2
_D_31
 70
     0
 10
0.0
 20
0.0
 30
0.0
  3
_D_31
  1

  0
SOLID
  5
5FD
330
5FA
100
AcDbEntity
  8
FORMAT
100
AcDbTrace
 10
313.6287170281
 20
106.5704977382
 30
0.0
 11
316.9307170281
 21
106.0624977382
 31
0.0
 12
316.9307170281
 22
107.0784977382
 32
0.0
 13
316.9307170281
 23
107.0784977382
 33
0.0
  0
SOLID
  5
5FE
330
5FA
100
AcDbEntity
  8
FORMAT
100
AcDbTrace
 10
337.6287170281
 20
106.5704977382
 30
0.0
 11
334.3267170281
 21
107.0784977382
 31
0.0
 12
334.3267170281
 22
106.0624977382
 32
0.0
 13
334.3267170281
 23
106.0624977382
 33
0.0
  0
LINE
  5
5FF
330
5FA
100
AcDbEntity
  8
FORMAT
100
AcDbLine
 10
313.6287170281
 20
116.900171381
 30
0.0
 11
313.6287170281
 21
105.5704977382
 31
0.0
  0
LINE
  5
600
330
5FA
100
AcDbEntity
  8
FORMAT
100
AcDbLine
 10
337.6287170281
 20
116.900171381
 30
0.0
 11
337.6287170281
 21
105.5704977382
 31
0.0
  0
LINE
  5
601
330
5FA
100
AcDbEntity
  8
FORMAT
100
AcDbLine
 10
313.6287170281
 20
106.5704977382
 30
0.0
 11
337.6287170281
 21
106.5704977382
 31
0.0
  0
MTEXT
  5
602
330
5FA
100
AcDbEntity
  8
FORMAT
100
AcDbMText
 10
322.9551059832
 20
111.0822350603
 30
0.0
 40
3.5
 41
0.0
 71
     1
 72
     1
  1
24
  7
SLDTEXTSTYLE0
 73
     1
 44
1.0
  0
ENDBLK
  5
5FC
330
5FA
100
AcDbEntity
  8
0
100
AcDbBlockEnd
  0
BLOCK
  5
605
330
604
100
AcDbEntity
  8
0
100
AcDbBlockBegin
  2
_D_32
 70
     0
 10
0.0
 20
0.0
 30
0.0
  3
_D_32
  1

  0
SOLID
  5
607
330
604
100
AcDbEntity
  8
FORMAT
100
AcDbTrace
 10
313.6287170281
 20
97.4267464851
 30
0.0
 11
316.9307170281
 21
96.9187464851
 31
0.0
 12
316.9307170281
 22
97.9347464851
 32
0.0
 13
316.9307170281
 23
97.9347464851
 33
0.0
  0
SOLID
  5
608
330
604
100
AcDbEntity
  8
FORMAT
100
AcDbTrace
 10
342.6287170281
 20
97.4267464851
 30
0.0
 11
339.3267170281
 21
97.9347464851
 31
0.0
 12
339.3267170281
 22
96.9187464851
 32
0.0
 13
339.3267170281
 23
96.9187464851
 33
0.0
  0
LINE
  5
609
330
604
100
AcDbEntity
  8
FORMAT
100
AcDbLine
 10
313.6287170281
 20
116.900171381
 30
0.0
 11
313.6287170281
 21
96.4267464851
 31
0.0
  0
LINE
  5
60A
330
604
100
AcDbEntity
  8
FORMAT
100
AcDbLine
 10
342.6287170281
 20
118.9001713363
 30
0.0
 11
342.6287170281
 21
96.4267464851
 31
0.0
  0
LINE
  5
60B
330
604
100
AcDbEntity
  8
FORMAT
100
AcDbLine
 10
313.6287170281
 20
97.4267464851
 30
0.0
 11
342.6287170281
 21
97.4267464851
 31
0.0
  0
MTEXT
  5
60C
330
604
100
AcDbEntity
  8
FORMAT
100
AcDbMText
 10
325.4551059832
 20
101.9384838071
 30
0.0
 40
3.5
 41
0.0
 71
     1
 72
     1
  1
29
  7
SLDTEXTSTYLE0
 73
     1
 44
1.0
  0
ENDBLK
  5
606
330
604
100
AcDbEntity
  8
0
100
AcDbBlockEnd
  0
BLOCK
  5
60F
330
60E
100
AcDbEntity
  8
0
100
AcDbBlockBegin
  2
_D_33
 70
     0
 10
0.0
 20
0.0
 30
0.0
  3
_D_33
  1

  0
SOLID
  5
611
330
60E
100
AcDbEntity
  8
FORMAT
100
AcDbTrace
 10
264.7556247666
 20
102.900171381
 30
0.0
 11
265.2636247666
 21
106.202171381
 31
0.0
 12
264.2476247666
 22
106.202171381
 32
0.0
 13
264.2476247666
 23
106.202171381
 33
0.0
  0
LINE
  5
612
330
60E
100
AcDbEntity
  8
FORMAT
100
AcDbLine
 10
278.1287170281
 20
102.900171381
 30
0.0
 11
263.7556247666
 21
102.900171381
 31
0.0
  0
LINE
  5
613
330
60E
100
AcDbEntity
  8
FORMAT
100
AcDbLine
 10
264.7556247666
 20
102.900171381
 30
0.0
 11
264.7556247666
 21
152.4482856898
 31
0.0
  0
MTEXT
  5
614
330
60E
100
AcDbEntity
  8
FORMAT
100
AcDbMText
 10
260.2431096982
 20
127.2265603361
 30
0.0
 40
3.5
 41
0.0
 71
     1
 72
     1
  1
60
  7
SLDTEXTSTYLE0
 11
1.393499969507555E-15
 21
1.0
 31
0.0
 73
     1
 44
1.0
  0
MTEXT
  5
615
330
60E
100
AcDbEntity
  8
FORMAT
100
AcDbMText
 10
265.6146374445
 20
113.3310710606
 30
0.0
 40
3.5
 41
0.0
 71
     1
 72
     1
  1
min. Holzstärke
  7
SLDTEXTSTYLE0
 11
1.393499969507555E-15
 21
1.0
 31
0.0
 73
     1
 44
1.0
  0
ENDBLK
  5
610
330
60E
100
AcDbEntity
  8
0
100
AcDbBlockEnd
  0
BLOCK
  5
618
330
617
100
AcDbEntity
  8
0
100
AcDbBlockBegin
  2
_D_34
 70
     0
 10
0.0
 20
0.0
 30
0.0
  3
_D_34
  1

  0
SOLID
  5
61A
330
617
100
AcDbEntity
  8
FORMAT
100
AcDbTrace
 10
352.0716353748
 20
123.900171381
 30
0.0
 11
352.5796353748
 21
127.202171381
 31
0.0
 12
351.5636353748
 22
127.202171381
 32
0.0
 13
351.5636353748
 23
127.202171381
 33
0.0
  0
SOLID
  5
61B
330
617
100
AcDbEntity
  8
FORMAT
100
AcDbTrace
 10
352.0716353748
 20
117.900171381
 30
0.0
 11
351.5636353748
 21
114.598171381
 31
0.0
 12
352.5796353748
 22
114.598171381
 32
0.0
 13
352.5796353748
 23
114.598171381
 33
0.0
  0
LINE
  5
61C
330
617
100
AcDbEntity
  8
FORMAT
100
AcDbLine
 10
338.6287170281
 20
123.900171381
 30
0.0
 11
353.0716353748
 21
123.900171381
 31
0.0
  0
LINE
  5
61D
330
617
100
AcDbEntity
  8
FORMAT
100
AcDbLine
 10
341.6287170281
 20
117.900171381
 30
0.0
 11
353.0716353748
 21
117.900171381
 31
0.0
  0
LINE
  5
61E
330
617
100
AcDbEntity
  8
FORMAT
100
AcDbLine
 10
352.0716353748
 20
123.900171381
 30
0.0
 11
352.0716353748
 21
130.250171381
 31
0.0
  0
LINE
  5
61F
330
617
100
AcDbEntity
  8
FORMAT
100
AcDbLine
 10
352.0716353748
 20
123.900171381
 30
0.0
 11
352.0716353748
 21
117.900171381
 31
0.0
  0
LINE
  5
620
330
617
100
AcDbEntity
  8
FORMAT
100
AcDbLine
 10
352.0716353748
 20
117.900171381
 30
0.0
 11
352.0716353748
 21
106.6112174175
 31
0.0
  0
MTEXT
  5
621
330
617
100
AcDbEntity
  8
FORMAT
100
AcDbMText
 10
347.5598980527
 20
106.6112174175
 30
0.0
 40
3.5
 41
0.0
 71
     1
 72
     1
  1
6
  7
SLDTEXTSTYLE0
 11
-7.044195017643634E-15
 21
1.0
 31
0.0
 73
     1
 44
1.0
  0
ENDBLK
  5
619
330
617
100
AcDbEntity
  8
0
100
AcDbBlockEnd
  0
ENDSEC
  0
SECTION
  2
ENTITIES
  0
LINE
  5
F9
330
1F
100
AcDbEntity
  8
FORMAT
  6
Continuous
370
    25
100
AcDbLine
 10
584.0
 20
409.8872569821
 30
0.0
 11
391.4361486486
 21
409.8872569821
 31
0.0
  0
LINE
  5
FA
330
1F
100
AcDbEntity
  8
FORMAT
  6
Continuous
370
    25
100
AcDbLine
 10
584.0
 20
409.8872569821
 30
0.0
 11
584.0
 21
87.1001937763
 31
0.0
  0
LINE
  5
FB
330
1F
100
AcDbEntity
  8
FORMAT
  6
Continuous
370
    25
100
AcDbLine
 10
584.0
 20
87.1001937763
 30
0.0
 11
391.4361486486
 21
87.1001937763
 31
0.0
  0
LINE
  5
FC
330
1F
100
AcDbEntity
  8
FORMAT
  6
Continuous
370
    25
100
AcDbLine
 10
391.4361486486
 20
409.8872569821
 30
0.0
 11
391.4361486486
 21
87.1001937763
 31
0.0
  0
LINE
  5
FD
330
1F
100
AcDbEntity
  8
FORMAT
  6
Continuous
370
    25
100
AcDbLine
 10
391.4361486486
 20
409.8872569821
 30
0.0
 11
186.9654496776
 21
409.8872569821
 31
0.0
  0
LINE
  5
FE
330
1F
100
AcDbEntity
  8
FORMAT
  6
Continuous
370
    25
100
AcDbLine
 10
391.4361486486
 20
409.8872569821
 30
0.0
 11
391.4361486486
 21
86.6179054054
 31
0.0
  0
LINE
  5
FF
330
1F
100
AcDbEntity
  8
FORMAT
  6
Continuous
370
    25
100
AcDbLine
 10
391.4361486486
 20
86.6179054054
 30
0.0
 11
186.9654496776
 21
86.6179054054
 31
0.0
  0
LINE
  5
100
330
1F
100
AcDbEntity
  8
FORMAT
  6
Continuous
370
    25
100
AcDbLine
 10
186.9654496776
 20
409.8872569821
 30
0.0
 11
186.9654496776
 21
86.6179054054
 31
0.0
  0
LINE
  5
101
330
1F
100
AcDbEntity
  8
FORMAT
  6
Continuous
 62
     7
370
    18
100
AcDbLine
 10
552.4485281661
 20
35.6464717326
 30
0.0
 11
477.9807868016
 21
35.6464717326
 31
0.0
  0
LINE
  5
102
330
1F
100
AcDbEntity
  8
FORMAT
  6
Continuous
 62
     7
370
    18
100
AcDbLine
 10
552.4485281661
 20
48.7420674192
 30
0.0
 11
584.0
 21
48.7420674192
 31
0.0
  0
LINE
  5
103
330
1F
100
AcDbEntity
  8
FORMAT
100
AcDbLine
 10
584.0
 20
410.0
 30
0.0
 11
10.0
 21
410.0
 31
0.0
  0
LINE
  5
104
330
1F
100
AcDbEntity
  8
FORMAT
100
AcDbLine
 10
10.0
 20
10.0
 30
0.0
 11
584.0
 21
10.0
 31
0.0
  0
LINE
  5
105
330
1F
100
AcDbEntity
  8
FORMAT
  6
Continuous
 62
     7
370
    18
100
AcDbLine
 10
538.7662011232
 20
35.6464717326
 30
0.0
 11
538.7662011232
 21
25.9765524102
 31
0.0
  0
LINE
  5
106
330
1F
100
AcDbEntity
  8
FORMAT
100
AcDbLine
 10
584.0
 20
10.0
 30
0.0
 11
584.0
 21
410.0
 31
0.0
  0
LINE
  5
107
330
1F
100
AcDbEntity
  8
BEMASSUNG
  6
Continuous
 62
     7
370
    18
100
AcDbLine
 10
552.4485281661
 20
40.5638075942
 30
0.0
 11
584.0
 21
40.5638075942
 31
0.0
  0
LINE
  5
108
330
1F
100
AcDbEntity
  8
FORMAT
 62
     7
370
    18
100
AcDbLine
 10
477.9807868016
 20
52.5731122919
 30
0.0
 11
477.9807868016
 21
10.0
 31
0.0
  0
LINE
  5
109
330
1F
100
AcDbEntity
  8
FORMAT
 62
     7
100
AcDbLine
 10
569.2554595171
 20
10.0
 30
0.0
 11
569.2554595171
 21
19.3470401503
 31
0.0
  0
LINE
  5
10A
330
1F
100
AcDbEntity
  8
FORMAT
 62
     7
100
AcDbLine
 10
477.9807868016
 20
25.9765524102
 30
0.0
 11
584.0
 21
25.9765524102
 31
0.0
  0
LINE
  5
10B
330
1F
100
AcDbEntity
  8
FORMAT
 62
     7
100
AcDbLine
 10
552.4485281661
 20
19.3470401503
 30
0.0
 11
584.0
 21
19.3470401503
 31
0.0
  0
LINE
  5
10C
330
1F
100
AcDbEntity
  8
FORMAT
 62
     7
100
AcDbLine
 10
477.9807868016
 20
52.5731122919
 30
0.0
 11
584.0133818865
 21
52.5731122919
 31
0.0
  0
LINE
  5
10D
330
1F
100
AcDbEntity
  8
FORMAT
 62
     7
100
AcDbLine
 10
552.4485281661
 20
10.0
 30
0.0
 11
552.4485281661
 21
52.5731122919
 31
0.0
  0
LINE
  5
10E
330
1F
100
AcDbEntity
  8
FORMAT
100
AcDbLine
 10
10.0
 20
410.0
 30
0.0
 11
10.0
 21
10.0
 31
0.0
  0
INSERT
  5
10F
330
1F
100
AcDbEntity
  8
0
  6
Continuous
 62
     7
100
AcDbBlockReference
  2
Block1_4
 10
559.8580737497
 20
27.0956685316
 30
0.0
  0
INSERT
  5
110
330
1F
100
AcDbEntity
  8
0
  6
Continuous
 62
     7
100
AcDbBlockReference
  2
Block2_4
 10
247.0697431328
 20
-36.8671961253
 30
0.0
  0
INSERT
  5
118
330
1F
100
AcDbEntity
  8
FORMAT
100
AcDbBlockReference
  2
SW_NOTE_0_7
 10
39.9214128122
 20
110.4673063115
 30
0.0
  0
MTEXT
  5
11A
330
1F
100
AcDbEntity
  8
0
  6
Continuous
 62
     7
370
     0
100
AcDbMText
 10
479.3437582251
 20
31.2949773348
 30
0.0
 40
3.175
 41
0.0
 71
     1
 72
     1
  1
D042-30823
  7
SLDTEXTSTYLE3
 73
     1
 44
1.0
  0
MTEXT
  5
11B
330
1F
100
AcDbEntity
  8
BEMASSUNG
 62
     7
100
AcDbMText
 10
553.7763905777
 20
47.9755397851
 30
0.0
 40
2.0
 41
0.0
 71
     1
 72
     1
  1
Ausführung:
  7
SLDTEXTSTYLE0
 73
     1
 44
1.0
  0
MTEXT
  5
11C
330
1F
100
AcDbEntity
  8
FORMAT
100
AcDbMText
 10
542.2434271781
 20
34.2372658327
 30
0.0
 40
2.0
 41
0.0
 71
     1
 72
     1
  1
Index:
  7
SLDTEXTSTYLE0
 73
     1
 44
1.0
  0
MTEXT
  5
11D
330
1F
100
AcDbEntity
  8
FORMAT
100
AcDbMText
 10
555.5261115553
 20
51.6401066847
 30
0.0
 40
1.8
 41
0.0
 71
     1
 72
     1
  1
KATALOGZEICHNUNG
  7
SLDTEXTSTYLE3
 73
     1
 44
1.0
  0
MTEXT
  5
11E
330
1F
100
AcDbEntity
  8
FORMAT
100
AcDbMText
 10
479.6285527947
 20
35.0066019157
 30
0.0
 40
2.0
 41
0.0
 71
     1
 72
     1
  1
Zeichnungsnummer:
  7
SLDTEXTSTYLE0
 73
     1
 44
1.0
  0
MTEXT
  5
11F
330
1F
100
AcDbEntity
  8
FORMAT
100
AcDbMText
 10
563.5143577849
 20
14.3197534241
 30
0.0
 40
2.1166666667
 41
0.0
 71
     1
 72
     1
  1
3
  7
SLDTEXTSTYLE0
 73
     1
 44
1.0
  0
MTEXT
  5
120
330
1F
100
AcDbEntity
  8
FORMAT
100
AcDbMText
 10
557.4418360635
 20
14.3197534241
 30
0.0
 40
2.1166666667
 41
0.0
 71
     1
 72
     1
  1
2
  7
SLDTEXTSTYLE0
 73
     1
 44
1.0
  0
MTEXT
  5
121
330
1F
100
AcDbEntity
  8
FORMAT
100
AcDbMText
 10
575.2135811923
 20
14.3097390777
 30
0.0
 40
2.1166666667
 41
0.0
 71
     1
 72
     1
  1
A2
  7
SLDTEXTSTYLE0
 73
     1
 44
1.0
  0
MTEXT
  5
122
330
1F
100
AcDbEntity
  8
FORMAT
100
AcDbMText
 10
567.7935306486
 20
23.7403696931
 30
0.0
 40
2.1166666667
 41
0.0
 71
     1
 72
     1
  1
1:1
  7
SLDTEXTSTYLE0
 73
     1
 44
1.0
  0
MTEXT
  5
123
330
1F
100
AcDbEntity
  8
FORMAT
100
AcDbMText
 10
561.2188625262
 20
14.4244955189
 30
0.0
 40
2.5
 41
0.0
 71
     2
 72
     1
  1
/
  7
SLDTEXTSTYLE0
 73
     1
 44
1.0
  0
MTEXT
  5
124
330
1F
100
AcDbEntity
  8
FORMAT
100
AcDbMText
 10
555.2228552181
 20
17.9289543804
 30
0.0
 40
2.0
 41
0.0
 71
     1
 72
     1
  1
Blatt / von
  7
SLDTEXTSTYLE0
 73
     1
 44
1.0
  0
MTEXT
  5
125
330
1F
100
AcDbEntity
  8
FORMAT
100
AcDbMText
 10
479.3201484029
 20
51.7452513937
 30
0.0
 40
2.0
 41
0.0
 71
     1
 72
     1
  1
Benennung:
  7
SLDTEXTSTYLE0
 73
     1
 44
1.0
  0
MTEXT
  5
126
330
1F
100
AcDbEntity
  8
FORMAT
100
AcDbMText
 10
572.5728183857
 20
17.9289543804
 30
0.0
 40
2.0
 41
0.0
 71
     1
 72
     1
  1
Format
  7
SLDTEXTSTYLE0
 73
     1
 44
1.0
  0
MTEXT
  5
127
330
1F
100
AcDbEntity
  8
FORMAT
100
AcDbMText
 10
553.9012852158
 20
23.6119228032
 30
0.0
 40
2.0
 41
0.0
 71
     1
 72
     1
  1
Maßstab:
  7
SLDTEXTSTYLE0
 73
     1
 44
1.0
  0
MTEXT
  5
128
330
1F
100
AcDbEntity
  8
FORMAT
100
AcDbMText
 10
544.9125245099
 20
30.055540019
 30
0.0
 40
2.5
 41
0.0
 71
     1
 72
     1
  1
a
  7
SLDTEXTSTYLE3
 73
     1
 44
1.0
  0
MTEXT
  5
129
330
1F
100
AcDbEntity
  8
FORMAT
100
AcDbMText
 10
479.0530809004
 20
40.1412111551
 30
0.0
 40
2.5
 41
0.0
 71
     1
 72
     1
  1
Aufnahmeelemente OBX-31XX-3D
  7
SLDTEXTSTYLE3
 73
     1
 44
1.0
  0
MTEXT
  5
12A
330
1F
100
AcDbEntity
  8
FORMAT
100
AcDbMText
 10
479.0811759552
 20
43.5764214053
 30
0.0
 40
2.5
 41
0.0
 71
     1
 72
     1
  1
Funktionsblock A
  7
SLDTEXTSTYLE3
 73
     1
 44
1.0
  0
MTEXT
  5
12B
330
1F
100
AcDbEntity
  8
FORMAT
100
AcDbMText
 10
479.0811759552
 20
48.1721199954
 30
0.0
 40
3.5
 41
0.0
 71
     1
 72
     1
  1
Zusammenbau
  7
SLDTEXTSTYLE3
 73
     1
 44
1.0
  0
INSERT
  5
138
330
1F
100
AcDbEntity
  8
FORMAT
100
AcDbBlockReference
  2
SW_NOTE_0_8
 10
477.3563365029
 20
81.8756277673
 30
0.0
  0
ARC
  5
139
330
1F
100
AcDbEntity
  8
0
  6
Continuous
 62
     7
370
    25
100
AcDbCircle
 10
135.8574650618
 20
325.2576498799
 30
0.0
 40
1.0
100
AcDbArc
 50
0.0
 51
90.0
  0
ARC
  5
13A
330
1F
100
AcDbEntity
  8
0
  6
Continuous
 62
     7
370
    25
100
AcDbCircle
 10
135.8574650618
 20
234.2576498799
 30
0.0
 40
1.0
100
AcDbArc
 50
270.0
 51
0.0
  0
LINE
  5
13B
330
1F
100
AcDbEntity
  8
0
  6
Continuous
 62
     7
370
    25
100
AcDbLine
 10
134.5241317285
 20
326.2576498799
 30
0.0
 11
135.8574650618
 21
326.2576498799
 31
0.0
  0
LINE
  5
13C
330
1F
100
AcDbEntity
  8
0
  6
Continuous
 62
     7
370
    25
100
AcDbLine
 10
135.8574650618
 20
233.2576498799
 30
0.0
 11
134.5241317285
 21
233.2576498799
 31
0.0
  0
LINE
  5
13D
330
1F
100
AcDbEntity
  8
0
  6
Continuous
 62
     7
370
    25
100
AcDbLine
 10
142.8574650618
 20
343.7576498799
 30
0.0
 11
140.8574650618
 21
343.7576498799
 31
0.0
  0
LINE
  5
13E
330
1F
100
AcDbEntity
  8
0
  6
Continuous
 62
     7
370
    25
100
AcDbLine
 10
132.8574650618
 20
343.7576498799
 30
0.0
 11
127.8574650618
 21
343.7576498799
 31
0.0
  0
LINE
  5
13F
330
1F
100
AcDbEntity
  8
0
  6
Continuous
 62
     7
370
    25
100
AcDbLine
 10
127.8574650618
 20
327.7576498799
 30
0.0
 11
130.7167300278
 21
327.7576498799
 31
0.0
  0
LINE
  5
140
330
1F
100
AcDbEntity
  8
0
  6
Continuous
 62
     7
370
    25
100
AcDbLine
 10
140.8574650618
 20
327.7576498799
 30
0.0
 11
142.8574650618
 21
327.7576498799
 31
0.0
  0
LINE
  5
141
330
1F
100
AcDbEntity
  8
0
  6
Continuous
 62
     7
370
    25
100
AcDbLine
 10
127.8574650618
 20
343.7576498799
 30
0.0
 11
126.3574650618
 21
342.2576498799
 31
0.0
  0
LINE
  5
142
330
1F
100
AcDbEntity
  8
0
  6
Continuous
 62
     7
370
    25
100
AcDbLine
 10
126.3574650618
 20
329.2576498799
 30
0.0
 11
127.8574650618
 21
327.7576498799
 31
0.0
  0
LINE
  5
143
330
1F
100
AcDbEntity
  8
0
  6
Continuous
 62
     7
370
    25
100
AcDbLine
 10
142.8574650618
 20
327.7576498799
 30
0.0
 11
144.3574650618
 21
329.2576498799
 31
0.0
  0
LINE
  5
144
330
1F
100
AcDbEntity
  8
0
  6
Continuous
 62
     7
370
    25
100
AcDbLine
 10
144.3574650618
 20
342.2576498799
 30
0.0
 11
142.8574650618
 21
343.7576498799
 31
0.0
  0
LINE
  5
145
330
1F
100
AcDbEntity
  8
0
  6
Continuous
 62
     7
370
    25
100
AcDbLine
 10
147.6074650618
 20
340.7576498799
 30
0.0
 11
144.3574650618
 21
340.7576498799
 31
0.0
  0
LINE
  5
146
330
1F
100
AcDbEntity
  8
0
  6
Continuous
 62
     7
370
    25
100
AcDbLine
 10
144.3574650618
 20
330.7576498799
 30
0.0
 11
147.6074650618
 21
330.7576498799
 31
0.0
  0
LINE
  5
147
330
1F
100
AcDbEntity
  8
0
  6
Continuous
 62
     7
370
    25
100
AcDbLine
 10
142.8574650618
 20
215.7576498799
 30
0.0
 11
144.3574650618
 21
217.2576498799
 31
0.0
  0
LINE
  5
148
330
1F
100
AcDbEntity
  8
0
  6
Continuous
 62
     7
370
    25
100
AcDbLine
 10
144.3574650618
 20
230.2576498799
 30
0.0
 11
142.8574650618
 21
231.7576498799
 31
0.0
  0
LINE
  5
149
330
1F
100
AcDbEntity
  8
0
  6
Continuous
 62
     7
370
    25
100
AcDbLine
 10
142.8574650618
 20
231.7576498799
 30
0.0
 11
140.8574650618
 21
231.7576498799
 31
0.0
  0
LINE
  5
14A
330
1F
100
AcDbEntity
  8
0
  6
Continuous
 62
     7
370
    25
100
AcDbLine
 10
130.7167300278
 20
231.7576498799
 30
0.0
 11
127.8574650618
 21
231.7576498799
 31
0.0
  0
LINE
  5
14B
330
1F
100
AcDbEntity
  8
0
  6
Continuous
 62
     7
370
    25
100
AcDbLine
 10
127.8574650618
 20
215.7576498799
 30
0.0
 11
132.8574650618
 21
215.7576498799
 31
0.0
  0
LINE
  5
14C
330
1F
100
AcDbEntity
  8
0
  6
Continuous
 62
     7
370
    25
100
AcDbLine
 10
140.8574650618
 20
215.7576498799
 30
0.0
 11
142.8574650618
 21
215.7576498799
 31
0.0
  0
LINE
  5
14D
330
1F
100
AcDbEntity
  8
0
  6
Continuous
 62
     7
370
    25
100
AcDbLine
 10
127.8574650618
 20
231.7576498799
 30
0.0
 11
126.3574650618
 21
230.2576498799
 31
0.0
  0
LINE
  5
14E
330
1F
100
AcDbEntity
  8
0
  6
Continuous
 62
     7
370
    25
100
AcDbLine
 10
126.3574650618
 20
217.2576498799
 30
0.0
 11
127.8574650618
 21
215.7576498799
 31
0.0
  0
LINE
  5
14F
330
1F
100
AcDbEntity
  8
0
  6
Continuous
 62
     7
370
    25
100
AcDbLine
 10
147.6074650618
 20
228.7576498799
 30
0.0
 11
144.3574650618
 21
228.7576498799
 31
0.0
  0
LINE
  5
150
330
1F
100
AcDbEntity
  8
0
  6
Continuous
 62
     7
370
    25
100
AcDbLine
 10
144.3574650618
 20
218.7576498799
 30
0.0
 11
147.6074650618
 21
218.7576498799
 31
0.0
  0
LWPOLYLINE
  5
151
330
1F
100
AcDbEntity
  8
0
  6
Continuous
 62
     7
370
    25
100
AcDbPolyline
 90
        7
 70
   128
 43
0.0
 10
123.3574650618
 20
211.7576498799
 10
123.4242435881
 20
211.2117607227
 10
123.6383118575
 20
210.6533657512
 10
124.0094830169
 20
210.1160206198
 10
124.529037937
 20
209.6363295363
 10
125.8850862235
 20
208.9682849767
 10
127.3574650618
 20
208.7576498799
  0
LWPOLYLINE
  5
152
330
1F
100
AcDbEntity
  8
0
  6
Continuous
 62
     7
370
    25
100
AcDbPolyline
 90
        7
 70
   128
 43
0.0
 10
127.3574650618
 20
350.7576498799
 10
125.8850862235
 20
350.5470147831
 10
124.529037937
 20
349.8789702235
 10
124.0094830169
 20
349.3992791401
 10
123.6383118575
 20
348.8619340086
 10
123.4242435881
 20
348.3035390371
 10
123.3574650618
 20
347.7576498799
  0
LINE
  5
153
330
1F
100
AcDbEntity
  8
0
  6
Continuous
 62
     7
370
    25
100
AcDbLine
 10
144.3574650618
 20
369.7576498799
 30
0.0
 11
141.3574650618
 21
369.7576498799
 31
0.0
  0
LINE
  5
154
330
1F
100
AcDbEntity
  8
0
  6
Continuous
 62
     7
370
    25
100
AcDbLine
 10
141.3574650618
 20
189.7576498799
 30
0.0
 11
144.3574650618
 21
189.7576498799
 31
0.0
  0
ARC
  5
155
330
1F
100
AcDbEntity
  8
0
  6
Continuous
 62
     7
370
    25
100
AcDbCircle
 10
140.3574650618
 20
351.7576498799
 30
0.0
 40
1.0
100
AcDbArc
 50
270.0
 51
0.0
  0
ARC
  5
156
330
1F
100
AcDbEntity
  8
0
  6
Continuous
 62
     7
370
    25
100
AcDbCircle
 10
140.3574650618
 20
207.7576498799
 30
0.0
 40
1.0
100
AcDbArc
 50
0.0
 51
90.0
  0
LINE
  5
157
330
1F
100
AcDbEntity
  8
0
  6
Continuous
 62
     7
370
    25
100
AcDbLine
 10
127.3423434126
 20
208.7576498799
 30
0.0
 11
140.3574650618
 21
208.7576498799
 31
0.0
  0
LINE
  5
158
330
1F
100
AcDbEntity
  8
0
  6
Continuous
 62
     7
370
    25
100
AcDbLine
 10
140.3574650618
 20
350.7576498799
 30
0.0
 11
127.3574650618
 21
350.7576498799
 31
0.0
  0
LINE
  5
159
330
1F
100
AcDbEntity
  8
0
  6
Continuous
 62
     7
370
    25
100
AcDbLine
 10
140.8574650618
 20
274.7576498799
 30
0.0
 11
145.2574650618
 21
275.1425999994
 31
0.0
  0
LINE
  5
15A
330
1F
100
AcDbEntity
  8
0
  6
Continuous
 62
     7
370
    25
100
AcDbLine
 10
145.2574650618
 20
284.3726997604
 30
0.0
 11
140.8574650618
 21
284.7576498799
 31
0.0
  0
LINE
  5
15B
330
1F
100
AcDbEntity
  8
0
  6
Continuous
 62
     7
370
    25
100
AcDbLine
 10
129.3574650618
 20
276.7576498799
 30
0.0
 11
129.8574650618
 21
276.7576498799
 31
0.0
  0
LINE
  5
15C
330
1F
100
AcDbEntity
  8
0
  6
Continuous
 62
     7
370
    25
100
AcDbLine
 10
133.8574650618
 20
276.7576498799
 30
0.0
 11
136.8574650618
 21
276.7576498799
 31
0.0
  0
LINE
  5
15D
330
1F
100
AcDbEntity
  8
0
  6
Continuous
 62
     7
370
    25
100
AcDbLine
 10
136.8574650618
 20
282.7576498799
 30
0.0
 11
133.8574650618
 21
282.7576498799
 31
0.0
  0
LINE
  5
15E
330
1F
100
AcDbEntity
  8
0
  6
Continuous
 62
     7
370
    25
100
AcDbLine
 10
129.8574650618
 20
282.7576498799
 30
0.0
 11
129.3574650618
 21
282.7576498799
 31
0.0
  0
LINE
  5
15F
330
1F
100
AcDbEntity
  8
0
  6
Continuous
 62
     7
370
    25
100
AcDbLine
 10
129.3574650618
 20
282.7576498799
 30
0.0
 11
128.8574650618
 21
282.2576498799
 31
0.0
  0
LINE
  5
160
330
1F
100
AcDbEntity
  8
0
  6
Continuous
 62
     7
370
    25
100
AcDbLine
 10
128.8574650618
 20
277.2576498799
 30
0.0
 11
129.3574650618
 21
276.7576498799
 31
0.0
  0
LINE
  5
161
330
1F
100
AcDbEntity
  8
0
  6
Continuous
 62
     7
370
    25
100
AcDbLine
 10
140.8574650618
 20
246.7576498799
 30
0.0
 11
145.2574650618
 21
247.1425999994
 31
0.0
  0
LINE
  5
162
330
1F
100
AcDbEntity
  8
0
  6
Continuous
 62
     7
370
    25
100
AcDbLine
 10
145.2574650618
 20
256.3726997604
 30
0.0
 11
140.8574650618
 21
256.7576498799
 31
0.0
  0
LINE
  5
163
330
1F
100
AcDbEntity
  8
0
  6
Continuous
 62
     7
370
    25
100
AcDbLine
 10
129.3574650618
 20
254.7576498799
 30
0.0
 11
128.8574650618
 21
254.2576498799
 31
0.0
  0
LINE
  5
164
330
1F
100
AcDbEntity
  8
0
  6
Continuous
 62
     7
370
    25
100
AcDbLine
 10
128.8574650618
 20
249.2576498799
 30
0.0
 11
129.3574650618
 21
248.7576498799
 31
0.0
  0
LINE
  5
165
330
1F
100
AcDbEntity
  8
0
  6
Continuous
 62
     7
370
    25
100
AcDbLine
 10
129.3574650618
 20
248.7576498799
 30
0.0
 11
129.8574650618
 21
248.7576498799
 31
0.0
  0
LINE
  5
166
330
1F
100
AcDbEntity
  8
0
  6
Continuous
 62
     7
370
    25
100
AcDbLine
 10
133.8574650618
 20
248.7576498799
 30
0.0
 11
136.8574650618
 21
248.7576498799
 31
0.0
  0
LINE
  5
167
330
1F
100
AcDbEntity
  8
0
  6
Continuous
 62
     7
370
    25
100
AcDbLine
 10
136.8574650618
 20
254.7576498799
 30
0.0
 11
133.8574650618
 21
254.7576498799
 31
0.0
  0
LINE
  5
168
330
1F
100
AcDbEntity
  8
0
  6
Continuous
 62
     7
370
    25
100
AcDbLine
 10
129.8574650618
 20
254.7576498799
 30
0.0
 11
129.3574650618
 21
254.7576498799
 31
0.0
  0
LINE
  5
169
330
1F
100
AcDbEntity
  8
0
  6
Continuous
 62
     7
370
    25
100
AcDbLine
 10
140.8574650618
 20
302.7576498799
 30
0.0
 11
145.2574650618
 21
303.1425999994
 31
0.0
  0
LINE
  5
16A
330
1F
100
AcDbEntity
  8
0
  6
Continuous
 62
     7
370
    25
100
AcDbLine
 10
145.2574650618
 20
312.3726997604
 30
0.0
 11
140.8574650618
 21
312.7576498799
 31
0.0
  0
LINE
  5
16B
330
1F
100
AcDbEntity
  8
0
  6
Continuous
 62
     7
370
    25
100
AcDbLine
 10
129.3574650618
 20
310.7576498799
 30
0.0
 11
128.8574650618
 21
310.2576498799
 31
0.0
  0
LINE
  5
16C
330
1F
100
AcDbEntity
  8
0
  6
Continuous
 62
     7
370
    25
100
AcDbLine
 10
128.8574650618
 20
305.2576498799
 30
0.0
 11
129.3574650618
 21
304.7576498799
 31
0.0
  0
LINE
  5
16D
330
1F
100
AcDbEntity
  8
0
  6
Continuous
 62
     7
370
    25
100
AcDbLine
 10
129.3574650618
 20
304.7576498799
 30
0.0
 11
129.8574650618
 21
304.7576498799
 31
0.0
  0
LINE
  5
16E
330
1F
100
AcDbEntity
  8
0
  6
Continuous
 62
     7
370
    25
100
AcDbLine
 10
133.8574650618
 20
304.7576498799
 30
0.0
 11
136.8574650618
 21
304.7576498799
 31
0.0
  0
LINE
  5
16F
330
1F
100
AcDbEntity
  8
0
  6
Continuous
 62
     7
370
    25
100
AcDbLine
 10
136.8574650618
 20
310.7576498799
 30
0.0
 11
133.8574650618
 21
310.7576498799
 31
0.0
  0
LINE
  5
170
330
1F
100
AcDbEntity
  8
0
  6
Continuous
 62
     7
370
    25
100
AcDbLine
 10
129.8574650618
 20
310.7576498799
 30
0.0
 11
129.3574650618
 21
310.7576498799
 31
0.0
  0
LINE
  5
171
330
1F
100
AcDbEntity
  8
0
  6
Continuous
 62
     7
370
    25
100
AcDbLine
 10
136.8574650618
 20
223.7576498799
 30
0.0
 11
136.8574650618
 21
335.7576498799
 31
0.0
  0
LINE
  5
172
330
1F
100
AcDbEntity
  8
0
  6
Continuous
 62
     7
370
    25
100
AcDbLine
 10
140.8574650618
 20
223.7576498799
 30
0.0
 11
140.8574650618
 21
335.7576498799
 31
0.0
  0
LINE
  5
173
330
1F
100
AcDbEntity
  8
0
  6
Continuous
 62
     7
370
    25
100
AcDbLine
 10
136.8574650618
 20
335.7576498799
 30
0.0
 11
136.8574650618
 21
343.9323256664
 31
0.0
  0
LINE
  5
174
330
1F
100
AcDbEntity
  8
0
  6
Continuous
 62
     7
370
    25
100
AcDbLine
 10
140.8574650618
 20
335.7576498799
 30
0.0
 11
140.8574650618
 21
344.0110859065
 31
0.0
  0
LINE
  5
175
330
1F
100
AcDbEntity
  8
0
  6
Continuous
 62
     7
370
    25
100
AcDbLine
 10
140.8574650618
 20
215.4514228693
 30
0.0
 11
140.8574650618
 21
223.7576498799
 31
0.0
  0
LINE
  5
176
330
1F
100
AcDbEntity
  8
0
  6
Continuous
 62
     7
370
    25
100
AcDbLine
 10
136.8574650618
 20
215.5829740935
 30
0.0
 11
136.8574650618
 21
223.7576498799
 31
0.0
  0
LINE
  5
177
330
1F
100
AcDbEntity
  8
0
  6
Continuous
 62
     7
370
    25
100
AcDbLine
 10
132.8574650618
 20
330.9687524308
 30
0.0
 11
132.8574650618
 21
343.9323256664
 31
0.0
  0
LINE
  5
178
330
1F
100
AcDbEntity
  8
0
  6
Continuous
 62
     7
370
    25
100
AcDbLine
 10
132.8574650618
 20
223.7576498799
 30
0.0
 11
132.8574650618
 21
228.546547329
 31
0.0
  0
LINE
  5
179
330
1F
100
AcDbEntity
  8
0
  6
Continuous
 62
     7
370
    25
100
AcDbLine
 10
132.8574650618
 20
215.5829740935
 30
0.0
 11
132.8574650618
 21
223.7576498799
 31
0.0
  0
LINE
  5
17A
330
1F
100
AcDbEntity
  8
0
  6
Continuous
 62
     7
370
    25
100
AcDbLine
 10
127.8574650618
 20
343.7576498799
 30
0.0
 11
127.8574650618
 21
327.7576498799
 31
0.0
  0
LINE
  5
17B
330
1F
100
AcDbEntity
  8
0
  6
Continuous
 62
     7
370
    25
100
AcDbLine
 10
142.8574650618
 20
343.7576498799
 30
0.0
 11
142.8574650618
 21
327.7576498799
 31
0.0
  0
LINE
  5
17C
330
1F
100
AcDbEntity
  8
0
  6
Continuous
 62
     7
370
    25
100
AcDbLine
 10
144.3574650618
 20
342.2576498799
 30
0.0
 11
144.3574650618
 21
329.2576498799
 31
0.0
  0
LINE
  5
17D
330
1F
100
AcDbEntity
  8
0
  6
Continuous
 62
     7
370
    25
100
AcDbLine
 10
147.6074650618
 20
340.7576498799
 30
0.0
 11
147.6074650618
 21
330.7576498799
 31
0.0
  0
LINE
  5
17E
330
1F
100
AcDbEntity
  8
0
  6
Continuous
 62
     7
370
    25
100
AcDbLine
 10
142.8574650618
 20
231.7576498799
 30
0.0
 11
142.8574650618
 21
215.7576498799
 31
0.0
  0
LINE
  5
17F
330
1F
100
AcDbEntity
  8
0
  6
Continuous
 62
     7
370
    25
100
AcDbLine
 10
144.3574650618
 20
230.2576498799
 30
0.0
 11
144.3574650618
 21
217.2576498799
 31
0.0
  0
LINE
  5
180
330
1F
100
AcDbEntity
  8
0
  6
Continuous
 62
     7
370
    25
100
AcDbLine
 10
127.8574650618
 20
231.7576498799
 30
0.0
 11
127.8574650618
 21
215.7576498799
 31
0.0
  0
LINE
  5
181
330
1F
100
AcDbEntity
  8
0
  6
Continuous
 62
     7
370
    25
100
AcDbLine
 10
147.6074650618
 20
228.7576498799
 30
0.0
 11
147.6074650618
 21
218.7576498799
 31
0.0
  0
LINE
  5
182
330
1F
100
AcDbEntity
  8
0
  6
Continuous
 62
     7
370
    25
100
AcDbLine
 10
123.3574650618
 20
220.761370901
 30
0.0
 11
123.3574650618
 21
211.7576498799
 31
0.0
  0
LWPOLYLINE
  5
183
330
1F
100
AcDbEntity
  8
0
  6
Continuous
 62
     7
370
    25
100
AcDbPolyline
 90
       12
 70
   128
 43
0.0
 10
127.3574650618
 20
212.8204283872
 10
126.1270112545
 20
213.0420828518
 10
125.5603522753
 20
213.3123994832
 10
125.0469301708
 20
213.6813283826
 10
124.2692350795
 20
214.5966560155
 10
123.9733120295
 20
215.1598651693
 10
123.7393386432
 20
215.7934378814
 10
123.5212722041
 20
216.757596711
 10
123.4125002229
 20
217.7318694283
 10
123.3696166163
 20
218.7025169454
 10
123.3585235698
 20
219.6639699377
 10
123.3574651621
 20
220.761370901
  0
LWPOLYLINE
  5
184
330
1F
100
AcDbEntity
  8
0
  6
Continuous
 62
     7
370
    25
100
AcDbPolyline
 90
       12
 70
   128
 43
0.0
 10
127.3574650618
 20
346.6948713733
 10
126.1272175252
 20
346.4732937415
 10
125.5608665824
 20
346.2032046917
 10
125.0472652425
 20
345.8342592175
 10
124.2696939314
 20
344.9194000583
 10
123.9737093772
 20
344.3562790373
 10
123.7395922239
 20
343.7226970553
 10
123.5214558234
 20
342.7588076468
 10
123.4125796762
 20
341.7845329794
 10
123.3696353093
 20
340.8136656466
 10
123.3585249571
 20
339.8518194997
 10
123.3574651621
 20
338.7539288588
  0
LINE
  5
185
330
1F
100
AcDbEntity
  8
0
  6
Continuous
 62
     7
370
    25
100
AcDbLine
 10
123.3574650618
 20
338.7539288588
 30
0.0
 11
123.3574650618
 21
347.7576498799
 31
0.0
  0
LINE
  5
186
330
1F
100
AcDbEntity
  8
0
  6
Continuous
 62
     7
370
    25
100
AcDbLine
 10
126.3574650618
 20
224.6576498799
 30
0.0
 11
126.3574650618
 21
221.7576498799
 31
0.0
  0
LINE
  5
187
330
1F
100
AcDbEntity
  8
0
  6
Continuous
 62
     7
370
    25
100
AcDbLine
 10
123.3574650618
 20
221.7576498799
 30
0.0
 11
126.3574650618
 21
221.7576498799
 31
0.0
  0
LINE
  5
188
330
1F
100
AcDbEntity
  8
0
  6
Continuous
 62
     7
370
    25
100
AcDbLine
 10
123.3574650618
 20
221.7576498799
 30
0.0
 11
123.3574650618
 21
224.6576498799
 31
0.0
  0
LINE
  5
189
330
1F
100
AcDbEntity
  8
0
  6
Continuous
 62
     7
370
    25
100
AcDbLine
 10
123.3574650618
 20
224.6576498799
 30
0.0
 11
126.3574650618
 21
224.6576498799
 31
0.0
  0
LINE
  5
18A
330
1F
100
AcDbEntity
  8
0
  6
Continuous
 62
     7
370
    25
100
AcDbLine
 10
123.3574650618
 20
334.8576498799
 30
0.0
 11
123.3574650618
 21
224.6576498799
 31
0.0
  0
LINE
  5
18B
330
1F
100
AcDbEntity
  8
0
  6
Continuous
 62
     7
370
    25
100
AcDbLine
 10
126.3574650618
 20
334.8576498799
 30
0.0
 11
123.3574650618
 21
334.8576498799
 31
0.0
  0
LINE
  5
18C
330
1F
100
AcDbEntity
  8
0
  6
Continuous
 62
     7
370
    25
100
AcDbLine
 10
126.3574650618
 20
224.6576498799
 30
0.0
 11
126.3574650618
 21
334.8576498799
 31
0.0
  0
LINE
  5
18D
330
1F
100
AcDbEntity
  8
0
  6
Continuous
 62
     7
370
    25
100
AcDbLine
 10
144.3574650618
 20
200.2116873965
 30
0.0
 11
141.3574650618
 21
200.2116873965
 31
0.0
  0
LINE
  5
18E
330
1F
100
AcDbEntity
  8
0
  6
Continuous
 62
     7
370
    25
100
AcDbLine
 10
141.3574650618
 20
200.2116873965
 30
0.0
 11
141.3574650618
 21
208.8576498799
 31
0.0
  0
LINE
  5
18F
330
1F
100
AcDbEntity
  8
0
  6
Continuous
 62
     7
370
    25
100
AcDbLine
 10
144.3574650618
 20
208.8576498799
 30
0.0
 11
141.3574650618
 21
208.8576498799
 31
0.0
  0
LINE
  5
190
330
1F
100
AcDbEntity
  8
0
  6
Continuous
 62
     7
370
    25
100
AcDbLine
 10
144.3574650618
 20
200.2116873965
 30
0.0
 11
144.3574650618
 21
208.8576498799
 31
0.0
  0
LINE
  5
191
330
1F
100
AcDbEntity
  8
0
  6
Continuous
 62
     7
370
    25
100
AcDbLine
 10
144.3574650618
 20
359.3036123633
 30
0.0
 11
144.3574650618
 21
350.6576498799
 31
0.0
  0
LINE
  5
192
330
1F
100
AcDbEntity
  8
0
  6
Continuous
 62
     7
370
    25
100
AcDbLine
 10
141.3574650618
 20
350.6576498799
 30
0.0
 11
144.3574650618
 21
350.6576498799
 31
0.0
  0
LINE
  5
193
330
1F
100
AcDbEntity
  8
0
  6
Continuous
 62
     7
370
    25
100
AcDbLine
 10
141.3574650618
 20
359.3036123633
 30
0.0
 11
141.3574650618
 21
350.6576498799
 31
0.0
  0
LINE
  5
194
330
1F
100
AcDbEntity
  8
0
  6
Continuous
 62
     7
370
    25
100
AcDbLine
 10
141.3574650618
 20
359.3036123633
 30
0.0
 11
144.3574650618
 21
359.3036123633
 31
0.0
  0
LINE
  5
195
330
1F
100
AcDbEntity
  8
0
  6
Continuous
 62
     7
370
    25
100
AcDbLine
 10
141.3574650618
 20
369.7576498799
 30
0.0
 11
141.3574650618
 21
359.3036123633
 31
0.0
  0
LINE
  5
196
330
1F
100
AcDbEntity
  8
0
  6
Continuous
 62
     7
370
    25
100
AcDbLine
 10
144.3574650618
 20
369.7576498799
 30
0.0
 11
144.3574650618
 21
359.3036123633
 31
0.0
  0
LINE
  5
197
330
1F
100
AcDbEntity
  8
0
  6
Continuous
 62
     7
370
    25
100
AcDbLine
 10
141.3574650618
 20
200.2116873965
 30
0.0
 11
141.3574650618
 21
189.7576498799
 31
0.0
  0
LINE
  5
198
330
1F
100
AcDbEntity
  8
0
  6
Continuous
 62
     7
370
    25
100
AcDbLine
 10
144.3574650618
 20
200.2116873965
 30
0.0
 11
144.3574650618
 21
189.7576498799
 31
0.0
  0
LINE
  5
199
330
1F
100
AcDbEntity
  8
0
  6
Continuous
 62
     7
370
    25
100
AcDbLine
 10
123.3574650618
 20
337.7576498799
 30
0.0
 11
126.3574650618
 21
337.7576498799
 31
0.0
  0
LINE
  5
19A
330
1F
100
AcDbEntity
  8
0
  6
Continuous
 62
     7
370
    25
100
AcDbLine
 10
126.3574650618
 20
337.7576498799
 30
0.0
 11
126.3574650618
 21
334.8576498799
 31
0.0
  0
LINE
  5
19B
330
1F
100
AcDbEntity
  8
0
  6
Continuous
 62
     7
370
    25
100
AcDbLine
 10
123.3574650618
 20
334.8576498799
 30
0.0
 11
123.3574650618
 21
337.7576498799
 31
0.0
  0
LINE
  5
19C
330
1F
100
AcDbEntity
  8
0
  6
Continuous
 62
     7
370
    25
100
AcDbLine
 10
144.2040764829
 20
347.7576498799
 30
0.0
 11
144.3574650618
 21
348.542921875
 31
0.0
  0
LINE
  5
19D
330
1F
100
AcDbEntity
  8
0
  6
Continuous
 62
     7
370
    25
100
AcDbLine
 10
141.3197402799
 20
347.7576498799
 30
0.0
 11
144.2040764829
 21
347.7576498799
 31
0.0
  0
ARC
  5
19E
330
1F
100
AcDbEntity
  8
0
  6
Continuous
 62
     7
370
    25
100
AcDbCircle
 10
140.8406618274
 20
347.951483595
 30
0.0
 40
0.5168052560433289
100
AcDbArc
 50
337.9718907544
 51
359.8397373569
  0
LINE
  5
19F
330
1F
100
AcDbEntity
  8
0
  6
Continuous
 62
     7
370
    25
100
AcDbLine
 10
141.3574650618
 20
347.9500380353
 30
0.0
 11
141.3574650618
 21
350.6576498799
 31
0.0
  0
LINE
  5
1A0
330
1F
100
AcDbEntity
  8
0
  6
Continuous
 62
     7
370
    25
100
AcDbLine
 10
144.3574650618
 20
348.542921875
 30
0.0
 11
144.3574650618
 21
350.6576498799
 31
0.0
  0
ARC
  5
1A1
330
1F
100
AcDbEntity
  8
0
  6
Continuous
 62
     7
370
    25
100
AcDbCircle
 10
140.8406618275
 20
211.5638161648
 30
0.0
 40
0.5168052560048075
100
AcDbArc
 50
0.160262642
 51
22.0281092461
  0
LINE
  5
1A2
330
1F
100
AcDbEntity
  8
0
  6
Continuous
 62
     7
370
    25
100
AcDbLine
 10
141.3197402799
 20
211.7576498799
 30
0.0
 11
144.2040764829
 21
211.7576498799
 31
0.0
  0
LWPOLYLINE
  5
1A3
330
1F
100
AcDbEntity
  8
0
  6
Continuous
 62
     7
370
    25
100
AcDbPolyline
 90
        3
 70
   128
 43
0.0
 10
144.3574650618
 20
210.9723778848
 10
144.3260242699
 20
211.3304901431
 10
144.2040764829
 20
211.7576498799
  0
LINE
  5
1A4
330
1F
100
AcDbEntity
  8
0
  6
Continuous
 62
     7
370
    25
100
AcDbLine
 10
144.3574650618
 20
210.9723778848
 30
0.0
 11
144.3574650618
 21
208.8576498799
 31
0.0
  0
LINE
  5
1A5
330
1F
100
AcDbEntity
  8
0
  6
Continuous
 62
     7
370
    25
100
AcDbLine
 10
141.3574650618
 20
211.5652617245
 30
0.0
 11
141.3574650618
 21
208.8576498799
 31
0.0
  0
ARC
  5
1A6
330
1F
100
AcDbEntity
  8
0
  6
Continuous
 62
     7
370
    25
100
AcDbCircle
 10
139.6900088372
 20
348.450166321
 30
0.0
 40
4.566879211355313
100
AcDbArc
 50
278.4040009176
 51
351.2780860885
  0
ARC
  5
1A7
330
1F
100
AcDbEntity
  8
0
  6
Continuous
 62
     7
370
    25
100
AcDbCircle
 10
139.8823369993
 20
211.25853173
 30
0.0
 40
4.350465617795875
100
AcDbArc
 50
6.5879093233
 51
83.7300036764
  0
ARC
  5
1A8
330
1F
100
AcDbEntity
  8
0
  6
Continuous
 62
     7
370
    25
100
AcDbCircle
 10
140.1714733364
 20
347.8303365046
 30
0.0
 40
1.150565217101429
100
AcDbArc
 50
279.3028253281
 51
356.3779436798
  0
ARC
  5
1A9
330
1F
100
AcDbEntity
  8
0
  6
Continuous
 62
     7
370
    25
100
AcDbCircle
 10
140.1925884601
 20
211.7040821782
 30
0.0
 40
1.12842399988834
100
AcDbArc
 50
2.7209250661
 51
81.5983059257
  0
LWPOLYLINE
  5
1AA
330
1F
100
AcDbEntity
  8
0
  6
Continuous
 62
     7
370
    25
100
AcDbPolyline
 90
        7
 70
   128
 43
0.0
 10
126.3574650618
 20
217.0987393483
 10
126.3612108695
 20
216.9606397259
 10
126.4910237296
 20
216.3214861928
 10
126.7034748923
 20
215.9376819166
 10
126.9408451848
 20
215.7145072503
 10
127.1779662783
 20
215.6063945561
 10
127.3574650618
 20
215.5829740935
  0
LINE
  5
1AB
330
1F
100
AcDbEntity
  8
0
  6
Continuous
 62
     7
370
    25
100
AcDbLine
 10
127.3574650618
 20
215.5829740935
 30
0.0
 11
140.3574678618
 21
215.5829740935
 31
0.0
  0
LINE
  5
1AC
330
1F
100
AcDbEntity
  8
0
  6
Continuous
 62
     7
370
    25
100
AcDbLine
 10
127.3574650618
 20
212.8203959467
 30
0.0
 11
140.3574650618
 21
212.8203959467
 31
0.0
  0
LINE
  5
1AD
330
1F
100
AcDbEntity
  8
0
  6
Continuous
 62
     7
370
    25
100
AcDbLine
 10
126.3574650618
 20
221.7576498799
 30
0.0
 11
126.3574650618
 21
217.0987393483
 31
0.0
  0
LINE
  5
1AE
330
1F
100
AcDbEntity
  8
0
  6
Continuous
 62
     7
370
    25
100
AcDbLine
 10
123.3574650618
 20
220.761370901
 30
0.0
 11
123.3574650618
 21
221.7576498799
 31
0.0
  0
LINE
  5
1AF
330
1F
100
AcDbEntity
  8
0
  6
Continuous
 62
     7
370
    25
100
AcDbLine
 10
140.3574678622
 20
343.9323256664
 30
0.0
 11
127.3574650618
 21
343.9323256664
 31
0.0
  0
LWPOLYLINE
  5
1B0
330
1F
100
AcDbEntity
  8
0
  6
Continuous
 62
     7
370
    25
100
AcDbPolyline
 90
        7
 70
   128
 43
0.0
 10
127.3574650618
 20
343.9323256664
 10
127.3242207192
 20
343.9315291538
 10
127.0648014698
 20
343.8691133905
 10
126.8420196743
 20
343.724853194
 10
126.6011738435
 20
343.426213485
 10
126.4062530825
 20
342.9023586706
 10
126.3574650618
 20
342.4165604115
  0
LINE
  5
1B1
330
1F
100
AcDbEntity
  8
0
  6
Continuous
 62
     7
370
    25
100
AcDbLine
 10
127.3574650618
 20
346.6949038131
 30
0.0
 11
140.3574650618
 21
346.6949038131
 31
0.0
  0
LINE
  5
1B2
330
1F
100
AcDbEntity
  8
0
  6
Continuous
 62
     7
370
    25
100
AcDbLine
 10
126.3574650618
 20
342.4165604115
 30
0.0
 11
126.3574650618
 21
337.7576498799
 31
0.0
  0
LINE
  5
1B3
330
1F
100
AcDbEntity
  8
0
  6
Continuous
 62
     7
370
    25
100
AcDbLine
 10
123.3574650618
 20
337.7576498799
 30
0.0
 11
123.3574650618
 21
338.7539288588
 31
0.0
  0
LINE
  5
1B4
330
1F
100
AcDbEntity
  8
0
  6
Continuous
 62
     7
370
    25
100
AcDbLine
 10
145.2574650618
 20
275.1425999994
 30
0.0
 11
145.2574650618
 21
284.3726997604
 31
0.0
  0
LINE
  5
1B5
330
1F
100
AcDbEntity
  8
0
  6
Continuous
 62
     7
370
    25
100
AcDbLine
 10
129.3574650618
 20
282.7576498799
 30
0.0
 11
129.3574650618
 21
276.7576498799
 31
0.0
  0
LINE
  5
1B6
330
1F
100
AcDbEntity
  8
0
  6
Continuous
 62
     7
370
    25
100
AcDbLine
 10
128.8574650618
 20
277.2576498799
 30
0.0
 11
128.8574650618
 21
282.2576498799
 31
0.0
  0
LINE
  5
1B7
330
1F
100
AcDbEntity
  8
0
  6
Continuous
 62
     7
370
    25
100
AcDbLine
 10
145.2574650618
 20
247.1425999994
 30
0.0
 11
145.2574650618
 21
256.3726997604
 31
0.0
  0
LINE
  5
1B8
330
1F
100
AcDbEntity
  8
0
  6
Continuous
 62
     7
370
    25
100
AcDbLine
 10
128.8574650618
 20
249.2576498799
 30
0.0
 11
128.8574650618
 21
254.2576498799
 31
0.0
  0
LINE
  5
1B9
330
1F
100
AcDbEntity
  8
0
  6
Continuous
 62
     7
370
    25
100
AcDbLine
 10
129.3574650618
 20
254.7576498799
 30
0.0
 11
129.3574650618
 21
248.7576498799
 31
0.0
  0
LINE
  5
1BA
330
1F
100
AcDbEntity
  8
0
  6
Continuous
 62
     7
370
    25
100
AcDbLine
 10
145.2574650618
 20
311.0084176021
 30
0.0
 11
145.2574650618
 21
312.3726997604
 31
0.0
  0
LINE
  5
1BB
330
1F
100
AcDbEntity
  8
0
  6
Continuous
 62
     7
370
    25
100
AcDbLine
 10
145.2574650618
 20
303.1425999994
 30
0.0
 11
145.2574650618
 21
311.0084176021
 31
0.0
  0
LINE
  5
1BC
330
1F
100
AcDbEntity
  8
0
  6
Continuous
 62
     7
370
    25
100
AcDbLine
 10
128.8574650618
 20
309.5186101113
 30
0.0
 11
128.8574650618
 21
310.2576498799
 31
0.0
  0
LINE
  5
1BD
330
1F
100
AcDbEntity
  8
0
  6
Continuous
 62
     7
370
    25
100
AcDbLine
 10
128.8574650618
 20
305.2576498799
 30
0.0
 11
128.8574650618
 21
309.5186101113
 31
0.0
  0
LINE
  5
1BE
330
1F
100
AcDbEntity
  8
0
  6
Continuous
 62
     7
370
    25
100
AcDbLine
 10
129.3574650618
 20
309.8708021576
 30
0.0
 11
129.3574650618
 21
304.7576498799
 31
0.0
  0
LINE
  5
1BF
330
1F
100
AcDbEntity
  8
0
  6
Continuous
 62
     7
370
    25
100
AcDbLine
 10
129.3574650618
 20
310.7576498799
 30
0.0
 11
129.3574650618
 21
309.8708021576
 31
0.0
  0
ARC
  5
1C0
330
1F
100
AcDbEntity
  8
0
  6
Continuous
 62
     7
370
    25
100
AcDbCircle
 10
134.8574650618
 20
324.9548742422
 30
0.0
 40
1.0
100
AcDbArc
 50
146.309932474
 51
180.0
  0
ARC
  5
1C1
330
1F
100
AcDbEntity
  8
0
  6
Continuous
 62
     7
370
    25
100
AcDbCircle
 10
134.8574650618
 20
324.9548742422
 30
0.0
 40
5.000000000000031
100
AcDbArc
 50
146.309932474
 51
180.0
  0
LINE
  5
1C2
330
1F
100
AcDbEntity
  8
0
  6
Continuous
 62
     7
370
    25
100
AcDbLine
 10
133.5292638844
 20
331.9764506648
 30
0.0
 11
136.8574650618
 21
329.7576498799
 31
0.0
  0
LINE
  5
1C3
330
1F
100
AcDbEntity
  8
0
  6
Continuous
 62
     7
370
    25
100
AcDbLine
 10
130.6972135901
 20
327.7283752233
 30
0.0
 11
133.5292638844
 21
331.9764506648
 31
0.0
  0
LINE
  5
1C4
330
1F
100
AcDbEntity
  8
0
  6
Continuous
 62
     7
370
    25
100
AcDbLine
 10
134.0254147674
 20
325.5095744384
 30
0.0
 11
136.8574650618
 21
329.7576498799
 31
0.0
  0
LINE
  5
1C5
330
1F
100
AcDbEntity
  8
0
  6
Continuous
 62
     7
370
    25
100
AcDbLine
 10
129.8574650618
 20
234.5604255176
 30
0.0
 11
129.8574650618
 21
324.9548742422
 31
0.0
  0
LINE
  5
1C6
330
1F
100
AcDbEntity
  8
0
  6
Continuous
 62
     7
370
    25
100
AcDbLine
 10
133.8574650618
 20
234.5604255176
 30
0.0
 11
133.8574650618
 21
324.9548742422
 31
0.0
  0
ARC
  5
1C7
330
1F
100
AcDbEntity
  8
0
  6
Continuous
 62
     7
370
    25
100
AcDbCircle
 10
134.8574650618
 20
234.5604255176
 30
0.0
 40
5.000000000000031
100
AcDbArc
 50
180.0
 51
213.690067526
  0
ARC
  5
1C8
330
1F
100
AcDbEntity
  8
0
  6
Continuous
 62
     7
370
    25
100
AcDbCircle
 10
134.8574650618
 20
234.5604255176
 30
0.0
 40
1.0
100
AcDbArc
 50
180.0
 51
213.690067526
  0
LINE
  5
1C9
330
1F
100
AcDbEntity
  8
0
  6
Continuous
 62
     7
370
    25
100
AcDbLine
 10
136.8574650618
 20
229.7576498799
 30
0.0
 11
133.5292638844
 21
227.538849095
 31
0.0
  0
LINE
  5
1CA
330
1F
100
AcDbEntity
  8
0
  6
Continuous
 62
     7
370
    25
100
AcDbLine
 10
133.5292638844
 20
227.538849095
 30
0.0
 11
130.6972135901
 21
231.7869245365
 31
0.0
  0
LINE
  5
1CB
330
1F
100
AcDbEntity
  8
0
  6
Continuous
 62
     7
370
    25
100
AcDbLine
 10
136.8574650618
 20
229.7576498799
 30
0.0
 11
134.0254147674
 21
234.0057253214
 31
0.0
  0
LINE
  5
1CC
330
1F
100
AcDbEntity
  8
FORMAT
  6
Continuous
370
    25
100
AcDbLine
 10
140.3574650618
 20
350.7576498799
 30
0.0
 11
139.821114277
 21
350.7576498799
 31
0.0
  0
DIMENSION
  5
1CD
330
1F
100
AcDbEntity
  8
FORMAT
100
AcDbDimension
  2
_D
 10
144.3574650618
 20
377.6533071323
 30
0.0
 11
133.8574650618
 21
377.6533071323
 31
0.0
 70
   160
  1
<>
 71
     2
 42
-1.0
  3
SLDDIMSTYLE0
100
AcDbAlignedDimension
 13
123.3574650618
 23
341.2576498799
 33
0.0
 14
144.3574650618
 24
369.7576498799
 34
0.0
 50
0.0
100
AcDbRotatedDimension
  0
DIMENSION
  5
1D8
330
1F
100
AcDbEntity
  8
FORMAT
100
AcDbDimension
  2
_D_1
 10
144.3574650618
 20
179.7576498799
 30
0.0
 11
153.3810761067
 21
179.7576498799
 31
0.0
 70
   160
  1
<>
 71
     2
 42
-1.0
  3
SLDDIMSTYLE1
100
AcDbAlignedDimension
 13
141.3574650618
 23
189.7576498799
 33
0.0
 14
144.3574650618
 24
189.7576498799
 34
0.0
100
AcDbRotatedDimension
  0
LINE
  5
1E5
330
1F
100
AcDbEntity
  8
FORMAT
100
AcDbLine
 10
127.0294650618
 20
328.5856498799
 30
0.0
 11
131.2687300278
 21
328.5856498799
 31
0.0
  0
LINE
  5
1E6
330
1F
100
AcDbEntity
  8
FORMAT
100
AcDbLine
 10
140.8574650618
 20
328.5856498799
 30
0.0
 11
143.6854650618
 21
328.5856498799
 31
0.0
  0
LINE
  5
1E7
330
1F
100
AcDbEntity
  8
FORMAT
100
AcDbLine
 10
143.6854650618
 20
342.9296498799
 30
0.0
 11
140.8574650618
 21
342.9296498799
 31
0.0
  0
LINE
  5
1E8
330
1F
100
AcDbEntity
  8
FORMAT
100
AcDbLine
 10
132.8574650618
 20
342.9296498799
 30
0.0
 11
127.0294650618
 21
342.9296498799
 31
0.0
  0
LINE
  5
1E9
330
1F
100
AcDbEntity
  8
FORMAT
100
AcDbLine
 10
127.0294650618
 20
328.5856498799
 30
0.0
 11
127.0294650618
 21
328.6159578476
 31
0.0
  0
LWPOLYLINE
  5
1EA
330
1F
100
AcDbEntity
  8
FORMAT
100
AcDbPolyline
 90
       20
 70
   128
 43
0.0
 10
127.0294189453
 20
328.6159578476
 10
127.0294650618
 20
328.8140956635
 10
127.0294650618
 20
329.1920678863
 10
127.0294650618
 20
329.740085234
 10
127.0294650618
 20
330.4439543452
 10
127.0294650618
 20
331.2854453795
 10
127.0294650618
 20
332.2427641613
 10
127.0294650618
 20
333.2911166369
 10
127.0294650618
 20
334.4033510279
 10
127.0294650618
 20
335.5506610477
 10
127.0294650618
 20
336.7033319696
 10
127.0294650618
 20
337.8315102221
 10
127.0294650618
 20
338.9059765811
 10
127.0294650618
 20
339.8989029323
 10
127.0294650618
 20
340.7845730047
 10
127.0294650618
 20
341.5400484087
 10
127.0294650618
 20
342.1457627282
 10
127.0294650618
 20
342.5860282804
 10
127.0294650618
 20
342.8494424188
 10
127.0294650618
 20
342.9296498799
  0
LINE
  5
1EB
330
1F
100
AcDbEntity
  8
FORMAT
100
AcDbLine
 10
127.0294650618
 20
216.5856498799
 30
0.0
 11
132.8574650618
 21
216.5856498799
 31
0.0
  0
LINE
  5
1EC
330
1F
100
AcDbEntity
  8
FORMAT
100
AcDbLine
 10
140.8574650618
 20
216.5856498799
 30
0.0
 11
143.6854650618
 21
216.5856498799
 31
0.0
  0
LINE
  5
1ED
330
1F
100
AcDbEntity
  8
FORMAT
100
AcDbLine
 10
143.6854650618
 20
230.9296498799
 30
0.0
 11
140.8574650618
 21
230.9296498799
 31
0.0
  0
LINE
  5
1EE
330
1F
100
AcDbEntity
  8
FORMAT
100
AcDbLine
 10
131.2687300278
 20
230.9296498799
 30
0.0
 11
127.0294650618
 21
230.9296498799
 31
0.0
  0
LINE
  5
1EF
330
1F
100
AcDbEntity
  8
FORMAT
100
AcDbLine
 10
127.0294650618
 20
229.453796533
 30
0.0
 11
127.0294650618
 21
230.0790930218
 31
0.0
  0
LWPOLYLINE
  5
1F0
330
1F
100
AcDbEntity
  8
FORMAT
100
AcDbPolyline
 90
        5
 70
   128
 43
0.0
 10
127.0294189453
 20
230.0790930218
 10
127.0294650618
 20
230.5406674537
 10
127.0294650618
 20
230.8265652933
 10
127.0294650618
 20
230.9293819369
 10
127.0294650618
 20
230.9296498799
  0
LWPOLYLINE
  5
1F1
330
1F
100
AcDbEntity
  8
FORMAT
100
AcDbPolyline
 90
       17
 70
   128
 43
0.0
 10
127.0294189453
 20
216.5856498799
 10
127.0294650618
 20
216.6041850655
 10
127.0294650618
 20
216.7794790975
 10
127.0294650618
 20
217.1355040872
 10
127.0294650618
 20
217.6630391746
 10
127.0294650618
 20
218.3484214778
 10
127.0294650618
 20
219.1738999553
 10
127.0294650618
 20
220.1180951482
 10
127.0294650618
 20
221.1565528968
 10
127.0294650618
 20
222.262377691
 10
127.0294650618
 20
223.4069292495
 10
127.0294650618
 20
224.560564288
 10
127.0294650618
 20
225.6934042652
 10
127.0294650618
 20
226.7761092205
 10
127.0294650618
 20
227.7806376645
 10
127.0294650618
 20
228.680972838
 10
127.0294650618
 20
229.453796533
  0
LINE
  5
1F2
330
1F
100
AcDbEntity
  8
FORMAT
100
AcDbLine
 10
136.8574650618
 20
310.2163998799
 30
0.0
 11
133.8574650618
 21
310.2163998799
 31
0.0
  0
LINE
  5
1F3
330
1F
100
AcDbEntity
  8
FORMAT
100
AcDbLine
 10
129.8574650618
 20
310.2163998799
 30
0.0
 11
128.8574650618
 21
310.2163998799
 31
0.0
  0
LINE
  5
1F4
330
1F
100
AcDbEntity
  8
FORMAT
100
AcDbLine
 10
128.8574650618
 20
305.2988998799
 30
0.0
 11
129.8574650618
 21
305.2988998799
 31
0.0
  0
LINE
  5
1F5
330
1F
100
AcDbEntity
  8
FORMAT
100
AcDbLine
 10
133.8574650618
 20
305.2988998799
 30
0.0
 11
136.8574650618
 21
305.2988998799
 31
0.0
  0
LINE
  5
1F6
330
1F
100
AcDbEntity
  8
FORMAT
100
AcDbLine
 10
136.8574650618
 20
282.2163998799
 30
0.0
 11
133.8574650618
 21
282.2163998799
 31
0.0
  0
LINE
  5
1F7
330
1F
100
AcDbEntity
  8
FORMAT
100
AcDbLine
 10
129.8574650618
 20
282.2163998799
 30
0.0
 11
128.8574650618
 21
282.2163998799
 31
0.0
  0
LINE
  5
1F8
330
1F
100
AcDbEntity
  8
FORMAT
100
AcDbLine
 10
128.8574650618
 20
277.2988998799
 30
0.0
 11
129.8574650618
 21
277.2988998799
 31
0.0
  0
LINE
  5
1F9
330
1F
100
AcDbEntity
  8
FORMAT
100
AcDbLine
 10
133.8574650618
 20
277.2988998799
 30
0.0
 11
136.8574650618
 21
277.2988998799
 31
0.0
  0
LINE
  5
1FA
330
1F
100
AcDbEntity
  8
FORMAT
100
AcDbLine
 10
136.8574650618
 20
254.2163998799
 30
0.0
 11
133.8574650618
 21
254.2163998799
 31
0.0
  0
LINE
  5
1FB
330
1F
100
AcDbEntity
  8
FORMAT
100
AcDbLine
 10
129.8574650618
 20
254.2163998799
 30
0.0
 11
128.8574650618
 21
254.2163998799
 31
0.0
  0
LINE
  5
1FC
330
1F
100
AcDbEntity
  8
FORMAT
100
AcDbLine
 10
128.8574650618
 20
249.2988998799
 30
0.0
 11
129.8574650618
 21
249.2988998799
 31
0.0
  0
LINE
  5
1FD
330
1F
100
AcDbEntity
  8
FORMAT
100
AcDbLine
 10
133.8574650618
 20
249.2988998799
 30
0.0
 11
136.8574650618
 21
249.2988998799
 31
0.0
  0
LINE
  5
1FE
330
1F
100
AcDbEntity
  8
FORMAT
  6
CENTERX2
370
    18
100
AcDbLine
 10
126.8574650618
 20
307.7576498799
 30
0.0
 11
147.2574650618
 21
307.7576498799
 31
0.0
  0
LINE
  5
1FF
330
1F
100
AcDbEntity
  8
FORMAT
  6
CENTERX2
370
    18
100
AcDbLine
 10
120.0319700578
 20
279.7576498799
 30
0.0
 11
147.2574650618
 21
279.7576498799
 31
0.0
  0
LINE
  5
200
330
1F
100
AcDbEntity
  8
FORMAT
  6
CENTERX2
370
    18
100
AcDbLine
 10
126.8574650618
 20
251.7576498799
 30
0.0
 11
147.2574650618
 21
251.7576498799
 31
0.0
  0
LINE
  5
201
330
1F
100
AcDbEntity
  8
FORMAT
  6
CENTERX2
370
    18
100
AcDbLine
 10
149.6074650618
 20
223.7576498799
 30
0.0
 11
122.3574650618
 21
223.7576498799
 31
0.0
  0
LINE
  5
202
330
1F
100
AcDbEntity
  8
FORMAT
  6
CENTERX2
370
    18
100
AcDbLine
 10
149.6074650618
 20
335.7576498799
 30
0.0
 11
122.3574650618
 21
335.7576498799
 31
0.0
  0
LINE
  5
203
330
1F
100
AcDbEntity
  8
0
  6
Continuous
 62
     7
370
    25
100
AcDbLine
 10
41.8940049327
 20
223.7576498799
 30
0.0
 11
41.8940049327
 21
335.7576498799
 31
0.0
  0
ARC
  5
204
330
1F
100
AcDbEntity
  8
0
  6
Continuous
 62
     7
370
    25
100
AcDbCircle
 10
53.3940049327
 20
335.7576498799
 30
0.0
 40
11.50000000000002
100
AcDbArc
 50
0.0
 51
180.0
  0
LINE
  5
205
330
1F
100
AcDbEntity
  8
0
  6
Continuous
 62
     7
370
    25
100
AcDbLine
 10
64.8940049327
 20
335.7576498799
 30
0.0
 11
64.8940049327
 21
223.7576498799
 31
0.0
  0
CIRCLE
  5
206
330
1F
100
AcDbEntity
  8
0
  6
Continuous
 62
     7
370
    25
100
AcDbCircle
 10
53.3940049327
 20
293.7576498799
 30
0.0
 40
5.500000000000007
  0
CIRCLE
  5
207
330
1F
100
AcDbEntity
  8
0
  6
Continuous
 62
     7
370
    25
100
AcDbCircle
 10
53.3940049327
 20
265.7576498799
 30
0.0
 40
5.5
  0
ARC
  5
208
330
1F
100
AcDbEntity
  8
0
  6
Continuous
 62
     7
370
    25
100
AcDbCircle
 10
53.3940049327
 20
223.7576498799
 30
0.0
 40
11.50000000000002
100
AcDbArc
 50
180.0
 51
0.0
  0
CIRCLE
  5
209
330
1F
100
AcDbEntity
  8
0
  6
Continuous
 62
     7
370
    25
100
AcDbCircle
 10
53.3940049327
 20
223.7576498799
 30
0.0
 40
2.800000000000069
  0
CIRCLE
  5
20A
330
1F
100
AcDbEntity
  8
0
  6
Continuous
 62
     7
370
    25
100
AcDbCircle
 10
53.3940049327
 20
223.7576498799
 30
0.0
 40
5.000000000000111
  0
LWPOLYLINE
  5
20B
330
1F
100
AcDbEntity
  8
0
  6
Continuous
 62
     7
370
    25
100
AcDbPolyline
 90
       11
 70
   128
 43
0.0
 10
50.8057056083
 20
222.6896112067
 10
50.8253785383
 20
222.6619434396
 10
50.8584089973
 20
222.6394378191
 10
50.9963546034
 20
222.599387521
 10
51.6036941744
 20
222.5235767298
 10
52.2556625121
 20
222.278251023
 10
52.6598484207
 20
221.7109053021
 10
52.8887432956
 20
221.143264776
 10
52.9628015584
 20
221.0201859787
 10
52.9930190737
 20
220.9940246343
 10
53.0248038937
 20
220.9820975758
  0
LWPOLYLINE
  5
20C
330
1F
100
AcDbEntity
  8
0
  6
Continuous
 62
     7
370
    25
100
AcDbPolyline
 90
       13
 70
   128
 43
0.0
 10
51.1749066472
 20
225.4651635108
 10
51.1601513385
 20
225.4314263629
 10
51.1582771396
 20
225.3872638395
 10
51.1773485189
 20
225.2986505911
 10
51.2894282125
 20
225.024367986
 10
51.5388230276
 20
224.2925328498
 10
51.4855789941
 20
223.7805337851
 10
51.2199345293
 20
223.3230317412
 10
50.9265562219
 20
222.9545109771
 10
50.8229803617
 20
222.7993280541
 10
50.8041632852
 20
222.7501011446
 10
50.8008374183
 20
222.7080288898
 10
50.8057056083
 20
222.6896112067
  0
LWPOLYLINE
  5
20D
330
1F
100
AcDbEntity
  8
0
  6
Continuous
 62
     7
370
    25
100
AcDbPolyline
 90
       14
 70
   128
 43
0.0
 10
53.0248038937
 20
220.9820975758
 10
53.0438540945
 20
220.9821109465
 10
53.0774523904
 20
220.9928530809
 10
53.1131509856
 20
221.0159244204
 10
53.1510676764
 20
221.0500414024
 10
53.2498958451
 20
221.1667875122
 10
53.5309439644
 20
221.5447958977
 10
53.9051090152
 20
221.9187953852
 10
54.38637388
 20
222.1014483327
 10
55.1576794054
 20
222.0478925036
 10
55.4515232517
 20
222.0098320359
 10
55.5617171346
 20
222.0186211976
 10
55.5916169294
 20
222.0312664045
 10
55.6131032181
 20
222.050136249
  0
LWPOLYLINE
  5
20E
330
1F
100
AcDbEntity
  8
0
  6
Continuous
 62
     7
370
    25
100
AcDbPolyline
 90
       14
 70
   128
 43
0.0
 10
53.7632059716
 20
226.533202184
 10
53.7441557708
 20
226.5331888133
 10
53.7105574749
 20
226.5224466789
 10
53.6748588798
 20
226.4993753394
 10
53.6369421889
 20
226.4652583574
 10
53.5381140203
 20
226.3485122476
 10
53.2570659009
 20
225.9705038621
 10
52.8829008501
 20
225.5965043746
 10
52.4016359853
 20
225.4138514271
 10
51.6303304599
 20
225.4674072562
 10
51.3364866136
 20
225.5054677239
 10
51.2262927308
 20
225.4966785622
 10
51.1963929359
 20
225.4840333553
 10
51.1749066472
 20
225.4651635108
  0
LWPOLYLINE
  5
20F
330
1F
100
AcDbEntity
  8
0
  6
Continuous
 62
     7
370
    25
100
AcDbPolyline
 90
       13
 70
   128
 43
0.0
 10
55.6131032181
 20
222.050136249
 10
55.6278585268
 20
222.0838733969
 10
55.6297327258
 20
222.1280359203
 10
55.6106613465
 20
222.2166491687
 10
55.4985816528
 20
222.4909317738
 10
55.2491868378
 20
223.22276691
 10
55.3024308712
 20
223.7347659747
 10
55.568075336
 20
224.1922680186
 10
55.8614536434
 20
224.5607887827
 10
55.9650295037
 20
224.7159717057
 10
55.9838465802
 20
224.7651986152
 10
55.9871724471
 20
224.80727087
 10
55.982304257
 20
224.8256885531
  0
LWPOLYLINE
  5
210
330
1F
100
AcDbEntity
  8
0
  6
Continuous
 62
     7
370
    25
100
AcDbPolyline
 90
       11
 70
   128
 43
0.0
 10
55.982304257
 20
224.8256885531
 10
55.962631327
 20
224.8533563202
 10
55.929600868
 20
224.8758619407
 10
55.791655262
 20
224.9159122388
 10
55.1843156909
 20
224.99172303
 10
54.5323473532
 20
225.2370487369
 10
54.1281614446
 20
225.8043944578
 10
53.8992665697
 20
226.3720349838
 10
53.825208307
 20
226.4951137811
 10
53.7949907916
 20
226.5212751255
 10
53.7632059716
 20
226.533202184
  0
ARC
  5
211
330
1F
100
AcDbEntity
  8
0
  6
Continuous
 62
     7
370
    25
100
AcDbCircle
 10
53.3940049327
 20
223.7576498799
 30
0.0
 40
1.866666666666658
100
AcDbArc
 50
232.4230558519
 51
292.4230558519
  0
ARC
  5
212
330
1F
100
AcDbEntity
  8
0
  6
Continuous
 62
     7
370
    25
100
AcDbCircle
 10
53.3940049327
 20
223.7576498799
 30
0.0
 40
1.866666666666651
100
AcDbArc
 50
172.423055852
 51
232.4230558519
  0
ARC
  5
213
330
1F
100
AcDbEntity
  8
0
  6
Continuous
 62
     7
370
    25
100
AcDbCircle
 10
53.3940049327
 20
223.7576498799
 30
0.0
 40
1.866666666666787
100
AcDbArc
 50
112.4230558519
 51
172.423055852
  0
ARC
  5
214
330
1F
100
AcDbEntity
  8
0
  6
Continuous
 62
     7
370
    25
100
AcDbCircle
 10
53.3940049327
 20
223.7576498799
 30
0.0
 40
1.866666666666787
100
AcDbArc
 50
52.4230558519
 51
112.4230558519
  0
ARC
  5
215
330
1F
100
AcDbEntity
  8
0
  6
Continuous
 62
     7
370
    25
100
AcDbCircle
 10
53.3940049327
 20
223.7576498799
 30
0.0
 40
1.866666666666826
100
AcDbArc
 50
352.4230558519
 51
52.4230558519
  0
ARC
  5
216
330
1F
100
AcDbEntity
  8
0
  6
Continuous
 62
     7
370
    25
100
AcDbCircle
 10
53.3940049327
 20
223.7576498799
 30
0.0
 40
1.866666666666826
100
AcDbArc
 50
292.4230558519
 51
352.4230558519
  0
CIRCLE
  5
217
330
1F
100
AcDbEntity
  8
0
  6
Continuous
 62
     7
370
    25
100
AcDbCircle
 10
53.3940049327
 20
223.7576498799
 30
0.0
 40
8.000000000000165
  0
CIRCLE
  5
218
330
1F
100
AcDbEntity
  8
0
  6
Continuous
 62
     7
370
    25
100
AcDbCircle
 10
53.3940049327
 20
223.7576498799
 30
0.0
 40
6.500000000000119
  0
CIRCLE
  5
219
330
1F
100
AcDbEntity
  8
0
  6
Continuous
 62
     7
370
    25
100
AcDbCircle
 10
53.3940049327
 20
335.7576498799
 30
0.0
 40
2.80000000000006
  0
CIRCLE
  5
21A
330
1F
100
AcDbEntity
  8
0
  6
Continuous
 62
     7
370
    25
100
AcDbCircle
 10
53.3940049327
 20
335.7576498799
 30
0.0
 40
5.000000000000069
  0
LWPOLYLINE
  5
21B
330
1F
100
AcDbEntity
  8
0
  6
Continuous
 62
     7
370
    25
100
AcDbPolyline
 90
       13
 70
   128
 43
0.0
 10
51.1701886152
 20
334.0562854315
 10
51.1989553527
 20
334.0332987159
 10
51.2411269074
 20
334.020054809
 10
51.3316563973
 20
334.0155341066
 10
51.6256044722
 20
334.0527810454
 10
52.3970552895
 20
334.1042016341
 10
52.8778127126
 20
333.9202172069
 10
53.2509410695
 20
333.5451834336
 10
53.5309417548
 20
333.1663985328
 10
53.6540180133
 20
333.0261775179
 10
53.6966947965
 20
332.9952572468
 10
53.7364715166
 20
332.9811523345
 10
53.7555216073
 20
332.9810862314
  0
LWPOLYLINE
  5
21C
330
1F
100
AcDbEntity
  8
0
  6
Continuous
 62
     7
370
    25
100
AcDbPolyline
 90
       14
 70
   128
 43
0.0
 10
50.8086719405
 20
336.83284908
 10
50.8037527875
 20
336.8144449429
 10
50.8054301167
 20
336.7792110741
 10
50.8184725166
 20
336.7387565045
 10
50.8416096913
 20
336.6932997662
 10
50.9287888275
 20
336.5676158003
 10
51.2211459161
 20
336.1982843535
 10
51.4855229611
 20
335.7400487373
 10
51.5373495364
 20
335.2279042504
 10
51.2859298988
 20
334.4967622627
 10
51.1730913985
 20
334.2227909539
 10
51.1530518623
 20
334.1140786815
 10
51.1575249139
 20
334.0819245092
 10
51.1701886152
 20
334.0562854315
  0
LWPOLYLINE
  5
21D
330
1F
100
AcDbEntity
  8
0
  6
Continuous
 62
     7
370
    25
100
AcDbPolyline
 90
       11
 70
   128
 43
0.0
 10
53.7555216073
 20
332.9810862314
 10
53.7873393206
 20
332.9929252614
 10
53.8176291369
 20
333.0190028611
 10
53.8920278078
 20
333.1418761876
 10
54.12249308
 20
333.7088809397
 10
54.5282478983
 20
334.2751056683
 10
55.1808928192
 20
334.5186257349
 10
55.7884399138
 20
334.5927550714
 10
55.9264958538
 20
334.6324233717
 10
55.9595884836
 20
334.654837475
 10
55.9793379248
 20
334.6824506798
  0
LWPOLYLINE
  5
21E
330
1F
100
AcDbEntity
  8
0
  6
Continuous
 62
     7
370
    25
100
AcDbPolyline
 90
       11
 70
   128
 43
0.0
 10
53.032488258
 20
338.5342135284
 10
53.0006705447
 20
338.5223744984
 10
52.9703807284
 20
338.4962968988
 10
52.8959820575
 20
338.3734235722
 10
52.6655167854
 20
337.8064188201
 10
52.2597619671
 20
337.2401940915
 10
51.6071170461
 20
336.9966740249
 10
50.9995699516
 20
336.9225446884
 10
50.8615140116
 20
336.8828763881
 10
50.8284213818
 20
336.8604622848
 10
50.8086719405
 20
336.83284908
  0
LWPOLYLINE
  5
21F
330
1F
100
AcDbEntity
  8
0
  6
Continuous
 62
     7
370
    25
100
AcDbPolyline
 90
       14
 70
   128
 43
0.0
 10
55.9793379248
 20
334.6824506798
 10
55.9842570778
 20
334.7008548169
 10
55.9825797487
 20
334.7360886857
 10
55.9695373487
 20
334.7765432553
 10
55.946400174
 20
334.8219999936
 10
55.8592210378
 20
334.9476839595
 10
55.5668639492
 20
335.3170154063
 10
55.3024869042
 20
335.7752510225
 10
55.2506603289
 20
336.2873955094
 10
55.5020799665
 20
337.0185374971
 10
55.6149184668
 20
337.2925088059
 10
55.6349580031
 20
337.4012210783
 10
55.6304849514
 20
337.4333752506
 10
55.6178212501
 20
337.4590143283
  0
LWPOLYLINE
  5
220
330
1F
100
AcDbEntity
  8
0
  6
Continuous
 62
     7
370
    25
100
AcDbPolyline
 90
       13
 70
   128
 43
0.0
 10
55.6178212501
 20
337.4590143283
 10
55.5890545126
 20
337.4820010439
 10
55.546882958
 20
337.4952449508
 10
55.456353468
 20
337.4997656532
 10
55.1624053931
 20
337.4625187145
 10
54.3909545759
 20
337.4110981257
 10
53.9101971528
 20
337.5950825529
 10
53.5370687958
 20
337.9701163262
 10
53.2570681105
 20
338.3489012271
 10
53.1339918521
 20
338.4891222419
 10
53.0913150688
 20
338.520042513
 10
53.0515383488
 20
338.5341474253
 10
53.032488258
 20
338.5342135284
  0
ARC
  5
221
330
1F
100
AcDbEntity
  8
0
  6
Continuous
 62
     7
370
    25
100
AcDbCircle
 10
53.3940049327
 20
335.7576498799
 30
0.0
 40
1.866666666666758
100
AcDbArc
 50
187.4183446652
 51
247.4183446653
  0
ARC
  5
222
330
1F
100
AcDbEntity
  8
0
  6
Continuous
 62
     7
370
    25
100
AcDbCircle
 10
53.3940049327
 20
335.7576498799
 30
0.0
 40
1.86666666666665
100
AcDbArc
 50
247.4183446653
 51
307.4183446653
  0
ARC
  5
223
330
1F
100
AcDbEntity
  8
0
  6
Continuous
 62
     7
370
    25
100
AcDbCircle
 10
53.3940049327
 20
335.7576498799
 30
0.0
 40
1.866666666666758
100
AcDbArc
 50
127.4183446653
 51
187.4183446652
  0
ARC
  5
224
330
1F
100
AcDbEntity
  8
0
  6
Continuous
 62
     7
370
    25
100
AcDbCircle
 10
53.3940049327
 20
335.7576498799
 30
0.0
 40
1.866666666666855
100
AcDbArc
 50
67.4183446653
 51
127.4183446653
  0
ARC
  5
225
330
1F
100
AcDbEntity
  8
0
  6
Continuous
 62
     7
370
    25
100
AcDbCircle
 10
53.3940049327
 20
335.7576498799
 30
0.0
 40
1.866666666666855
100
AcDbArc
 50
7.4183446653
 51
67.4183446653
  0
ARC
  5
226
330
1F
100
AcDbEntity
  8
0
  6
Continuous
 62
     7
370
    25
100
AcDbCircle
 10
53.3940049327
 20
335.7576498799
 30
0.0
 40
1.866666666666678
100
AcDbArc
 50
307.4183446653
 51
7.4183446653
  0
CIRCLE
  5
227
330
1F
100
AcDbEntity
  8
0
  6
Continuous
 62
     7
370
    25
100
AcDbCircle
 10
53.3940049327
 20
335.7576498799
 30
0.0
 40
8.000000000000139
  0
CIRCLE
  5
228
330
1F
100
AcDbEntity
  8
0
  6
Continuous
 62
     7
370
    25
100
AcDbCircle
 10
53.3940049327
 20
335.7576498799
 30
0.0
 40
6.500000000000104
  0
LINE
  5
229
330
1F
100
AcDbEntity
  8
0
  6
Continuous
 62
     7
370
    25
100
AcDbLine
 10
43.6087329376
 20
210.9723778848
 30
0.0
 11
44.3940049327
 21
211.7576498799
 31
0.0
  0
LINE
  5
22A
330
1F
100
AcDbEntity
  8
0
  6
Continuous
 62
     7
370
    25
100
AcDbLine
 10
44.3940049327
 20
211.7576498799
 30
0.0
 11
44.3940049327
 21
215.5829740935
 31
0.0
  0
ARC
  5
22B
330
1F
100
AcDbEntity
  8
0
  6
Continuous
 62
     7
370
    25
100
AcDbCircle
 10
53.3940049327
 20
224.2576498799
 30
0.0
 40
12.50000000000028
100
AcDbArc
 50
223.9455195623
 51
316.0544804377
  0
LINE
  5
22C
330
1F
100
AcDbEntity
  8
0
  6
Continuous
 62
     7
370
    25
100
AcDbLine
 10
62.3940049327
 20
215.5829740935
 30
0.0
 11
62.3940049327
 21
211.7576498799
 31
0.0
  0
LINE
  5
22D
330
1F
100
AcDbEntity
  8
0
  6
Continuous
 62
     7
370
    25
100
AcDbLine
 10
62.3940049327
 20
211.7576498799
 30
0.0
 11
63.1792769277
 21
210.9723778848
 31
0.0
  0
LINE
  5
22E
330
1F
100
AcDbEntity
  8
0
  6
Continuous
 62
     7
370
    25
100
AcDbLine
 10
63.1792769277
 20
348.542921875
 30
0.0
 11
62.3940049327
 21
347.7576498799
 31
0.0
  0
LINE
  5
22F
330
1F
100
AcDbEntity
  8
0
  6
Continuous
 62
     7
370
    25
100
AcDbLine
 10
62.3940049327
 20
347.7576498799
 30
0.0
 11
62.3940049327
 21
343.9323256664
 31
0.0
  0
ARC
  5
230
330
1F
100
AcDbEntity
  8
0
  6
Continuous
 62
     7
370
    25
100
AcDbCircle
 10
53.3940049327
 20
335.2576498799
 30
0.0
 40
12.50000000000039
100
AcDbArc
 50
43.9455195623
 51
136.0544804377
  0
LINE
  5
231
330
1F
100
AcDbEntity
  8
0
  6
Continuous
 62
     7
370
    25
100
AcDbLine
 10
44.3940049327
 20
343.9323256664
 30
0.0
 11
44.3940049327
 21
347.7576498799
 31
0.0
  0
LINE
  5
232
330
1F
100
AcDbEntity
  8
0
  6
Continuous
 62
     7
370
    25
100
AcDbLine
 10
44.3940049327
 20
347.7576498799
 30
0.0
 11
43.6087329376
 21
348.542921875
 31
0.0
  0
LINE
  5
233
330
1F
100
AcDbEntity
  8
0
  6
Continuous
 62
     7
370
    25
100
AcDbLine
 10
41.4940049327
 20
208.8576498799
 30
0.0
 11
41.4940049327
 21
200.2116873965
 31
0.0
  0
LINE
  5
234
330
1F
100
AcDbEntity
  8
0
  6
Continuous
 62
     7
370
    25
100
AcDbLine
 10
65.2940049327
 20
200.2116873965
 30
0.0
 11
65.2940049327
 21
208.8576498799
 31
0.0
  0
ARC
  5
235
330
1F
100
AcDbEntity
  8
0
  6
Continuous
 62
     7
370
    25
100
AcDbCircle
 10
53.3940049327
 20
201.7576498799
 30
0.0
 40
11.99999999999999
100
AcDbArc
 50
187.4019996877
 51
352.5980003123
  0
CIRCLE
  5
236
330
1F
100
AcDbEntity
  8
0
  6
Continuous
 62
     7
370
    25
100
AcDbCircle
 10
53.3940049327
 20
201.7576498799
 30
0.0
 40
3.499999999999993
  0
LINE
  5
237
330
1F
100
AcDbEntity
  8
0
  6
Continuous
 62
     7
370
    25
100
AcDbLine
 10
41.4940049327
 20
208.8576498799
 30
0.0
 11
43.6087329376
 21
210.9723778848
 31
0.0
  0
LINE
  5
238
330
1F
100
AcDbEntity
  8
0
  6
Continuous
 62
     7
370
    25
100
AcDbLine
 10
63.1792769277
 20
210.9723778848
 30
0.0
 11
65.2940049327
 21
208.8576498799
 31
0.0
  0
CIRCLE
  5
239
330
1F
100
AcDbEntity
  8
0
  6
Continuous
 62
     7
370
    25
100
AcDbCircle
 10
53.3940049327
 20
357.7576498799
 30
0.0
 40
3.499999999999993
  0
LINE
  5
23A
330
1F
100
AcDbEntity
  8
0
  6
Continuous
 62
     7
370
    25
100
AcDbLine
 10
41.4940049327
 20
350.6576498799
 30
0.0
 11
41.4940049327
 21
359.3036123633
 31
0.0
  0
ARC
  5
23B
330
1F
100
AcDbEntity
  8
0
  6
Continuous
 62
     7
370
    25
100
AcDbCircle
 10
53.3940049327
 20
357.7576498799
 30
0.0
 40
11.99999999999999
100
AcDbArc
 50
7.4019996877
 51
172.5980003123
  0
LINE
  5
23C
330
1F
100
AcDbEntity
  8
0
  6
Continuous
 62
     7
370
    25
100
AcDbLine
 10
65.2940049327
 20
359.3036123633
 30
0.0
 11
65.2940049327
 21
350.6576498799
 31
0.0
  0
LINE
  5
23D
330
1F
100
AcDbEntity
  8
0
  6
Continuous
 62
     7
370
    25
100
AcDbLine
 10
63.1792769277
 20
348.542921875
 30
0.0
 11
65.2940049327
 21
350.6576498799
 31
0.0
  0
LINE
  5
23E
330
1F
100
AcDbEntity
  8
0
  6
Continuous
 62
     7
370
    25
100
AcDbLine
 10
41.4940049327
 20
350.6576498799
 30
0.0
 11
43.6087329376
 21
348.542921875
 31
0.0
  0
LINE
  5
23F
330
1F
100
AcDbEntity
  8
0
  6
Continuous
 62
     7
370
    25
100
AcDbLine
 10
62.3940049327
 20
215.5829740935
 30
0.0
 11
62.3940049327
 21
216.7672407596
 31
0.0
  0
LINE
  5
240
330
1F
100
AcDbEntity
  8
0
  6
Continuous
 62
     7
370
    25
100
AcDbLine
 10
44.3940049327
 20
216.6420976177
 30
0.0
 11
44.3940049327
 21
215.5829740935
 31
0.0
  0
LINE
  5
241
330
1F
100
AcDbEntity
  8
0
  6
Continuous
 62
     7
370
    25
100
AcDbLine
 10
62.3940049327
 20
342.8732021422
 30
0.0
 11
62.3940049327
 21
343.9323256664
 31
0.0
  0
LINE
  5
242
330
1F
100
AcDbEntity
  8
0
  6
Continuous
 62
     7
370
    25
100
AcDbLine
 10
44.3940049327
 20
343.9323256664
 30
0.0
 11
44.3940049327
 21
342.7480590002
 31
0.0
  0
LINE
  5
243
330
1F
100
AcDbEntity
  8
0
  6
Continuous
 62
     7
370
    25
100
AcDbLine
 10
64.8940049327
 20
224.2576498799
 30
0.0
 11
65.2940049327
 21
224.6576498799
 31
0.0
  0
LINE
  5
244
330
1F
100
AcDbEntity
  8
0
  6
Continuous
 62
     7
370
    25
100
AcDbLine
 10
41.4940049327
 20
224.6576498799
 30
0.0
 11
41.8940049327
 21
224.2576498799
 31
0.0
  0
LINE
  5
245
330
1F
100
AcDbEntity
  8
0
  6
Continuous
 62
     7
370
    25
100
AcDbLine
 10
41.4940049327
 20
224.6576498799
 30
0.0
 11
41.4940049327
 21
334.8576498799
 31
0.0
  0
LINE
  5
246
330
1F
100
AcDbEntity
  8
0
  6
Continuous
 62
     7
370
    25
100
AcDbLine
 10
41.8940049327
 20
335.2576498799
 30
0.0
 11
41.4940049327
 21
334.8576498799
 31
0.0
  0
LINE
  5
247
330
1F
100
AcDbEntity
  8
0
  6
Continuous
 62
     7
370
    25
100
AcDbLine
 10
65.2940049327
 20
334.8576498799
 30
0.0
 11
64.8940049327
 21
335.2576498799
 31
0.0
  0
LINE
  5
248
330
1F
100
AcDbEntity
  8
0
  6
Continuous
 62
     7
370
    25
100
AcDbLine
 10
65.2940049327
 20
334.8576498799
 30
0.0
 11
65.2940049327
 21
224.6576498799
 31
0.0
  0
CIRCLE
  5
249
330
1F
100
AcDbEntity
  8
0
  6
Continuous
 62
     7
370
    25
100
AcDbCircle
 10
53.3940049327
 20
265.7576498799
 30
0.0
 40
5.200000000000003
  0
CIRCLE
  5
24A
330
1F
100
AcDbEntity
  8
0
  6
Continuous
 62
     7
370
    25
100
AcDbCircle
 10
53.3940049327
 20
293.7576498799
 30
0.0
 40
5.199999999999996
  0
CIRCLE
  5
24B
330
1F
100
AcDbEntity
  8
0
  6
Continuous
 62
     7
370
    25
100
AcDbCircle
 10
53.3940049327
 20
265.7576498799
 30
0.0
 40
2.749999999999993
  0
CIRCLE
  5
24C
330
1F
100
AcDbEntity
  8
0
  6
Continuous
 62
     7
370
    25
100
AcDbCircle
 10
53.3940049327
 20
293.7576498799
 30
0.0
 40
2.749999999999993
  0
CIRCLE
  5
24D
330
1F
100
AcDbEntity
  8
0
  6
Continuous
 62
     7
370
    25
100
AcDbCircle
 10
56.3940049327
 20
279.7576498799
 30
0.0
 40
5.00000000000002
  0
CIRCLE
  5
24E
330
1F
100
AcDbEntity
  8
0
  6
Continuous
 62
     7
370
    25
100
AcDbCircle
 10
56.3940049327
 20
279.7576498799
 30
0.0
 40
4.615049880485966
  0
CIRCLE
  5
24F
330
1F
100
AcDbEntity
  8
0
  6
Continuous
 62
     7
370
    25
100
AcDbCircle
 10
56.3940049327
 20
279.7576498799
 30
0.0
 40
2.800000000000082
  0
LWPOLYLINE
  5
250
330
1F
100
AcDbEntity
  8
0
  6
Continuous
 62
     7
370
    25
100
AcDbPolyline
 90
       14
 70
   128
 43
0.0
 10
54.1379251616
 20
278.0993061077
 10
54.1511430174
 20
278.0855875576
 10
54.1821789003
 20
278.0688241179
 10
54.223555584
 20
278.059095477
 10
54.2744297893
 20
278.0554268072
 10
54.4270798288
 20
278.0651544225
 10
54.8943387808
 20
278.1247149523
 10
55.4232703399
 20
278.1143947
 10
55.8885714426
 20
277.8942291868
 10
56.3847535517
 20
277.301284202
 10
56.561059678
 20
277.063147781
 10
56.6437948249
 20
276.9898345035
 10
56.6736377765
 20
276.9770557231
 10
56.7021328821
 20
276.9746555991
  0
LWPOLYLINE
  5
251
330
1F
100
AcDbEntity
  8
0
  6
Continuous
 62
     7
370
    25
100
AcDbPolyline
 90
       11
 70
   128
 43
0.0
 10
53.8297972122
 20
280.8823003885
 10
53.8234994446
 20
280.8489407178
 10
53.8301828636
 20
280.8095345497
 10
53.896964979
 20
280.6823607879
 10
54.2634261121
 20
280.1921415833
 10
54.5386754122
 20
279.552231247
 10
54.4100760574
 20
278.8676075389
 10
54.1597283956
 20
278.309096412
 10
54.1223836051
 20
278.170393913
 10
54.1244823427
 20
278.1304801374
 10
54.1379251616
 20
278.0993061077
  0
LWPOLYLINE
  5
252
330
1F
100
AcDbEntity
  8
0
  6
Continuous
 62
     7
370
    25
100
AcDbPolyline
 90
       13
 70
   128
 43
0.0
 10
56.7021328821
 20
276.9746555991
 10
56.7366747166
 20
276.9874139668
 10
56.7697982535
 20
277.0166829333
 10
56.8204311991
 20
277.0918649133
 10
56.9403737165
 20
277.362801433
 10
57.2948287534
 20
278.0499273801
 10
57.700697977
 20
278.3665472511
 10
58.2145611519
 20
278.4923237964
 10
58.6835321846
 20
278.5364209088
 10
58.8671720408
 20
278.5693769645
 10
58.9156921739
 20
278.5899480043
 10
58.9483159322
 20
278.6167216183
 10
58.9582126531
 20
278.6329993713
  0
LWPOLYLINE
  5
253
330
1F
100
AcDbEntity
  8
0
  6
Continuous
 62
     7
370
    25
100
AcDbPolyline
 90
       13
 70
   128
 43
0.0
 10
56.0858769833
 20
282.5406441607
 10
56.0513351487
 20
282.527885793
 10
56.0182116119
 20
282.4986168265
 10
55.9675786662
 20
282.4234348465
 10
55.8476361488
 20
282.1524983268
 10
55.4931811119
 20
281.4653723797
 10
55.0873118883
 20
281.1487525087
 10
54.5734487134
 20
281.0229759634
 10
54.1044776807
 20
280.978878851
 10
53.9208378245
 20
280.9459227953
 10
53.8723176914
 20
280.9253517555
 10
53.8396939331
 20
280.8985781415
 10
53.8297972122
 20
280.8823003885
  0
LWPOLYLINE
  5
254
330
1F
100
AcDbEntity
  8
0
  6
Continuous
 62
     7
370
    25
100
AcDbPolyline
 90
       11
 70
   128
 43
0.0
 10
58.9582126531
 20
278.6329993713
 10
58.9645104207
 20
278.666359042
 10
58.9578270017
 20
278.7057652102
 10
58.8910448863
 20
278.8329389719
 10
58.5245837532
 20
279.3231581765
 10
58.2493344532
 20
279.9630685128
 10
58.3779338079
 20
280.6476922209
 10
58.6282814697
 20
281.2062033478
 10
58.6656262602
 20
281.3449058468
 10
58.6635275226
 20
281.3848196224
 10
58.6500847037
 20
281.4159936521
  0
LWPOLYLINE
  5
255
330
1F
100
AcDbEntity
  8
0
  6
Continuous
 62
     7
370
    25
100
AcDbPolyline
 90
       14
 70
   128
 43
0.0
 10
58.6500847037
 20
281.4159936521
 10
58.6368668479
 20
281.4297122022
 10
58.605830965
 20
281.4464756419
 10
58.5644542814
 20
281.4562042828
 10
58.513580076
 20
281.4598729526
 10
58.3609300365
 20
281.4501453373
 10
57.8936710846
 20
281.3905848075
 10
57.3647395254
 20
281.4009050598
 10
56.8994384227
 20
281.621070573
 10
56.4032563136
 20
282.2140155578
 10
56.2269501873
 20
282.4521519788
 10
56.1442150404
 20
282.5254652563
 10
56.1143720888
 20
282.5382440367
 10
56.0858769833
 20
282.5406441607
  0
ARC
  5
256
330
1F
100
AcDbEntity
  8
0
  6
Continuous
 62
     7
370
    25
100
AcDbCircle
 10
56.3940049327
 20
279.7576498799
 30
0.0
 40
1.866666666666772
100
AcDbArc
 50
186.3179497613
 51
246.3179497613
  0
ARC
  5
257
330
1F
100
AcDbEntity
  8
0
  6
Continuous
 62
     7
370
    25
100
AcDbCircle
 10
56.3940049327
 20
279.7576498799
 30
0.0
 40
1.86666666666662
100
AcDbArc
 50
306.3179497613
 51
6.3179497613
  0
ARC
  5
258
330
1F
100
AcDbEntity
  8
0
  6
Continuous
 62
     7
370
    25
100
AcDbCircle
 10
56.3940049327
 20
279.7576498799
 30
0.0
 40
1.866666666666772
100
AcDbArc
 50
246.3179497613
 51
306.3179497613
  0
ARC
  5
259
330
1F
100
AcDbEntity
  8
0
  6
Continuous
 62
     7
370
    25
100
AcDbCircle
 10
56.3940049327
 20
279.7576498799
 30
0.0
 40
1.866666666666703
100
AcDbArc
 50
126.3179497613
 51
186.3179497613
  0
ARC
  5
25A
330
1F
100
AcDbEntity
  8
0
  6
Continuous
 62
     7
370
    25
100
AcDbCircle
 10
56.3940049327
 20
279.7576498799
 30
0.0
 40
1.866666666666759
100
AcDbArc
 50
66.3179497613
 51
126.3179497613
  0
ARC
  5
25B
330
1F
100
AcDbEntity
  8
0
  6
Continuous
 62
     7
370
    25
100
AcDbCircle
 10
56.3940049327
 20
279.7576498799
 30
0.0
 40
1.866666666666759
100
AcDbArc
 50
6.3179497613
 51
66.3179497613
  0
CIRCLE
  5
25C
330
1F
100
AcDbEntity
  8
0
  6
Continuous
 62
     7
370
    25
100
AcDbCircle
 10
56.3940049327
 20
307.7576498799
 30
0.0
 40
5.000000000000034
  0
CIRCLE
  5
25D
330
1F
100
AcDbEntity
  8
0
  6
Continuous
 62
     7
370
    25
100
AcDbCircle
 10
56.3940049327
 20
307.7576498799
 30
0.0
 40
4.615049880486039
  0
CIRCLE
  5
25E
330
1F
100
AcDbEntity
  8
0
  6
Continuous
 62
     7
370
    25
100
AcDbCircle
 10
56.3940049327
 20
307.7576498799
 30
0.0
 40
2.800000000000056
  0
LWPOLYLINE
  5
25F
330
1F
100
AcDbEntity
  8
0
  6
Continuous
 62
     7
370
    25
100
AcDbPolyline
 90
       11
 70
   128
 43
0.0
 10
53.7634159621
 20
308.716817054
 10
53.7592541928
 20
308.6831241886
 10
53.7684321299
 20
308.6442232933
 10
53.8431730222
 20
308.5215578311
 10
54.2400919412
 20
308.0556565515
 10
54.555511291
 20
307.4345623159
 10
54.4707466434
 20
306.7431417707
 10
54.2564538962
 20
306.1698292476
 10
54.228012765
 20
306.029031099
 10
54.2326476235
 20
305.9893318262
 10
54.2480473081
 20
305.9590765915
  0
LWPOLYLINE
  5
260
330
1F
100
AcDbEntity
  8
0
  6
Continuous
 62
     7
370
    25
100
AcDbPolyline
 90
       14
 70
   128
 43
0.0
 10
54.2480473081
 20
305.9590765915
 10
54.2621115037
 20
305.9462271274
 10
54.2941513974
 20
305.931473004
 10
54.3360633847
 20
305.9243975732
 10
54.3870679409
 20
305.9239743118
 10
54.5387893528
 20
305.9433978606
 10
55.0013101118
 20
306.0325770753
 10
55.5298261111
 20
306.0559424432
 10
56.0081966022
 20
305.8658381492
 10
56.5411116347
 20
305.3056756652
 10
56.7322168741
 20
305.0792433515
 10
56.8194504163
 20
305.0113445275
 10
56.8500461873
 20
305.0004910585
 10
56.8786362787
 20
304.9999094174
  0
LWPOLYLINE
  5
261
330
1F
100
AcDbEntity
  8
0
  6
Continuous
 62
     7
370
    25
100
AcDbPolyline
 90
       13
 70
   128
 43
0.0
 10
56.8786362787
 20
304.9999094174
 10
56.9122960529
 20
305.0148403878
 10
56.9434895616
 20
305.046158212
 10
56.9892347714
 20
305.1244103754
 10
57.0916899168
 20
305.4024315048
 10
57.4016930652
 20
306.1107241621
 10
57.7865876102
 20
306.4525342827
 10
58.2914036778
 20
306.6107614604
 10
58.7566172403
 20
306.684617578
 10
58.9377872258
 20
306.7291948679
 10
58.9848997075
 20
306.7528123414
 10
59.0157532716
 20
306.7816080633
 10
59.0245939032
 20
306.7984827058
  0
LWPOLYLINE
  5
262
330
1F
100
AcDbEntity
  8
0
  6
Continuous
 62
     7
370
    25
100
AcDbPolyline
 90
       13
 70
   128
 43
0.0
 10
55.9093735867
 20
310.5153903424
 10
55.8757138124
 20
310.500459372
 10
55.8445203038
 20
310.4691415478
 10
55.7987750939
 20
310.3908893844
 10
55.6963199485
 20
310.112868255
 10
55.3863168001
 20
309.4045755977
 10
55.0014222551
 20
309.0627654771
 10
54.4966061875
 20
308.9045382995
 10
54.031392625
 20
308.8306821818
 10
53.8502226396
 20
308.7861048919
 10
53.8031101578
 20
308.7624874184
 10
53.7722565937
 20
308.7336916966
 10
53.7634159621
 20
308.716817054
  0
LWPOLYLINE
  5
263
330
1F
100
AcDbEntity
  8
0
  6
Continuous
 62
     7
370
    25
100
AcDbPolyline
 90
       14
 70
   128
 43
0.0
 10
58.5399625572
 20
309.5562231683
 10
58.5258983616
 20
309.5690726324
 10
58.4938584679
 20
309.5838267558
 10
58.4519464806
 20
309.5909021866
 10
58.4009419244
 20
309.591325448
 10
58.2492205125
 20
309.5719018992
 10
57.7866997535
 20
309.4827226845
 10
57.2581837542
 20
309.4593573167
 10
56.7798132631
 20
309.6494616107
 10
56.2468982306
 20
310.2096240946
 10
56.0557929913
 20
310.4360564084
 10
55.968559449
 20
310.5039552323
 10
55.9379636781
 20
310.5148087013
 10
55.9093735867
 20
310.5153903424
  0
LWPOLYLINE
  5
264
330
1F
100
AcDbEntity
  8
0
  6
Continuous
 62
     7
370
    25
100
AcDbPolyline
 90
       11
 70
   128
 43
0.0
 10
59.0245939032
 20
306.7984827058
 10
59.0287556725
 20
306.8321755712
 10
59.0195777355
 20
306.8710764665
 10
58.9448368432
 20
306.9937419287
 10
58.5479179241
 20
307.4596432083
 10
58.2324985743
 20
308.0807374439
 10
58.317263222
 20
308.7721579891
 10
58.5315559691
 20
309.3454705122
 10
58.5599971004
 20
309.4862686608
 10
58.5553622418
 20
309.5259679337
 10
58.5399625572
 20
309.5562231683
  0
ARC
  5
265
330
1F
100
AcDbEntity
  8
0
  6
Continuous
 62
     7
370
    25
100
AcDbCircle
 10
56.3940049327
 20
307.7576498799
 30
0.0
 40
1.866666666666619
100
AcDbArc
 50
309.9670979195
 51
9.9670979195
  0
ARC
  5
266
330
1F
100
AcDbEntity
  8
0
  6
Continuous
 62
     7
370
    25
100
AcDbCircle
 10
56.3940049327
 20
307.7576498799
 30
0.0
 40
1.866666666666728
100
AcDbArc
 50
249.9670979195
 51
309.9670979195
  0
ARC
  5
267
330
1F
100
AcDbEntity
  8
0
  6
Continuous
 62
     7
370
    25
100
AcDbCircle
 10
56.3940049327
 20
307.7576498799
 30
0.0
 40
1.866666666666728
100
AcDbArc
 50
189.9670979195
 51
249.9670979195
  0
ARC
  5
268
330
1F
100
AcDbEntity
  8
0
  6
Continuous
 62
     7
370
    25
100
AcDbCircle
 10
56.3940049327
 20
307.7576498799
 30
0.0
 40
1.866666666666702
100
AcDbArc
 50
129.9670979195
 51
189.9670979195
  0
ARC
  5
269
330
1F
100
AcDbEntity
  8
0
  6
Continuous
 62
     7
370
    25
100
AcDbCircle
 10
56.3940049327
 20
307.7576498799
 30
0.0
 40
1.866666666666736
100
AcDbArc
 50
69.9670979195
 51
129.9670979195
  0
ARC
  5
26A
330
1F
100
AcDbEntity
  8
0
  6
Continuous
 62
     7
370
    25
100
AcDbCircle
 10
56.3940049327
 20
307.7576498799
 30
0.0
 40
1.866666666666736
100
AcDbArc
 50
9.9670979195
 51
69.9670979195
  0
CIRCLE
  5
26B
330
1F
100
AcDbEntity
  8
0
  6
Continuous
 62
     7
370
    25
100
AcDbCircle
 10
56.3940049327
 20
251.7576498799
 30
0.0
 40
5.000000000000058
  0
CIRCLE
  5
26C
330
1F
100
AcDbEntity
  8
0
  6
Continuous
 62
     7
370
    25
100
AcDbCircle
 10
56.3940049327
 20
251.7576498799
 30
0.0
 40
4.615049880486023
  0
CIRCLE
  5
26D
330
1F
100
AcDbEntity
  8
0
  6
Continuous
 62
     7
370
    25
100
AcDbCircle
 10
56.3940049327
 20
251.7576498799
 30
0.0
 40
2.800000000000071
  0
LWPOLYLINE
  5
26E
330
1F
100
AcDbEntity
  8
0
  6
Continuous
 62
     7
370
    25
100
AcDbPolyline
 90
       11
 70
   128
 43
0.0
 10
53.6922176449
 20
251.0225679446
 10
53.7082662623
 20
250.9926518722
 10
53.7382142414
 20
250.9661824045
 10
53.8700496221
 20
250.909152158
 10
54.4630909647
 20
250.7577896901
 10
55.0791546266
 20
250.4326543641
 10
55.4090154757
 20
249.8191079225
 10
55.5649316478
 20
249.2272474847
 10
55.6229735096
 20
249.0958543384
 10
55.6496723787
 20
249.0661106909
 10
55.6797109186
 20
249.0502924854
  0
LWPOLYLINE
  5
26F
330
1F
100
AcDbEntity
  8
0
  6
Continuous
 62
     7
370
    25
100
AcDbPolyline
 90
       14
 70
   128
 43
0.0
 10
55.6797109186
 20
249.0502924854
 10
55.69861246
 20
249.0479171829
 10
55.7332924919
 20
249.0543618963
 10
55.7716021187
 20
249.0727751767
 10
55.8134972707
 20
249.1018688211
 10
55.9261834859
 20
249.2053022681
 10
56.2524094501
 20
249.5450889735
 10
56.6705148607
 20
249.8692231549
 10
57.1708833334
 20
249.9900923439
 10
57.9293870723
 20
249.8402506996
 10
58.216139903
 20
249.7656476211
 10
58.3265661937
 20
249.7605510039
 10
58.357815524
 20
249.7693475001
 10
58.3814982064
 20
249.7853744207
  0
LWPOLYLINE
  5
270
330
1F
100
AcDbEntity
  8
0
  6
Continuous
 62
     7
370
    25
100
AcDbPolyline
 90
       13
 70
   128
 43
0.0
 10
54.4065116589
 20
253.7299253391
 10
54.3876427343
 20
253.6983044921
 10
54.3802461043
 20
253.6547254724
 10
54.3880564025
 20
253.5644202979
 10
54.4648612883
 20
253.2782493442
 10
54.6205284424
 20
252.5209197083
 10
54.5035087059
 20
252.019637003
 10
54.1825976991
 20
251.5990526148
 10
53.845328436
 20
251.2702246522
 10
53.7231126801
 20
251.1292529975
 10
53.6982718915
 20
251.0827739032
 10
53.6896971334
 20
251.0414506708
 10
53.6922176449
 20
251.0225679446
  0
LWPOLYLINE
  5
271
330
1F
100
AcDbEntity
  8
0
  6
Continuous
 62
     7
370
    25
100
AcDbPolyline
 90
       13
 70
   128
 43
0.0
 10
58.3814982064
 20
249.7853744207
 10
58.4003671311
 20
249.8169952677
 10
58.407763761
 20
249.8605742874
 10
58.3999534628
 20
249.9508794619
 10
58.323148577
 20
250.2370504156
 10
58.1674814229
 20
250.9943800515
 10
58.2845011594
 20
251.4956627568
 10
58.6054121662
 20
251.916247145
 10
58.9426814293
 20
252.2450751076
 10
59.0648971852
 20
252.3860467623
 10
59.0897379738
 20
252.4325258567
 10
59.098312732
 20
252.473849089
 10
59.0957922204
 20
252.4927318152
  0
LWPOLYLINE
  5
272
330
1F
100
AcDbEntity
  8
0
  6
Continuous
 62
     7
370
    25
100
AcDbPolyline
 90
       14
 70
   128
 43
0.0
 10
57.1082989467
 20
254.4650072744
 10
57.0893974053
 20
254.467382577
 10
57.0547173735
 20
254.4609378635
 10
57.0164077467
 20
254.4425245831
 10
56.9745125947
 20
254.4134309387
 10
56.8618263794
 20
254.3099974917
 10
56.5356004152
 20
253.9702107863
 10
56.1174950047
 20
253.6460766049
 10
55.617126532
 20
253.5252074159
 10
54.858622793
 20
253.6750490602
 10
54.5718699624
 20
253.7496521387
 10
54.4614436717
 20
253.7547487559
 10
54.4301943413
 20
253.7459522598
 10
54.4065116589
 20
253.7299253391
  0
LWPOLYLINE
  5
273
330
1F
100
AcDbEntity
  8
0
  6
Continuous
 62
     7
370
    25
100
AcDbPolyline
 90
       11
 70
   128
 43
0.0
 10
59.0957922204
 20
252.4927318152
 10
59.079743603
 20
252.5226478876
 10
59.0497956239
 20
252.5491173554
 10
58.9179602432
 20
252.6061476018
 10
58.3249189007
 20
252.7575100697
 10
57.7088552388
 20
253.0826453957
 10
57.3789943897
 20
253.6961918373
 10
57.2230782175
 20
254.2880522752
 10
57.1650363557
 20
254.4194454214
 10
57.1383374867
 20
254.4491890689
 10
57.1082989467
 20
254.4650072744
  0
ARC
  5
274
330
1F
100
AcDbEntity
  8
0
  6
Continuous
 62
     7
370
    25
100
AcDbCircle
 10
56.3940049327
 20
251.7576498799
 30
0.0
 40
1.866666666666776
100
AcDbArc
 50
225.2201927219
 51
285.2201927219
  0
ARC
  5
275
330
1F
100
AcDbEntity
  8
0
  6
Continuous
 62
     7
370
    25
100
AcDbCircle
 10
56.3940049327
 20
251.7576498799
 30
0.0
 40
1.866666666666634
100
AcDbArc
 50
165.2201927219
 51
225.2201927219
  0
ARC
  5
276
330
1F
100
AcDbEntity
  8
0
  6
Continuous
 62
     7
370
    25
100
AcDbCircle
 10
56.3940049327
 20
251.7576498799
 30
0.0
 40
1.866666666666708
100
AcDbArc
 50
105.2201927219
 51
165.2201927219
  0
ARC
  5
277
330
1F
100
AcDbEntity
  8
0
  6
Continuous
 62
     7
370
    25
100
AcDbCircle
 10
56.3940049327
 20
251.7576498799
 30
0.0
 40
1.866666666666719
100
AcDbArc
 50
45.2201927219
 51
105.2201927219
  0
ARC
  5
278
330
1F
100
AcDbEntity
  8
0
  6
Continuous
 62
     7
370
    25
100
AcDbCircle
 10
56.3940049327
 20
251.7576498799
 30
0.0
 40
1.866666666666719
100
AcDbArc
 50
345.2201927219
 51
45.2201927219
  0
ARC
  5
279
330
1F
100
AcDbEntity
  8
0
  6
Continuous
 62
     7
370
    25
100
AcDbCircle
 10
56.3940049327
 20
251.7576498799
 30
0.0
 40
1.866666666666776
100
AcDbArc
 50
285.2201927219
 51
345.2201927219
  0
DIMENSION
  5
27A
330
1F
100
AcDbEntity
  8
FORMAT
100
AcDbDimension
  2
_D_2
 10
74.2873537664
 20
279.7576498799
 30
0.0
 11
74.2873537664
 21
265.7576498799
 31
0.0
 70
   160
  1
<>
 71
     2
 42
-1.0
  3
SLDDIMSTYLE0
100
AcDbAlignedDimension
 13
56.3940049327
 23
251.7576498799
 33
0.0
 14
68.7653857034
 24
279.7576498799
 34
0.0
 50
90.0
100
AcDbRotatedDimension
  0
DIMENSION
  5
284
330
1F
100
AcDbEntity
  8
FORMAT
100
AcDbDimension
  2
_D_3
 10
74.2873537664
 20
307.7576498799
 30
0.0
 11
74.2873537664
 21
293.7576498799
 31
0.0
 70
   160
  1
<>
 71
     2
 42
-1.0
  3
SLDDIMSTYLE0
100
AcDbAlignedDimension
 13
68.7653857034
 23
279.7576498799
 33
0.0
 14
56.3940049327
 24
307.7576498799
 34
0.0
 50
90.0
100
AcDbRotatedDimension
  0
DIMENSION
  5
28E
330
1F
100
AcDbEntity
  8
FORMAT
100
AcDbDimension
  2
_D_4
 10
81.4165608902
 20
335.7576498799
 30
0.0
 11
81.4165608902
 21
279.7576498799
 31
0.0
 70
   160
  1
<>
 71
     2
 42
-1.0
  3
SLDDIMSTYLE0
100
AcDbAlignedDimension
 13
53.3940049327
 23
223.7576498799
 33
0.0
 14
53.3940049327
 24
335.7576498799
 34
0.0
 50
90.0
100
AcDbRotatedDimension
  0
DIMENSION
  5
298
330
1F
100
AcDbEntity
  8
FORMAT
100
AcDbDimension
  2
_D_5
 10
88.8804380552
 20
357.7576498799
 30
0.0
 11
88.8804380552
 21
279.7576498799
 31
0.0
 70
   160
  1
<>
 71
     2
 42
-1.0
  3
SLDDIMSTYLE0
100
AcDbAlignedDimension
 13
59.3940049327
 23
201.7576498799
 33
0.0
 14
53.3940049327
 24
357.7576498799
 34
0.0
 50
90.0
100
AcDbRotatedDimension
  0
DIMENSION
  5
2A2
330
1F
100
AcDbEntity
  8
FORMAT
100
AcDbDimension
  2
_D_6
 10
95.523985693
 20
369.7576498799
 30
0.0
 11
95.523985693
 21
279.7576498799
 31
0.0
 70
   160
  1
<>
 71
     2
 42
-1.0
  3
SLDDIMSTYLE0
100
AcDbAlignedDimension
 13
53.3940049327
 23
189.7576498799
 33
0.0
 14
53.3940049327
 24
369.7576498799
 34
0.0
 50
90.0
100
AcDbRotatedDimension
  0
DIMENSION
  5
2AC
330
1F
100
AcDbEntity
  8
FORMAT
100
AcDbDimension
  2
_D_7
 10
56.3940049327
 20
318.9895072325
 30
0.0
 11
47.2003953311
 21
318.9895072325
 31
0.0
 70
   160
  1
<>
 71
     2
 42
-1.0
  3
SLDDIMSTYLE1
100
AcDbAlignedDimension
 13
53.3940049327
 23
327.7576498799
 33
0.0
 14
56.3940049327
 24
307.7576498799
 34
0.0
100
AcDbRotatedDimension
  0
DIMENSION
  5
2B8
330
1F
100
AcDbEntity
  8
FORMAT
100
AcDbDimension
  2
_D_8
 10
65.2940049327
 20
376.845377444
 30
0.0
 11
53.3940049327
 21
376.845377444
 31
0.0
 70
   160
  1
<>
 71
     2
 42
-1.0
  3
SLDDIMSTYLE2
100
AcDbAlignedDimension
 13
41.4940049327
 23
334.8576498799
 33
0.0
 14
65.2940049327
 24
334.8576498799
 34
0.0
 50
0.0
100
AcDbRotatedDimension
  0
MTEXT
  5
2C5
330
1F
100
AcDbEntity
  8
FORMAT
100
AcDbMText
 10
31.0872314566
 20
285.2135261345
 30
0.0
 40
3.5
 41
0.0
 71
     1
 72
     1
  1
BBL
  7
SLDTEXTSTYLE0
 73
     1
 44
1.0
  0
INSERT
  5
2D1
330
1F
100
AcDbEntity
  8
FORMAT
100
AcDbBlockReference
  2
SW_CENTERMARKSYMBOL_0
 10
53.3940049327
 20
201.7576498799
 30
0.0
  0
INSERT
  5
2DD
330
1F
100
AcDbEntity
  8
FORMAT
100
AcDbBlockReference
  2
SW_CENTERMARKSYMBOL_1
 10
53.3940049327
 20
357.7576498799
 30
0.0
  0
INSERT
  5
2E9
330
1F
100
AcDbEntity
  8
FORMAT
100
AcDbBlockReference
  2
SW_CENTERMARKSYMBOL_2
 10
53.3940049327
 20
223.7576498799
 30
0.0
  0
INSERT
  5
2F5
330
1F
100
AcDbEntity
  8
FORMAT
100
AcDbBlockReference
  2
SW_CENTERMARKSYMBOL_3
 10
53.3940049327
 20
335.7576498799
 30
0.0
  0
INSERT
  5
301
330
1F
100
AcDbEntity
  8
FORMAT
100
AcDbBlockReference
  2
SW_CENTERMARKSYMBOL_4
 10
53.3940049327
 20
265.7576498799
 30
0.0
  0
INSERT
  5
30D
330
1F
100
AcDbEntity
  8
FORMAT
100
AcDbBlockReference
  2
SW_CENTERMARKSYMBOL_5
 10
53.3940049327
 20
293.7576498799
 30
0.0
  0
INSERT
  5
319
330
1F
100
AcDbEntity
  8
FORMAT
100
AcDbBlockReference
  2
SW_CENTERMARKSYMBOL_6
 10
56.3940049327
 20
307.7576498799
 30
0.0
  0
INSERT
  5
325
330
1F
100
AcDbEntity
  8
FORMAT
100
AcDbBlockReference
  2
SW_CENTERMARKSYMBOL_7
 10
56.3940049327
 20
279.7576498799
 30
0.0
  0
INSERT
  5
331
330
1F
100
AcDbEntity
  8
FORMAT
100
AcDbBlockReference
  2
SW_CENTERMARKSYMBOL_8
 10
56.3940049327
 20
251.7576498799
 30
0.0
  0
ARC
  5
332
330
1F
100
AcDbEntity
  8
0
  6
Continuous
 62
     7
370
    25
100
AcDbCircle
 10
42.8940049327
 20
151.4251641351
 30
0.0
 40
1.0
100
AcDbArc
 50
270.0
 51
0.0
  0
ARC
  5
333
330
1F
100
AcDbEntity
  8
0
  6
Continuous
 62
     7
370
    25
100
AcDbCircle
 10
63.8940049327
 20
151.4251641351
 30
0.0
 40
1.0
100
AcDbArc
 50
180.0
 51
270.0
  0
LINE
  5
334
330
1F
100
AcDbEntity
  8
0
  6
Continuous
 62
     7
370
    25
100
AcDbLine
 10
62.8940049327
 20
151.4251641351
 30
0.0
 11
62.8940049327
 21
154.4251641351
 31
0.0
  0
LINE
  5
335
330
1F
100
AcDbEntity
  8
0
  6
Continuous
 62
     7
370
    25
100
AcDbLine
 10
43.8940049327
 20
154.4251641351
 30
0.0
 11
43.8940049327
 21
151.4251641351
 31
0.0
  0
LINE
  5
336
330
1F
100
AcDbEntity
  8
0
  6
Continuous
 62
     7
370
    25
100
AcDbLine
 10
58.3940049327
 20
139.6751641351
 30
0.0
 11
58.3940049327
 21
142.9251641351
 31
0.0
  0
LINE
  5
337
330
1F
100
AcDbEntity
  8
0
  6
Continuous
 62
     7
370
    25
100
AcDbLine
 10
48.3940049327
 20
142.9251641351
 30
0.0
 11
48.3940049327
 21
139.6751641351
 31
0.0
  0
LINE
  5
338
330
1F
100
AcDbEntity
  8
0
  6
Continuous
 62
     7
370
    25
100
AcDbLine
 10
61.0090548132
 20
142.0251641351
 30
0.0
 11
61.0877946103
 21
142.9251641351
 31
0.0
  0
LINE
  5
339
330
1F
100
AcDbEntity
  8
0
  6
Continuous
 62
     7
370
    25
100
AcDbLine
 10
41.8940049327
 20
150.4251641351
 30
0.0
 11
41.8940049327
 21
146.4251641351
 31
0.0
  0
LINE
  5
33A
330
1F
100
AcDbEntity
  8
0
  6
Continuous
 62
     7
370
    25
100
AcDbLine
 10
41.8940049327
 20
150.4251641351
 30
0.0
 11
44.3940049327
 21
150.4251641351
 31
0.0
  0
LINE
  5
33B
330
1F
100
AcDbEntity
  8
0
  6
Continuous
 62
     7
370
    25
100
AcDbLine
 10
62.3940049327
 20
150.4251641351
 30
0.0
 11
64.8940049327
 21
150.4251641351
 31
0.0
  0
LINE
  5
33C
330
1F
100
AcDbEntity
  8
0
  6
Continuous
 62
     7
370
    25
100
AcDbLine
 10
64.8940049327
 20
150.4251641351
 30
0.0
 11
64.8940049327
 21
146.4251641351
 31
0.0
  0
LINE
  5
33D
330
1F
100
AcDbEntity
  8
0
  6
Continuous
 62
     7
370
    25
100
AcDbLine
 10
41.8940049327
 20
146.4251641351
 30
0.0
 11
44.3126782474
 21
146.4251641351
 31
0.0
  0
LINE
  5
33E
330
1F
100
AcDbEntity
  8
0
  6
Continuous
 62
     7
370
    25
100
AcDbLine
 10
62.4164563531
 20
146.4251641351
 30
0.0
 11
64.8940049327
 21
146.4251641351
 31
0.0
  0
LINE
  5
33F
330
1F
100
AcDbEntity
  8
0
  6
Continuous
 62
     7
370
    25
100
AcDbLine
 10
43.8940049327
 20
154.4251641351
 30
0.0
 11
44.3940049327
 21
154.4251641351
 31
0.0
  0
LINE
  5
340
330
1F
100
AcDbEntity
  8
0
  6
Continuous
 62
     7
370
    25
100
AcDbLine
 10
62.3940049327
 20
154.4251641351
 30
0.0
 11
62.8940049327
 21
154.4251641351
 31
0.0
  0
LINE
  5
341
330
1F
100
AcDbEntity
  8
0
  6
Continuous
 62
     7
370
    25
100
AcDbLine
 10
58.3940049327
 20
139.6751641351
 30
0.0
 11
48.3940049327
 21
139.6751641351
 31
0.0
  0
LINE
  5
342
330
1F
100
AcDbEntity
  8
0
  6
Continuous
 62
     7
370
    25
100
AcDbLine
 10
41.4940049327
 20
145.9251641351
 30
0.0
 11
41.4940049327
 21
142.9251641351
 31
0.0
  0
LINE
  5
343
330
1F
100
AcDbEntity
  8
0
  6
Continuous
 62
     7
370
    25
100
AcDbLine
 10
65.2940049327
 20
142.9251641351
 30
0.0
 11
65.2940049327
 21
145.9251641351
 31
0.0
  0
LINE
  5
344
330
1F
100
AcDbEntity
  8
0
  6
Continuous
 62
     7
370
    25
100
AcDbLine
 10
65.2940049327
 20
145.9251641351
 30
0.0
 11
41.4940049327
 21
145.9251641351
 31
0.0
  0
LINE
  5
345
330
1F
100
AcDbEntity
  8
0
  6
Continuous
 62
     7
370
    25
100
AcDbLine
 10
65.2940049327
 20
142.9251641351
 30
0.0
 11
41.4940049327
 21
142.9251641351
 31
0.0
  0
LINE
  5
346
330
1F
100
AcDbEntity
  8
0
  6
Continuous
 62
     7
370
    25
100
AcDbLine
 10
62.3940049327
 20
145.962888917
 30
0.0
 11
62.3940049327
 21
146.9251641351
 31
0.0
  0
ARC
  5
347
330
1F
100
AcDbEntity
  8
0
  6
Continuous
 62
     7
370
    25
100
AcDbCircle
 10
62.5878386478
 20
146.4419673694
 30
0.0
 40
0.5168052560059206
100
AcDbArc
 50
247.9718907539
 51
269.839737358
  0
ARC
  5
348
330
1F
100
AcDbEntity
  8
0
  6
Continuous
 62
     7
370
    25
100
AcDbCircle
 10
44.2001712176
 20
146.4419673694
 30
0.0
 40
0.5168052560078537
100
AcDbArc
 50
270.160262642
 51
292.028109246
  0
LINE
  5
349
330
1F
100
AcDbEntity
  8
0
  6
Continuous
 62
     7
370
    25
100
AcDbLine
 10
44.3940049327
 20
146.9251641351
 30
0.0
 11
44.3940049327
 21
145.962888917
 31
0.0
  0
LINE
  5
34A
330
1F
100
AcDbEntity
  8
0
  6
Continuous
 62
     7
370
    25
100
AcDbLine
 10
44.3940049327
 20
146.9251641351
 30
0.0
 11
44.3940049327
 21
159.9251641351
 31
0.0
  0
LINE
  5
34B
330
1F
100
AcDbEntity
  8
0
  6
Continuous
 62
     7
370
    25
100
AcDbLine
 10
62.3940049327
 20
159.9251641351
 30
0.0
 11
62.3940049327
 21
146.9251641351
 31
0.0
  0
LINE
  5
34C
330
1F
100
AcDbEntity
  8
0
  6
Continuous
 62
     7
370
    25
100
AcDbLine
 10
62.3933331434
 20
163.9251641351
 30
0.0
 11
44.394676722
 21
163.9251641351
 31
0.0
  0
LINE
  5
34D
330
1F
100
AcDbEntity
  8
0
  6
Continuous
 62
     7
370
    25
100
AcDbLine
 10
62.3940049327
 20
159.9251641351
 30
0.0
 11
62.3940049327
 21
163.9251640348
 31
0.0
  0
LINE
  5
34E
330
1F
100
AcDbEntity
  8
0
  6
Continuous
 62
     7
370
    25
100
AcDbLine
 10
44.3940049327
 20
163.9251640348
 30
0.0
 11
44.3940049327
 21
159.9251641354
 31
0.0
  0
LINE
  5
34F
330
1F
100
AcDbEntity
  8
0
  6
Continuous
 62
     7
370
    25
100
AcDbLine
 10
65.2940049327
 20
163.9251641351
 30
0.0
 11
65.2940049327
 21
160.9251641351
 31
0.0
  0
LINE
  5
350
330
1F
100
AcDbEntity
  8
0
  6
Continuous
 62
     7
370
    25
100
AcDbLine
 10
65.2940049327
 20
160.9251641351
 30
0.0
 11
62.3940049327
 21
160.9251641351
 31
0.0
  0
LINE
  5
351
330
1F
100
AcDbEntity
  8
0
  6
Continuous
 62
     7
370
    25
100
AcDbLine
 10
62.3940049327
 20
163.9251641351
 30
0.0
 11
65.2940049327
 21
163.9251641351
 31
0.0
  0
LINE
  5
352
330
1F
100
AcDbEntity
  8
0
  6
Continuous
 62
     7
370
    25
100
AcDbLine
 10
41.4940049327
 20
160.9251641351
 30
0.0
 11
41.4940049327
 21
163.9251641351
 31
0.0
  0
LINE
  5
353
330
1F
100
AcDbEntity
  8
0
  6
Continuous
 62
     7
370
    25
100
AcDbLine
 10
44.3940049327
 20
160.9251641351
 30
0.0
 11
41.4940049327
 21
160.9251641351
 31
0.0
  0
LINE
  5
354
330
1F
100
AcDbEntity
  8
0
  6
Continuous
 62
     7
370
    25
100
AcDbLine
 10
41.4940049327
 20
163.9251641351
 30
0.0
 11
44.3940049327
 21
163.9251641351
 31
0.0
  0
LINE
  5
355
330
1F
100
AcDbEntity
  8
0
  6
Continuous
 62
     7
370
    25
100
AcDbLine
 10
58.3940049327
 20
142.0251641351
 30
0.0
 11
61.0090548132
 21
142.0251641351
 31
0.0
  0
LINE
  5
356
330
1F
100
AcDbEntity
  8
0
  6
Continuous
 62
     7
370
    25
100
AcDbLine
 10
64.8940049327
 20
153.7533653125
 30
0.0
 11
62.8940049327
 21
153.7533653125
 31
0.0
  0
LINE
  5
357
330
1F
100
AcDbEntity
  8
0
  6
Continuous
 62
     7
370
    25
100
AcDbLine
 10
64.8940049327
 20
150.4251641351
 30
0.0
 11
64.8940049327
 21
153.7533653125
 31
0.0
  0
LINE
  5
358
330
1F
100
AcDbEntity
  8
0
  6
Continuous
 62
     7
370
    25
100
AcDbLine
 10
62.8940049327
 20
154.4251641351
 30
0.0
 11
62.8940049327
 21
156.5639110855
 31
0.0
  0
ARC
  5
359
330
1F
100
AcDbEntity
  8
0
  6
Continuous
 62
     7
370
    25
100
AcDbCircle
 10
61.9707726525
 20
156.5639102859
 30
0.0
 40
0.9232322801794111
100
AcDbArc
 50
0.0000496251
 51
1.3347405695
  0
LINE
  5
35A
330
1F
100
AcDbEntity
  8
0
  6
Continuous
 62
     7
370
    25
100
AcDbLine
 10
64.8940049327
 20
153.7533653125
 30
0.0
 11
64.8940049327
 21
156.5854156068
 31
0.0
  0
LINE
  5
35B
330
1F
100
AcDbEntity
  8
0
  6
Continuous
 62
     7
370
    25
100
AcDbLine
 10
43.8940049327
 20
153.7533653125
 30
0.0
 11
41.8940049327
 21
153.7533653125
 31
0.0
  0
LINE
  5
35C
330
1F
100
AcDbEntity
  8
0
  6
Continuous
 62
     7
370
    25
100
AcDbLine
 10
41.8940049327
 20
153.7533653125
 30
0.0
 11
41.8940049327
 21
156.5854156068
 31
0.0
  0
ARC
  5
35D
330
1F
100
AcDbEntity
  8
0
  6
Continuous
 62
     7
370
    25
100
AcDbCircle
 10
44.8172372127
 20
156.5639102859
 30
0.0
 40
0.9232322800688503
100
AcDbArc
 50
178.6652594304
 51
179.999950375
  0
LINE
  5
35E
330
1F
100
AcDbEntity
  8
0
  6
Continuous
 62
     7
370
    25
100
AcDbLine
 10
43.8940049327
 20
156.5639110855
 30
0.0
 11
43.8940049327
 21
154.4251641351
 31
0.0
  0
LINE
  5
35F
330
1F
100
AcDbEntity
  8
0
  6
Continuous
 62
     7
370
    25
100
AcDbLine
 10
41.8940049327
 20
150.4251641351
 30
0.0
 11
41.8940049327
 21
153.7533653125
 31
0.0
  0
LWPOLYLINE
  5
360
330
1F
100
AcDbEntity
  8
0
  6
Continuous
 62
     7
370
    25
100
AcDbPolyline
 90
        3
 70
   128
 43
0.0
 10
62.3940049327
 20
157.3758425877
 10
62.6968067344
 20
157.2295452389
 10
62.8937544315
 20
156.5854156068
  0
LINE
  5
361
330
1F
100
AcDbEntity
  8
0
  6
Continuous
 62
     7
370
    25
100
AcDbLine
 10
64.8940049327
 20
157.4251641351
 30
0.0
 11
62.3940049327
 21
157.4251641351
 31
0.0
  0
LINE
  5
362
330
1F
100
AcDbEntity
  8
0
  6
Continuous
 62
     7
370
    25
100
AcDbLine
 10
64.8940049327
 20
156.5854156068
 30
0.0
 11
64.8940049327
 21
157.4251641351
 31
0.0
  0
LINE
  5
363
330
1F
100
AcDbEntity
  8
0
  6
Continuous
 62
     7
370
    25
100
AcDbLine
 10
44.3940049327
 20
157.4251641351
 30
0.0
 11
41.8940049327
 21
157.4251641351
 31
0.0
  0
LWPOLYLINE
  5
364
330
1F
100
AcDbEntity
  8
0
  6
Continuous
 62
     7
370
    25
100
AcDbPolyline
 90
        3
 70
   128
 43
0.0
 10
43.8942554339
 20
156.5854156068
 10
44.0762908973
 20
157.2054705359
 10
44.3940049327
 20
157.3717402524
  0
LINE
  5
365
330
1F
100
AcDbEntity
  8
0
  6
Continuous
 62
     7
370
    25
100
AcDbLine
 10
41.8940049327
 20
157.4251641351
 30
0.0
 11
41.8940049327
 21
156.5854156068
 31
0.0
  0
LINE
  5
366
330
1F
100
AcDbEntity
  8
FORMAT
  6
CENTERX2
370
    18
100
AcDbLine
 10
53.3940049327
 20
137.6751641351
 30
0.0
 11
53.3940049327
 21
164.9251641351
 31
0.0
  0
LINE
  5
367
330
1F
100
AcDbEntity
  8
0
  6
CENTER
 62
     7
370
    18
100
AcDbLine
 10
471.4678446533
 20
176.3133636013
 30
0.0
 11
536.9678432824
 21
176.3133636013
 31
0.0
  0
LINE
  5
368
330
1F
100
AcDbEntity
  8
0
  6
CENTER
 62
     7
370
    18
100
AcDbLine
 10
536.9678432824
 20
368.7859704987
 30
0.0
 11
471.4678446533
 21
368.7859704987
 31
0.0
  0
LINE
  5
369
330
1F
100
AcDbEntity
  8
0
  6
Continuous
 62
     7
370
    25
100
AcDbLine
 10
491.9678442882
 20
176.3133636013
 30
0.0
 11
491.9678442882
 21
368.7859704987
 31
0.0
  0
LINE
  5
36A
330
1F
100
AcDbEntity
  8
0
  6
Continuous
 62
     7
370
    25
100
AcDbLine
 10
473.4678431185
 20
176.3133636013
 30
0.0
 11
473.4678431185
 21
368.7859704987
 31
0.0
  0
LINE
  5
36B
330
1F
100
AcDbEntity
  8
0
  6
Continuous
 62
     7
370
    25
100
AcDbLine
 10
493.9678436847
 20
176.3133636013
 30
0.0
 11
493.9678436847
 21
368.7859704987
 31
0.0
  0
LINE
  5
36C
330
1F
100
AcDbEntity
  8
0
  6
Continuous
 62
     7
370
    25
100
AcDbLine
 10
471.4678446533
 20
176.3133636013
 30
0.0
 11
471.4678446533
 21
368.7859704987
 31
0.0
  0
LINE
  5
36D
330
1F
100
AcDbEntity
  8
0
  6
Continuous
 62
     7
370
    25
100
AcDbLine
 10
536.9678432824
 20
320.0571021334
 30
0.0
 11
536.9678432824
 21
368.7859704987
 31
0.0
  0
LINE
  5
36E
330
1F
100
AcDbEntity
  8
0
  6
Continuous
 62
     7
370
    25
100
AcDbLine
 10
534.9678448172
 20
320.0571021334
 30
0.0
 11
536.9678432824
 21
320.0571021334
 31
0.0
  0
LINE
  5
36F
330
1F
100
AcDbEntity
  8
0
  6
Continuous
 62
     7
370
    25
100
AcDbLine
 10
534.9678448172
 20
320.0571021334
 30
0.0
 11
534.9678448172
 21
368.7859704987
 31
0.0
  0
LINE
  5
370
330
1F
100
AcDbEntity
  8
0
  6
Continuous
 62
     7
370
    25
100
AcDbLine
 10
534.9678448172
 20
176.3133636013
 30
0.0
 11
534.9678448172
 21
226.0571053521
 31
0.0
  0
LINE
  5
371
330
1F
100
AcDbEntity
  8
0
  6
Continuous
 62
     7
370
    25
100
AcDbLine
 10
536.9678432824
 20
226.0571053521
 30
0.0
 11
534.9678448172
 21
226.0571053521
 31
0.0
  0
LINE
  5
372
330
1F
100
AcDbEntity
  8
0
  6
Continuous
 62
     7
370
    25
100
AcDbLine
 10
536.9678432824
 20
176.3133636013
 30
0.0
 11
536.9678432824
 21
226.0571053521
 31
0.0
  0
LINE
  5
373
330
1F
100
AcDbEntity
  8
0
  6
Continuous
 62
     7
370
    25
100
AcDbLine
 10
507.967843884
 20
351.0571053521
 30
0.0
 11
507.967843884
 21
195.0571021334
 31
0.0
  0
ARC
  5
374
330
1F
100
AcDbEntity
  8
0
  6
Continuous
 62
     7
370
    25
100
AcDbCircle
 10
519.9678441048
 20
195.0571073899
 30
0.0
 40
12.0000002207246
100
AcDbArc
 50
180.000025098
 51
359.999974902
  0
LINE
  5
375
330
1F
100
AcDbEntity
  8
0
  6
Continuous
 62
     7
370
    25
100
AcDbLine
 10
531.9678443255
 20
195.0571021334
 30
0.0
 11
531.9678443255
 21
226.0571053521
 31
0.0
  0
LINE
  5
376
330
1F
100
AcDbEntity
  8
0
  6
Continuous
 62
     7
370
    25
100
AcDbLine
 10
531.9678443255
 20
226.0571053521
 30
0.0
 11
534.9678448172
 21
226.0571053521
 31
0.0
  0
LINE
  5
377
330
1F
100
AcDbEntity
  8
0
  6
Continuous
 62
     7
370
    25
100
AcDbLine
 10
534.9678448172
 20
320.0571021334
 30
0.0
 11
531.9678443255
 21
320.0571021334
 31
0.0
  0
LINE
  5
378
330
1F
100
AcDbEntity
  8
0
  6
Continuous
 62
     7
370
    25
100
AcDbLine
 10
531.9678443255
 20
320.0571021334
 30
0.0
 11
531.9678443255
 21
351.0571053521
 31
0.0
  0
ARC
  5
379
330
1F
100
AcDbEntity
  8
0
  6
Continuous
 62
     7
370
    25
100
AcDbCircle
 10
519.9678441048
 20
351.0571000377
 30
0.0
 40
12.00000022072463
100
AcDbArc
 50
0.0000253744
 51
179.9999746256
  0
ARC
  5
37A
330
1F
100
AcDbEntity
  8
0
  6
Continuous
 62
     7
370
    25
100
AcDbCircle
 10
519.9678441048
 20
212.5571056018
 30
0.0
 40
12.00000022072355
100
AcDbArc
 50
180.0000073111
 51
359.9999926889
  0
ARC
  5
37B
330
1F
100
AcDbEntity
  8
0
  6
Continuous
 62
     7
370
    25
100
AcDbCircle
 10
519.9678441048
 20
333.5571018258
 30
0.0
 40
12.00000022072356
100
AcDbArc
 50
0.0000075874
 51
179.9999924126
  0
LINE
  5
37C
330
1F
100
AcDbEntity
  8
0
  6
Continuous
 62
     7
370
    25
100
AcDbLine
 10
536.9678432824
 20
226.0571053521
 30
0.0
 11
536.9678432824
 21
320.0571021334
 31
0.0
  0
DIMENSION
  5
37D
330
1F
100
AcDbEntity
  8
FORMAT
100
AcDbDimension
  2
_D_9
 10
553.7152480068
 20
226.0571037427
 30
0.0
 11
553.7152480068
 21
273.0571037427
 31
0.0
 70
   160
  1
<>
 71
     2
 42
-1.0
  3
SLDDIMSTYLE0
100
AcDbAlignedDimension
 13
536.9678439679
 23
320.0571037427
 33
0.0
 14
536.9678439679
 24
226.0571037427
 34
0.0
 50
90.0
100
AcDbRotatedDimension
  0
DIMENSION
  5
387
330
1F
100
AcDbEntity
  8
FORMAT
100
AcDbDimension
  2
_D_10
 10
560.3116762486
 20
200.5571037427
 30
0.0
 11
560.3116762486
 21
273.0571037427
 31
0.0
 70
   160
  1
<>
 71
     2
 42
-1.0
  3
SLDDIMSTYLE0
100
AcDbAlignedDimension
 13
519.9678439679
 23
345.5571037427
 33
0.0
 14
519.9678439679
 24
200.5571037427
 34
0.0
 50
90.0
100
AcDbRotatedDimension
  0
DIMENSION
  5
391
330
1F
100
AcDbEntity
  8
FORMAT
100
AcDbDimension
  2
_D_11
 10
519.9678439679
 20
212.5571037427
 30
0.0
 11
502.1860634213
 21
194.8873787696
 31
0.0
 70
   164
  1
<>
 71
     1
 42
-1.0
  3
SLDDIMSTYLE3
100
AcDbRadialDimension
 15
511.4557847432
 25
204.0986849924
 35
0.0
 40
0.0
  0
DIMENSION
  5
399
330
1F
100
AcDbEntity
  8
FORMAT
100
AcDbDimension
  2
_D_12
 10
519.9678439679
 20
195.0571037427
 30
0.0
 11
504.9367985177
 21
181.1337032874
 31
0.0
 70
   164
  1
<>
 71
     1
 42
-1.0
  3
SLDDIMSTYLE3
100
AcDbRadialDimension
 15
511.1643997571
 25
186.9023891537
 35
0.0
 40
0.0
  0
DIMENSION
  5
3A0
330
1F
100
AcDbEntity
  8
FORMAT
100
AcDbDimension
  2
_D_13
 10
546.9678432824
 20
259.0571037427
 30
0.0
 11
546.9678432824
 21
273.0571037427
 31
0.0
 70
   160
  1
<>
 71
     2
 42
-1.0
  3
SLDDIMSTYLE0
100
AcDbAlignedDimension
 13
523.7178439679
 23
287.0571037427
 33
0.0
 14
523.7178439679
 24
259.0571037427
 34
0.0
 50
90.0
100
AcDbRotatedDimension
  0
DIMENSION
  5
3AA
330
1F
100
AcDbEntity
  8
FORMAT
100
AcDbDimension
  2
_D_14
 10
566.9007673881
 20
195.0571037427
 30
0.0
 11
566.9007673881
 21
273.0571037427
 31
0.0
 70
   160
  1
<>
 71
     2
 42
-1.0
  3
SLDDIMSTYLE0
100
AcDbAlignedDimension
 13
524.4678439679
 23
351.0571037427
 33
0.0
 14
524.4678439679
 24
195.0571037427
 34
0.0
 50
90.0
100
AcDbRotatedDimension
  0
DIMENSION
  5
3B4
330
1F
100
AcDbEntity
  8
FORMAT
100
AcDbDimension
  2
_D_15
 10
573.6141810019
 20
183.0571037427
 30
0.0
 11
573.6141810019
 21
273.0571037427
 31
0.0
 70
   160
  1
<>
 71
     2
 42
-1.0
  3
SLDDIMSTYLE0
100
AcDbAlignedDimension
 13
519.9678439679
 23
363.0571037427
 33
0.0
 14
519.9678439679
 24
183.0571037427
 34
0.0
 50
90.0
100
AcDbRotatedDimension
  0
MTEXT
  5
3BE
330
1F
100
AcDbEntity
  8
FORMAT
100
AcDbMText
 10
513.0786677206
 20
277.7102905071
 30
0.0
 40
3.5
 41
0.0
 71
     1
 72
     1
  1
BBL
  7
SLDTEXTSTYLE0
 73
     1
 44
1.0
  0
INSERT
  5
3C4
330
1F
100
AcDbEntity
  8
FORMAT
100
AcDbBlockReference
  2
SW_NOTE_0_9
 10
442.3844017201
 20
383.0144453038
 30
0.0
  0
INSERT
  5
3D0
330
1F
100
AcDbEntity
  8
FORMAT
100
AcDbBlockReference
  2
SW_CENTERMARKSYMBOL_9
 10
519.9678442212
 20
195.0571021334
 30
0.0
  0
INSERT
  5
3DC
330
1F
100
AcDbEntity
  8
FORMAT
100
AcDbBlockReference
  2
SW_CENTERMARKSYMBOL_10
 10
519.9678442212
 20
351.0571053521
 30
0.0
  0
INSERT
  5
3E8
330
1F
100
AcDbEntity
  8
FORMAT
100
AcDbBlockReference
  2
SW_CENTERMARKSYMBOL_11
 10
519.9678442212
 20
259.0571033106
 30
0.0
  0
INSERT
  5
3F4
330
1F
100
AcDbEntity
  8
FORMAT
100
AcDbBlockReference
  2
SW_CENTERMARKSYMBOL_12
 10
519.9678442212
 20
287.0571041749
 30
0.0
  0
INSERT
  5
400
330
1F
100
AcDbEntity
  8
FORMAT
100
AcDbBlockReference
  2
SW_CENTERMARKSYMBOL_13
 10
519.9678442212
 20
195.0571021334
 30
0.0
  0
INSERT
  5
40C
330
1F
100
AcDbEntity
  8
FORMAT
100
AcDbBlockReference
  2
SW_CENTERMARKSYMBOL_14
 10
519.9678442212
 20
351.0571053521
 30
0.0
  0
INSERT
  5
418
330
1F
100
AcDbEntity
  8
FORMAT
100
AcDbBlockReference
  2
SW_CENTERMARKSYMBOL_15
 10
519.9678442212
 20
259.0571033106
 30
0.0
  0
INSERT
  5
424
330
1F
100
AcDbEntity
  8
FORMAT
100
AcDbBlockReference
  2
SW_CENTERMARKSYMBOL_16
 10
519.9678442212
 20
287.0571041749
 30
0.0
  0
LINE
  5
425
330
1F
100
AcDbEntity
  8
0
  6
CENTER
 62
     7
370
    18
100
AcDbLine
 10
542.0146368355
 20
273.0571037427
 30
0.0
 11
465.2133607341
 21
273.0571037427
 31
0.0
  0
LINE
  5
426
330
1F
100
AcDbEntity
  8
0
  6
Continuous
 62
     7
370
    18
100
AcDbLine
 10
540.0146368355
 20
285.7571037427
 30
0.0
 11
540.0146368355
 21
273.0571037427
 31
0.0
  0
SOLID
  5
427
330
1F
100
AcDbEntity
  8
0
  6
Continuous
 62
     7
370
    18
100
AcDbTrace
 10
540.0146368355
 20
273.0571037427
 30
0.0
 11
541.0306368355
 21
279.4071037427
 31
0.0
 12
538.9986368355
 22
279.4071037427
 32
0.0
 13
538.9986368355
 23
279.4071037427
 33
0.0
  0
LINE
  5
428
330
1F
100
AcDbEntity
  8
0
  6
Continuous
 62
     7
370
    18
100
AcDbLine
 10
467.2133607341
 20
285.7571037427
 30
0.0
 11
467.2133607341
 21
273.0571037427
 31
0.0
  0
SOLID
  5
429
330
1F
100
AcDbEntity
  8
0
  6
Continuous
 62
     7
370
    18
100
AcDbTrace
 10
467.2133607341
 20
273.0571037427
 30
0.0
 11
468.2293607341
 21
279.4071037427
 31
0.0
 12
466.1973607341
 22
279.4071037427
 32
0.0
 13
466.1973607341
 23
279.4071037427
 33
0.0
  0
LINE
  5
42A
330
1F
100
AcDbEntity
  8
0
  6
CENTER
 62
     7
370
    18
100
AcDbLine
 10
536.9678432824
 20
152.2354737302
 30
0.0
 11
471.4678446533
 21
152.2354737302
 31
0.0
  0
LINE
  5
42B
330
1F
100
AcDbEntity
  8
0
  6
Continuous
 62
     7
370
    25
100
AcDbLine
 10
487.9678445639
 20
108.8012440508
 30
0.0
 11
487.9678445639
 21
112.8012465691
 31
0.0
  0
LINE
  5
42C
330
1F
100
AcDbEntity
  8
0
  6
Continuous
 62
     7
370
    25
100
AcDbLine
 10
493.9678436847
 20
108.8012440508
 30
0.0
 11
487.9678445639
 21
108.8012440508
 31
0.0
  0
LINE
  5
42D
330
1F
100
AcDbEntity
  8
0
  6
Continuous
 62
     7
370
    25
100
AcDbLine
 10
493.9678436847
 20
104.8012471205
 30
0.0
 11
493.9678436847
 21
108.8012440508
 31
0.0
  0
LINE
  5
42E
330
1F
100
AcDbEntity
  8
0
  6
Continuous
 62
     7
370
    25
100
AcDbLine
 10
491.9678442882
 20
102.8012467926
 30
0.0
 11
493.9678436847
 21
104.8012471205
 31
0.0
  0
LINE
  5
42F
330
1F
100
AcDbEntity
  8
0
  6
Continuous
 62
     7
370
    25
100
AcDbLine
 10
473.4678431185
 20
102.8012467926
 30
0.0
 11
491.9678442882
 21
102.8012467926
 31
0.0
  0
LINE
  5
430
330
1F
100
AcDbEntity
  8
0
  6
Continuous
 62
     7
370
    25
100
AcDbLine
 10
471.4678446533
 20
104.8012471205
 30
0.0
 11
473.4678431185
 21
102.8012467926
 31
0.0
  0
LINE
  5
431
330
1F
100
AcDbEntity
  8
0
  6
Continuous
 62
     7
370
    25
100
AcDbLine
 10
471.4678446533
 20
152.2354737302
 30
0.0
 11
471.4678446533
 21
104.8012471205
 31
0.0
  0
LINE
  5
432
330
1F
100
AcDbEntity
  8
0
  6
Continuous
 62
     7
370
    25
100
AcDbLine
 10
536.9678432824
 20
141.8012458511
 30
0.0
 11
536.9678432824
 21
152.2354737302
 31
0.0
  0
LINE
  5
433
330
1F
100
AcDbEntity
  8
0
  6
Continuous
 62
     7
370
    25
100
AcDbLine
 10
536.9678432824
 20
141.8012458511
 30
0.0
 11
507.967843884
 21
141.8012458511
 31
0.0
  0
LINE
  5
434
330
1F
100
AcDbEntity
  8
0
  6
Continuous
 62
     7
370
    25
100
AcDbLine
 10
507.967843884
 20
117.801245526
 30
0.0
 11
507.967843884
 21
141.8012458511
 31
0.0
  0
LINE
  5
435
330
1F
100
AcDbEntity
  8
0
  6
Continuous
 62
     7
370
    25
100
AcDbLine
 10
493.9678436847
 20
117.801245526
 30
0.0
 11
507.967843884
 21
117.801245526
 31
0.0
  0
LINE
  5
436
330
1F
100
AcDbEntity
  8
0
  6
Continuous
 62
     7
370
    25
100
AcDbLine
 10
493.9678436847
 20
112.8012465691
 30
0.0
 11
493.9678436847
 21
117.801245526
 31
0.0
  0
LINE
  5
437
330
1F
100
AcDbEntity
  8
0
  6
Continuous
 62
     7
370
    25
100
AcDbLine
 10
487.9678445639
 20
112.8012465691
 30
0.0
 11
493.9678436847
 21
112.8012465691
 31
0.0
  0
LINE
  5
438
330
1F
100
AcDbEntity
  8
0
  6
Continuous
 62
     7
370
    25
100
AcDbLine
 10
536.9678432824
 20
119.8012458539
 30
0.0
 11
534.9678448172
 21
117.801245526
 31
0.0
  0
LINE
  5
439
330
1F
100
AcDbEntity
  8
0
  6
Continuous
 62
     7
370
    25
100
AcDbLine
 10
531.9678443255
 20
141.8012458511
 30
0.0
 11
531.9678443255
 21
117.801245526
 31
0.0
  0
LINE
  5
43A
330
1F
100
AcDbEntity
  8
0
  6
Continuous
 62
     7
370
    25
100
AcDbLine
 10
531.9678443255
 20
117.801245526
 30
0.0
 11
534.9678448172
 21
117.801245526
 31
0.0
  0
LINE
  5
43B
330
1F
100
AcDbEntity
  8
0
  6
Continuous
 62
     7
370
    25
100
AcDbLine
 10
536.9678432824
 20
141.8012458511
 30
0.0
 11
536.9678432824
 21
119.8012458539
 31
0.0
  0
LINE
  5
43C
330
1F
100
AcDbEntity
  8
0
  6
Continuous
 62
     7
370
    25
100
AcDbLine
 10
507.967843884
 20
123.8012465095
 30
0.0
 11
531.9678443255
 21
123.8012465095
 31
0.0
  0
LINE
  5
43D
330
1F
100
AcDbEntity
  8
0
  6
Continuous
 62
     7
370
    25
100
AcDbLine
 10
507.967843884
 20
117.801245526
 30
0.0
 11
531.9678443255
 21
117.801245526
 31
0.0
  0
INSERT
  5
45D
330
1F
100
AcDbEntity
  8
0
  6
Continuous
 62
     7
370
    18
100
AcDbBlockReference
  2
SW_HATCH_0
 10
473.6520717623
 20
152.2354737302
 30
0.0
  0
DIMENSION
  5
45E
330
1F
100
AcDbEntity
  8
FORMAT
100
AcDbDimension
  2
_D_16
 10
553.9073871485
 20
117.8012458986
 30
0.0
 11
553.9073871485
 21
129.8012458986
 31
0.0
 70
   160
  1
<>
 71
     2
 42
-1.0
  3
SLDDIMSTYLE0
100
AcDbAlignedDimension
 13
536.9678439679
 23
141.8012458986
 33
0.0
 14
534.9678439679
 24
117.8012458986
 34
0.0
 50
90.0
100
AcDbRotatedDimension
  0
DIMENSION
  5
468
330
1F
100
AcDbEntity
  8
FORMAT
100
AcDbDimension
  2
_D_17
 10
546.9678439679
 20
117.8012458986
 30
0.0
 11
546.9678439679
 21
106.6189900856
 31
0.0
 70
   160
  1
<>
 71
     2
 42
-1.0
  3
SLDDIMSTYLE1
100
AcDbAlignedDimension
 13
531.9678439679
 23
123.8012458986
 33
0.0
 14
534.9678439679
 24
117.8012458986
 34
0.0
 50
90.0
100
AcDbRotatedDimension
  0
DIMENSION
  5
474
330
1F
100
AcDbEntity
  8
FORMAT
100
AcDbDimension
  2
_D_18
 10
531.9678439679
 20
108.322079163
 30
0.0
 11
519.9678439679
 21
108.322079163
 31
0.0
 70
   160
  1
<>
 71
     2
 42
-1.0
  3
SLDDIMSTYLE0
100
AcDbAlignedDimension
 13
507.9678439679
 23
117.8012458986
 33
0.0
 14
531.9678439679
 24
117.8012458986
 34
0.0
100
AcDbRotatedDimension
  0
DIMENSION
  5
47E
330
1F
100
AcDbEntity
  8
FORMAT
100
AcDbDimension
  2
_D_19
 10
536.9678439679
 20
100.567577598
 30
0.0
 11
522.4678439679
 21
100.567577598
 31
0.0
 70
   160
  1
<>
 71
     2
 42
-1.0
  3
SLDDIMSTYLE0
100
AcDbAlignedDimension
 13
507.9678439679
 23
117.8012458986
 33
0.0
 14
536.9678439679
 24
119.8012458539
 34
0.0
100
AcDbRotatedDimension
  0
DIMENSION
  5
488
330
1F
100
AcDbEntity
  8
FORMAT
100
AcDbDimension
  2
_D_20
 10
464.3393492733
 20
152.2354735044
 30
0.0
 11
464.3393492733
 21
124.320151394
 31
0.0
 70
   160
  1
<>
 71
     2
 42
-1.0
  3
SLDDIMSTYLE4
100
AcDbAlignedDimension
 13
473.4678439679
 23
102.8012458986
 33
0.0
 14
472.2319882777
 24
152.2354735044
 34
0.0
 50
90.0
100
AcDbRotatedDimension
  0
LINE
  5
495
330
1F
100
AcDbEntity
  8
FORMAT
  6
CENTERX2
370
    18
100
AcDbLine
 10
519.9678442212
 20
143.8012459461
 30
0.0
 11
519.9678442212
 21
115.8012451982
 31
0.0
  0
LINE
  5
496
330
1F
100
AcDbEntity
  8
0
  6
CENTER
 62
     7
370
    18
100
AcDbLine
 10
277.1287177136
 20
176.3133636013
 30
0.0
 11
342.6287163427
 21
176.3133636013
 31
0.0
  0
LINE
  5
497
330
1F
100
AcDbEntity
  8
0
  6
CENTER
 62
     7
370
    18
100
AcDbLine
 10
342.6287163427
 20
368.7859704987
 30
0.0
 11
277.1287177136
 21
368.7859704987
 31
0.0
  0
LINE
  5
498
330
1F
100
AcDbEntity
  8
0
  6
Continuous
 62
     7
370
    25
100
AcDbLine
 10
297.6287173485
 20
176.3133636013
 30
0.0
 11
297.6287173485
 21
368.7859704987
 31
0.0
  0
LINE
  5
499
330
1F
100
AcDbEntity
  8
0
  6
Continuous
 62
     7
370
    25
100
AcDbLine
 10
279.1287161788
 20
176.3133636013
 30
0.0
 11
279.1287161788
 21
368.7859704987
 31
0.0
  0
LINE
  5
49A
330
1F
100
AcDbEntity
  8
0
  6
Continuous
 62
     7
370
    25
100
AcDbLine
 10
299.628716745
 20
176.3133636013
 30
0.0
 11
299.628716745
 21
368.7859704987
 31
0.0
  0
LINE
  5
49B
330
1F
100
AcDbEntity
  8
0
  6
Continuous
 62
     7
370
    25
100
AcDbLine
 10
277.1287177136
 20
176.3133636013
 30
0.0
 11
277.1287177136
 21
368.7859704987
 31
0.0
  0
LINE
  5
49C
330
1F
100
AcDbEntity
  8
0
  6
Continuous
 62
     7
370
    25
100
AcDbLine
 10
340.6287178775
 20
176.3133636013
 30
0.0
 11
340.6287178775
 21
368.7859704987
 31
0.0
  0
LINE
  5
49D
330
1F
100
AcDbEntity
  8
0
  6
Continuous
 62
     7
370
    25
100
AcDbLine
 10
342.6287163427
 20
176.3133636013
 30
0.0
 11
342.6287163427
 21
368.7859704987
 31
0.0
  0
ARC
  5
49E
330
1F
100
AcDbEntity
  8
0
  6
Continuous
 62
     7
370
    25
100
AcDbCircle
 10
325.628717165
 20
195.0571073899
 30
0.0
 40
12.0000002207246
100
AcDbArc
 50
180.000025098
 51
359.999974902
  0
LINE
  5
49F
330
1F
100
AcDbEntity
  8
0
  6
Continuous
 62
     7
370
    25
100
AcDbLine
 10
337.6287173858
 20
195.0571021334
 30
0.0
 11
337.6287173858
 21
351.0571053521
 31
0.0
  0
ARC
  5
4A0
330
1F
100
AcDbEntity
  8
0
  6
Continuous
 62
     7
370
    25
100
AcDbCircle
 10
325.628717165
 20
351.0571000377
 30
0.0
 40
12.00000022072463
100
AcDbArc
 50
0.0000253744
 51
179.9999746256
  0
LINE
  5
4A1
330
1F
100
AcDbEntity
  8
0
  6
Continuous
 62
     7
370
    25
100
AcDbLine
 10
313.6287169443
 20
351.0571053521
 30
0.0
 11
313.6287169443
 21
195.0571021334
 31
0.0
  0
ARC
  5
4A2
330
1F
100
AcDbEntity
  8
0
  6
Continuous
 62
     7
370
    25
100
AcDbCircle
 10
325.628717165
 20
333.5571018258
 30
0.0
 40
12.00000022072356
100
AcDbArc
 50
0.0000075874
 51
179.9999924126
  0
ARC
  5
4A3
330
1F
100
AcDbEntity
  8
0
  6
Continuous
 62
     7
370
    25
100
AcDbCircle
 10
325.628717165
 20
212.5571056018
 30
0.0
 40
12.00000022072355
100
AcDbArc
 50
180.0000073111
 51
359.9999926889
  0
DIMENSION
  5
4A4
330
1F
100
AcDbEntity
  8
FORMAT
100
AcDbDimension
  2
_D_21
 10
363.1276337771
 20
200.5571037427
 30
0.0
 11
363.1276337771
 21
273.0571037427
 31
0.0
 70
   160
  1
<>
 71
     2
 42
-1.0
  3
SLDDIMSTYLE0
100
AcDbAlignedDimension
 13
325.6287170281
 23
345.5571037427
 33
0.0
 14
325.6287170281
 24
200.5571037427
 34
0.0
 50
90.0
100
AcDbRotatedDimension
  0
DIMENSION
  5
4AE
330
1F
100
AcDbEntity
  8
FORMAT
100
AcDbDimension
  2
_D_22
 10
325.6287170281
 20
212.5571037427
 30
0.0
 11
307.8469364815
 21
194.8873787696
 31
0.0
 70
   164
  1
<>
 71
     1
 42
-1.0
  3
SLDDIMSTYLE3
100
AcDbRadialDimension
 15
317.1166578035
 25
204.0986849924
 35
0.0
 40
0.0
  0
DIMENSION
  5
4B5
330
1F
100
AcDbEntity
  8
FORMAT
100
AcDbDimension
  2
_D_23
 10
325.6287170281
 20
195.0571037427
 30
0.0
 11
310.597671578
 21
181.1337032874
 31
0.0
 70
   164
  1
<>
 71
     1
 42
-1.0
  3
SLDDIMSTYLE3
100
AcDbRadialDimension
 15
316.8252728174
 25
186.9023891537
 35
0.0
 40
0.0
  0
DIMENSION
  5
4BC
330
1F
100
AcDbEntity
  8
FORMAT
100
AcDbDimension
  2
_D_24
 10
355.365468845
 20
259.0571037427
 30
0.0
 11
355.365468845
 21
273.0571037427
 31
0.0
 70
   160
  1
<>
 71
     2
 42
-1.0
  3
SLDDIMSTYLE0
100
AcDbAlignedDimension
 13
329.3787170281
 23
287.0571037427
 33
0.0
 14
329.3787170281
 24
259.0571037427
 34
0.0
 50
90.0
100
AcDbRotatedDimension
  0
DIMENSION
  5
4C6
330
1F
100
AcDbEntity
  8
FORMAT
100
AcDbDimension
  2
_D_25
 10
370.6287170281
 20
195.0571037427
 30
0.0
 11
370.6287170281
 21
273.0571037427
 31
0.0
 70
   160
  1
<>
 71
     2
 42
-1.0
  3
SLDDIMSTYLE0
100
AcDbAlignedDimension
 13
330.1287170281
 23
351.0571037427
 33
0.0
 14
330.1287170281
 24
195.0571037427
 34
0.0
 50
90.0
100
AcDbRotatedDimension
  0
DIMENSION
  5
4D0
330
1F
100
AcDbEntity
  8
FORMAT
100
AcDbDimension
  2
_D_26
 10
378.3238370332
 20
183.0571037427
 30
0.0
 11
378.3238370332
 21
273.0571037427
 31
0.0
 70
   160
  1
<>
 71
     2
 42
-1.0
  3
SLDDIMSTYLE0
100
AcDbAlignedDimension
 13
325.6287170281
 23
363.0571037427
 33
0.0
 14
325.6287170281
 24
183.0571037427
 34
0.0
 50
90.0
100
AcDbRotatedDimension
  0
MTEXT
  5
4DA
330
1F
100
AcDbEntity
  8
FORMAT
100
AcDbMText
 10
317.1789669703
 20
277.7102905071
 30
0.0
 40
3.5
 41
0.0
 71
     1
 72
     1
  1
BBL
  7
SLDTEXTSTYLE0
 73
     1
 44
1.0
  0
INSERT
  5
4E0
330
1F
100
AcDbEntity
  8
FORMAT
100
AcDbBlockReference
  2
SW_NOTE_0_10
 10
243.2459737935
 20
383.7295198585
 30
0.0
  0
INSERT
  5
4EC
330
1F
100
AcDbEntity
  8
FORMAT
100
AcDbBlockReference
  2
SW_CENTERMARKSYMBOL_17
 10
325.6287172814
 20
195.0571021334
 30
0.0
  0
INSERT
  5
4F8
330
1F
100
AcDbEntity
  8
FORMAT
100
AcDbBlockReference
  2
SW_CENTERMARKSYMBOL_18
 10
325.6287172814
 20
351.0571053521
 30
0.0
  0
INSERT
  5
504
330
1F
100
AcDbEntity
  8
FORMAT
100
AcDbBlockReference
  2
SW_CENTERMARKSYMBOL_19
 10
325.6287172814
 20
259.0571033106
 30
0.0
  0
INSERT
  5
510
330
1F
100
AcDbEntity
  8
FORMAT
100
AcDbBlockReference
  2
SW_CENTERMARKSYMBOL_20
 10
325.6287172814
 20
287.0571041749
 30
0.0
  0
INSERT
  5
51C
330
1F
100
AcDbEntity
  8
FORMAT
100
AcDbBlockReference
  2
SW_CENTERMARKSYMBOL_21
 10
325.6287172814
 20
195.0571021334
 30
0.0
  0
INSERT
  5
528
330
1F
100
AcDbEntity
  8
FORMAT
100
AcDbBlockReference
  2
SW_CENTERMARKSYMBOL_22
 10
325.6287172814
 20
351.0571053521
 30
0.0
  0
INSERT
  5
534
330
1F
100
AcDbEntity
  8
FORMAT
100
AcDbBlockReference
  2
SW_CENTERMARKSYMBOL_23
 10
325.6287172814
 20
259.0571033106
 30
0.0
  0
INSERT
  5
540
330
1F
100
AcDbEntity
  8
FORMAT
100
AcDbBlockReference
  2
SW_CENTERMARKSYMBOL_24
 10
325.6287172814
 20
287.0571041749
 30
0.0
  0
LINE
  5
541
330
1F
100
AcDbEntity
  8
0
  6
CENTER
 62
     7
370
    18
100
AcDbLine
 10
350.333866701
 20
273.0571037427
 30
0.0
 11
268.9881121289
 21
273.0571037427
 31
0.0
  0
LINE
  5
542
330
1F
100
AcDbEntity
  8
0
  6
Continuous
 62
     7
370
    18
100
AcDbLine
 10
348.333866701
 20
285.7571037427
 30
0.0
 11
348.333866701
 21
273.0571037427
 31
0.0
  0
SOLID
  5
543
330
1F
100
AcDbEntity
  8
0
  6
Continuous
 62
     7
370
    18
100
AcDbTrace
 10
348.333866701
 20
273.0571037427
 30
0.0
 11
349.349866701
 21
279.4071037427
 31
0.0
 12
347.317866701
 22
279.4071037427
 32
0.0
 13
347.317866701
 23
279.4071037427
 33
0.0
  0
LINE
  5
544
330
1F
100
AcDbEntity
  8
0
  6
Continuous
 62
     7
370
    18
100
AcDbLine
 10
270.9881121289
 20
285.7571037427
 30
0.0
 11
270.9881121289
 21
273.0571037427
 31
0.0
  0
SOLID
  5
545
330
1F
100
AcDbEntity
  8
0
  6
Continuous
 62
     7
370
    18
100
AcDbTrace
 10
270.9881121289
 20
273.0571037427
 30
0.0
 11
272.0041121289
 21
279.4071037427
 31
0.0
 12
269.9721121289
 22
279.4071037427
 32
0.0
 13
269.9721121289
 23
279.4071037427
 33
0.0
  0
LWPOLYLINE
  5
546
330
1F
100
AcDbEntity
  8
0
  6
CENTER
 62
     7
370
    18
100
AcDbPolyline
 90
        8
 70
   128
 43
0.0
 10
455.2563708326
 20
174.208729324
 10
455.2563708326
 20
368.3888975355
 10
422.1692765182
 20
368.3888975355
 10
420.1692761904
 20
368.3888975355
 10
415.1692772335
 20
368.3888975355
 10
411.1692747152
 20
368.3888975355
 10
407.1692777848
 20
368.3888975355
 10
405.169277457
 20
368.3888975355
  0
LINE
  5
547
330
1F
100
AcDbEntity
  8
0
  6
CENTER
 62
     7
370
    18
100
AcDbLine
 10
405.169277457
 20
174.208729324
 30
0.0
 11
455.2563708326
 21
174.208729324
 31
0.0
  0
LINE
  5
548
330
1F
100
AcDbEntity
  8
0
  6
Continuous
 62
     7
370
    25
100
AcDbLine
 10
422.1692765182
 20
174.208729324
 30
0.0
 11
422.1692765182
 21
225.5496669385
 31
0.0
  0
LINE
  5
549
330
1F
100
AcDbEntity
  8
0
  6
Continuous
 62
     7
370
    25
100
AcDbLine
 10
444.1692765154
 20
225.5496669385
 30
0.0
 11
422.1692765182
 21
225.5496669385
 31
0.0
  0
LINE
  5
54A
330
1F
100
AcDbEntity
  8
0
  6
Continuous
 62
     7
370
    25
100
AcDbLine
 10
444.1692765154
 20
225.5496669385
 30
0.0
 11
444.1692765154
 21
319.5496637198
 31
0.0
  0
LINE
  5
54B
330
1F
100
AcDbEntity
  8
0
  6
Continuous
 62
     7
370
    25
100
AcDbLine
 10
444.1692765154
 20
319.5496637198
 30
0.0
 11
422.1692765182
 21
319.5496637198
 31
0.0
  0
LINE
  5
54C
330
1F
100
AcDbEntity
  8
0
  6
Continuous
 62
     7
370
    25
100
AcDbLine
 10
422.1692765182
 20
319.5496637198
 30
0.0
 11
422.1692765182
 21
368.3888975355
 31
0.0
  0
LINE
  5
54D
330
1F
100
AcDbEntity
  8
0
  6
Continuous
 62
     7
370
    25
100
AcDbLine
 10
420.1692761904
 20
319.5496637198
 30
0.0
 11
420.1692761904
 21
368.3888975355
 31
0.0
  0
LINE
  5
54E
330
1F
100
AcDbEntity
  8
0
  6
Continuous
 62
     7
370
    25
100
AcDbLine
 10
420.1692761904
 20
319.5496637198
 30
0.0
 11
422.1692765182
 21
319.5496637198
 31
0.0
  0
LINE
  5
54F
330
1F
100
AcDbEntity
  8
0
  6
Continuous
 62
     7
370
    25
100
AcDbLine
 10
420.1692761904
 20
174.208729324
 30
0.0
 11
420.1692761904
 21
225.5496669385
 31
0.0
  0
LINE
  5
550
330
1F
100
AcDbEntity
  8
0
  6
Continuous
 62
     7
370
    25
100
AcDbLine
 10
422.1692765182
 20
225.5496669385
 30
0.0
 11
420.1692761904
 21
225.5496669385
 31
0.0
  0
LINE
  5
551
330
1F
100
AcDbEntity
  8
0
  6
Continuous
 62
     7
370
    25
100
AcDbLine
 10
420.1692761904
 20
319.5496637198
 30
0.0
 11
420.1692761904
 21
225.5496669385
 31
0.0
  0
LINE
  5
552
330
1F
100
AcDbEntity
  8
0
  6
Continuous
 62
     7
370
    25
100
AcDbLine
 10
415.1692772335
 20
174.208729324
 30
0.0
 11
415.1692772335
 21
368.3888975355
 31
0.0
  0
LINE
  5
553
330
1F
100
AcDbEntity
  8
0
  6
Continuous
 62
     7
370
    25
100
AcDbLine
 10
407.1692777848
 20
174.208729324
 30
0.0
 11
407.1692777848
 21
368.3888975355
 31
0.0
  0
LINE
  5
554
330
1F
100
AcDbEntity
  8
0
  6
Continuous
 62
     7
370
    25
100
AcDbLine
 10
411.1692747152
 20
174.208729324
 30
0.0
 11
411.1692747152
 21
368.3888975355
 31
0.0
  0
LINE
  5
555
330
1F
100
AcDbEntity
  8
0
  6
Continuous
 62
     7
370
    25
100
AcDbLine
 10
405.169277457
 20
174.208729324
 30
0.0
 11
405.169277457
 21
368.3888975355
 31
0.0
  0
ARC
  5
556
330
1F
100
AcDbEntity
  8
FORMAT
  6
Continuous
370
    25
100
AcDbCircle
 10
439.1692765629
 20
314.5496653291
 30
0.0
 40
5.0
100
AcDbArc
 50
0.0
 51
90.0
  0
ARC
  5
557
330
1F
100
AcDbEntity
  8
FORMAT
  6
Continuous
370
    25
100
AcDbCircle
 10
439.1692765629
 20
230.5496653291
 30
0.0
 40
5.0
100
AcDbArc
 50
270.0
 51
0.0
  0
INSERT
  5
55E
102
{ACAD_REACTORS
330
565
102
}
330
1F
100
AcDbEntity
  8
FORMAT
100
AcDbBlockReference
  2
SW_NOTE_0_11
 10
430.3052264925
 20
154.3737741379
 30
0.0
  0
LEADER
  5
565
330
1F
100
AcDbEntity
  8
FORMAT
100
AcDbLeader
  3
SLDDIMSTYLE5
 73
     2
 76
     3
 10
443.3502024754
 20
226.3951264633
 30
0.0
 10
448.4239773389
 20
154.3737741379
 30
0.0
 10
430.3052264925
 20
154.3737741379
 30
0.0
340
55E
  0
LINE
  5
566
330
1F
100
AcDbEntity
  8
FORMAT
  6
CENTERX2
370
    18
100
AcDbLine
 10
457.2563711605
 20
272.5496653291
 30
0.0
 11
400.7681077397
 21
272.5496653291
 31
0.0
  0
LWPOLYLINE
  5
567
330
1F
100
AcDbEntity
  8
0
  6
CENTER
 62
     7
370
    18
100
AcDbPolyline
 90
       14
 70
   128
 43
0.0
 10
207.6580904845
 20
178.9310041639
 10
209.6580908124
 20
178.9310041639
 10
213.6580877427
 20
178.9310041639
 10
217.658090261
 20
178.9310041639
 10
222.6580892179
 20
178.9310041639
 10
224.6580895458
 20
178.9310041639
 10
250.5956577093
 20
178.9310041639
 10
250.5956577093
 20
368.8684169027
 10
224.6580895458
 20
368.8684169027
 10
222.6580892179
 20
368.8684169027
 10
217.658090261
 20
368.8684169027
 10
213.6580877427
 20
368.8684169027
 10
209.6580908124
 20
368.8684169027
 10
207.6580904845
 20
368.8684169027
  0
LINE
  5
568
330
1F
100
AcDbEntity
  8
0
  6
Continuous
 62
     7
370
    25
100
AcDbLine
 10
224.6580895458
 20
178.9310041639
 30
0.0
 11
224.6580895458
 21
368.8684169027
 31
0.0
  0
ARC
  5
569
330
1F
100
AcDbEntity
  8
0
  6
Continuous
 62
     7
370
    25
100
AcDbCircle
 10
234.6580897879
 20
317.5496666516
 30
0.0
 40
4.999999422580025
100
AcDbArc
 50
0.0000053361
 51
179.9999946639
  0
LINE
  5
56A
330
1F
100
AcDbEntity
  8
0
  6
Continuous
 62
     7
370
    25
100
AcDbLine
 10
229.6580903653
 20
317.5496671173
 30
0.0
 11
229.6580903653
 21
227.549663541
 31
0.0
  0
ARC
  5
56B
330
1F
100
AcDbEntity
  8
0
  6
Continuous
 62
     7
370
    25
100
AcDbCircle
 10
234.6580897879
 20
227.5496640067
 30
0.0
 40
4.999999422580025
100
AcDbArc
 50
180.0000053361
 51
359.9999946639
  0
LINE
  5
56C
330
1F
100
AcDbEntity
  8
0
  6
Continuous
 62
     7
370
    25
100
AcDbLine
 10
239.6580892105
 20
227.549663541
 30
0.0
 11
239.6580892105
 21
317.5496671173
 31
0.0
  0
LINE
  5
56D
330
1F
100
AcDbEntity
  8
0
  6
Continuous
 62
     7
370
    25
100
AcDbLine
 10
222.6580892179
 20
178.9310041639
 30
0.0
 11
222.6580892179
 21
368.8684169027
 31
0.0
  0
LINE
  5
56E
330
1F
100
AcDbEntity
  8
0
  6
Continuous
 62
     7
370
    25
100
AcDbLine
 10
217.658090261
 20
178.9310041639
 30
0.0
 11
217.658090261
 21
368.8684169027
 31
0.0
  0
LINE
  5
56F
330
1F
100
AcDbEntity
  8
0
  6
Continuous
 62
     7
370
    25
100
AcDbLine
 10
213.6580877427
 20
178.9310041639
 30
0.0
 11
213.6580877427
 21
368.8684169027
 31
0.0
  0
LINE
  5
570
330
1F
100
AcDbEntity
  8
0
  6
Continuous
 62
     7
370
    25
100
AcDbLine
 10
209.6580908124
 20
178.9310041639
 30
0.0
 11
209.6580908124
 21
368.8684169027
 31
0.0
  0
LINE
  5
571
330
1F
100
AcDbEntity
  8
0
  6
Continuous
 62
     7
370
    25
100
AcDbLine
 10
207.6580904845
 20
178.9310041639
 30
0.0
 11
207.6580904845
 21
368.8684169027
 31
0.0
  0
DIMENSION
  5
572
330
1F
100
AcDbEntity
  8
FORMAT
100
AcDbDimension
  2
_D_27
 10
260.2489040586
 20
222.5496653291
 30
0.0
 11
260.2489040586
 21
272.5496653291
 31
0.0
 70
   160
  1
<>
 71
     2
 42
-1.0
  3
SLDDIMSTYLE0
100
AcDbAlignedDimension
 13
234.6580895905
 23
322.5496653291
 33
0.0
 14
234.6580895905
 24
222.5496653291
 34
0.0
 50
90.0
100
AcDbRotatedDimension
  0
DIMENSION
  5
57C
330
1F
100
AcDbEntity
  8
FORMAT
100
AcDbDimension
  2
_D_28
 10
239.6580895905
 20
209.7948708923
 30
0.0
 11
234.6580895905
 21
209.7948708923
 31
0.0
 70
   160
  1
<>
 71
     2
 42
-1.0
  3
SLDDIMSTYLE1
100
AcDbAlignedDimension
 13
229.6580895905
 23
227.5496653291
 33
0.0
 14
239.6580895905
 24
227.5496653291
 34
0.0
100
AcDbRotatedDimension
  0
INSERT
  5
593
330
1F
100
AcDbEntity
  8
FORMAT
100
AcDbBlockReference
  2
SW_CENTERMARKSYMBOL_25
 10
234.6580893222
 20
272.5496653291
 30
0.0
  0
INSERT
  5
5A7
330
1F
100
AcDbEntity
  8
FORMAT
100
AcDbBlockReference
  2
SW_CENTERMARKSYMBOL_26
 10
234.6580893222
 20
317.5496671173
 30
0.0
  0
LINE
  5
5A8
330
1F
100
AcDbEntity
  8
0
  6
CENTER
 62
     7
370
    18
100
AcDbLine
 10
342.6287163427
 20
152.4482859937
 30
0.0
 11
277.1287177136
 21
152.4482859937
 31
0.0
  0
LINE
  5
5A9
330
1F
100
AcDbEntity
  8
0
  6
Continuous
 62
     7
370
    25
100
AcDbLine
 10
293.6287176242
 20
112.9001720515
 30
0.0
 11
299.628716745
 21
112.9001720515
 31
0.0
  0
LINE
  5
5AA
330
1F
100
AcDbEntity
  8
0
  6
Continuous
 62
     7
370
    25
100
AcDbLine
 10
293.6287176242
 20
108.9001695332
 30
0.0
 11
293.6287176242
 21
112.9001720515
 31
0.0
  0
LINE
  5
5AB
330
1F
100
AcDbEntity
  8
0
  6
Continuous
 62
     7
370
    25
100
AcDbLine
 10
299.628716745
 20
108.9001695332
 30
0.0
 11
293.6287176242
 21
108.9001695332
 31
0.0
  0
LINE
  5
5AC
330
1F
100
AcDbEntity
  8
0
  6
Continuous
 62
     7
370
    25
100
AcDbLine
 10
299.628716745
 20
104.9001726029
 30
0.0
 11
299.628716745
 21
108.9001695332
 31
0.0
  0
LINE
  5
5AD
330
1F
100
AcDbEntity
  8
0
  6
Continuous
 62
     7
370
    25
100
AcDbLine
 10
297.6287173485
 20
102.900172275
 30
0.0
 11
299.628716745
 21
104.9001726029
 31
0.0
  0
LINE
  5
5AE
330
1F
100
AcDbEntity
  8
0
  6
Continuous
 62
     7
370
    25
100
AcDbLine
 10
279.1287161788
 20
102.900172275
 30
0.0
 11
297.6287173485
 21
102.900172275
 31
0.0
  0
LINE
  5
5AF
330
1F
100
AcDbEntity
  8
0
  6
Continuous
 62
     7
370
    25
100
AcDbLine
 10
277.1287177136
 20
104.9001726029
 30
0.0
 11
279.1287161788
 21
102.900172275
 31
0.0
  0
LINE
  5
5B0
330
1F
100
AcDbEntity
  8
0
  6
Continuous
 62
     7
370
    25
100
AcDbLine
 10
277.1287177136
 20
152.4482859937
 30
0.0
 11
277.1287177136
 21
104.9001726029
 31
0.0
  0
LINE
  5
5B1
330
1F
100
AcDbEntity
  8
0
  6
Continuous
 62
     7
370
    25
100
AcDbLine
 10
342.6287163427
 20
134.900171001
 30
0.0
 11
342.6287163427
 21
152.4482859937
 31
0.0
  0
LINE
  5
5B2
330
1F
100
AcDbEntity
  8
0
  6
Continuous
 62
     7
370
    25
100
AcDbLine
 10
337.6287173858
 20
134.900171001
 30
0.0
 11
342.6287163427
 21
134.900171001
 31
0.0
  0
LINE
  5
5B3
330
1F
100
AcDbEntity
  8
0
  6
Continuous
 62
     7
370
    25
100
AcDbLine
 10
337.6287173858
 20
141.9001713335
 30
0.0
 11
337.6287173858
 21
134.900171001
 31
0.0
  0
LINE
  5
5B4
330
1F
100
AcDbEntity
  8
0
  6
Continuous
 62
     7
370
    25
100
AcDbLine
 10
337.6287173858
 20
141.9001713335
 30
0.0
 11
313.6287169443
 21
141.9001713335
 31
0.0
  0
LINE
  5
5B5
330
1F
100
AcDbEntity
  8
0
  6
Continuous
 62
     7
370
    25
100
AcDbLine
 10
313.6287169443
 20
117.9001710084
 30
0.0
 11
313.6287169443
 21
141.9001713335
 31
0.0
  0
LINE
  5
5B6
330
1F
100
AcDbEntity
  8
0
  6
Continuous
 62
     7
370
    25
100
AcDbLine
 10
299.628716745
 20
117.9001710084
 30
0.0
 11
313.6287169443
 21
117.9001710084
 31
0.0
  0
LINE
  5
5B7
330
1F
100
AcDbEntity
  8
0
  6
Continuous
 62
     7
370
    25
100
AcDbLine
 10
299.628716745
 20
112.9001720515
 30
0.0
 11
299.628716745
 21
117.9001710084
 31
0.0
  0
LINE
  5
5B8
330
1F
100
AcDbEntity
  8
0
  6
Continuous
 62
     7
370
    25
100
AcDbLine
 10
337.6287173858
 20
117.9001710084
 30
0.0
 11
340.6287178775
 21
117.9001710084
 31
0.0
  0
LINE
  5
5B9
330
1F
100
AcDbEntity
  8
0
  6
Continuous
 62
     7
370
    25
100
AcDbLine
 10
342.6287163427
 20
124.9001721558
 30
0.0
 11
337.6287173858
 21
124.9001721558
 31
0.0
  0
LINE
  5
5BA
330
1F
100
AcDbEntity
  8
0
  6
Continuous
 62
     7
370
    25
100
AcDbLine
 10
340.6287178775
 20
117.9001710084
 30
0.0
 11
342.6287163427
 21
119.9001713363
 31
0.0
  0
LINE
  5
5BB
330
1F
100
AcDbEntity
  8
0
  6
Continuous
 62
     7
370
    25
100
AcDbLine
 10
337.6287173858
 20
124.9001721558
 30
0.0
 11
337.6287173858
 21
117.9001710084
 31
0.0
  0
LINE
  5
5BC
330
1F
100
AcDbEntity
  8
0
  6
Continuous
 62
     7
370
    25
100
AcDbLine
 10
342.6287163427
 20
119.9001713363
 30
0.0
 11
342.6287163427
 21
124.9001721558
 31
0.0
  0
LINE
  5
5BD
330
1F
100
AcDbEntity
  8
0
  6
Continuous
 62
     7
370
    25
100
AcDbLine
 10
337.6287173858
 20
124.9001721558
 30
0.0
 11
337.6287173858
 21
134.900171001
 31
0.0
  0
LINE
  5
5BE
330
1F
100
AcDbEntity
  8
0
  6
Continuous
 62
     7
370
    25
100
AcDbLine
 10
342.6287163427
 20
124.9001721558
 30
0.0
 11
342.6287163427
 21
134.900171001
 31
0.0
  0
LINE
  5
5BF
330
1F
100
AcDbEntity
  8
0
  6
Continuous
 62
     7
370
    25
100
AcDbLine
 10
313.6287169443
 20
123.9001719919
 30
0.0
 11
337.6287173858
 21
123.9001719919
 31
0.0
  0
LINE
  5
5C0
330
1F
100
AcDbEntity
  8
0
  6
Continuous
 62
     7
370
    25
100
AcDbLine
 10
313.6287169443
 20
117.9001710084
 30
0.0
 11
337.6287173858
 21
117.9001710084
 31
0.0
  0
INSERT
  5
5E3
330
1F
100
AcDbEntity
  8
0
  6
Continuous
 62
     7
370
    18
100
AcDbBlockReference
  2
SW_HATCH_1
 10
279.4268325349
 20
152.4482859937
 30
0.0
  0
DIMENSION
  5
5E4
330
1F
100
AcDbEntity
  8
FORMAT
100
AcDbDimension
  2
_D_29
 10
362.6701863503
 20
129.900171381
 30
0.0
 11
362.6701863503
 21
123.900171381
 31
0.0
 70
   160
  1
<>
 71
     2
 42
-1.0
  3
SLDDIMSTYLE0
100
AcDbAlignedDimension
 13
340.6287170281
 23
117.900171381
 33
0.0
 14
344.6287170281
 24
129.900171381
 34
0.0
 50
90.0
100
AcDbRotatedDimension
  0
DIMENSION
  5
5EF
330
1F
100
AcDbEntity
  8
FORMAT
100
AcDbDimension
  2
_D_30
 10
370.6287163427
 20
117.900171381
 30
0.0
 11
370.6287163427
 21
129.900171381
 31
0.0
 70
   160
  1
<>
 71
     2
 42
-1.0
  3
SLDDIMSTYLE0
100
AcDbAlignedDimension
 13
337.6287170281
 23
141.900171381
 33
0.0
 14
340.6287170281
 24
117.900171381
 34
0.0
 50
90.0
100
AcDbRotatedDimension
  0
DIMENSION
  5
5F9
330
1F
100
AcDbEntity
  8
FORMAT
100
AcDbDimension
  2
_D_31
 10
337.6287170281
 20
106.5704977382
 30
0.0
 11
325.6287170281
 21
106.5704977382
 31
0.0
 70
   160
  1
<>
 71
     2
 42
-1.0
  3
SLDDIMSTYLE0
100
AcDbAlignedDimension
 13
313.6287170281
 23
117.900171381
 33
0.0
 14
337.6287170281
 24
117.900171381
 34
0.0
100
AcDbRotatedDimension
  0
DIMENSION
  5
603
330
1F
100
AcDbEntity
  8
FORMAT
100
AcDbDimension
  2
_D_32
 10
342.6287170281
 20
97.4267464851
 30
0.0
 11
328.1287170281
 21
97.4267464851
 31
0.0
 70
   160
  1
<>
 71
     2
 42
-1.0
  3
SLDDIMSTYLE0
100
AcDbAlignedDimension
 13
313.6287170281
 23
117.900171381
 33
0.0
 14
342.6287170281
 24
119.9001713363
 34
0.0
100
AcDbRotatedDimension
  0
DIMENSION
  5
60D
330
1F
100
AcDbEntity
  8
FORMAT
100
AcDbDimension
  2
_D_33
 10
270.1263747666
 20
152.4482856898
 30
0.0
 11
270.1263747666
 21
129.900171381
 31
0.0
 70
   160
  1
60
 71
     2
 42
-1.0
  3
SLDDIMSTYLE4
100
AcDbAlignedDimension
 13
279.1287170281
 23
102.900171381
 33
0.0
 14
277.8900141704
 24
152.4482856898
 34
0.0
 50
90.0
100
AcDbRotatedDimension
  0
DIMENSION
  5
616
330
1F
100
AcDbEntity
  8
FORMAT
100
AcDbDimension
  2
_D_34
 10
352.0716353748
 20
117.900171381
 30
0.0
 11
352.0716353748
 21
107.9480229399
 31
0.0
 70
   160
  1
<>
 71
     2
 42
-1.0
  3
SLDDIMSTYLE1
100
AcDbAlignedDimension
 13
337.6287170281
 23
123.900171381
 33
0.0
 14
340.6287170281
 24
117.900171381
 34
0.0
 50
90.0
100
AcDbRotatedDimension
  0
LINE
  5
622
330
1F
100
AcDbEntity
  8
FORMAT
  6
CENTERX2
370
    18
100
AcDbLine
 10
335.6287170579
 20
129.9001711127
 30
0.0
 11
344.6287166705
 21
129.9001711127
 31
0.0
  0
LINE
  5
623
330
1F
100
AcDbEntity
  8
FORMAT
  6
CENTERX2
370
    18
100
AcDbLine
 10
325.6287172814
 20
144.0464347075
 30
0.0
 11
325.6287172814
 21
115.9001706806
 31
0.0
  0
ENDSEC
  0
SECTION
  2
OBJECTS
  0
DICTIONARY
  5
C
330
0
100
AcDbDictionary
281
     1
  3
ACAD_GROUP
350
D
  3
ACAD_LAYOUT
350
1A
  3
ACAD_MLINESTYLE
350
17
  3
ACAD_PLOTSETTINGS
350
19
  3
ACAD_PLOTSTYLENAME
350
E
  3
ACAD_SCALELIST
350
47
  3
DWGPROPS
350
624
  0
DICTIONARY
  5
D
102
{ACAD_REACTORS
330
C
102
}
330
C
100
AcDbDictionary
281
     1
  0
DICTIONARY
  5
1A
102
{ACAD_REACTORS
330
C
102
}
330
C
100
AcDbDictionary
281
     1
  3
Layout1
350
1E
  3
Layout2
350
26
  3
Model
350
22
  0
DICTIONARY
  5
17
102
{ACAD_REACTORS
330
C
102
}
330
C
100
AcDbDictionary
281
     1
  3
Standard
350
18
  0
DICTIONARY
  5
19
102
{ACAD_REACTORS
330
C
102
}
330
C
100
AcDbDictionary
281
     1
  0
ACDBDICTIONARYWDFLT
  5
E
102
{ACAD_REACTORS
330
C
102
}
330
C
100
AcDbDictionary
281
     1
  3
Normal
350
F
100
AcDbDictionaryWithDefault
340
F
  0
DICTIONARY
  5
47
102
{ACAD_REACTORS
330
C
102
}
330
C
100
AcDbDictionary
281
     1
  3
A0
350
48
  3
A1
350
49
  3
A2
350
4A
  3
A3
350
4B
  3
A4
350
4C
  3
A5
350
4D
  3
A6
350
4E
  3
A7
350
4F
  3
A8
350
50
  3
A9
350
51
  3
B0
350
52
  3
B1
350
53
  3
B2
350
54
  3
B3
350
55
  3
B4
350
56
  3
B5
350
57
  3
B6
350
58
  3
B7
350
59
  3
B8
350
5A
  3
B9
350
5B
  3
C0
350
5C
  3
C1
350
5D
  3
C2
350
5E
  3
C3
350
5F
  3
C4
350
60
  3
C5
350
61
  3
C6
350
62
  3
C7
350
63
  3
C8
350
64
  3
C9
350
65
  3
D0
350
66
  3
D1
350
67
  3
D2
350
68
  0
XRECORD
  5
624
102
{ACAD_REACTORS
330
C
102
}
330
C
100
AcDbXrecord
280
     1
  1
DWGPROPS COOKIE
  2

  3

  4

  6

  7

  8
pieper
  9

300
=
301
=
302
=
303
=
304
=
305
=
306
=
307
=
308
=
309
=
 40
0.0
 41
2459551.412316111
 42
2459551.412322234
  1

 90
        0
  0
LAYOUT
  5
1E
102
{ACAD_REACTORS
330
1A
102
}
330
1A
100
AcDbPlotSettings
  1

  2
none_device
  4

  6

 40
0.0
 41
0.0
 42
0.0
 43
0.0
 44
0.0
 45
0.0
 46
0.0
 47
0.0
 48
0.0
 49
0.0
140
0.0
141
0.0
142
1.0
143
1.0
 70
   688
 72
     1
 73
     0
 74
     5
  7

 75
    16
147
1.0
148
0.0
149
0.0
100
AcDbLayout
  1
Layout1
 70
     1
 71
     1
 10
0.0
 20
0.0
 11
420.0
 21
297.0
 12
0.0
 22
0.0
 32
0.0
 14
1.0000000000E+20
 24
1.0000000000E+20
 34
1.0000000000E+20
 15
-1.0000000000E+20
 25
-1.0000000000E+20
 35
-1.0000000000E+20
146
0.0
 13
0.0
 23
0.0
 33
0.0
 16
1.0
 26
0.0
 36
0.0
 17
0.0
 27
1.0
 37
0.0
 76
     0
330
1B
  0
LAYOUT
  5
26
102
{ACAD_REACTORS
330
1A
102
}
330
1A
100
AcDbPlotSettings
  1

  2
none_device
  4

  6

 40
0.0
 41
0.0
 42
0.0
 43
0.0
 44
0.0
 45
0.0
 46
0.0
 47
0.0
 48
0.0
 49
0.0
140
0.0
141
0.0
142
1.0
143
1.0
 70
   688
 72
     1
 73
     0
 74
     5
  7

 75
    16
147
1.0
148
0.0
149
0.0
100
AcDbLayout
  1
Layout2
 70
     1
 71
     2
 10
0.0
 20
0.0
 11
0.0
 21
0.0
 12
0.0
 22
0.0
 32
0.0
 14
0.0
 24
0.0
 34
0.0
 15
0.0
 25
0.0
 35
0.0
146
0.0
 13
0.0
 23
0.0
 33
0.0
 16
1.0
 26
0.0
 36
0.0
 17
0.0
 27
1.0
 37
0.0
 76
     0
330
23
  0
LAYOUT
  5
22
102
{ACAD_REACTORS
330
1A
102
}
330
1A
100
AcDbPlotSettings
  1

  2
none_device
  4
Letter_(8.50_x_11.00_Inches)
  6

 40
6.35
 41
6.35
 42
6.35000508
 43
6.35000508
 44
215.9
 45
279.4
 46
0.0
 47
0.0
 48
0.0
 49
0.0
140
0.0
141
0.0
142
1.0
143
1.0
 70
  1712
 72
     1
 73
     0
 74
     0
  7

 75
     0
147
1.0
148
0.0
149
0.0
100
AcDbLayout
  1
Model
 70
     1
 71
     0
 10
0.0
 20
0.0
 11
594.0
 21
420.0
 12
0.0
 22
0.0
 32
0.0
 14
0.0
 24
0.0
 34
0.0
 15
594.0
 25
420.0
 35
0.0
146
0.0
 13
0.0
 23
0.0
 33
0.0
 16
1.0
 26
0.0
 36
0.0
 17
0.0
 27
1.0
 37
0.0
 76
     0
330
1F
331
29
  0
MLINESTYLE
  5
18
102
{ACAD_REACTORS
330
17
102
}
330
17
100
AcDbMlineStyle
  2
Standard
 70
     0
  3

 62
   256
 51
90.0
 52
90.0
 71
     2
 49
0.5
 62
   256
  6
BYLAYER
 49
-0.5
 62
   256
  6
BYLAYER
  0
ACDBPLACEHOLDER
  5
F
102
{ACAD_REACTORS
330
E
102
}
330
E
  0
SCALE
  5
48
102
{ACAD_REACTORS
330
47
102
}
330
47
100
AcDbScale
 70
     0
300
1:1
140
1.0
141
1.0
290
     1
  0
SCALE
  5
49
102
{ACAD_REACTORS
330
47
102
}
330
47
100
AcDbScale
 70
     0
300
1:2
140
1.0
141
2.0
290
     0
  0
SCALE
  5
4A
102
{ACAD_REACTORS
330
47
102
}
330
47
100
AcDbScale
 70
     0
300
1:4
140
1.0
141
4.0
290
     0
  0
SCALE
  5
4B
102
{ACAD_REACTORS
330
47
102
}
330
47
100
AcDbScale
 70
     0
300
1:5
140
1.0
141
5.0
290
     0
  0
SCALE
  5
4C
102
{ACAD_REACTORS
330
47
102
}
330
47
100
AcDbScale
 70
     0
300
1:8
140
1.0
141
8.0
290
     0
  0
SCALE
  5
4D
102
{ACAD_REACTORS
330
47
102
}
330
47
100
AcDbScale
 70
     0
300
1:10
140
1.0
141
10.0
290
     0
  0
SCALE
  5
4E
102
{ACAD_REACTORS
330
47
102
}
330
47
100
AcDbScale
 70
     0
300
1:16
140
1.0
141
16.0
290
     0
  0
SCALE
  5
4F
102
{ACAD_REACTORS
330
47
102
}
330
47
100
AcDbScale
 70
     0
300
1:20
140
1.0
141
20.0
290
     0
  0
SCALE
  5
50
102
{ACAD_REACTORS
330
47
102
}
330
47
100
AcDbScale
 70
     0
300
1:30
140
1.0
141
30.0
290
     0
  0
SCALE
  5
51
102
{ACAD_REACTORS
330
47
102
}
330
47
100
AcDbScale
 70
     0
300
1:40
140
1.0
141
40.0
290
     0
  0
SCALE
  5
52
102
{ACAD_REACTORS
330
47
102
}
330
47
100
AcDbScale
 70
     0
300
1:50
140
1.0
141
50.0
290
     0
  0
SCALE
  5
53
102
{ACAD_REACTORS
330
47
102
}
330
47
100
AcDbScale
 70
     0
300
1:100
140
1.0
141
100.0
290
     0
  0
SCALE
  5
54
102
{ACAD_REACTORS
330
47
102
}
330
47
100
AcDbScale
 70
     0
300
2:1
140
2.0
141
1.0
290
     0
  0
SCALE
  5
55
102
{ACAD_REACTORS
330
47
102
}
330
47
100
AcDbScale
 70
     0
300
4:1
140
4.0
141
1.0
290
     0
  0
SCALE
  5
56
102
{ACAD_REACTORS
330
47
102
}
330
47
100
AcDbScale
 70
     0
300
8:1
140
8.0
141
1.0
290
     0
  0
SCALE
  5
57
102
{ACAD_REACTORS
330
47
102
}
330
47
100
AcDbScale
 70
     0
300
10:1
140
10.0
141
1.0
290
     0
  0
SCALE
  5
58
102
{ACAD_REACTORS
330
47
102
}
330
47
100
AcDbScale
 70
     0
300
100:1
140
100.0
141
1.0
290
     0
  0
SCALE
  5
59
102
{ACAD_REACTORS
330
47
102
}
330
47
100
AcDbScale
 70
     0
300
1/128" = 1'-0"
140
0.0078125
141
12.0
290
     0
  0
SCALE
  5
5A
102
{ACAD_REACTORS
330
47
102
}
330
47
100
AcDbScale
 70
     0
300
1/64" = 1'-0"
140
0.015625
141
12.0
290
     0
  0
SCALE
  5
5B
102
{ACAD_REACTORS
330
47
102
}
330
47
100
AcDbScale
 70
     0
300
1/32" = 1'-0"
140
0.03125
141
12.0
290
     0
  0
SCALE
  5
5C
102
{ACAD_REACTORS
330
47
102
}
330
47
100
AcDbScale
 70
     0
300
1/16" = 1'-0"
140
0.0625
141
12.0
290
     0
  0
SCALE
  5
5D
102
{ACAD_REACTORS
330
47
102
}
330
47
100
AcDbScale
 70
     0
300
3/32" = 1'-0"
140
0.09375
141
12.0
290
     0
  0
SCALE
  5
5E
102
{ACAD_REACTORS
330
47
102
}
330
47
100
AcDbScale
 70
     0
300
1/8" = 1'-0"
140
0.125
141
12.0
290
     0
  0
SCALE
  5
5F
102
{ACAD_REACTORS
330
47
102
}
330
47
100
AcDbScale
 70
     0
300
3/16" = 1'-0"
140
0.1875
141
12.0
290
     0
  0
SCALE
  5
60
102
{ACAD_REACTORS
330
47
102
}
330
47
100
AcDbScale
 70
     0
300
1/4" = 1'-0"
140
0.25
141
12.0
290
     0
  0
SCALE
  5
61
102
{ACAD_REACTORS
330
47
102
}
330
47
100
AcDbScale
 70
     0
300
3/8" = 1'-0"
140
0.375
141
12.0
290
     0
  0
SCALE
  5
62
102
{ACAD_REACTORS
330
47
102
}
330
47
100
AcDbScale
 70
     0
300
1/2" = 1'-0"
140
0.5
141
12.0
290
     0
  0
SCALE
  5
63
102
{ACAD_REACTORS
330
47
102
}
330
47
100
AcDbScale
 70
     0
300
3/4" = 1'-0"
140
0.75
141
12.0
290
     0
  0
SCALE
  5
64
102
{ACAD_REACTORS
330
47
102
}
330
47
100
AcDbScale
 70
     0
300
1" = 1'-0"
140
1.0
141
12.0
290
     0
  0
SCALE
  5
65
102
{ACAD_REACTORS
330
47
102
}
330
47
100
AcDbScale
 70
     0
300
1-1/2" = 1'-0"
140
1.5
141
12.0
290
     0
  0
SCALE
  5
66
102
{ACAD_REACTORS
330
47
102
}
330
47
100
AcDbScale
 70
     0
300
3" = 1'-0"
140
3.0
141
12.0
290
     0
  0
SCALE
  5
67
102
{ACAD_REACTORS
330
47
102
}
330
47
100
AcDbScale
 70
     0
300
6" = 1'-0"
140
6.0
141
12.0
290
     0
  0
SCALE
  5
68
102
{ACAD_REACTORS
330
47
102
}
330
47
100
AcDbScale
 70
     0
300
1'-0" = 1'-0"
140
12.0
141
12.0
290
     0
  0
ENDSEC
  0
EOF
