  0
SECTION
  2
HEADER
  9
$ACADVER
  1
AC1015
  9
$ACADMAINTVER
 70
     6
  9
$DWGCODEPAGE
  3
ANSI_1252
  9
$INSBASE
 10
0.0
 20
0.0
 30
0.0
  9
$EXTMIN
 10
0.0
 20
0.0
 30
0.0
  9
$EXTMAX
 10
297.0
 20
210.0
 30
0.0
  9
$LIMMIN
 10
0.0
 20
0.0
  9
$LIMMAX
 10
297.0
 20
210.0
  9
$ORTHOMODE
 70
     0
  9
$REGENMODE
 70
     1
  9
$FILLMODE
 70
     1
  9
$QTEXTMODE
 70
     0
  9
$MIRRTEXT
 70
     1
  9
$LTSCALE
 40
1.0
  9
$ATTMODE
 70
     1
  9
$TEXTSIZE
 40
3.5
  9
$TRACEWID
 40
1.0
  9
$TEXTSTYLE
  7
STANDARD
  9
$CLAYER
  8
0
  9
$CELTYPE
  6
ByLayer
  9
$CECOLOR
 62
   256
  9
$CELTSCALE
 40
1.0
  9
$DISPSILH
 70
     0
  9
$DIMSCALE
 40
1.0
  9
$DIMASZ
 40
3.302
  9
$DIMEXO
 40
1.0
  9
$DIMDLI
 40
3.75
  9
$DIMRND
 40
0.0
  9
$DIMDLE
 40
0.0
  9
$DIMEXE
 40
1.0
  9
$DIMTP
 40
0.0
  9
$DIMTM
 40
0.0
  9
$DIMTXT
 40
3.5
  9
$DIMCEN
 40
2.5
  9
$DIMTSZ
 40
0.0
  9
$DIMTOL
 70
     0
  9
$DIMLIM
 70
     0
  9
$DIMTIH
 70
     1
  9
$DIMTOH
 70
     1
  9
$DIMSE1
 70
     0
  9
$DIMSE2
 70
     0
  9
$DIMTAD
 70
     1
  9
$DIMZIN
 70
     0
  9
$DIMBLK
  1

  9
$DIMASO
 70
     1
  9
$DIMSHO
 70
     1
  9
$DIMPOST
  1

  9
$DIMAPOST
  1

  9
$DIMALT
 70
     0
  9
$DIMALTD
 70
     3
  9
$DIMALTF
 40
0.0393700787
  9
$DIMLFAC
 40
1.0
  9
$DIMTOFL
 70
     1
  9
$DIMTVP
 40
0.0
  9
$DIMTIX
 70
     0
  9
$DIMSOXD
 70
     0
  9
$DIMSAH
 70
     0
  9
$DIMBLK1
  1

  9
$DIMBLK2
  1

  9
$DIMSTYLE
  2
ISO-25
  9
$DIMCLRD
 70
     0
  9
$DIMCLRE
 70
     0
  9
$DIMCLRT
 70
     0
  9
$DIMTFAC
 40
1.0
  9
$DIMGAP
 40
3.0
  9
$DIMJUST
 70
     0
  9
$DIMSD1
 70
     0
  9
$DIMSD2
 70
     0
  9
$DIMTOLJ
 70
     0
  9
$DIMTZIN
 70
     0
  9
$DIMALTZ
 70
     0
  9
$DIMALTTZ
 70
     0
  9
$DIMUPT
 70
     0
  9
$DIMDEC
 70
     2
  9
$DIMTDEC
 70
     2
  9
$DIMALTU
 70
     2
  9
$DIMALTTD
 70
     3
  9
$DIMTXSTY
  7
STANDARD
  9
$DIMAUNIT
 70
     0
  9
$DIMADEC
 70
     2
  9
$DIMALTRND
 40
0.0
  9
$DIMAZIN
 70
     0
  9
$DIMDSEP
 70
    44
  9
$DIMATFIT
 70
     3
  9
$DIMFRAC
 70
     0
  9
$DIMLDRBLK
  1

  9
$DIMLUNIT
 70
     2
  9
$DIMLWD
 70
    -2
  9
$DIMLWE
 70
    -2
  9
$DIMTMOVE
 70
     0
  9
$LUNITS
 70
     2
  9
$LUPREC
 70
     2
  9
$SKETCHINC
 40
1.0
  9
$FILLETRAD
 40
10.0
  9
$AUNITS
 70
     0
  9
$AUPREC
 70
     2
  9
$MENU
  1
.
  9
$ELEVATION
 40
0.0
  9
$PELEVATION
 40
0.0
  9
$THICKNESS
 40
0.0
  9
$LIMCHECK
 70
     0
  9
$CHAMFERA
 40
0.0
  9
$CHAMFERB
 40
0.0
  9
$CHAMFERC
 40
0.0
  9
$CHAMFERD
 40
0.0
  9
$SKPOLY
 70
     0
  9
$TDCREATE
 40
2459704.45918838
  9
$TDUCREATE
 40
2459704.375855046
  9
$TDUPDATE
 40
2459704.459193044
  9
$TDUUPDATE
 40
2459704.375859711
  9
$TDINDWG
 40
0.0000000116
  9
$TDUSRTIMER
 40
0.0000000116
  9
$USRTIMER
 70
     1
  9
$ANGBASE
 50
0.0
  9
$ANGDIR
 70
     0
  9
$PDMODE
 70
     0
  9
$PDSIZE
 40
-1.0
  9
$PLINEWID
 40
0.0
  9
$SPLFRAME
 70
     0
  9
$SPLINETYPE
 70
     6
  9
$SPLINESEGS
 70
     8
  9
$HANDSEED
  5
46F
  9
$SURFTAB1
 70
     6
  9
$SURFTAB2
 70
     6
  9
$SURFTYPE
 70
     6
  9
$SURFU
 70
     6
  9
$SURFV
 70
     6
  9
$UCSBASE
  2

  9
$UCSNAME
  2

  9
$UCSORG
 10
0.0
 20
0.0
 30
0.0
  9
$UCSXDIR
 10
1.0
 20
0.0
 30
0.0
  9
$UCSYDIR
 10
0.0
 20
1.0
 30
0.0
  9
$UCSORTHOREF
  2

  9
$UCSORTHOVIEW
 70
     0
  9
$UCSORGTOP
 10
0.0
 20
0.0
 30
0.0
  9
$UCSORGBOTTOM
 10
0.0
 20
0.0
 30
0.0
  9
$UCSORGLEFT
 10
0.0
 20
0.0
 30
0.0
  9
$UCSORGRIGHT
 10
0.0
 20
0.0
 30
0.0
  9
$UCSORGFRONT
 10
0.0
 20
0.0
 30
0.0
  9
$UCSORGBACK
 10
0.0
 20
0.0
 30
0.0
  9
$PUCSBASE
  2

  9
$PUCSNAME
  2

  9
$PUCSORG
 10
0.0
 20
0.0
 30
0.0
  9
$PUCSXDIR
 10
1.0
 20
0.0
 30
0.0
  9
$PUCSYDIR
 10
0.0
 20
1.0
 30
0.0
  9
$PUCSORTHOREF
  2

  9
$PUCSORTHOVIEW
 70
     0
  9
$PUCSORGTOP
 10
0.0
 20
0.0
 30
0.0
  9
$PUCSORGBOTTOM
 10
0.0
 20
0.0
 30
0.0
  9
$PUCSORGLEFT
 10
0.0
 20
0.0
 30
0.0
  9
$PUCSORGRIGHT
 10
0.0
 20
0.0
 30
0.0
  9
$PUCSORGFRONT
 10
0.0
 20
0.0
 30
0.0
  9
$PUCSORGBACK
 10
0.0
 20
0.0
 30
0.0
  9
$USERI1
 70
     0
  9
$USERI2
 70
     0
  9
$USERI3
 70
     0
  9
$USERI4
 70
     0
  9
$USERI5
 70
     0
  9
$USERR1
 40
0.0
  9
$USERR2
 40
0.0
  9
$USERR3
 40
0.0
  9
$USERR4
 40
0.0
  9
$USERR5
 40
0.0
  9
$WORLDVIEW
 70
     1
  9
$SHADEDGE
 70
     3
  9
$SHADEDIF
 70
    70
  9
$TILEMODE
 70
     1
  9
$MAXACTVP
 70
    64
  9
$PINSBASE
 10
0.0
 20
0.0
 30
0.0
  9
$PLIMCHECK
 70
     0
  9
$PEXTMIN
 10
1.0000000000E+20
 20
1.0000000000E+20
 30
1.0000000000E+20
  9
$PEXTMAX
 10
-1.0000000000E+20
 20
-1.0000000000E+20
 30
-1.0000000000E+20
  9
$PLIMMIN
 10
0.0
 20
0.0
  9
$PLIMMAX
 10
420.0
 20
297.0
  9
$UNITMODE
 70
     0
  9
$VISRETAIN
 70
     1
  9
$PLINEGEN
 70
     0
  9
$PSLTSCALE
 70
     1
  9
$TREEDEPTH
 70
  3020
  9
$CMLSTYLE
  2
Standard
  9
$CMLJUST
 70
     0
  9
$CMLSCALE
 40
20.0
  9
$PROXYGRAPHICS
 70
     1
  9
$MEASUREMENT
 70
     1
  9
$CELWEIGHT
370
    -1
  9
$ENDCAPS
280
     0
  9
$JOINSTYLE
280
     0
  9
$LWDISPLAY
290
     1
  9
$INSUNITS
 70
     4
  9
$HYPERLINKBASE
  1

  9
$STYLESHEET
  1

  9
$XEDIT
290
     1
  9
$CEPSNTYPE
380
     0
  9
$PSTYLEMODE
290
     1
  9
$FINGERPRINTGUID
  2
{557e2424-b70f-4d6f-81aa-a546900eb7c6}
  9
$VERSIONGUID
  2
{FAEB1C32-E019-11D5-929B-00C0DF256EC4}
  9
$EXTNAMES
290
     1
  9
$PSVPSCALE
 40
0.0
  9
$OLESTARTUP
290
     0
  0
ENDSEC
  0
SECTION
  2
CLASSES
  0
CLASS
  1
ACDBDICTIONARYWDFLT
  2
AcDbDictionaryWithDefault
  3
ObjectDBX Classes
 90
        0
280
     0
281
     0
  0
CLASS
  1
VISUALSTYLE
  2
AcDbVisualStyle
  3
ObjectDBX Classes
 90
     4095
280
     0
281
     0
  0
CLASS
  1
MATERIAL
  2
AcDbMaterial
  3
ObjectDBX Classes
 90
     1153
280
     0
281
     0
  0
CLASS
  1
SCALE
  2
AcDbScale
  3
ObjectDBX Classes
 90
     1153
280
     0
281
     0
  0
CLASS
  1
TABLESTYLE
  2
AcDbTableStyle
  3
ObjectDBX Classes
 90
     4095
280
     0
281
     0
  0
CLASS
  1
MLEADERSTYLE
  2
AcDbMLeaderStyle
  3
ACDB_MLEADERSTYLE_CLASS
 90
     4095
280
     0
281
     0
  0
CLASS
  1
SUN
  2
AcDbSun
  3
SCENEOE
 90
     1153
280
     0
281
     0
  0
CLASS
  1
ACDBPLACEHOLDER
  2
AcDbPlaceHolder
  3
ObjectDBX Classes
 90
        0
280
     0
281
     0
  0
CLASS
  1
LAYOUT
  2
AcDbLayout
  3
ObjectDBX Classes
 90
        0
280
     0
281
     0
  0
ENDSEC
  0
SECTION
  2
TABLES
  0
TABLE
  2
VPORT
  5
8
330
0
100
AcDbSymbolTable
 70
     1
  0
VPORT
  5
29
330
8
100
AcDbSymbolTableRecord
100
AcDbViewportTableRecord
  2
*Active
 70
     0
 10
0.0
 20
0.0
 11
1.0
 21
1.0
 12
148.5
 22
105.0
 13
0.0
 23
0.0
 14
10.0
 24
10.0
 15
10.0
 25
10.0
 16
0.0
 26
0.0
 36
1.0
 17
0.0
 27
0.0
 37
0.0
 40
210.0
 41
1.4142857143
 42
50.0
 43
0.0
 44
0.0
 50
0.0
 51
0.0
 71
     0
 72
  2000
 73
     1
 74
     3
 75
     0
 76
     0
 77
     0
 78
     0
281
     0
 65
     1
110
0.0
120
0.0
130
0.0
111
1.0
121
0.0
131
0.0
112
0.0
122
1.0
132
0.0
 79
     0
146
0.0
  0
ENDTAB
  0
TABLE
  2
LTYPE
  5
5
330
0
100
AcDbSymbolTable
 70
     6
  0
LTYPE
  5
14
330
5
100
AcDbSymbolTableRecord
100
AcDbLinetypeTableRecord
  2
ByBlock
 70
     0
  3

 72
    65
 73
     0
 40
0.0
  0
LTYPE
  5
15
330
5
100
AcDbSymbolTableRecord
100
AcDbLinetypeTableRecord
  2
ByLayer
 70
     0
  3

 72
    65
 73
     0
 40
0.0
  0
LTYPE
  5
16
330
5
100
AcDbSymbolTableRecord
100
AcDbLinetypeTableRecord
  2
Continuous
 70
     0
  3
Solid line
 72
    65
 73
     0
 40
0.0
  0
LTYPE
  5
6E
330
5
100
AcDbSymbolTableRecord
100
AcDbLinetypeTableRecord
  2
HIDDEN
 70
     0
  3
Hidden __ __ __ __ __ __ __ __ __ __ __ __ __ __
 72
    65
 73
     2
 40
1.905
 49
1.27
 74
     0
 49
-0.635
 74
     0
  0
LTYPE
  5
6F
330
5
100
AcDbSymbolTableRecord
100
AcDbLinetypeTableRecord
  2
PHANTOM
 70
     0
  3
Phantom ______  __  __  ______  __  __  ______
 72
    65
 73
     6
 40
12.7
 49
6.35
 74
     0
 49
-1.27
 74
     0
 49
1.27
 74
     0
 49
-1.27
 74
     0
 49
1.27
 74
     0
 49
-1.27
 74
     0
  0
LTYPE
  5
70
330
5
100
AcDbSymbolTableRecord
100
AcDbLinetypeTableRecord
  2
CENTER
 70
     0
  3
Center ____ _ ____ _ ____ _ ____ _ ____ _ ____
 72
    65
 73
     4
 40
10.16
 49
6.35
 74
     0
 49
-1.27
 74
     0
 49
1.27
 74
     0
 49
-1.27
 74
     0
  0
LTYPE
  5
71
330
5
100
AcDbSymbolTableRecord
100
AcDbLinetypeTableRecord
  2
CENTERX2
 70
     0
  3
Center (2x) ________  __  ________  __  _____
 72
    65
 73
     4
 40
20.32
 49
12.7
 74
     0
 49
-2.54
 74
     0
 49
2.54
 74
     0
 49
-2.54
 74
     0
  0
LTYPE
  5
72
330
5
100
AcDbSymbolTableRecord
100
AcDbLinetypeTableRecord
  2
DOT2
 70
     0
  3
Dot (.5x) ........................................
 72
    65
 73
     2
 40
0.635
 49
0.0
 74
     0
 49
-0.635
 74
     0
  0
ENDTAB
  0
TABLE
  2
LAYER
  5
2
330
0
100
AcDbSymbolTable
 70
     7
  0
LAYER
  5
10
330
2
100
AcDbSymbolTableRecord
100
AcDbLayerTableRecord
  2
0
 70
     0
 62
     7
  6
Continuous
370
    -3
390
F
  0
LAYER
  5
73
330
2
100
AcDbSymbolTableRecord
100
AcDbLayerTableRecord
  2
FORMAT
 70
     0
 62
     7
  6
Continuous
370
    -3
390
F
  0
LAYER
  5
74
330
2
100
AcDbSymbolTableRecord
100
AcDbLayerTableRecord
  2
VORLAGE
 70
     0
 62
     7
  6
Continuous
370
    -3
390
F
  0
LAYER
  5
75
330
2
100
AcDbSymbolTableRecord
100
AcDbLayerTableRecord
  2
1
 70
     0
 62
   179
  6
Continuous
370
    -3
390
F
  0
LAYER
  5
76
330
2
100
AcDbSymbolTableRecord
100
AcDbLayerTableRecord
  2
LAYER0
 70
     0
 62
     7
  6
Continuous
370
    -3
390
F
  0
LAYER
  5
77
330
2
100
AcDbSymbolTableRecord
100
AcDbLayerTableRecord
  2
BEMASSUNG
 70
     0
 62
     1
  6
Continuous
370
    -3
390
F
  0
LAYER
  5
78
330
2
100
AcDbSymbolTableRecord
100
AcDbLayerTableRecord
  2
ÄNDERUNG
 70
     0
 62
     1
  6
Continuous
370
    -3
390
F
  0
ENDTAB
  0
TABLE
  2
STYLE
  5
3
330
0
100
AcDbSymbolTable
 70
     5
  0
STYLE
  5
11
330
3
100
AcDbSymbolTableRecord
100
AcDbTextStyleTableRecord
  2
STANDARD
 70
     0
 40
0.0
 41
1.0
 50
0.0
 71
     0
 42
3.5
  3
ARIAL.TTF
  4

1001
ACAD
1000
ARIAL
1071
       34
  0
STYLE
  5
91
330
3
100
AcDbSymbolTableRecord
100
AcDbTextStyleTableRecord
  2
SLDTEXTSTYLE0
 70
     0
 40
0.0
 41
0.948
 50
0.0
 71
     0
 42
3.5
  3
ARIAL.TTF
  4

1001
ACAD
1000
Arial
1071
      290
  0
STYLE
  5
DC
330
3
100
AcDbSymbolTableRecord
100
AcDbTextStyleTableRecord
  2
SLDTEXTSTYLE1
 70
     0
 40
0.0
 41
1.0
 50
0.0
 71
     0
 42
3.5
  3
ARIALUNI.TTF
  4

1001
ACAD
1000
Arial Unicode MS
1071
 33554722
  0
STYLE
  5
E2
330
3
100
AcDbSymbolTableRecord
100
AcDbTextStyleTableRecord
  2
SLDTEXTSTYLE2
 70
     0
 40
0.0
 41
0.87
 50
0.0
 71
     0
 42
3.5
  3
ARIALN.TTF
  4

1001
ACAD
1000
Arial Narrow
1071
      290
  0
STYLE
  5
14B
330
3
100
AcDbSymbolTableRecord
100
AcDbTextStyleTableRecord
  2
SLDTEXTSTYLE3
 70
     0
 40
0.0
 41
0.948
 50
0.0
 71
     0
 42
3.5
  3
ARIALBD.TTF
  4

1001
ACAD
1000
Arial
1071
 33554722
  0
ENDTAB
  0
TABLE
  2
VIEW
  5
6
330
0
100
AcDbSymbolTable
 70
     0
  0
ENDTAB
  0
TABLE
  2
UCS
  5
7
330
0
100
AcDbSymbolTable
 70
     0
  0
ENDTAB
  0
TABLE
  2
APPID
  5
9
330
0
100
AcDbSymbolTable
 70
     1
  0
APPID
  5
12
330
9
100
AcDbSymbolTableRecord
100
AcDbRegAppTableRecord
  2
ACAD
 70
     0
  0
ENDTAB
  0
TABLE
  2
DIMSTYLE
  5
A
330
0
100
AcDbSymbolTable
 70
     5
100
AcDbDimStyleTable
  0
DIMSTYLE
105
27
330
A
100
AcDbSymbolTableRecord
100
AcDbDimStyleTableRecord
  2
ISO-25
 70
     0
 41
2.5
 42
0.625
 43
3.75
 44
1.25
 73
     0
 74
     0
 77
     1
 78
     8
140
2.5
141
2.5
143
0.0393700787
147
0.625
171
     3
172
     1
178
     0
271
     2
272
     2
274
     3
278
    44
283
     0
284
     8
340
11
  0
DIMSTYLE
105
1BE
102
{ACAD_REACTORS
330
1BD
330
1CB
330
1D8
330
30F
330
323
330
3F8
330
404
330
42F
330
446
102
}
330
A
100
AcDbSymbolTableRecord
100
AcDbDimStyleTableRecord
  2
SLDDIMSTYLE0
 70
     0
 41
3.302
 44
0.0
 45
0.000000001
 73
     0
 74
     0
 77
     1
 78
    12
 79
     3
140
3.5
147
0.875
172
     1
173
     1
178
     0
271
     2
272
     2
276
     2
284
    12
289
     0
340
91
  0
DIMSTYLE
105
1E6
102
{ACAD_REACTORS
330
1E5
330
43C
102
}
330
A
100
AcDbSymbolTableRecord
100
AcDbDimStyleTableRecord
  2
SLDDIMSTYLE1
 70
     0
 41
3.302
 44
0.0
 73
     0
 74
     0
 77
     1
 78
    12
 79
     3
140
3.5
147
0.875
173
     1
178
     0
179
     2
272
     2
276
     2
284
    12
340
91
  0
DIMSTYLE
105
1F1
102
{ACAD_REACTORS
330
1F0
330
2A9
330
2B3
330
2BD
330
2C7
330
2D1
330
2DB
330
2E5
330
2EF
330
2F9
330
304
330
31A
330
32E
330
3EE
330
410
330
41A
330
425
102
}
330
A
100
AcDbSymbolTableRecord
100
AcDbDimStyleTableRecord
  2
SLDDIMSTYLE2
 70
     0
 41
3.302
 44
0.0
 45
0.000000001
 73
     0
 74
     0
 77
     1
 78
    12
 79
     3
140
3.5
147
0.875
173
     1
178
     0
271
     2
272
     2
276
     2
284
    12
340
91
  0
DIMSTYLE
105
2A2
102
{ACAD_REACTORS
330
2A1
102
}
330
A
100
AcDbSymbolTableRecord
100
AcDbDimStyleTableRecord
  2
SLDDIMSTYLE3
 70
     0
 41
3.302
 44
0.0
 45
0.000000001
 73
     0
 74
     0
 77
     1
 78
    12
 79
     3
140
3.5
141
0.0
147
0.875
173
     1
178
     0
271
     2
272
     2
276
     2
284
    12
340
91
  0
ENDTAB
  0
TABLE
  2
BLOCK_RECORD
  5
1
330
0
100
AcDbSymbolTable
 70
    61
  0
BLOCK_RECORD
  5
1F
330
1
100
AcDbSymbolTableRecord
100
AcDbBlockTableRecord
  2
*Model_Space
340
22
  0
BLOCK_RECORD
  5
1B
330
1
100
AcDbSymbolTableRecord
100
AcDbBlockTableRecord
  2
*Paper_Space
340
1E
  0
BLOCK_RECORD
  5
23
330
1
100
AcDbSymbolTableRecord
100
AcDbBlockTableRecord
  2
*Paper_Space0
340
26
  0
BLOCK_RECORD
  5
79
330
1
100
AcDbSymbolTableRecord
100
AcDbBlockTableRecord
  2
Schleifrichtungspfeil senkrecht
340
0
  0
BLOCK_RECORD
  5
81
330
1
100
AcDbSymbolTableRecord
100
AcDbBlockTableRecord
  2
Schleifrichtung+mattiert
340
0
  0
BLOCK_RECORD
  5
8E
330
1
100
AcDbSymbolTableRecord
100
AcDbBlockTableRecord
  2
SW_NOTE_0
340
0
102
{BLKREFS
331
93
102
}
  0
BLOCK_RECORD
  5
94
330
1
100
AcDbSymbolTableRecord
100
AcDbBlockTableRecord
  2
SW_NOTE_0_1
340
0
102
{BLKREFS
331
98
102
}
  0
BLOCK_RECORD
  5
99
330
1
100
AcDbSymbolTableRecord
100
AcDbBlockTableRecord
  2
Schleifrichtungspfeil waagerecht
340
0
  0
BLOCK_RECORD
  5
A5
330
1
100
AcDbSymbolTableRecord
100
AcDbBlockTableRecord
  2
Block1_2
340
0
102
{BLKREFS
331
147
102
}
  0
BLOCK_RECORD
  5
B3
330
1
100
AcDbSymbolTableRecord
100
AcDbBlockTableRecord
  2
SW_NOTE_0_2
340
0
102
{BLKREFS
331
B8
102
}
  0
BLOCK_RECORD
  5
B9
330
1
100
AcDbSymbolTableRecord
100
AcDbBlockTableRecord
  2
Block2_2
340
0
102
{BLKREFS
331
148
102
}
  0
BLOCK_RECORD
  5
D9
330
1
100
AcDbSymbolTableRecord
100
AcDbBlockTableRecord
  2
SW_NOTE_0_3
340
0
102
{BLKREFS
331
DE
102
}
  0
BLOCK_RECORD
  5
DF
330
1
100
AcDbSymbolTableRecord
100
AcDbBlockTableRecord
  2
SW_NOTE_0_4
340
0
102
{BLKREFS
331
E6
102
}
  0
BLOCK_RECORD
  5
E7
330
1
100
AcDbSymbolTableRecord
100
AcDbBlockTableRecord
  2
Block1_3_1_1
340
0
  0
BLOCK_RECORD
  5
F5
330
1
100
AcDbSymbolTableRecord
100
AcDbBlockTableRecord
  2
SW_NOTE_0_5
340
0
102
{BLKREFS
331
FA
102
}
  0
BLOCK_RECORD
  5
FB
330
1
100
AcDbSymbolTableRecord
100
AcDbBlockTableRecord
  2
Block2_3_1_1
340
0
  0
BLOCK_RECORD
  5
11B
330
1
100
AcDbSymbolTableRecord
100
AcDbBlockTableRecord
  2
SW_NOTE_0_6
340
0
102
{BLKREFS
331
11F
102
}
  0
BLOCK_RECORD
  5
120
330
1
100
AcDbSymbolTableRecord
100
AcDbBlockTableRecord
  2
SW_NOTE_0_7
340
0
102
{BLKREFS
331
126
102
}
  0
BLOCK_RECORD
  5
127
330
1
100
AcDbSymbolTableRecord
100
AcDbBlockTableRecord
  2
rechtlicher_Hinweis_Katalogzeichnungen_1_1
340
0
  0
BLOCK_RECORD
  5
12A
330
1
100
AcDbSymbolTableRecord
100
AcDbBlockTableRecord
  2
SW_NOTE_0_8
340
0
102
{BLKREFS
331
138
102
}
  0
BLOCK_RECORD
  5
15C
330
1
100
AcDbSymbolTableRecord
100
AcDbBlockTableRecord
  2
SW_NOTE_0_9
340
0
102
{BLKREFS
331
166
102
}
  0
BLOCK_RECORD
  5
1BF
330
1
100
AcDbSymbolTableRecord
100
AcDbBlockTableRecord
  2
_D
340
0
  0
BLOCK_RECORD
  5
1CC
330
1
100
AcDbSymbolTableRecord
100
AcDbBlockTableRecord
  2
_D_1
340
0
  0
BLOCK_RECORD
  5
1D9
330
1
100
AcDbSymbolTableRecord
100
AcDbBlockTableRecord
  2
_D_2
340
0
  0
BLOCK_RECORD
  5
1E7
330
1
100
AcDbSymbolTableRecord
100
AcDbBlockTableRecord
  2
_D_3
340
0
  0
BLOCK_RECORD
  5
1F2
330
1
100
AcDbSymbolTableRecord
100
AcDbBlockTableRecord
  2
_D_4
340
0
  0
BLOCK_RECORD
  5
1FC
330
1
100
AcDbSymbolTableRecord
100
AcDbBlockTableRecord
  2
SW_CENTERMARKSYMBOL_0
340
0
102
{BLKREFS
331
207
102
}
  0
BLOCK_RECORD
  5
2A3
330
1
100
AcDbSymbolTableRecord
100
AcDbBlockTableRecord
  2
_D_5
340
0
  0
BLOCK_RECORD
  5
2AA
330
1
100
AcDbSymbolTableRecord
100
AcDbBlockTableRecord
  2
_D_6
340
0
  0
BLOCK_RECORD
  5
2B4
330
1
100
AcDbSymbolTableRecord
100
AcDbBlockTableRecord
  2
_D_7
340
0
  0
BLOCK_RECORD
  5
2BE
330
1
100
AcDbSymbolTableRecord
100
AcDbBlockTableRecord
  2
_D_8
340
0
  0
BLOCK_RECORD
  5
2C8
330
1
100
AcDbSymbolTableRecord
100
AcDbBlockTableRecord
  2
_D_9
340
0
  0
BLOCK_RECORD
  5
2D2
330
1
100
AcDbSymbolTableRecord
100
AcDbBlockTableRecord
  2
_D_10
340
0
  0
BLOCK_RECORD
  5
2DC
330
1
100
AcDbSymbolTableRecord
100
AcDbBlockTableRecord
  2
_D_11
340
0
  0
BLOCK_RECORD
  5
2E6
330
1
100
AcDbSymbolTableRecord
100
AcDbBlockTableRecord
  2
_D_12
340
0
  0
BLOCK_RECORD
  5
2F0
330
1
100
AcDbSymbolTableRecord
100
AcDbBlockTableRecord
  2
_D_13
340
0
  0
BLOCK_RECORD
  5
2FA
330
1
100
AcDbSymbolTableRecord
100
AcDbBlockTableRecord
  2
_D_14
340
0
  0
BLOCK_RECORD
  5
305
330
1
100
AcDbSymbolTableRecord
100
AcDbBlockTableRecord
  2
_D_15
340
0
  0
BLOCK_RECORD
  5
310
330
1
100
AcDbSymbolTableRecord
100
AcDbBlockTableRecord
  2
_D_16
340
0
  0
BLOCK_RECORD
  5
31B
330
1
100
AcDbSymbolTableRecord
100
AcDbBlockTableRecord
  2
_D_17
340
0
  0
BLOCK_RECORD
  5
324
330
1
100
AcDbSymbolTableRecord
100
AcDbBlockTableRecord
  2
_D_18
340
0
  0
BLOCK_RECORD
  5
32F
330
1
100
AcDbSymbolTableRecord
100
AcDbBlockTableRecord
  2
_D_19
340
0
  0
BLOCK_RECORD
  5
338
330
1
100
AcDbSymbolTableRecord
100
AcDbBlockTableRecord
  2
SW_CENTERMARKSYMBOL_1
340
0
102
{BLKREFS
331
343
102
}
  0
BLOCK_RECORD
  5
344
330
1
100
AcDbSymbolTableRecord
100
AcDbBlockTableRecord
  2
SW_CENTERMARKSYMBOL_2
340
0
102
{BLKREFS
331
34F
102
}
  0
BLOCK_RECORD
  5
350
330
1
100
AcDbSymbolTableRecord
100
AcDbBlockTableRecord
  2
SW_CENTERMARKSYMBOL_3
340
0
102
{BLKREFS
331
35B
102
}
  0
BLOCK_RECORD
  5
35C
330
1
100
AcDbSymbolTableRecord
100
AcDbBlockTableRecord
  2
SW_CENTERMARKSYMBOL_4
340
0
102
{BLKREFS
331
367
102
}
  0
BLOCK_RECORD
  5
368
330
1
100
AcDbSymbolTableRecord
100
AcDbBlockTableRecord
  2
SW_CENTERMARKSYMBOL_5
340
0
102
{BLKREFS
331
373
102
}
  0
BLOCK_RECORD
  5
374
330
1
100
AcDbSymbolTableRecord
100
AcDbBlockTableRecord
  2
SW_CENTERMARKSYMBOL_6
340
0
102
{BLKREFS
331
37F
102
}
  0
BLOCK_RECORD
  5
380
330
1
100
AcDbSymbolTableRecord
100
AcDbBlockTableRecord
  2
SW_CENTERMARKSYMBOL_7
340
0
102
{BLKREFS
331
38B
102
}
  0
BLOCK_RECORD
  5
38C
330
1
100
AcDbSymbolTableRecord
100
AcDbBlockTableRecord
  2
SW_CENTERMARKSYMBOL_8
340
0
102
{BLKREFS
331
397
102
}
  0
BLOCK_RECORD
  5
398
330
1
100
AcDbSymbolTableRecord
100
AcDbBlockTableRecord
  2
SW_CENTERMARKSYMBOL_9
340
0
102
{BLKREFS
331
3A3
102
}
  0
BLOCK_RECORD
  5
3EF
330
1
100
AcDbSymbolTableRecord
100
AcDbBlockTableRecord
  2
_D_20
340
0
  0
BLOCK_RECORD
  5
3F9
330
1
100
AcDbSymbolTableRecord
100
AcDbBlockTableRecord
  2
_D_21
340
0
  0
BLOCK_RECORD
  5
405
330
1
100
AcDbSymbolTableRecord
100
AcDbBlockTableRecord
  2
_D_22
340
0
  0
BLOCK_RECORD
  5
411
330
1
100
AcDbSymbolTableRecord
100
AcDbBlockTableRecord
  2
_D_23
340
0
  0
BLOCK_RECORD
  5
41B
330
1
100
AcDbSymbolTableRecord
100
AcDbBlockTableRecord
  2
_D_24
340
0
  0
BLOCK_RECORD
  5
426
330
1
100
AcDbSymbolTableRecord
100
AcDbBlockTableRecord
  2
_D_25
340
0
  0
BLOCK_RECORD
  5
430
330
1
100
AcDbSymbolTableRecord
100
AcDbBlockTableRecord
  2
_D_26
340
0
  0
BLOCK_RECORD
  5
43D
330
1
100
AcDbSymbolTableRecord
100
AcDbBlockTableRecord
  2
_D_27
340
0
  0
BLOCK_RECORD
  5
447
330
1
100
AcDbSymbolTableRecord
100
AcDbBlockTableRecord
  2
_D_28
340
0
  0
BLOCK_RECORD
  5
453
330
1
100
AcDbSymbolTableRecord
100
AcDbBlockTableRecord
  2
SW_NOTE_0_10
340
0
102
{BLKREFS
331
458
102
}
  0
BLOCK_RECORD
  5
459
330
1
100
AcDbSymbolTableRecord
100
AcDbBlockTableRecord
  2
SW_CENTERMARKSYMBOL_10
340
0
102
{BLKREFS
331
464
102
}
  0
BLOCK_RECORD
  5
465
330
1
100
AcDbSymbolTableRecord
100
AcDbBlockTableRecord
  2
_Dot
340
0
102
{BLKREFS
331
46A
102
}
  0
ENDTAB
  0
ENDSEC
  0
SECTION
  2
BLOCKS
  0
BLOCK
  5
20
330
1F
100
AcDbEntity
  8
0
100
AcDbBlockBegin
  2
*Model_Space
 70
     0
 10
0.0
 20
0.0
 30
0.0
  3
*Model_Space
  1

  0
ENDBLK
  5
21
330
1F
100
AcDbEntity
  8
0
100
AcDbBlockEnd
  0
BLOCK
  5
1C
330
1B
100
AcDbEntity
 67
     1
  8
0
100
AcDbBlockBegin
  2
*Paper_Space
 70
     0
 10
0.0
 20
0.0
 30
0.0
  3
*Paper_Space
  1

  0
ENDBLK
  5
1D
330
1B
100
AcDbEntity
 67
     1
  8
0
100
AcDbBlockEnd
  0
BLOCK
  5
24
330
23
100
AcDbEntity
  8
0
100
AcDbBlockBegin
  2
*Paper_Space0
 70
     0
 10
0.0
 20
0.0
 30
0.0
  3
*Paper_Space0
  1

  0
ENDBLK
  5
25
330
23
100
AcDbEntity
  8
0
100
AcDbBlockEnd
  0
BLOCK
  5
7A
330
79
100
AcDbEntity
  8
0
100
AcDbBlockBegin
  2
Schleifrichtungspfeil senkrecht
 70
     0
 10
0.0
 20
0.0
 30
0.0
  3
Schleifrichtungspfeil senkrecht
  1

  0
LINE
  5
7C
330
79
100
AcDbEntity
  8
0
  6
Continuous
 62
     7
370
    18
100
AcDbLine
 10
-180.2961675747
 20
161.707847149
 30
0.0
 11
-180.2961675747
 21
153.5890355268
 31
0.0
  0
HATCH
  5
7D
330
79
100
AcDbEntity
  8
FORMAT
100
AcDbHatch
 10
0.0
 20
0.0
 30
0.0
210
0.0
220
0.0
230
1.0
  2
SOLID
 70
     1
 71
     0
 91
        1
 92
        0
 93
        3
 72
     1
 10
-180.2797164503988
 20
165.1487704095346
 11
-180.7405001919547
 21
161.6487704095346
 72
     1
 10
-180.7405001919547
 20
161.6487704095346
 11
-180.2797164503988
 21
161.6487704095346
 72
     1
 10
-180.2797164503988
 20
161.6487704095346
 11
-180.2797164503988
 21
165.1487704095346
 97
        0
 75
     0
 76
     1
 98
        1
 10
0.0
 20
0.0
  0
HATCH
  5
7E
330
79
100
AcDbEntity
  8
FORMAT
100
AcDbHatch
 10
0.0
 20
0.0
 30
0.0
210
0.0
220
0.0
230
1.0
  2
SOLID
 70
     1
 71
     0
 91
        1
 92
        0
 93
        3
 72
     1
 10
-180.2797164503988
 20
161.6487704095346
 11
-179.818932708843
 21
161.6487704095346
 72
     1
 10
-179.818932708843
 20
161.6487704095346
 11
-180.2797164503988
 21
165.1487704095346
 72
     1
 10
-180.2797164503988
 20
165.1487704095346
 11
-180.2797164503988
 21
161.6487704095346
 97
        0
 75
     0
 76
     1
 98
        1
 10
0.0
 20
0.0
  0
HATCH
  5
7F
330
79
100
AcDbEntity
  8
FORMAT
100
AcDbHatch
 10
0.0
 20
0.0
 30
0.0
210
0.0
220
0.0
230
1.0
  2
SOLID
 70
     1
 71
     0
 91
        1
 92
        0
 93
        3
 72
     1
 10
-180.2797164503988
 20
153.6487704095346
 11
-180.7405001919547
 21
153.6487704095346
 72
     1
 10
-180.7405001919547
 20
153.6487704095346
 11
-180.2797164503988
 21
150.1487704095346
 72
     1
 10
-180.2797164503988
 20
150.1487704095346
 11
-180.2797164503988
 21
153.6487704095346
 97
        0
 75
     0
 76
     1
 98
        1
 10
0.0
 20
0.0
  0
HATCH
  5
80
330
79
100
AcDbEntity
  8
FORMAT
100
AcDbHatch
 10
0.0
 20
0.0
 30
0.0
210
0.0
220
0.0
230
1.0
  2
SOLID
 70
     1
 71
     0
 91
        1
 92
        0
 93
        3
 72
     1
 10
-180.2797164503988
 20
150.1487704095346
 11
-179.8189327088429
 21
153.6487704095346
 72
     1
 10
-179.8189327088429
 20
153.6487704095346
 11
-180.2797164503988
 21
153.6487704095346
 72
     1
 10
-180.2797164503988
 20
153.6487704095346
 11
-180.2797164503988
 21
150.1487704095346
 97
        0
 75
     0
 76
     1
 98
        1
 10
0.0
 20
0.0
  0
ENDBLK
  5
7B
330
79
100
AcDbEntity
  8
0
100
AcDbBlockEnd
  0
BLOCK
  5
82
330
81
100
AcDbEntity
  8
0
100
AcDbBlockBegin
  2
Schleifrichtung+mattiert
 70
     0
 10
0.0
 20
0.0
 30
0.0
  3
Schleifrichtung+mattiert
  1

  0
LINE
  5
84
330
81
100
AcDbEntity
  8
0
  6
CENTER
 62
     7
370
    25
100
AcDbLine
 10
257.5643835569
 20
128.8441861289
 30
0.0
 11
277.114664664
 21
128.8441861289
 31
0.0
  0
LINE
  5
85
330
81
100
AcDbEntity
  8
FORMAT
370
    18
100
AcDbLine
 10
204.5055437613
 20
129.9367184644
 30
0.0
 11
212.5055437613
 21
129.9367184644
 31
0.0
  0
LINE
  5
86
330
81
100
AcDbEntity
  8
FORMAT
370
    25
100
AcDbLine
 10
201.0055437613
 20
129.9367184644
 30
0.0
 11
204.5055437613
 21
130.3975022059
 31
0.0
  0
LINE
  5
87
330
81
100
AcDbEntity
  8
FORMAT
370
    25
100
AcDbLine
 10
204.5055437613
 20
130.3975022059
 30
0.0
 11
204.5055437613
 21
129.4759347228
 31
0.0
  0
LINE
  5
88
330
81
100
AcDbEntity
  8
FORMAT
370
    25
100
AcDbLine
 10
204.5055437613
 20
129.4759347228
 30
0.0
 11
201.0055437613
 21
129.9367184644
 31
0.0
  0
LINE
  5
89
330
81
100
AcDbEntity
  8
FORMAT
  6
Continuous
 62
     7
370
    25
100
AcDbLine
 10
212.5055437613
 20
130.3975022059
 30
0.0
 11
212.5055437613
 21
129.4759347228
 31
0.0
  0
LINE
  5
8A
330
81
100
AcDbEntity
  8
FORMAT
  6
Continuous
 62
     7
370
    25
100
AcDbLine
 10
212.5055437613
 20
129.4759347228
 30
0.0
 11
216.0055437613
 21
129.9367184644
 31
0.0
  0
LINE
  5
8B
330
81
100
AcDbEntity
  8
FORMAT
  6
Continuous
 62
     7
370
    25
100
AcDbLine
 10
216.0055437613
 20
129.9367184644
 30
0.0
 11
212.5055437613
 21
130.3975022059
 31
0.0
  0
HATCH
  5
8C
330
81
100
AcDbEntity
  8
0
  6
Continuous
 62
     7
100
AcDbHatch
 10
0.0
 20
0.0
 30
0.0
210
0.0
220
0.0
230
1.0
  2
SOLID
 70
     1
 71
     0
 91
        1
 92
        0
 93
        3
 72
     1
 10
201.0055437612864
 20
129.9367184643777
 11
204.5055437612864
 21
129.4759347228218
 72
     1
 10
204.5055437612864
 20
129.4759347228218
 11
204.5055437612864
 21
130.3975022059335
 72
     1
 10
204.5055437612864
 20
130.3975022059335
 11
201.0055437612864
 21
129.9367184643777
 97
        0
 75
     0
 76
     1
 98
        1
 10
0.0
 20
0.0
  0
HATCH
  5
8D
330
81
100
AcDbEntity
  8
0
  6
Continuous
 62
     7
100
AcDbHatch
 10
0.0
 20
0.0
 30
0.0
210
0.0
220
0.0
230
1.0
  2
SOLID
 70
     1
 71
     0
 91
        1
 92
        0
 93
        3
 72
     1
 10
212.5055437612864
 20
129.4759347228218
 11
216.0055437612864
 21
129.9367184643776
 72
     1
 10
216.0055437612864
 20
129.9367184643776
 11
212.5055437612864
 21
130.3975022059335
 72
     1
 10
212.5055437612864
 20
130.3975022059335
 11
212.5055437612864
 21
129.4759347228218
 97
        0
 75
     0
 76
     1
 98
        1
 10
0.0
 20
0.0
  0
INSERT
  5
93
330
81
100
AcDbEntity
  8
FORMAT
 62
     7
100
AcDbBlockReference
  2
SW_NOTE_0
 10
279.6337272995
 20
126.8964738875
 30
0.0
  0
INSERT
  5
98
330
81
100
AcDbEntity
  8
0
  6
Continuous
 62
     7
370
     0
100
AcDbBlockReference
  2
SW_NOTE_0_1
 10
218.8952299572
 20
127.4220030224
 30
0.0
  0
ENDBLK
  5
83
330
81
100
AcDbEntity
  8
0
100
AcDbBlockEnd
  0
BLOCK
  5
8F
330
8E
100
AcDbEntity
  8
0
100
AcDbBlockBegin
  2
SW_NOTE_0
 70
     0
 10
0.0
 20
0.0
 30
0.0
  3
SW_NOTE_0
  1

  0
MTEXT
  5
92
330
8E
100
AcDbEntity
  8
FORMAT
 62
     0
100
AcDbMText
 10
0.0
 20
4.5117370892
 30
0.0
 40
3.5
 41
0.0
 71
     1
 72
     1
  1
mattiert
  7
SLDTEXTSTYLE0
 73
     1
 44
1.0
  0
ENDBLK
  5
90
330
8E
100
AcDbEntity
  8
0
100
AcDbBlockEnd
  0
BLOCK
  5
95
330
94
100
AcDbEntity
  8
0
100
AcDbBlockBegin
  2
SW_NOTE_0_1
 70
     0
 10
0.0
 20
0.0
 30
0.0
  3
SW_NOTE_0_1
  1

  0
MTEXT
  5
97
330
94
100
AcDbEntity
  8
0
  6
Continuous
 62
     0
370
     0
100
AcDbMText
 10
0.0
 20
4.5117370892
 30
0.0
 40
3.5
 41
0.0
 71
     1
 72
     1
  1
Schleifrichtung
  7
SLDTEXTSTYLE0
 73
     1
 44
1.0
  0
ENDBLK
  5
96
330
94
100
AcDbEntity
  8
0
100
AcDbBlockEnd
  0
BLOCK
  5
9A
330
99
100
AcDbEntity
  8
0
100
AcDbBlockBegin
  2
Schleifrichtungspfeil waagerecht
 70
     0
 10
0.0
 20
0.0
 30
0.0
  3
Schleifrichtungspfeil waagerecht
  1

  0
LINE
  5
9C
330
99
100
AcDbEntity
  8
FORMAT
370
    25
100
AcDbLine
 10
236.8560112868
 20
65.9690166542
 30
0.0
 11
240.8560112868
 21
65.9690166542
 31
0.0
  0
LINE
  5
9D
330
99
100
AcDbEntity
  8
FORMAT
370
    25
100
AcDbLine
 10
235.1060112868
 20
65.9690166542
 30
0.0
 11
236.8560112868
 21
66.199408525
 31
0.0
  0
LINE
  5
9E
330
99
100
AcDbEntity
  8
FORMAT
370
    25
100
AcDbLine
 10
236.8560112868
 20
66.199408525
 30
0.0
 11
236.8560112868
 21
65.7386247835
 31
0.0
  0
LINE
  5
9F
330
99
100
AcDbEntity
  8
FORMAT
370
    25
100
AcDbLine
 10
236.8560112868
 20
65.7386247835
 30
0.0
 11
235.1060112868
 21
65.9690166542
 31
0.0
  0
LINE
  5
A0
330
99
100
AcDbEntity
  8
FORMAT
  6
Continuous
 62
     7
370
    25
100
AcDbLine
 10
240.8560112868
 20
66.199408525
 30
0.0
 11
240.8560112868
 21
65.7386247835
 31
0.0
  0
LINE
  5
A1
330
99
100
AcDbEntity
  8
FORMAT
  6
Continuous
 62
     7
370
    25
100
AcDbLine
 10
240.8560112868
 20
65.7386247835
 30
0.0
 11
242.6060112868
 21
65.9690166542
 31
0.0
  0
LINE
  5
A2
330
99
100
AcDbEntity
  8
FORMAT
  6
Continuous
 62
     7
370
    25
100
AcDbLine
 10
242.6060112868
 20
65.9690166542
 30
0.0
 11
240.8560112868
 21
66.199408525
 31
0.0
  0
HATCH
  5
A3
330
99
100
AcDbEntity
  8
0
  6
Continuous
 62
     7
100
AcDbHatch
 10
0.0
 20
0.0
 30
0.0
210
0.0
220
0.0
230
1.0
  2
SOLID
 70
     1
 71
     0
 91
        1
 92
        0
 93
        3
 72
     1
 10
235.1060112868415
 20
65.96901665423289
 11
236.8560112868416
 21
65.73862478345495
 72
     1
 10
236.8560112868416
 20
65.73862478345495
 11
236.8560112868416
 21
66.19940852501082
 72
     1
 10
236.8560112868416
 20
66.19940852501082
 11
235.1060112868415
 21
65.96901665423289
 97
        0
 75
     0
 76
     1
 98
        1
 10
0.0
 20
0.0
  0
HATCH
  5
A4
330
99
100
AcDbEntity
  8
0
  6
Continuous
 62
     7
100
AcDbHatch
 10
0.0
 20
0.0
 30
0.0
210
0.0
220
0.0
230
1.0
  2
SOLID
 70
     1
 71
     0
 91
        1
 92
        0
 93
        3
 72
     1
 10
240.8560112868416
 20
65.73862478345495
 11
242.6060112868416
 21
65.96901665423289
 72
     1
 10
242.6060112868416
 20
65.96901665423289
 11
240.8560112868416
 21
66.19940852501081
 72
     1
 10
240.8560112868416
 20
66.19940852501081
 11
240.8560112868416
 21
65.73862478345495
 97
        0
 75
     0
 76
     1
 98
        1
 10
0.0
 20
0.0
  0
ENDBLK
  5
9B
330
99
100
AcDbEntity
  8
0
100
AcDbBlockEnd
  0
BLOCK
  5
A6
330
A5
100
AcDbEntity
  8
0
100
AcDbBlockBegin
  2
Block1_2
 70
     0
 10
0.0
 20
0.0
 30
0.0
  3
Block1_2
  1

  0
CIRCLE
  5
A8
330
A5
100
AcDbEntity
  8
0
  6
Continuous
 62
     7
370
    18
100
AcDbCircle
 10
11.6137544821
 20
9.0896586992
 30
0.0
 40
1.255909011058753
  0
CIRCLE
  5
A9
330
A5
100
AcDbEntity
  8
0
  6
Continuous
 62
     7
370
    18
100
AcDbCircle
 10
11.6137544821
 20
9.0896586992
 30
0.0
 40
2.216014863655655
  0
LINE
  5
AA
330
A5
100
AcDbEntity
  8
0
  6
CENTERX2
 62
     7
370
    18
100
AcDbLine
 10
11.6137544821
 20
9.0896586992
 30
0.0
 11
7.8977396184
 21
9.0896586992
 31
0.0
  0
LINE
  5
AB
330
A5
100
AcDbEntity
  8
0
  6
Continuous
 62
     7
370
    18
100
AcDbLine
 10
8.165753588
 20
6.8736438356
 30
0.0
 11
8.165753588
 21
11.3071584591
 31
0.0
  0
LINE
  5
AC
330
A5
100
AcDbEntity
  8
0
  6
Continuous
 62
     7
370
    18
100
AcDbLine
 10
2.6797147895
 20
10.3455677103
 30
0.0
 11
2.6797147895
 21
7.8337496881
 31
0.0
  0
LINE
  5
AD
330
A5
100
AcDbEntity
  8
0
  6
Continuous
 62
     7
370
    18
100
AcDbLine
 10
2.6797147895
 20
7.8337496881
 30
0.0
 11
8.165753588
 21
6.8736438356
 31
0.0
  0
LINE
  5
AE
330
A5
100
AcDbEntity
  8
0
  6
CENTERX2
 62
     7
370
    18
100
AcDbLine
 10
9.665753588
 20
9.0896586992
 30
0.0
 11
1.1797147895
 21
9.0896586992
 31
0.0
  0
LINE
  5
AF
330
A5
100
AcDbEntity
  8
0
  6
Continuous
 62
     7
370
    18
100
AcDbLine
 10
8.165753588
 20
11.3071584591
 30
0.0
 11
2.6797147895
 21
10.3455677103
 31
0.0
  0
LINE
  5
B0
330
A5
100
AcDbEntity
  8
0
  6
CENTERX2
 62
     7
370
    18
100
AcDbLine
 10
11.6137544821
 20
9.0896586992
 30
0.0
 11
11.6137544821
 21
5.3736438356
 31
0.0
  0
LINE
  5
B1
330
A5
100
AcDbEntity
  8
0
  6
CENTERX2
 62
     7
370
    18
100
AcDbLine
 10
11.6137544821
 20
9.0896586992
 30
0.0
 11
11.6137544821
 21
12.8056735629
 31
0.0
  0
LINE
  5
B2
330
A5
100
AcDbEntity
  8
0
  6
CENTERX2
 62
     7
370
    18
100
AcDbLine
 10
11.6137544821
 20
9.0896586992
 30
0.0
 11
15.3297693458
 21
9.0896586992
 31
0.0
  0
INSERT
  5
B8
330
A5
100
AcDbEntity
  8
0
  6
Continuous
 62
     7
370
     0
100
AcDbBlockReference
  2
SW_NOTE_0_2
 10
2.1031832889
 20
2.3754472768
 30
0.0
  0
ENDBLK
  5
A7
330
A5
100
AcDbEntity
  8
0
100
AcDbBlockEnd
  0
BLOCK
  5
B4
330
B3
100
AcDbEntity
  8
0
100
AcDbBlockBegin
  2
SW_NOTE_0_2
 70
     0
 10
0.0
 20
0.0
 30
0.0
  3
SW_NOTE_0_2
  1

  0
MTEXT
  5
B6
330
B3
100
AcDbEntity
  8
0
  6
Continuous
 62
     0
370
     0
100
AcDbMText
 10
6.590625
 20
2.4492287056
 30
0.0
 40
1.9
 41
0.0
 71
     2
 72
     1
  1
DIN 6  T1 - 
  7
SLDTEXTSTYLE0
 73
     1
 44
1.0
  0
MTEXT
  5
B7
330
B3
100
AcDbEntity
  8
0
  6
Continuous
 62
     0
370
     0
100
AcDbMText
 10
6.6569262624
 20
0.0003397443
 30
0.0
 40
1.9
 41
0.0
 71
     2
 72
     1
  1
Proj.methode 1
  7
SLDTEXTSTYLE0
 73
     1
 44
1.0
  0
ENDBLK
  5
B5
330
B3
100
AcDbEntity
  8
0
100
AcDbBlockEnd
  0
BLOCK
  5
BA
330
B9
100
AcDbEntity
  8
0
100
AcDbBlockBegin
  2
Block2_2
 70
     0
 10
0.0
 20
0.0
 30
0.0
  3
Block2_2
  1

  0
ARC
  5
BC
330
B9
100
AcDbEntity
  8
FORMAT
100
AcDbCircle
 10
236.7496365382
 20
57.0990600997
 30
0.0
 40
3.75000000000001
100
AcDbArc
 50
93.8225537293
 51
266.1774462707
  0
ARC
  5
BD
330
B9
100
AcDbEntity
  8
FORMAT
100
AcDbCircle
 10
236.7496365382
 20
57.0990600997
 30
0.0
 40
3.000000000000012
100
AcDbArc
 50
94.7801918472
 51
265.2198081528
  0
ARC
  5
BE
330
B9
100
AcDbEntity
  8
FORMAT
100
AcDbCircle
 10
236.7496365382
 20
57.0990600997
 30
0.0
 40
3.75000000000001
100
AcDbArc
 50
273.8225537293
 51
86.1774462707
  0
ARC
  5
BF
330
B9
100
AcDbEntity
  8
FORMAT
100
AcDbCircle
 10
236.7496365382
 20
57.0990600997
 30
0.0
 40
3.000000000000012
100
AcDbArc
 50
274.7801918472
 51
85.2198081528
  0
ARC
  5
C0
330
B9
100
AcDbEntity
  8
FORMAT
100
AcDbCircle
 10
236.7496365382
 20
58.2320416436
 30
0.0
 40
0.8604027828068846
100
AcDbArc
 50
304.8395134495
 51
73.1084194601
  0
ARC
  5
C1
330
B9
100
AcDbEntity
  8
FORMAT
100
AcDbCircle
 10
236.7496365382
 20
58.2320416436
 30
0.0
 40
1.402314431660661
100
AcDbArc
 50
313.8988153445
 51
79.7306010333
  0
ARC
  5
C2
330
B9
100
AcDbEntity
  8
FORMAT
100
AcDbCircle
 10
236.7496365382
 20
55.4979572256
 30
0.0
 40
0.4915306686725103
100
AcDbArc
 50
300.5716370086
 51
0.0
  0
ARC
  5
C3
330
B9
100
AcDbEntity
  8
FORMAT
100
AcDbCircle
 10
236.7496365382
 20
58.2320416436
 30
0.0
 40
1.402314431660661
100
AcDbArc
 50
100.2693989667
 51
226.1011846555
  0
ARC
  5
C4
330
B9
100
AcDbEntity
  8
FORMAT
100
AcDbCircle
 10
236.7496365382
 20
55.4979572256
 30
0.0
 40
0.9723464985416115
100
AcDbArc
 50
180.0
 51
255.1013518888
  0
ARC
  5
C5
330
B9
100
AcDbEntity
  8
FORMAT
100
AcDbCircle
 10
236.7496365382
 20
55.4979572256
 30
0.0
 40
0.9723464985416115
100
AcDbArc
 50
284.8986481112
 51
0.0
  0
ARC
  5
C6
330
B9
100
AcDbEntity
  8
FORMAT
100
AcDbCircle
 10
236.7496365382
 20
55.4979572256
 30
0.0
 40
0.4915306686725099
100
AcDbArc
 50
180.0
 51
239.4283629914
  0
ARC
  5
C7
330
B9
100
AcDbEntity
  8
FORMAT
100
AcDbCircle
 10
236.7496365382
 20
58.2320416436
 30
0.0
 40
0.8604027828068846
100
AcDbArc
 50
106.8915805399
 51
235.1604865505
  0
LINE
  5
C8
330
B9
100
AcDbEntity
  8
FORMAT
100
AcDbLine
 10
232.5312401271
 20
52.8806636887
 30
0.0
 11
240.9680329492
 21
52.8806636887
 31
0.0
  0
LINE
  5
C9
330
B9
100
AcDbEntity
  8
FORMAT
100
AcDbLine
 10
232.5312401271
 20
61.3174565107
 30
0.0
 11
240.9680329492
 21
61.3174565107
 31
0.0
  0
LINE
  5
CA
330
B9
100
AcDbEntity
  8
FORMAT
100
AcDbLine
 10
232.5312401271
 20
61.3174565107
 30
0.0
 11
232.5312401271
 21
52.8806636887
 31
0.0
  0
LINE
  5
CB
330
B9
100
AcDbEntity
  8
FORMAT
100
AcDbLine
 10
240.9680329492
 20
61.3174565107
 30
0.0
 11
240.9680329492
 21
52.8806636887
 31
0.0
  0
LINE
  5
CC
330
B9
100
AcDbEntity
  8
FORMAT
100
AcDbLine
 10
236.4996365382
 20
60.8407174865
 30
0.0
 11
236.4996365382
 21
60.0886252855
 31
0.0
  0
LINE
  5
CD
330
B9
100
AcDbEntity
  8
FORMAT
100
AcDbLine
 10
236.9996365382
 20
60.8407174865
 30
0.0
 11
236.9996365382
 21
60.0886252855
 31
0.0
  0
LINE
  5
CE
330
B9
100
AcDbEntity
  8
FORMAT
100
AcDbLine
 10
236.4996365382
 20
54.1094949139
 30
0.0
 11
236.4996365382
 21
53.3574027129
 31
0.0
  0
LINE
  5
CF
330
B9
100
AcDbEntity
  8
FORMAT
100
AcDbLine
 10
236.9996365382
 20
54.1094949139
 30
0.0
 11
236.9996365382
 21
53.3574027129
 31
0.0
  0
LINE
  5
D0
330
B9
100
AcDbEntity
  8
FORMAT
100
AcDbLine
 10
236.9996365382
 20
59.6118915504
 30
0.0
 11
236.9996365382
 21
59.0553234597
 31
0.0
  0
LINE
  5
D1
330
B9
100
AcDbEntity
  8
FORMAT
100
AcDbLine
 10
236.4996365382
 20
59.6118915504
 30
0.0
 11
236.4996365382
 21
59.0553234597
 31
0.0
  0
LINE
  5
D2
330
B9
100
AcDbEntity
  8
FORMAT
100
AcDbLine
 10
235.7772900396
 20
55.4979572256
 30
0.0
 11
235.7772900396
 21
57.2215823164
 31
0.0
  0
LINE
  5
D3
330
B9
100
AcDbEntity
  8
FORMAT
100
AcDbLine
 10
237.7219830367
 20
55.4979572256
 30
0.0
 11
237.7219830367
 21
57.2215823164
 31
0.0
  0
LINE
  5
D4
330
B9
100
AcDbEntity
  8
FORMAT
100
AcDbLine
 10
237.2411672068
 20
55.4979572256
 30
0.0
 11
237.2411672068
 21
57.5258613901
 31
0.0
  0
LINE
  5
D5
330
B9
100
AcDbEntity
  8
FORMAT
100
AcDbLine
 10
236.2581058695
 20
55.4979572256
 30
0.0
 11
236.2581058695
 21
57.5258613901
 31
0.0
  0
LINE
  5
D6
330
B9
100
AcDbEntity
  8
FORMAT
100
AcDbLine
 10
236.4996365382
 20
55.0747523127
 30
0.0
 11
236.4996365382
 21
54.5582989296
 31
0.0
  0
LINE
  5
D7
330
B9
100
AcDbEntity
  8
FORMAT
100
AcDbLine
 10
236.9996365382
 20
55.0747523127
 30
0.0
 11
236.9996365382
 21
54.5582989296
 31
0.0
  0
HATCH
  5
D8
330
B9
100
AcDbEntity
  8
FORMAT
100
AcDbHatch
 10
0.0
 20
0.0
 30
0.0
210
0.0
220
0.0
230
1.0
  2
SOLID
 70
     1
 71
     0
 91
        5
 92
        0
 93
        4
 72
     1
 10
240.9680329492058
 20
61.31745651073599
 11
240.9680329492058
 21
52.88066368865002
 72
     1
 10
240.9680329492058
 20
52.88066368865002
 11
232.5312401271199
 21
52.88066368865002
 72
     1
 10
232.5312401271199
 20
52.88066368865002
 11
232.5312401271199
 21
61.31745651073599
 72
     1
 10
232.5312401271199
 20
61.31745651073599
 11
240.9680329492058
 21
61.31745651073599
 97
        0
 92
        0
 93
        4
 72
     2
 10
236.7496365381628
 20
57.09906009969301
 40
3.000000000000011
 50
94.78019184719915
 51
265.2198081528016
 73
     0
 72
     1
 10
236.4996365381628
 20
60.08862528546836
 11
236.4996365381628
 21
60.84071748646695
 72
     2
 10
236.7496365381628
 20
57.09906009969301
 40
3.750000000000007
 50
93.82255372927435
 51
266.1774462707265
 73
     1
 72
     1
 10
236.4996365381628
 20
53.35740271291905
 11
236.4996365381628
 21
54.10949491391764
 97
        0
 92
        0
 93
        8
 72
     1
 10
237.7219830367044
 20
55.49795722557887
 11
237.7219830367044
 21
57.22158231636488
 72
     2
 10
236.7496365381628
 20
58.23204164361047
 40
1.402314431660656
 50
313.8988153445118
 51
439.730601033339
 73
     1
 72
     1
 10
236.9996365381628
 20
59.61189155039155
 11
236.9996365381628
 21
59.05532345967459
 72
     2
 10
236.7496365381628
 20
58.23204164361047
 40
0.8604027828068782
 50
286.8915805399266
 51
415.1604865505413
 73
     0
 72
     1
 10
237.2411672068353
 20
57.52586139012261
 11
237.2411672068353
 21
55.49795722557887
 72
     2
 10
236.7496365381628
 20
55.49795722557887
 40
0.4915306686725041
 50
0.0
 51
59.42836299135124
 73
     0
 72
     1
 10
236.9996365381628
 20
55.07475231274628
 11
236.9996365381628
 21
54.55829892958712
 72
     2
 10
236.7496365381628
 20
55.49795722557887
 40
0.9723464985416097
 50
284.8986481111874
 51
360.0000000000008
 73
     1
 97
        0
 92
        0
 93
        8
 72
     2
 10
236.7496365381628
 20
55.49795722557887
 40
0.4915306686725041
 50
120.5716370086484
 51
180.0
 73
     0
 72
     1
 10
236.2581058694904
 20
55.49795722557887
 11
236.2581058694904
 21
57.52586139012261
 72
     2
 10
236.7496365381628
 20
58.23204164361047
 40
0.8604027828068782
 50
124.839513449458
 51
253.108419460075
 73
     0
 72
     1
 10
236.4996365381628
 20
59.05532345967459
 11
236.4996365381628
 21
59.61189155039155
 72
     2
 10
236.7496365381628
 20
58.23204164361047
 40
1.402314431660656
 50
100.2693989666618
 51
226.1011846554898
 73
     1
 72
     1
 10
235.7772900396212
 20
57.22158231636488
 11
235.7772900396212
 21
55.49795722557887
 72
     2
 10
236.7496365381628
 20
55.49795722557887
 40
0.9723464985416097
 50
180.0
 51
255.1013518888143
 73
     1
 72
     1
 10
236.4996365381628
 20
54.55829892958712
 11
236.4996365381628
 21
55.07475231274628
 97
        0
 92
        0
 93
        4
 72
     2
 10
236.7496365381628
 20
57.09906009969301
 40
3.000000000000011
 50
274.7801918471999
 51
445.2198081528016
 73
     0
 72
     1
 10
236.9996365381628
 20
54.10949491391764
 11
236.9996365381628
 21
53.35740271291905
 72
     2
 10
236.7496365381628
 20
57.09906009969301
 40
3.750000000000007
 50
273.8225537292751
 51
446.1774462707265
 73
     1
 72
     1
 10
236.9996365381628
 20
60.84071748646695
 11
236.9996365381628
 21
60.08862528546836
 97
        0
 75
     0
 76
     1
 98
        1
 10
0.0
 20
0.0
  0
INSERT
  5
DE
330
B9
100
AcDbEntity
  8
FORMAT
 62
     7
100
AcDbBlockReference
  2
SW_NOTE_0_3
 10
232.2514665163
 20
47.7232938825
 30
0.0
  0
INSERT
  5
E6
330
B9
100
AcDbEntity
  8
0
  6
Continuous
 62
     7
370
     0
100
AcDbBlockReference
  2
SW_NOTE_0_4
 10
244.0723034979
 20
57.1176018272
 30
0.0
  0
ENDBLK
  5
BB
330
B9
100
AcDbEntity
  8
0
100
AcDbBlockEnd
  0
BLOCK
  5
DA
330
D9
100
AcDbEntity
  8
0
100
AcDbBlockBegin
  2
SW_NOTE_0_3
 70
     0
 10
0.0
 20
0.0
 30
0.0
  3
SW_NOTE_0_3
  1

  0
MTEXT
  5
DD
330
D9
100
AcDbEntity
  8
FORMAT
 62
     0
100
AcDbMText
 10
0.0
 20
3.8651911469
 30
0.0
 40
3.0
 41
0.0
 71
     1
 72
     1
  1
ECO
  7
SLDTEXTSTYLE1
 73
     1
 44
1.0
  0
ENDBLK
  5
DB
330
D9
100
AcDbEntity
  8
0
100
AcDbBlockEnd
  0
BLOCK
  5
E0
330
DF
100
AcDbEntity
  8
0
100
AcDbBlockBegin
  2
SW_NOTE_0_4
 70
     0
 10
0.0
 20
0.0
 30
0.0
  3
SW_NOTE_0_4
  1

  0
MTEXT
  5
E3
330
DF
100
AcDbEntity
  8
0
  6
Continuous
 62
     0
370
     0
100
AcDbMText
 10
0.0
 20
3.2226693494
 30
0.0
 40
2.5
 41
0.0
 71
     1
 72
     1
  1
ECO Schulte GmbH & Co. KG
  7
SLDTEXTSTYLE2
 73
     1
 44
1.0
  0
MTEXT
  5
E4
330
DF
100
AcDbEntity
  8
0
  6
Continuous
 62
     0
370
     0
100
AcDbMText
 10
0.0
 20
-0.2773307586
 30
0.0
 40
2.5
 41
0.0
 71
     1
 72
     1
  1
Postfach 206
  7
SLDTEXTSTYLE2
 73
     1
 44
1.0
  0
MTEXT
  5
E5
330
DF
100
AcDbEntity
  8
0
  6
Continuous
 62
     0
370
     0
100
AcDbMText
 10
0.0
 20
-3.7773308666
 30
0.0
 40
2.5
 41
0.0
 71
     1
 72
     1
  1
58682 Menden
  7
SLDTEXTSTYLE2
 73
     1
 44
1.0
  0
ENDBLK
  5
E1
330
DF
100
AcDbEntity
  8
0
100
AcDbBlockEnd
  0
BLOCK
  5
E8
330
E7
100
AcDbEntity
  8
0
100
AcDbBlockBegin
  2
Block1_3_1_1
 70
     0
 10
0.0
 20
0.0
 30
0.0
  3
Block1_3_1_1
  1

  0
CIRCLE
  5
EA
330
E7
100
AcDbEntity
  8
0
  6
Continuous
 62
     7
370
    18
100
AcDbCircle
 10
11.6137544821
 20
9.0896586992
 30
0.0
 40
1.255909011058753
  0
CIRCLE
  5
EB
330
E7
100
AcDbEntity
  8
0
  6
Continuous
 62
     7
370
    18
100
AcDbCircle
 10
11.6137544821
 20
9.0896586992
 30
0.0
 40
2.216014863655655
  0
LINE
  5
EC
330
E7
100
AcDbEntity
  8
0
  6
CENTERX2
 62
     7
370
    18
100
AcDbLine
 10
11.6137544821
 20
9.0896586992
 30
0.0
 11
7.8977396184
 21
9.0896586992
 31
0.0
  0
LINE
  5
ED
330
E7
100
AcDbEntity
  8
0
  6
Continuous
 62
     7
370
    18
100
AcDbLine
 10
8.165753588
 20
6.8736438356
 30
0.0
 11
8.165753588
 21
11.3071584591
 31
0.0
  0
LINE
  5
EE
330
E7
100
AcDbEntity
  8
0
  6
Continuous
 62
     7
370
    18
100
AcDbLine
 10
2.6797147895
 20
10.3455677103
 30
0.0
 11
2.6797147895
 21
7.8337496881
 31
0.0
  0
LINE
  5
EF
330
E7
100
AcDbEntity
  8
0
  6
Continuous
 62
     7
370
    18
100
AcDbLine
 10
2.6797147895
 20
7.8337496881
 30
0.0
 11
8.165753588
 21
6.8736438356
 31
0.0
  0
LINE
  5
F0
330
E7
100
AcDbEntity
  8
0
  6
CENTERX2
 62
     7
370
    18
100
AcDbLine
 10
9.665753588
 20
9.0896586992
 30
0.0
 11
1.1797147895
 21
9.0896586992
 31
0.0
  0
LINE
  5
F1
330
E7
100
AcDbEntity
  8
0
  6
Continuous
 62
     7
370
    18
100
AcDbLine
 10
8.165753588
 20
11.3071584591
 30
0.0
 11
2.6797147895
 21
10.3455677103
 31
0.0
  0
LINE
  5
F2
330
E7
100
AcDbEntity
  8
0
  6
CENTERX2
 62
     7
370
    18
100
AcDbLine
 10
11.6137544821
 20
9.0896586992
 30
0.0
 11
11.6137544821
 21
5.3736438356
 31
0.0
  0
LINE
  5
F3
330
E7
100
AcDbEntity
  8
0
  6
CENTERX2
 62
     7
370
    18
100
AcDbLine
 10
11.6137544821
 20
9.0896586992
 30
0.0
 11
11.6137544821
 21
12.8056735629
 31
0.0
  0
LINE
  5
F4
330
E7
100
AcDbEntity
  8
0
  6
CENTERX2
 62
     7
370
    18
100
AcDbLine
 10
11.6137544821
 20
9.0896586992
 30
0.0
 11
15.3297693458
 21
9.0896586992
 31
0.0
  0
INSERT
  5
FA
330
E7
100
AcDbEntity
  8
0
  6
Continuous
 62
     7
370
     0
100
AcDbBlockReference
  2
SW_NOTE_0_5
 10
2.1031832889
 20
2.3754472768
 30
0.0
  0
ENDBLK
  5
E9
330
E7
100
AcDbEntity
  8
0
100
AcDbBlockEnd
  0
BLOCK
  5
F6
330
F5
100
AcDbEntity
  8
0
100
AcDbBlockBegin
  2
SW_NOTE_0_5
 70
     0
 10
0.0
 20
0.0
 30
0.0
  3
SW_NOTE_0_5
  1

  0
MTEXT
  5
F8
330
F5
100
AcDbEntity
  8
0
  6
Continuous
 62
     0
370
     0
100
AcDbMText
 10
6.590625
 20
2.4492287056
 30
0.0
 40
1.9
 41
0.0
 71
     2
 72
     1
  1
DIN 6  T1 - 
  7
SLDTEXTSTYLE0
 73
     1
 44
1.0
  0
MTEXT
  5
F9
330
F5
100
AcDbEntity
  8
0
  6
Continuous
 62
     0
370
     0
100
AcDbMText
 10
6.6569262624
 20
0.0003397443
 30
0.0
 40
1.9
 41
0.0
 71
     2
 72
     1
  1
Proj.methode 1
  7
SLDTEXTSTYLE0
 73
     1
 44
1.0
  0
ENDBLK
  5
F7
330
F5
100
AcDbEntity
  8
0
100
AcDbBlockEnd
  0
BLOCK
  5
FC
330
FB
100
AcDbEntity
  8
0
100
AcDbBlockBegin
  2
Block2_3_1_1
 70
     0
 10
0.0
 20
0.0
 30
0.0
  3
Block2_3_1_1
  1

  0
ARC
  5
FE
330
FB
100
AcDbEntity
  8
FORMAT
100
AcDbCircle
 10
236.7496365382
 20
57.0990600997
 30
0.0
 40
3.75000000000001
100
AcDbArc
 50
93.8225537293
 51
266.1774462707
  0
ARC
  5
FF
330
FB
100
AcDbEntity
  8
FORMAT
100
AcDbCircle
 10
236.7496365382
 20
57.0990600997
 30
0.0
 40
3.000000000000012
100
AcDbArc
 50
94.7801918472
 51
265.2198081528
  0
ARC
  5
100
330
FB
100
AcDbEntity
  8
FORMAT
100
AcDbCircle
 10
236.7496365382
 20
57.0990600997
 30
0.0
 40
3.75000000000001
100
AcDbArc
 50
273.8225537293
 51
86.1774462707
  0
ARC
  5
101
330
FB
100
AcDbEntity
  8
FORMAT
100
AcDbCircle
 10
236.7496365382
 20
57.0990600997
 30
0.0
 40
3.000000000000012
100
AcDbArc
 50
274.7801918472
 51
85.2198081528
  0
ARC
  5
102
330
FB
100
AcDbEntity
  8
FORMAT
100
AcDbCircle
 10
236.7496365382
 20
58.2320416436
 30
0.0
 40
0.8604027828068846
100
AcDbArc
 50
304.8395134495
 51
73.1084194601
  0
ARC
  5
103
330
FB
100
AcDbEntity
  8
FORMAT
100
AcDbCircle
 10
236.7496365382
 20
58.2320416436
 30
0.0
 40
1.402314431660661
100
AcDbArc
 50
313.8988153445
 51
79.7306010333
  0
ARC
  5
104
330
FB
100
AcDbEntity
  8
FORMAT
100
AcDbCircle
 10
236.7496365382
 20
55.4979572256
 30
0.0
 40
0.4915306686725103
100
AcDbArc
 50
300.5716370086
 51
0.0
  0
ARC
  5
105
330
FB
100
AcDbEntity
  8
FORMAT
100
AcDbCircle
 10
236.7496365382
 20
58.2320416436
 30
0.0
 40
1.402314431660661
100
AcDbArc
 50
100.2693989667
 51
226.1011846555
  0
ARC
  5
106
330
FB
100
AcDbEntity
  8
FORMAT
100
AcDbCircle
 10
236.7496365382
 20
55.4979572256
 30
0.0
 40
0.9723464985416115
100
AcDbArc
 50
180.0
 51
255.1013518888
  0
ARC
  5
107
330
FB
100
AcDbEntity
  8
FORMAT
100
AcDbCircle
 10
236.7496365382
 20
55.4979572256
 30
0.0
 40
0.9723464985416115
100
AcDbArc
 50
284.8986481112
 51
0.0
  0
ARC
  5
108
330
FB
100
AcDbEntity
  8
FORMAT
100
AcDbCircle
 10
236.7496365382
 20
55.4979572256
 30
0.0
 40
0.4915306686725099
100
AcDbArc
 50
180.0
 51
239.4283629914
  0
ARC
  5
109
330
FB
100
AcDbEntity
  8
FORMAT
100
AcDbCircle
 10
236.7496365382
 20
58.2320416436
 30
0.0
 40
0.8604027828068846
100
AcDbArc
 50
106.8915805399
 51
235.1604865505
  0
LINE
  5
10A
330
FB
100
AcDbEntity
  8
FORMAT
100
AcDbLine
 10
232.5312401271
 20
52.8806636887
 30
0.0
 11
240.9680329492
 21
52.8806636887
 31
0.0
  0
LINE
  5
10B
330
FB
100
AcDbEntity
  8
FORMAT
100
AcDbLine
 10
232.5312401271
 20
61.3174565107
 30
0.0
 11
240.9680329492
 21
61.3174565107
 31
0.0
  0
LINE
  5
10C
330
FB
100
AcDbEntity
  8
FORMAT
100
AcDbLine
 10
232.5312401271
 20
61.3174565107
 30
0.0
 11
232.5312401271
 21
52.8806636887
 31
0.0
  0
LINE
  5
10D
330
FB
100
AcDbEntity
  8
FORMAT
100
AcDbLine
 10
240.9680329492
 20
61.3174565107
 30
0.0
 11
240.9680329492
 21
52.8806636887
 31
0.0
  0
LINE
  5
10E
330
FB
100
AcDbEntity
  8
FORMAT
100
AcDbLine
 10
236.4996365382
 20
60.8407174865
 30
0.0
 11
236.4996365382
 21
60.0886252855
 31
0.0
  0
LINE
  5
10F
330
FB
100
AcDbEntity
  8
FORMAT
100
AcDbLine
 10
236.9996365382
 20
60.8407174865
 30
0.0
 11
236.9996365382
 21
60.0886252855
 31
0.0
  0
LINE
  5
110
330
FB
100
AcDbEntity
  8
FORMAT
100
AcDbLine
 10
236.4996365382
 20
54.1094949139
 30
0.0
 11
236.4996365382
 21
53.3574027129
 31
0.0
  0
LINE
  5
111
330
FB
100
AcDbEntity
  8
FORMAT
100
AcDbLine
 10
236.9996365382
 20
54.1094949139
 30
0.0
 11
236.9996365382
 21
53.3574027129
 31
0.0
  0
LINE
  5
112
330
FB
100
AcDbEntity
  8
FORMAT
100
AcDbLine
 10
236.9996365382
 20
59.6118915504
 30
0.0
 11
236.9996365382
 21
59.0553234597
 31
0.0
  0
LINE
  5
113
330
FB
100
AcDbEntity
  8
FORMAT
100
AcDbLine
 10
236.4996365382
 20
59.6118915504
 30
0.0
 11
236.4996365382
 21
59.0553234597
 31
0.0
  0
LINE
  5
114
330
FB
100
AcDbEntity
  8
FORMAT
100
AcDbLine
 10
235.7772900396
 20
55.4979572256
 30
0.0
 11
235.7772900396
 21
57.2215823164
 31
0.0
  0
LINE
  5
115
330
FB
100
AcDbEntity
  8
FORMAT
100
AcDbLine
 10
237.7219830367
 20
55.4979572256
 30
0.0
 11
237.7219830367
 21
57.2215823164
 31
0.0
  0
LINE
  5
116
330
FB
100
AcDbEntity
  8
FORMAT
100
AcDbLine
 10
237.2411672068
 20
55.4979572256
 30
0.0
 11
237.2411672068
 21
57.5258613901
 31
0.0
  0
LINE
  5
117
330
FB
100
AcDbEntity
  8
FORMAT
100
AcDbLine
 10
236.2581058695
 20
55.4979572256
 30
0.0
 11
236.2581058695
 21
57.5258613901
 31
0.0
  0
LINE
  5
118
330
FB
100
AcDbEntity
  8
FORMAT
100
AcDbLine
 10
236.4996365382
 20
55.0747523127
 30
0.0
 11
236.4996365382
 21
54.5582989296
 31
0.0
  0
LINE
  5
119
330
FB
100
AcDbEntity
  8
FORMAT
100
AcDbLine
 10
236.9996365382
 20
55.0747523127
 30
0.0
 11
236.9996365382
 21
54.5582989296
 31
0.0
  0
HATCH
  5
11A
330
FB
100
AcDbEntity
  8
FORMAT
100
AcDbHatch
 10
0.0
 20
0.0
 30
0.0
210
0.0
220
0.0
230
1.0
  2
SOLID
 70
     1
 71
     0
 91
        5
 92
        0
 93
        4
 72
     1
 10
240.9680329492058
 20
61.31745651073599
 11
240.9680329492058
 21
52.88066368865002
 72
     1
 10
240.9680329492058
 20
52.88066368865002
 11
232.5312401271199
 21
52.88066368865002
 72
     1
 10
232.5312401271199
 20
52.88066368865002
 11
232.5312401271199
 21
61.31745651073599
 72
     1
 10
232.5312401271199
 20
61.31745651073599
 11
240.9680329492058
 21
61.31745651073599
 97
        0
 92
        0
 93
        4
 72
     2
 10
236.7496365381628
 20
57.09906009969301
 40
3.000000000000011
 50
94.78019184719915
 51
265.2198081528016
 73
     0
 72
     1
 10
236.4996365381628
 20
60.08862528546836
 11
236.4996365381628
 21
60.84071748646695
 72
     2
 10
236.7496365381628
 20
57.09906009969301
 40
3.750000000000007
 50
93.82255372927435
 51
266.1774462707265
 73
     1
 72
     1
 10
236.4996365381628
 20
53.35740271291905
 11
236.4996365381628
 21
54.10949491391764
 97
        0
 92
        0
 93
        8
 72
     1
 10
237.7219830367044
 20
55.49795722557887
 11
237.7219830367044
 21
57.22158231636488
 72
     2
 10
236.7496365381628
 20
58.23204164361047
 40
1.402314431660656
 50
313.8988153445118
 51
439.730601033339
 73
     1
 72
     1
 10
236.9996365381628
 20
59.61189155039155
 11
236.9996365381628
 21
59.05532345967459
 72
     2
 10
236.7496365381628
 20
58.23204164361047
 40
0.8604027828068782
 50
286.8915805399266
 51
415.1604865505413
 73
     0
 72
     1
 10
237.2411672068353
 20
57.52586139012261
 11
237.2411672068353
 21
55.49795722557887
 72
     2
 10
236.7496365381628
 20
55.49795722557887
 40
0.4915306686725041
 50
0.0
 51
59.42836299135124
 73
     0
 72
     1
 10
236.9996365381628
 20
55.07475231274628
 11
236.9996365381628
 21
54.55829892958712
 72
     2
 10
236.7496365381628
 20
55.49795722557887
 40
0.9723464985416097
 50
284.8986481111874
 51
360.0000000000008
 73
     1
 97
        0
 92
        0
 93
        8
 72
     2
 10
236.7496365381628
 20
55.49795722557887
 40
0.4915306686725041
 50
120.5716370086484
 51
180.0
 73
     0
 72
     1
 10
236.2581058694904
 20
55.49795722557887
 11
236.2581058694904
 21
57.52586139012261
 72
     2
 10
236.7496365381628
 20
58.23204164361047
 40
0.8604027828068782
 50
124.839513449458
 51
253.108419460075
 73
     0
 72
     1
 10
236.4996365381628
 20
59.05532345967459
 11
236.4996365381628
 21
59.61189155039155
 72
     2
 10
236.7496365381628
 20
58.23204164361047
 40
1.402314431660656
 50
100.2693989666618
 51
226.1011846554898
 73
     1
 72
     1
 10
235.7772900396212
 20
57.22158231636488
 11
235.7772900396212
 21
55.49795722557887
 72
     2
 10
236.7496365381628
 20
55.49795722557887
 40
0.9723464985416097
 50
180.0
 51
255.1013518888143
 73
     1
 72
     1
 10
236.4996365381628
 20
54.55829892958712
 11
236.4996365381628
 21
55.07475231274628
 97
        0
 92
        0
 93
        4
 72
     2
 10
236.7496365381628
 20
57.09906009969301
 40
3.000000000000011
 50
274.7801918471999
 51
445.2198081528016
 73
     0
 72
     1
 10
236.9996365381628
 20
54.10949491391764
 11
236.9996365381628
 21
53.35740271291905
 72
     2
 10
236.7496365381628
 20
57.09906009969301
 40
3.750000000000007
 50
273.8225537292751
 51
446.1774462707265
 73
     1
 72
     1
 10
236.9996365381628
 20
60.84071748646695
 11
236.9996365381628
 21
60.08862528546836
 97
        0
 75
     0
 76
     1
 98
        1
 10
0.0
 20
0.0
  0
INSERT
  5
11F
330
FB
100
AcDbEntity
  8
FORMAT
 62
     7
100
AcDbBlockReference
  2
SW_NOTE_0_6
 10
232.2514665163
 20
47.7232938825
 30
0.0
  0
INSERT
  5
126
330
FB
100
AcDbEntity
  8
0
  6
Continuous
 62
     7
370
     0
100
AcDbBlockReference
  2
SW_NOTE_0_7
 10
244.0723034979
 20
57.1176018272
 30
0.0
  0
ENDBLK
  5
FD
330
FB
100
AcDbEntity
  8
0
100
AcDbBlockEnd
  0
BLOCK
  5
11C
330
11B
100
AcDbEntity
  8
0
100
AcDbBlockBegin
  2
SW_NOTE_0_6
 70
     0
 10
0.0
 20
0.0
 30
0.0
  3
SW_NOTE_0_6
  1

  0
MTEXT
  5
11E
330
11B
100
AcDbEntity
  8
FORMAT
 62
     0
100
AcDbMText
 10
0.0
 20
3.8651911469
 30
0.0
 40
3.0
 41
0.0
 71
     1
 72
     1
  1
ECO
  7
SLDTEXTSTYLE1
 73
     1
 44
1.0
  0
ENDBLK
  5
11D
330
11B
100
AcDbEntity
  8
0
100
AcDbBlockEnd
  0
BLOCK
  5
121
330
120
100
AcDbEntity
  8
0
100
AcDbBlockBegin
  2
SW_NOTE_0_7
 70
     0
 10
0.0
 20
0.0
 30
0.0
  3
SW_NOTE_0_7
  1

  0
MTEXT
  5
123
330
120
100
AcDbEntity
  8
0
  6
Continuous
 62
     0
370
     0
100
AcDbMText
 10
0.0
 20
3.2226693494
 30
0.0
 40
2.5
 41
0.0
 71
     1
 72
     1
  1
ECO Schulte GmbH & Co. KG
  7
SLDTEXTSTYLE2
 73
     1
 44
1.0
  0
MTEXT
  5
124
330
120
100
AcDbEntity
  8
0
  6
Continuous
 62
     0
370
     0
100
AcDbMText
 10
0.0
 20
-0.2773307586
 30
0.0
 40
2.5
 41
0.0
 71
     1
 72
     1
  1
Postfach 206
  7
SLDTEXTSTYLE2
 73
     1
 44
1.0
  0
MTEXT
  5
125
330
120
100
AcDbEntity
  8
0
  6
Continuous
 62
     0
370
     0
100
AcDbMText
 10
0.0
 20
-3.7773308666
 30
0.0
 40
2.5
 41
0.0
 71
     1
 72
     1
  1
58682 Menden
  7
SLDTEXTSTYLE2
 73
     1
 44
1.0
  0
ENDBLK
  5
122
330
120
100
AcDbEntity
  8
0
100
AcDbBlockEnd
  0
BLOCK
  5
128
330
127
100
AcDbEntity
  8
0
100
AcDbBlockBegin
  2
rechtlicher_Hinweis_Katalogzeichnungen_1_1
 70
     0
 10
0.0
 20
0.0
 30
0.0
  3
rechtlicher_Hinweis_Katalogzeichnungen_1_1
  1

  0
INSERT
  5
138
330
127
100
AcDbEntity
  8
0
  6
Continuous
 62
     7
370
     0
100
AcDbBlockReference
  2
SW_NOTE_0_8
 10
0.677633552
 20
47.8243897458
 30
0.0
  0
ENDBLK
  5
129
330
127
100
AcDbEntity
  8
0
100
AcDbBlockEnd
  0
BLOCK
  5
12B
330
12A
100
AcDbEntity
  8
0
100
AcDbBlockBegin
  2
SW_NOTE_0_8
 70
     0
 10
0.0
 20
0.0
 30
0.0
  3
SW_NOTE_0_8
  1

  0
MTEXT
  5
12D
330
12A
100
AcDbEntity
  8
0
  6
Continuous
 62
     0
370
     0
100
AcDbMText
 10
0.0
 20
6.4453386989
 30
0.0
 40
5.0
 41
0.0
 71
     1
 72
     1
  1
Technische Änderungen und Irrtümer vorbehalten. Aus dem 
  7
SLDTEXTSTYLE0
 73
     1
 44
1.0
  0
MTEXT
  5
12E
330
12A
100
AcDbEntity
  8
0
  6
Continuous
 62
     0
370
     0
100
AcDbMText
 10
0.0
 20
-0.5546615172
 30
0.0
 40
5.0
 41
0.0
 71
     1
 72
     1
  1
Gebrauch der Zeichnung können keinerlei Ansprüche (inkl. 
  7
SLDTEXTSTYLE0
 73
     1
 44
1.0
  0
MTEXT
  5
12F
330
12A
100
AcDbEntity
  8
0
  6
Continuous
 62
     0
370
     0
100
AcDbMText
 10
0.0
 20
-7.5546617333
 30
0.0
 40
5.0
 41
0.0
 71
     1
 72
     1
  1
Schadenersatzansprüche) erhoben und gegen ECO Schulte 
  7
SLDTEXTSTYLE0
 73
     1
 44
1.0
  0
MTEXT
  5
130
330
12A
100
AcDbEntity
  8
0
  6
Continuous
 62
     0
370
     0
100
AcDbMText
 10
0.0
 20
-14.5546619493
 30
0.0
 40
5.0
 41
0.0
 71
     1
 72
     1
  1
geltend gemacht werden. Die Zeichnung bleibt unser Eigentum. 
  7
SLDTEXTSTYLE0
 73
     1
 44
1.0
  0
MTEXT
  5
131
330
12A
100
AcDbEntity
  8
0
  6
Continuous
 62
     0
370
     0
100
AcDbMText
 10
0.0
 20
-21.5546621654
 30
0.0
 40
5.0
 41
0.0
 71
     1
 72
     1
  1
Sämtliche sich aus der Zeichnung ergebenden Ansprüche stehen 
  7
SLDTEXTSTYLE0
 73
     1
 44
1.0
  0
MTEXT
  5
132
330
12A
100
AcDbEntity
  8
0
  6
Continuous
 62
     0
370
     0
100
AcDbMText
 10
0.0
 20
-28.5546623815
 30
0.0
 40
5.0
 41
0.0
 71
     1
 72
     1
  1
ausschließlich ECO Schulte zu.
  7
SLDTEXTSTYLE0
 73
     1
 44
1.0
  0
MTEXT
  5
133
330
12A
100
AcDbEntity
  8
0
  6
Continuous
 62
     0
370
     0
100
AcDbMText
 10
0.0
 20
-42.5546628136
 30
0.0
 40
5.0
 41
0.0
 71
     1
 72
     1
  1
Technical changes and errors excepted. No claims (including 
  7
SLDTEXTSTYLE0
 73
     1
 44
1.0
  0
MTEXT
  5
134
330
12A
100
AcDbEntity
  8
0
  6
Continuous
 62
     0
370
     0
100
AcDbMText
 10
0.0
 20
-49.5546630297
 30
0.0
 40
5.0
 41
0.0
 71
     1
 72
     1
  1
compensation claims) may be raised against ECO Schulte by 
  7
SLDTEXTSTYLE0
 73
     1
 44
1.0
  0
MTEXT
  5
135
330
12A
100
AcDbEntity
  8
0
  6
Continuous
 62
     0
370
     0
100
AcDbMText
 10
0.0
 20
-56.5546632457
 30
0.0
 40
5.0
 41
0.0
 71
     1
 72
     1
  1
using of this drawing. The drawing remains the property of ECO 
  7
SLDTEXTSTYLE0
 73
     1
 44
1.0
  0
MTEXT
  5
136
330
12A
100
AcDbEntity
  8
0
  6
Continuous
 62
     0
370
     0
100
AcDbMText
 10
0.0
 20
-63.5546634618
 30
0.0
 40
5.0
 41
0.0
 71
     1
 72
     1
  1
Schulte. All claims resulting from this drawing are solely entitled 
  7
SLDTEXTSTYLE0
 73
     1
 44
1.0
  0
MTEXT
  5
137
330
12A
100
AcDbEntity
  8
0
  6
Continuous
 62
     0
370
     0
100
AcDbMText
 10
0.0
 20
-70.5546636779
 30
0.0
 40
5.0
 41
0.0
 71
     1
 72
     1
  1
to ECO Schulte.
  7
SLDTEXTSTYLE0
 73
     1
 44
1.0
  0
ENDBLK
  5
12C
330
12A
100
AcDbEntity
  8
0
100
AcDbBlockEnd
  0
BLOCK
  5
15D
330
15C
100
AcDbEntity
  8
0
100
AcDbBlockBegin
  2
SW_NOTE_0_9
 70
     0
 10
0.0
 20
0.0
 30
0.0
  3
SW_NOTE_0_9
  1

  0
MTEXT
  5
15F
330
15C
100
AcDbEntity
  8
FORMAT
 62
     0
100
AcDbMText
 10
0.0
 20
2.5781354795
 30
0.0
 40
2.0
 41
0.0
 71
     1
 72
     1
  1
Technische Änderungen und Irrtümer vorbehalten. Aus dem Gebrauch der Zeichnung 
  7
SLDTEXTSTYLE0
 73
     1
 44
1.0
  0
MTEXT
  5
160
330
15C
100
AcDbEntity
  8
FORMAT
 62
     0
100
AcDbMText
 10
0.0
 20
-0.4218645465
 30
0.0
 40
2.0
 41
0.0
 71
     1
 72
     1
  1
können keinerlei Ansprüche (inkl. Schadenersatzansprüche) erhoben und gegen ECO 
  7
SLDTEXTSTYLE0
 73
     1
 44
1.0
  0
MTEXT
  5
161
330
15C
100
AcDbEntity
  8
FORMAT
 62
     0
100
AcDbMText
 10
0.0
 20
-3.4218645726
 30
0.0
 40
2.0
 41
0.0
 71
     1
 72
     1
  1
Schulte geltend gemacht werden. Die Zeichnung bleibt unser Eigentum. Sämtliche sich 
  7
SLDTEXTSTYLE0
 73
     1
 44
1.0
  0
MTEXT
  5
162
330
15C
100
AcDbEntity
  8
FORMAT
 62
     0
100
AcDbMText
 10
0.0
 20
-6.4218645987
 30
0.0
 40
2.0
 41
0.0
 71
     1
 72
     1
  1
aus der Zeichnung ergebenden Ansprüche stehen ausschließlich ECO Schulte zu. 
  7
SLDTEXTSTYLE0
 73
     1
 44
1.0
  0
MTEXT
  5
163
330
15C
100
AcDbEntity
  8
FORMAT
 62
     0
100
AcDbMText
 10
0.0
 20
-12.4218646508
 30
0.0
 40
2.0
 41
0.0
 71
     1
 72
     1
  1
Technical changes and errors excepted. No claims (including compensation claims) may 
  7
SLDTEXTSTYLE0
 73
     1
 44
1.0
  0
MTEXT
  5
164
330
15C
100
AcDbEntity
  8
FORMAT
 62
     0
100
AcDbMText
 10
0.0
 20
-15.4218646769
 30
0.0
 40
2.0
 41
0.0
 71
     1
 72
     1
  1
be raised against ECO Schulte by using of this drawing. The drawing remains the property 
  7
SLDTEXTSTYLE0
 73
     1
 44
1.0
  0
MTEXT
  5
165
330
15C
100
AcDbEntity
  8
FORMAT
 62
     0
100
AcDbMText
 10
0.0
 20
-18.421864703
 30
0.0
 40
2.0
 41
0.0
 71
     1
 72
     1
  1
of ECO Schulte. All claims resulting from this drawing are solely entitled to ECO Schulte.
  7
SLDTEXTSTYLE0
 73
     1
 44
1.0
  0
ENDBLK
  5
15E
330
15C
100
AcDbEntity
  8
0
100
AcDbBlockEnd
  0
BLOCK
  5
1C0
330
1BF
100
AcDbEntity
  8
0
100
AcDbBlockBegin
  2
_D
 70
     0
 10
0.0
 20
0.0
 30
0.0
  3
_D
  1

  0
SOLID
  5
1C2
330
1BF
100
AcDbEntity
  8
FORMAT
100
AcDbTrace
 10
238.299040316
 20
186.4888745416
 30
0.0
 11
234.997040316
 21
186.9968745416
 31
0.0
 12
234.997040316
 22
185.9808745416
 32
0.0
 13
234.997040316
 23
185.9808745416
 33
0.0
  0
SOLID
  5
1C3
330
1BF
100
AcDbEntity
  8
FORMAT
100
AcDbTrace
 10
248.799040316
 20
186.4888745416
 30
0.0
 11
252.101040316
 21
185.9808745416
 31
0.0
 12
252.101040316
 22
186.9968745416
 32
0.0
 13
252.101040316
 23
186.9968745416
 33
0.0
  0
LINE
  5
1C4
330
1BF
100
AcDbEntity
  8
FORMAT
100
AcDbLine
 10
238.299040316
 20
173.7410045804
 30
0.0
 11
238.299040316
 21
187.4888745416
 31
0.0
  0
LINE
  5
1C5
330
1BF
100
AcDbEntity
  8
FORMAT
100
AcDbLine
 10
248.799040316
 20
173.7410045804
 30
0.0
 11
248.799040316
 21
177.2410045804
 31
0.0
  0
LINE
  5
1C6
330
1BF
100
AcDbEntity
  8
FORMAT
100
AcDbLine
 10
248.799040316
 20
180.2410045804
 30
0.0
 11
248.799040316
 21
187.4888745416
 31
0.0
  0
LINE
  5
1C7
330
1BF
100
AcDbEntity
  8
FORMAT
100
AcDbLine
 10
238.299040316
 20
186.4888745416
 30
0.0
 11
231.949040316
 21
186.4888745416
 31
0.0
  0
LINE
  5
1C8
330
1BF
100
AcDbEntity
  8
FORMAT
100
AcDbLine
 10
238.299040316
 20
186.4888745416
 30
0.0
 11
248.799040316
 21
186.4888745416
 31
0.0
  0
LINE
  5
1C9
330
1BF
100
AcDbEntity
  8
FORMAT
100
AcDbLine
 10
248.799040316
 20
186.4888745416
 30
0.0
 11
255.149040316
 21
186.4888745416
 31
0.0
  0
MTEXT
  5
1CA
330
1BF
100
AcDbEntity
  8
FORMAT
100
AcDbMText
 10
238.8702209875
 20
191.0006118636
 30
0.0
 40
3.5
 41
0.0
 71
     1
 72
     1
  1
10,5
  7
SLDTEXTSTYLE0
 73
     1
 44
1.0
  0
ENDBLK
  5
1C1
330
1BF
100
AcDbEntity
  8
0
100
AcDbBlockEnd
  0
BLOCK
  5
1CD
330
1CC
100
AcDbEntity
  8
0
100
AcDbBlockBegin
  2
_D_1
 70
     0
 10
0.0
 20
0.0
 30
0.0
  3
_D_1
  1

  0
SOLID
  5
1CF
330
1CC
100
AcDbEntity
  8
FORMAT
100
AcDbTrace
 10
232.3217457932
 20
162.4910045804
 30
0.0
 11
231.8137457932
 21
159.1890045804
 31
0.0
 12
232.8297457932
 22
159.1890045804
 32
0.0
 13
232.8297457932
 23
159.1890045804
 33
0.0
  0
SOLID
  5
1D0
330
1CC
100
AcDbEntity
  8
FORMAT
100
AcDbTrace
 10
232.3217457932
 20
168.9910045804
 30
0.0
 11
232.8297457932
 21
172.2930045804
 31
0.0
 12
231.8137457932
 22
172.2930045804
 32
0.0
 13
231.8137457932
 23
172.2930045804
 33
0.0
  0
LINE
  5
1D1
330
1CC
100
AcDbEntity
  8
FORMAT
100
AcDbLine
 10
237.299040316
 20
162.4910045804
 30
0.0
 11
231.3217457932
 21
162.4910045804
 31
0.0
  0
LINE
  5
1D2
330
1CC
100
AcDbEntity
  8
FORMAT
100
AcDbLine
 10
237.299040316
 20
168.9910045804
 30
0.0
 11
231.3217457932
 21
168.9910045804
 31
0.0
  0
LINE
  5
1D3
330
1CC
100
AcDbEntity
  8
FORMAT
100
AcDbLine
 10
232.3217457932
 20
162.4910045804
 30
0.0
 11
232.3217457932
 21
156.1410045804
 31
0.0
  0
LINE
  5
1D4
330
1CC
100
AcDbEntity
  8
FORMAT
100
AcDbLine
 10
232.3217457932
 20
162.4910045804
 30
0.0
 11
232.3217457932
 21
168.9910045804
 31
0.0
  0
LINE
  5
1D5
330
1CC
100
AcDbEntity
  8
FORMAT
100
AcDbLine
 10
232.3217457932
 20
168.9910045804
 30
0.0
 11
232.3217457932
 21
184.5989766989
 31
0.0
  0
MTEXT
  5
1D6
330
1CC
100
AcDbEntity
  8
FORMAT
100
AcDbMText
 10
227.810008704
 20
172.8119980071
 30
0.0
 40
3.5
 41
0.0
 71
     1
 72
     1
  1
%%c
  7
SLDTEXTSTYLE0
 11
1.160755179605900E-14
 21
1.0
 31
0.0
 73
     1
 44
1.0
  0
MTEXT
  5
1D7
330
1CC
100
AcDbEntity
  8
FORMAT
100
AcDbMText
 10
227.8002863948
 20
177.9149495523
 30
0.0
 40
3.5
 41
0.0
 71
     1
 72
     1
  1
6,5
  7
SLDTEXTSTYLE0
 11
1.160755179605900E-14
 21
1.0
 31
0.0
 73
     1
 44
1.0
  0
ENDBLK
  5
1CE
330
1CC
100
AcDbEntity
  8
0
100
AcDbBlockEnd
  0
BLOCK
  5
1DA
330
1D9
100
AcDbEntity
  8
0
100
AcDbBlockBegin
  2
_D_2
 70
     0
 10
0.0
 20
0.0
 30
0.0
  3
_D_2
  1

  0
SOLID
  5
1DC
330
1D9
100
AcDbEntity
  8
FORMAT
100
AcDbTrace
 10
255.2855300068
 20
171.2410045804
 30
0.0
 11
255.7935300068
 21
174.5430045804
 31
0.0
 12
254.7775300068
 22
174.5430045804
 32
0.0
 13
254.7775300068
 23
174.5430045804
 33
0.0
  0
SOLID
  5
1DD
330
1D9
100
AcDbEntity
  8
FORMAT
100
AcDbTrace
 10
255.2855300068
 20
160.2410045804
 30
0.0
 11
254.7775300068
 21
156.9390045804
 31
0.0
 12
255.7935300068
 22
156.9390045804
 32
0.0
 13
255.7935300068
 23
156.9390045804
 33
0.0
  0
LINE
  5
1DE
330
1D9
100
AcDbEntity
  8
FORMAT
100
AcDbLine
 10
242.299040316
 20
171.2410045804
 30
0.0
 11
256.2855300068
 21
171.2410045804
 31
0.0
  0
LINE
  5
1DF
330
1D9
100
AcDbEntity
  8
FORMAT
100
AcDbLine
 10
242.299040316
 20
160.2410045804
 30
0.0
 11
256.2855300068
 21
160.2410045804
 31
0.0
  0
LINE
  5
1E0
330
1D9
100
AcDbEntity
  8
FORMAT
100
AcDbLine
 10
255.2855300068
 20
171.2410045804
 30
0.0
 11
255.2855300068
 21
177.5910045804
 31
0.0
  0
LINE
  5
1E1
330
1D9
100
AcDbEntity
  8
FORMAT
100
AcDbLine
 10
255.2855300068
 20
171.2410045804
 30
0.0
 11
255.2855300068
 21
160.2410045804
 31
0.0
  0
LINE
  5
1E2
330
1D9
100
AcDbEntity
  8
FORMAT
100
AcDbLine
 10
255.2855300068
 20
160.2410045804
 30
0.0
 11
255.2855300068
 21
153.8910045804
 31
0.0
  0
MTEXT
  5
1E3
330
1D9
100
AcDbEntity
  8
FORMAT
100
AcDbMText
 10
250.7737929176
 20
160.5159179957
 30
0.0
 40
3.5
 41
0.0
 71
     1
 72
     1
  1
%%c
  7
SLDTEXTSTYLE0
 11
-1.414962237524464E-14
 21
1.0
 31
0.0
 73
     1
 44
1.0
  0
MTEXT
  5
1E4
330
1D9
100
AcDbEntity
  8
FORMAT
100
AcDbMText
 10
250.7640706084
 20
165.618869541
 30
0.0
 40
3.5
 41
0.0
 71
     1
 72
     1
  1
11
  7
SLDTEXTSTYLE0
 11
-1.414962237524464E-14
 21
1.0
 31
0.0
 73
     1
 44
1.0
  0
ENDBLK
  5
1DB
330
1D9
100
AcDbEntity
  8
0
100
AcDbBlockEnd
  0
BLOCK
  5
1E8
330
1E7
100
AcDbEntity
  8
0
100
AcDbBlockBegin
  2
_D_3
 70
     0
 10
0.0
 20
0.0
 30
0.0
  3
_D_3
  1

  0
ARC
  5
1EA
330
1E7
100
AcDbEntity
  8
FORMAT
100
AcDbCircle
 10
235.799040316
 20
165.7410045804
 30
0.0
 40
25.5569093942682
100
AcDbArc
 50
315.0
 51
45.0
  0
SOLID
  5
1EB
330
1E7
100
AcDbEntity
  8
FORMAT
100
AcDbTrace
 10
253.8705042549
 20
147.6695406416
 30
0.0
 11
256.4321844202
 21
149.8140831873
 31
0.0
 12
255.6691228381
 22
150.4848983794
 32
0.0
 13
255.6691228381
 23
150.4848983794
 33
0.0
  0
SOLID
  5
1EC
330
1E7
100
AcDbEntity
  8
FORMAT
100
AcDbTrace
 10
253.8705042549
 20
183.8124685193
 30
0.0
 11
255.6691228381
 21
180.9971107814
 31
0.0
 12
256.4321844202
 22
181.6679259735
 32
0.0
 13
256.4321844202
 23
181.6679259735
 33
0.0
  0
LINE
  5
1ED
330
1E7
100
AcDbEntity
  8
FORMAT
100
AcDbLine
 10
242.0061470972
 20
159.5338977992
 30
0.0
 11
254.5776110361
 21
146.9624338604
 31
0.0
  0
LINE
  5
1EE
330
1E7
100
AcDbEntity
  8
FORMAT
100
AcDbLine
 10
242.0061470972
 20
171.9481113616
 30
0.0
 11
254.5776110361
 21
184.5195753005
 31
0.0
  0
MTEXT
  5
1EF
330
1E7
100
AcDbEntity
  8
FORMAT
100
AcDbMText
 10
256.8442123883
 20
162.1048935408
 30
0.0
 40
3.5
 41
0.0
 71
     1
 72
     1
  1
90°
  7
SLDTEXTSTYLE0
 11
-8.820551857043885E-15
 21
1.0
 31
0.0
 73
     1
 44
1.0
  0
ENDBLK
  5
1E9
330
1E7
100
AcDbEntity
  8
0
100
AcDbBlockEnd
  0
BLOCK
  5
1F3
330
1F2
100
AcDbEntity
  8
0
100
AcDbBlockBegin
  2
_D_4
 70
     0
 10
0.0
 20
0.0
 30
0.0
  3
_D_4
  1

  0
SOLID
  5
1F5
330
1F2
100
AcDbEntity
  8
FORMAT
100
AcDbTrace
 10
225.3620361722
 20
142.7410045804
 30
0.0
 11
225.8700361722
 21
146.0430045804
 31
0.0
 12
224.8540361722
 22
146.0430045804
 32
0.0
 13
224.8540361722
 23
146.0430045804
 33
0.0
  0
SOLID
  5
1F6
330
1F2
100
AcDbEntity
  8
FORMAT
100
AcDbTrace
 10
225.3620361722
 20
172.7410045804
 30
0.0
 11
224.8540361722
 21
169.4390045804
 31
0.0
 12
225.8700361722
 22
169.4390045804
 32
0.0
 13
225.8700361722
 23
169.4390045804
 33
0.0
  0
LINE
  5
1F7
330
1F2
100
AcDbEntity
  8
FORMAT
100
AcDbLine
 10
240.300040316
 20
142.7410045804
 30
0.0
 11
224.3620361722
 21
142.7410045804
 31
0.0
  0
LINE
  5
1F8
330
1F2
100
AcDbEntity
  8
FORMAT
100
AcDbLine
 10
237.299040316
 20
172.7410045804
 30
0.0
 11
233.8217457932
 21
172.7410045804
 31
0.0
  0
LINE
  5
1F9
330
1F2
100
AcDbEntity
  8
FORMAT
100
AcDbLine
 10
230.8217457932
 20
172.7410045804
 30
0.0
 11
224.3620361722
 21
172.7410045804
 31
0.0
  0
LINE
  5
1FA
330
1F2
100
AcDbEntity
  8
FORMAT
100
AcDbLine
 10
225.3620361722
 20
142.7410045804
 30
0.0
 11
225.3620361722
 21
172.7410045804
 31
0.0
  0
MTEXT
  5
1FB
330
1F2
100
AcDbEntity
  8
FORMAT
100
AcDbMText
 10
220.8502988501
 20
152.2222322538
 30
0.0
 40
3.5
 41
0.0
 71
     1
 72
     1
  1
30
  7
SLDTEXTSTYLE0
 11
4.502124438457994E-15
 21
1.0
 31
0.0
 73
     1
 44
1.0
  0
ENDBLK
  5
1F4
330
1F2
100
AcDbEntity
  8
0
100
AcDbBlockEnd
  0
BLOCK
  5
1FD
330
1FC
100
AcDbEntity
  8
0
100
AcDbBlockBegin
  2
SW_CENTERMARKSYMBOL_0
 70
     0
 10
0.0
 20
0.0
 30
0.0
  3
SW_CENTERMARKSYMBOL_0
  1

  0
LINE
  5
1FF
330
1FC
100
AcDbEntity
  8
FORMAT
 62
     0
100
AcDbLine
 10
0.0
 20
0.0
 30
0.0
 11
0.0
 21
1.0
 31
0.0
  0
LINE
  5
200
330
1FC
100
AcDbEntity
  8
FORMAT
 62
     0
100
AcDbLine
 10
0.0
 20
0.0
 30
0.0
 11
-1.0
 21
0.0
 31
0.0
  0
LINE
  5
201
330
1FC
100
AcDbEntity
  8
FORMAT
 62
     0
100
AcDbLine
 10
0.0
 20
0.0
 30
0.0
 11
0.0
 21
-1.0
 31
0.0
  0
LINE
  5
202
330
1FC
100
AcDbEntity
  8
FORMAT
 62
     0
100
AcDbLine
 10
0.0
 20
0.0
 30
0.0
 11
1.0
 21
0.0
 31
0.0
  0
LINE
  5
203
330
1FC
100
AcDbEntity
  8
FORMAT
 62
     0
100
AcDbLine
 10
0.0
 20
2.0
 30
0.0
 11
0.0
 21
10.0
 31
0.0
  0
LINE
  5
204
330
1FC
100
AcDbEntity
  8
FORMAT
 62
     0
100
AcDbLine
 10
-2.0
 20
0.0
 30
0.0
 11
-10.0
 21
0.0
 31
0.0
  0
LINE
  5
205
330
1FC
100
AcDbEntity
  8
FORMAT
 62
     0
100
AcDbLine
 10
0.0
 20
-2.0
 30
0.0
 11
0.0
 21
-10.0
 31
0.0
  0
LINE
  5
206
330
1FC
100
AcDbEntity
  8
FORMAT
 62
     0
100
AcDbLine
 10
2.0
 20
0.0
 30
0.0
 11
10.0
 21
0.0
 31
0.0
  0
ENDBLK
  5
1FE
330
1FC
100
AcDbEntity
  8
0
100
AcDbBlockEnd
  0
BLOCK
  5
2A4
330
2A3
100
AcDbEntity
  8
0
100
AcDbBlockBegin
  2
_D_5
 70
     0
 10
0.0
 20
0.0
 30
0.0
  3
_D_5
  1

  0
SOLID
  5
2A6
330
2A3
100
AcDbEntity
  8
FORMAT
100
AcDbTrace
 10
21.3884324043
 20
171.1333094258
 30
0.0
 11
20.1773733094
 21
174.2469253091
 31
0.0
 12
19.2974914991
 22
173.7389253091
 32
0.0
 13
19.2974914991
 23
173.7389253091
 33
0.0
  0
LINE
  5
2A7
330
2A3
100
AcDbEntity
  8
FORMAT
100
AcDbLine
 10
21.3884324043
 20
171.1333094258
 30
0.0
 11
15.6060337783
 21
181.1487176356
 31
0.0
  0
MTEXT
  5
2A8
330
2A3
100
AcDbEntity
  8
FORMAT
100
AcDbMText
 10
19.491203262
 20
183.3918212828
 30
0.0
 40
3.5
 41
0.0
 71
     1
 72
     1
  1
R12
  7
SLDTEXTSTYLE0
 11
0.4999999999999987
 21
-0.8660254037844394
 31
0.0
 73
     1
 44
1.0
  0
ENDBLK
  5
2A5
330
2A3
100
AcDbEntity
  8
0
100
AcDbBlockEnd
  0
BLOCK
  5
2AB
330
2AA
100
AcDbEntity
  8
0
100
AcDbBlockBegin
  2
_D_6
 70
     0
 10
0.0
 20
0.0
 30
0.0
  3
_D_6
  1

  0
SOLID
  5
2AD
330
2AA
100
AcDbEntity
  8
FORMAT
100
AcDbTrace
 10
67.3884324043
 20
86.2410045804
 30
0.0
 11
70.6904324043
 21
85.7330045804
 31
0.0
 12
70.6904324043
 22
86.7490045804
 32
0.0
 13
70.6904324043
 23
86.7490045804
 33
0.0
  0
SOLID
  5
2AE
330
2AA
100
AcDbEntity
  8
FORMAT
100
AcDbTrace
 10
95.3884324043
 20
86.2410045804
 30
0.0
 11
92.0864324043
 21
86.7490045804
 31
0.0
 12
92.0864324043
 22
85.7330045804
 32
0.0
 13
92.0864324043
 23
85.7330045804
 33
0.0
  0
LINE
  5
2AF
330
2AA
100
AcDbEntity
  8
FORMAT
100
AcDbLine
 10
67.3884324043
 20
99.7410045804
 30
0.0
 11
67.3884324043
 21
85.2410045804
 31
0.0
  0
LINE
  5
2B0
330
2AA
100
AcDbEntity
  8
FORMAT
100
AcDbLine
 10
95.3884324043
 20
89.0596614074
 30
0.0
 11
95.3884324043
 21
85.2410045804
 31
0.0
  0
LINE
  5
2B1
330
2AA
100
AcDbEntity
  8
FORMAT
100
AcDbLine
 10
67.3884324043
 20
86.2410045804
 30
0.0
 11
95.3884324043
 21
86.2410045804
 31
0.0
  0
MTEXT
  5
2B2
330
2AA
100
AcDbEntity
  8
FORMAT
100
AcDbMText
 10
78.7148213594
 20
90.7527419025
 30
0.0
 40
3.5
 41
0.0
 71
     1
 72
     1
  1
28
  7
SLDTEXTSTYLE0
 73
     1
 44
1.0
  0
ENDBLK
  5
2AC
330
2AA
100
AcDbEntity
  8
0
100
AcDbBlockEnd
  0
BLOCK
  5
2B5
330
2B4
100
AcDbEntity
  8
0
100
AcDbBlockBegin
  2
_D_7
 70
     0
 10
0.0
 20
0.0
 30
0.0
  3
_D_7
  1

  0
SOLID
  5
2B7
330
2B4
100
AcDbEntity
  8
FORMAT
100
AcDbTrace
 10
123.3884324043
 20
86.2410045804
 30
0.0
 11
120.0864324043
 21
86.7490045804
 31
0.0
 12
120.0864324043
 22
85.7330045804
 32
0.0
 13
120.0864324043
 23
85.7330045804
 33
0.0
  0
SOLID
  5
2B8
330
2B4
100
AcDbEntity
  8
FORMAT
100
AcDbTrace
 10
95.3884324043
 20
86.2410045804
 30
0.0
 11
98.6904324043
 21
85.7330045804
 31
0.0
 12
98.6904324043
 22
86.7490045804
 32
0.0
 13
98.6904324043
 23
86.7490045804
 33
0.0
  0
LINE
  5
2B9
330
2B4
100
AcDbEntity
  8
FORMAT
100
AcDbLine
 10
123.3884324043
 20
99.7410045804
 30
0.0
 11
123.3884324043
 21
85.2410045804
 31
0.0
  0
LINE
  5
2BA
330
2B4
100
AcDbEntity
  8
FORMAT
100
AcDbLine
 10
95.3884324043
 20
89.0596614074
 30
0.0
 11
95.3884324043
 21
85.2410045804
 31
0.0
  0
LINE
  5
2BB
330
2B4
100
AcDbEntity
  8
FORMAT
100
AcDbLine
 10
123.3884324043
 20
86.2410045804
 30
0.0
 11
95.3884324043
 21
86.2410045804
 31
0.0
  0
MTEXT
  5
2BC
330
2B4
100
AcDbEntity
  8
FORMAT
100
AcDbMText
 10
106.7148213594
 20
90.7527419025
 30
0.0
 40
3.5
 41
0.0
 71
     1
 72
     1
  1
28
  7
SLDTEXTSTYLE0
 73
     1
 44
1.0
  0
ENDBLK
  5
2B6
330
2B4
100
AcDbEntity
  8
0
100
AcDbBlockEnd
  0
BLOCK
  5
2BF
330
2BE
100
AcDbEntity
  8
0
100
AcDbBlockBegin
  2
_D_8
 70
     0
 10
0.0
 20
0.0
 30
0.0
  3
_D_8
  1

  0
SOLID
  5
2C1
330
2BE
100
AcDbEntity
  8
FORMAT
100
AcDbTrace
 10
53.3884324043
 20
78.2504742041
 30
0.0
 11
56.6904324043
 21
77.7424742041
 31
0.0
 12
56.6904324043
 22
78.7584742041
 32
0.0
 13
56.6904324043
 23
78.7584742041
 33
0.0
  0
SOLID
  5
2C2
330
2BE
100
AcDbEntity
  8
FORMAT
100
AcDbTrace
 10
137.3884324043
 20
78.2504742041
 30
0.0
 11
134.0864324043
 21
78.7584742041
 31
0.0
 12
134.0864324043
 22
77.7424742041
 32
0.0
 13
134.0864324043
 23
77.7424742041
 33
0.0
  0
LINE
  5
2C3
330
2BE
100
AcDbEntity
  8
FORMAT
100
AcDbLine
 10
53.3884324043
 20
95.7410045804
 30
0.0
 11
53.3884324043
 21
77.2504742041
 31
0.0
  0
LINE
  5
2C4
330
2BE
100
AcDbEntity
  8
FORMAT
100
AcDbLine
 10
137.3884324043
 20
95.7410045804
 30
0.0
 11
137.3884324043
 21
77.2504742041
 31
0.0
  0
LINE
  5
2C5
330
2BE
100
AcDbEntity
  8
FORMAT
100
AcDbLine
 10
53.3884324043
 20
78.2504742041
 30
0.0
 11
137.3884324043
 21
78.2504742041
 31
0.0
  0
MTEXT
  5
2C6
330
2BE
100
AcDbEntity
  8
FORMAT
100
AcDbMText
 10
92.7148213594
 20
82.7622115262
 30
0.0
 40
3.5
 41
0.0
 71
     1
 72
     1
  1
84
  7
SLDTEXTSTYLE0
 73
     1
 44
1.0
  0
ENDBLK
  5
2C0
330
2BE
100
AcDbEntity
  8
0
100
AcDbBlockEnd
  0
BLOCK
  5
2C9
330
2C8
100
AcDbEntity
  8
0
100
AcDbBlockBegin
  2
_D_9
 70
     0
 10
0.0
 20
0.0
 30
0.0
  3
_D_9
  1

  0
SOLID
  5
2CB
330
2C8
100
AcDbEntity
  8
FORMAT
100
AcDbTrace
 10
61.3884324043
 20
182.7410045804
 30
0.0
 11
64.6904324043
 21
182.2330045804
 31
0.0
 12
64.6904324043
 22
183.2490045804
 32
0.0
 13
64.6904324043
 23
183.2490045804
 33
0.0
  0
SOLID
  5
2CC
330
2C8
100
AcDbEntity
  8
FORMAT
100
AcDbTrace
 10
95.3884324043
 20
182.7410045804
 30
0.0
 11
92.0864324043
 21
183.2490045804
 31
0.0
 12
92.0864324043
 22
182.2330045804
 32
0.0
 13
92.0864324043
 23
182.2330045804
 33
0.0
  0
LINE
  5
2CD
330
2C8
100
AcDbEntity
  8
FORMAT
100
AcDbLine
 10
61.3884324043
 20
165.7410045804
 30
0.0
 11
61.3884324043
 21
183.7410045804
 31
0.0
  0
LINE
  5
2CE
330
2C8
100
AcDbEntity
  8
FORMAT
100
AcDbLine
 10
95.3884324043
 20
177.5103239544
 30
0.0
 11
95.3884324043
 21
183.7410045804
 31
0.0
  0
LINE
  5
2CF
330
2C8
100
AcDbEntity
  8
FORMAT
100
AcDbLine
 10
61.3884324043
 20
182.7410045804
 30
0.0
 11
95.3884324043
 21
182.7410045804
 31
0.0
  0
MTEXT
  5
2D0
330
2C8
100
AcDbEntity
  8
FORMAT
100
AcDbMText
 10
75.7148213594
 20
187.2527419025
 30
0.0
 40
3.5
 41
0.0
 71
     1
 72
     1
  1
34
  7
SLDTEXTSTYLE0
 73
     1
 44
1.0
  0
ENDBLK
  5
2CA
330
2C8
100
AcDbEntity
  8
0
100
AcDbBlockEnd
  0
BLOCK
  5
2D3
330
2D2
100
AcDbEntity
  8
0
100
AcDbBlockBegin
  2
_D_10
 70
     0
 10
0.0
 20
0.0
 30
0.0
  3
_D_10
  1

  0
SOLID
  5
2D5
330
2D2
100
AcDbEntity
  8
FORMAT
100
AcDbTrace
 10
95.3884324043
 20
182.7410045804
 30
0.0
 11
98.6904324043
 21
182.2330045804
 31
0.0
 12
98.6904324043
 22
183.2490045804
 32
0.0
 13
98.6904324043
 23
183.2490045804
 33
0.0
  0
SOLID
  5
2D6
330
2D2
100
AcDbEntity
  8
FORMAT
100
AcDbTrace
 10
129.3884324043
 20
182.7410045804
 30
0.0
 11
126.0864324043
 21
183.2490045804
 31
0.0
 12
126.0864324043
 22
182.2330045804
 32
0.0
 13
126.0864324043
 23
182.2330045804
 33
0.0
  0
LINE
  5
2D7
330
2D2
100
AcDbEntity
  8
FORMAT
100
AcDbLine
 10
95.3884324043
 20
177.5103239544
 30
0.0
 11
95.3884324043
 21
183.7410045804
 31
0.0
  0
LINE
  5
2D8
330
2D2
100
AcDbEntity
  8
FORMAT
100
AcDbLine
 10
129.3884324043
 20
165.7410045804
 30
0.0
 11
129.3884324043
 21
183.7410045804
 31
0.0
  0
LINE
  5
2D9
330
2D2
100
AcDbEntity
  8
FORMAT
100
AcDbLine
 10
95.3884324043
 20
182.7410045804
 30
0.0
 11
129.3884324043
 21
182.7410045804
 31
0.0
  0
MTEXT
  5
2DA
330
2D2
100
AcDbEntity
  8
FORMAT
100
AcDbMText
 10
109.7148213594
 20
187.2527419025
 30
0.0
 40
3.5
 41
0.0
 71
     1
 72
     1
  1
34
  7
SLDTEXTSTYLE0
 73
     1
 44
1.0
  0
ENDBLK
  5
2D4
330
2D2
100
AcDbEntity
  8
0
100
AcDbBlockEnd
  0
BLOCK
  5
2DD
330
2DC
100
AcDbEntity
  8
0
100
AcDbBlockBegin
  2
_D_11
 70
     0
 10
0.0
 20
0.0
 30
0.0
  3
_D_11
  1

  0
SOLID
  5
2DF
330
2DC
100
AcDbEntity
  8
FORMAT
100
AcDbTrace
 10
27.3884324043
 20
182.7410045804
 30
0.0
 11
30.6904324043
 21
182.2330045804
 31
0.0
 12
30.6904324043
 22
183.2490045804
 32
0.0
 13
30.6904324043
 23
183.2490045804
 33
0.0
  0
SOLID
  5
2E0
330
2DC
100
AcDbEntity
  8
FORMAT
100
AcDbTrace
 10
61.3884324043
 20
182.7410045804
 30
0.0
 11
58.0864324043
 21
183.2490045804
 31
0.0
 12
58.0864324043
 22
182.2330045804
 32
0.0
 13
58.0864324043
 23
182.2330045804
 33
0.0
  0
LINE
  5
2E1
330
2DC
100
AcDbEntity
  8
FORMAT
100
AcDbLine
 10
27.3884324043
 20
166.7410045804
 30
0.0
 11
27.3884324043
 21
183.7410045804
 31
0.0
  0
LINE
  5
2E2
330
2DC
100
AcDbEntity
  8
FORMAT
100
AcDbLine
 10
61.3884324043
 20
165.7410045804
 30
0.0
 11
61.3884324043
 21
183.7410045804
 31
0.0
  0
LINE
  5
2E3
330
2DC
100
AcDbEntity
  8
FORMAT
100
AcDbLine
 10
27.3884324043
 20
182.7410045804
 30
0.0
 11
61.3884324043
 21
182.7410045804
 31
0.0
  0
MTEXT
  5
2E4
330
2DC
100
AcDbEntity
  8
FORMAT
100
AcDbMText
 10
38.9095418625
 20
187.2527419025
 30
0.0
 40
3.5
 41
0.0
 71
     1
 72
     1
  1
34
  7
SLDTEXTSTYLE0
 73
     1
 44
1.0
  0
ENDBLK
  5
2DE
330
2DC
100
AcDbEntity
  8
0
100
AcDbBlockEnd
  0
BLOCK
  5
2E7
330
2E6
100
AcDbEntity
  8
0
100
AcDbBlockBegin
  2
_D_12
 70
     0
 10
0.0
 20
0.0
 30
0.0
  3
_D_12
  1

  0
SOLID
  5
2E9
330
2E6
100
AcDbEntity
  8
FORMAT
100
AcDbTrace
 10
163.3884324043
 20
182.7410045804
 30
0.0
 11
160.0864324043
 21
183.2490045804
 31
0.0
 12
160.0864324043
 22
182.2330045804
 32
0.0
 13
160.0864324043
 23
182.2330045804
 33
0.0
  0
SOLID
  5
2EA
330
2E6
100
AcDbEntity
  8
FORMAT
100
AcDbTrace
 10
129.3884324043
 20
182.7410045804
 30
0.0
 11
132.6904324043
 21
182.2330045804
 31
0.0
 12
132.6904324043
 22
183.2490045804
 32
0.0
 13
132.6904324043
 23
183.2490045804
 33
0.0
  0
LINE
  5
2EB
330
2E6
100
AcDbEntity
  8
FORMAT
100
AcDbLine
 10
163.3884324043
 20
166.7410045804
 30
0.0
 11
163.3884324043
 21
183.7410045804
 31
0.0
  0
LINE
  5
2EC
330
2E6
100
AcDbEntity
  8
FORMAT
100
AcDbLine
 10
129.3884324043
 20
165.7410045804
 30
0.0
 11
129.3884324043
 21
183.7410045804
 31
0.0
  0
LINE
  5
2ED
330
2E6
100
AcDbEntity
  8
FORMAT
100
AcDbLine
 10
163.3884324043
 20
182.7410045804
 30
0.0
 11
129.3884324043
 21
182.7410045804
 31
0.0
  0
MTEXT
  5
2EE
330
2E6
100
AcDbEntity
  8
FORMAT
100
AcDbMText
 10
147.1933679355
 20
187.2527419025
 30
0.0
 40
3.5
 41
0.0
 71
     1
 72
     1
  1
34
  7
SLDTEXTSTYLE0
 73
     1
 44
1.0
  0
ENDBLK
  5
2E8
330
2E6
100
AcDbEntity
  8
0
100
AcDbBlockEnd
  0
BLOCK
  5
2F1
330
2F0
100
AcDbEntity
  8
0
100
AcDbBlockBegin
  2
_D_13
 70
     0
 10
0.0
 20
0.0
 30
0.0
  3
_D_13
  1

  0
SOLID
  5
2F3
330
2F0
100
AcDbEntity
  8
FORMAT
100
AcDbTrace
 10
15.3884324043
 20
194.7410045804
 30
0.0
 11
18.6904324043
 21
194.2330045804
 31
0.0
 12
18.6904324043
 22
195.2490045804
 32
0.0
 13
18.6904324043
 23
195.2490045804
 33
0.0
  0
SOLID
  5
2F4
330
2F0
100
AcDbEntity
  8
FORMAT
100
AcDbTrace
 10
175.3884324043
 20
194.7410045804
 30
0.0
 11
172.0864324043
 21
195.2490045804
 31
0.0
 12
172.0864324043
 22
194.2330045804
 32
0.0
 13
172.0864324043
 23
194.2330045804
 33
0.0
  0
LINE
  5
2F5
330
2F0
100
AcDbEntity
  8
FORMAT
100
AcDbLine
 10
15.3884324043
 20
161.7410045804
 30
0.0
 11
15.3884324043
 21
195.7410045804
 31
0.0
  0
LINE
  5
2F6
330
2F0
100
AcDbEntity
  8
FORMAT
100
AcDbLine
 10
175.3884324043
 20
161.7410045804
 30
0.0
 11
175.3884324043
 21
195.7410045804
 31
0.0
  0
LINE
  5
2F7
330
2F0
100
AcDbEntity
  8
FORMAT
100
AcDbLine
 10
15.3884324043
 20
194.7410045804
 30
0.0
 11
175.3884324043
 21
194.7410045804
 31
0.0
  0
MTEXT
  5
2F8
330
2F0
100
AcDbEntity
  8
FORMAT
100
AcDbMText
 10
91.3780158369
 20
199.2527419025
 30
0.0
 40
3.5
 41
0.0
 71
     1
 72
     1
  1
160
  7
SLDTEXTSTYLE0
 73
     1
 44
1.0
  0
ENDBLK
  5
2F2
330
2F0
100
AcDbEntity
  8
0
100
AcDbBlockEnd
  0
BLOCK
  5
2FB
330
2FA
100
AcDbEntity
  8
0
100
AcDbBlockBegin
  2
_D_14
 70
     0
 10
0.0
 20
0.0
 30
0.0
  3
_D_14
  1

  0
SOLID
  5
2FD
330
2FA
100
AcDbEntity
  8
FORMAT
100
AcDbTrace
 10
45.3884324043
 20
188.7410045804
 30
0.0
 11
48.6904324043
 21
188.2330045804
 31
0.0
 12
48.6904324043
 22
189.2490045804
 32
0.0
 13
48.6904324043
 23
189.2490045804
 33
0.0
  0
SOLID
  5
2FE
330
2FA
100
AcDbEntity
  8
FORMAT
100
AcDbTrace
 10
95.3884324043
 20
188.7410045804
 30
0.0
 11
92.0864324043
 21
189.2490045804
 31
0.0
 12
92.0864324043
 22
188.2330045804
 32
0.0
 13
92.0864324043
 23
188.2330045804
 33
0.0
  0
LINE
  5
2FF
330
2FA
100
AcDbEntity
  8
FORMAT
100
AcDbLine
 10
45.3884324043
 20
158.7410045804
 30
0.0
 11
45.3884324043
 21
181.2410045804
 31
0.0
  0
LINE
  5
300
330
2FA
100
AcDbEntity
  8
FORMAT
100
AcDbLine
 10
45.3884324043
 20
184.2410045804
 30
0.0
 11
45.3884324043
 21
189.7410045804
 31
0.0
  0
LINE
  5
301
330
2FA
100
AcDbEntity
  8
FORMAT
100
AcDbLine
 10
95.3884324043
 20
177.5103239544
 30
0.0
 11
95.3884324043
 21
189.7410045804
 31
0.0
  0
LINE
  5
302
330
2FA
100
AcDbEntity
  8
FORMAT
100
AcDbLine
 10
45.3884324043
 20
188.7410045804
 30
0.0
 11
95.3884324043
 21
188.7410045804
 31
0.0
  0
MTEXT
  5
303
330
2FA
100
AcDbEntity
  8
FORMAT
100
AcDbMText
 10
67.7148213594
 20
193.2527419025
 30
0.0
 40
3.5
 41
0.0
 71
     1
 72
     1
  1
50
  7
SLDTEXTSTYLE0
 73
     1
 44
1.0
  0
ENDBLK
  5
2FC
330
2FA
100
AcDbEntity
  8
0
100
AcDbBlockEnd
  0
BLOCK
  5
306
330
305
100
AcDbEntity
  8
0
100
AcDbBlockBegin
  2
_D_15
 70
     0
 10
0.0
 20
0.0
 30
0.0
  3
_D_15
  1

  0
SOLID
  5
308
330
305
100
AcDbEntity
  8
FORMAT
100
AcDbTrace
 10
95.3884324043
 20
188.7410045804
 30
0.0
 11
98.6904324043
 21
188.2330045804
 31
0.0
 12
98.6904324043
 22
189.2490045804
 32
0.0
 13
98.6904324043
 23
189.2490045804
 33
0.0
  0
SOLID
  5
309
330
305
100
AcDbEntity
  8
FORMAT
100
AcDbTrace
 10
145.3884324043
 20
188.7410045804
 30
0.0
 11
142.0864324043
 21
189.2490045804
 31
0.0
 12
142.0864324043
 22
188.2330045804
 32
0.0
 13
142.0864324043
 23
188.2330045804
 33
0.0
  0
LINE
  5
30A
330
305
100
AcDbEntity
  8
FORMAT
100
AcDbLine
 10
95.3884324043
 20
177.5103239544
 30
0.0
 11
95.3884324043
 21
189.7410045804
 31
0.0
  0
LINE
  5
30B
330
305
100
AcDbEntity
  8
FORMAT
100
AcDbLine
 10
145.3884324043
 20
158.7410045804
 30
0.0
 11
145.3884324043
 21
181.2410045804
 31
0.0
  0
LINE
  5
30C
330
305
100
AcDbEntity
  8
FORMAT
100
AcDbLine
 10
145.3884324043
 20
184.2410045804
 30
0.0
 11
145.3884324043
 21
189.7410045804
 31
0.0
  0
LINE
  5
30D
330
305
100
AcDbEntity
  8
FORMAT
100
AcDbLine
 10
95.3884324043
 20
188.7410045804
 30
0.0
 11
145.3884324043
 21
188.7410045804
 31
0.0
  0
MTEXT
  5
30E
330
305
100
AcDbEntity
  8
FORMAT
100
AcDbMText
 10
117.7148213594
 20
193.2527419025
 30
0.0
 40
3.5
 41
0.0
 71
     1
 72
     1
  1
50
  7
SLDTEXTSTYLE0
 73
     1
 44
1.0
  0
ENDBLK
  5
307
330
305
100
AcDbEntity
  8
0
100
AcDbBlockEnd
  0
BLOCK
  5
311
330
310
100
AcDbEntity
  8
0
100
AcDbBlockBegin
  2
_D_16
 70
     0
 10
0.0
 20
0.0
 30
0.0
  3
_D_16
  1

  0
SOLID
  5
313
330
310
100
AcDbEntity
  8
FORMAT
100
AcDbTrace
 10
37.7185497264
 20
165.7410045804
 30
0.0
 11
37.2105497264
 21
162.4390045804
 31
0.0
 12
38.2265497264
 22
162.4390045804
 32
0.0
 13
38.2265497264
 23
162.4390045804
 33
0.0
  0
SOLID
  5
314
330
310
100
AcDbEntity
  8
FORMAT
100
AcDbTrace
 10
37.7185497264
 20
172.7410045804
 30
0.0
 11
38.2265497264
 21
176.0430045804
 31
0.0
 12
37.2105497264
 22
176.0430045804
 32
0.0
 13
37.2105497264
 23
176.0430045804
 33
0.0
  0
LINE
  5
315
330
310
100
AcDbEntity
  8
FORMAT
100
AcDbLine
 10
36.3884324043
 20
165.7410045804
 30
0.0
 11
38.7185497264
 21
165.7410045804
 31
0.0
  0
LINE
  5
316
330
310
100
AcDbEntity
  8
FORMAT
100
AcDbLine
 10
37.7185497264
 20
165.7410045804
 30
0.0
 11
37.7185497264
 21
159.3910045804
 31
0.0
  0
LINE
  5
317
330
310
100
AcDbEntity
  8
FORMAT
100
AcDbLine
 10
37.7185497264
 20
165.7410045804
 30
0.0
 11
37.7185497264
 21
172.7410045804
 31
0.0
  0
LINE
  5
318
330
310
100
AcDbEntity
  8
FORMAT
100
AcDbLine
 10
37.7185497264
 20
172.7410045804
 30
0.0
 11
37.7185497264
 21
179.0910045804
 31
0.0
  0
MTEXT
  5
319
330
310
100
AcDbEntity
  8
FORMAT
100
AcDbMText
 10
33.2068124044
 20
167.904199058
 30
0.0
 40
3.5
 41
0.0
 71
     1
 72
     1
  1
7
  7
SLDTEXTSTYLE0
 11
-1.608122649676637E-16
 21
1.0
 31
0.0
 73
     1
 44
1.0
  0
ENDBLK
  5
312
330
310
100
AcDbEntity
  8
0
100
AcDbBlockEnd
  0
BLOCK
  5
31C
330
31B
100
AcDbEntity
  8
0
100
AcDbBlockBegin
  2
_D_17
 70
     0
 10
0.0
 20
0.0
 30
0.0
  3
_D_17
  1

  0
SOLID
  5
31E
330
31B
100
AcDbEntity
  8
FORMAT
100
AcDbTrace
 10
54.2143750846
 20
157.7410045804
 30
0.0
 11
54.7223750846
 21
161.0430045804
 31
0.0
 12
53.7063750846
 22
161.0430045804
 32
0.0
 13
53.7063750846
 23
161.0430045804
 33
0.0
  0
SOLID
  5
31F
330
31B
100
AcDbEntity
  8
FORMAT
100
AcDbTrace
 10
54.2143750846
 20
172.7410045804
 30
0.0
 11
53.7063750846
 21
169.4390045804
 31
0.0
 12
54.7223750846
 22
169.4390045804
 32
0.0
 13
54.7223750846
 23
169.4390045804
 33
0.0
  0
LINE
  5
320
330
31B
100
AcDbEntity
  8
FORMAT
100
AcDbLine
 10
46.3884324043
 20
157.7410045804
 30
0.0
 11
55.2143750846
 21
157.7410045804
 31
0.0
  0
LINE
  5
321
330
31B
100
AcDbEntity
  8
FORMAT
100
AcDbLine
 10
54.2143750846
 20
157.7410045804
 30
0.0
 11
54.2143750846
 21
172.7410045804
 31
0.0
  0
MTEXT
  5
322
330
31B
100
AcDbEntity
  8
FORMAT
100
AcDbMText
 10
49.7026377625
 20
162.5673935355
 30
0.0
 40
3.5
 41
0.0
 71
     1
 72
     1
  1
15
  7
SLDTEXTSTYLE0
 11
-1.608122649676637E-16
 21
1.0
 31
0.0
 73
     1
 44
1.0
  0
ENDBLK
  5
31D
330
31B
100
AcDbEntity
  8
0
100
AcDbBlockEnd
  0
BLOCK
  5
325
330
324
100
AcDbEntity
  8
0
100
AcDbBlockBegin
  2
_D_18
 70
     0
 10
0.0
 20
0.0
 30
0.0
  3
_D_18
  1

  0
SOLID
  5
327
330
324
100
AcDbEntity
  8
FORMAT
100
AcDbTrace
 10
73.5338101887
 20
164.7410045804
 30
0.0
 11
73.0258101887
 21
161.4390045804
 31
0.0
 12
74.0418101887
 22
161.4390045804
 32
0.0
 13
74.0418101887
 23
161.4390045804
 33
0.0
  0
SOLID
  5
328
330
324
100
AcDbEntity
  8
FORMAT
100
AcDbTrace
 10
73.5338101887
 20
172.7410045804
 30
0.0
 11
74.0418101887
 21
176.0430045804
 31
0.0
 12
73.0258101887
 22
176.0430045804
 32
0.0
 13
73.0258101887
 23
176.0430045804
 33
0.0
  0
LINE
  5
329
330
324
100
AcDbEntity
  8
FORMAT
100
AcDbLine
 10
62.3884324043
 20
164.7410045804
 30
0.0
 11
74.5338101887
 21
164.7410045804
 31
0.0
  0
LINE
  5
32A
330
324
100
AcDbEntity
  8
FORMAT
100
AcDbLine
 10
73.5338101887
 20
164.7410045804
 30
0.0
 11
73.5338101887
 21
158.3910045804
 31
0.0
  0
LINE
  5
32B
330
324
100
AcDbEntity
  8
FORMAT
100
AcDbLine
 10
73.5338101887
 20
164.7410045804
 30
0.0
 11
73.5338101887
 21
172.7410045804
 31
0.0
  0
LINE
  5
32C
330
324
100
AcDbEntity
  8
FORMAT
100
AcDbLine
 10
73.5338101887
 20
172.7410045804
 30
0.0
 11
73.5338101887
 21
179.0910045804
 31
0.0
  0
MTEXT
  5
32D
330
324
100
AcDbEntity
  8
FORMAT
100
AcDbMText
 10
69.0220728667
 20
167.404199058
 30
0.0
 40
3.5
 41
0.0
 71
     1
 72
     1
  1
8
  7
SLDTEXTSTYLE0
 11
-1.608122649676637E-16
 21
1.0
 31
0.0
 73
     1
 44
1.0
  0
ENDBLK
  5
326
330
324
100
AcDbEntity
  8
0
100
AcDbBlockEnd
  0
BLOCK
  5
330
330
32F
100
AcDbEntity
  8
0
100
AcDbBlockBegin
  2
_D_19
 70
     0
 10
0.0
 20
0.0
 30
0.0
  3
_D_19
  1

  0
SOLID
  5
332
330
32F
100
AcDbEntity
  8
FORMAT
100
AcDbTrace
 10
82.3018615052
 20
153.7410045804
 30
0.0
 11
82.8098615052
 21
157.0430045804
 31
0.0
 12
81.7938615052
 22
157.0430045804
 32
0.0
 13
81.7938615052
 23
157.0430045804
 33
0.0
  0
SOLID
  5
333
330
32F
100
AcDbEntity
  8
FORMAT
100
AcDbTrace
 10
82.3018615052
 20
172.7410045804
 30
0.0
 11
81.7938615052
 21
169.4390045804
 31
0.0
 12
82.8098615052
 22
169.4390045804
 32
0.0
 13
82.8098615052
 23
169.4390045804
 33
0.0
  0
LINE
  5
334
330
32F
100
AcDbEntity
  8
FORMAT
100
AcDbLine
 10
62.3884324043
 20
153.7410045804
 30
0.0
 11
83.3018615052
 21
153.7410045804
 31
0.0
  0
LINE
  5
335
330
32F
100
AcDbEntity
  8
FORMAT
100
AcDbLine
 10
82.3018615052
 20
153.7410045804
 30
0.0
 11
82.3018615052
 21
172.7410045804
 31
0.0
  0
MTEXT
  5
336
330
32F
100
AcDbEntity
  8
FORMAT
100
AcDbMText
 10
77.7901241832
 20
160.5673935355
 30
0.0
 40
3.5
 41
0.0
 71
     1
 72
     1
  1
19
  7
SLDTEXTSTYLE0
 11
-1.608122649676637E-16
 21
1.0
 31
0.0
 73
     1
 44
1.0
  0
ENDBLK
  5
331
330
32F
100
AcDbEntity
  8
0
100
AcDbBlockEnd
  0
BLOCK
  5
339
330
338
100
AcDbEntity
  8
0
100
AcDbBlockBegin
  2
SW_CENTERMARKSYMBOL_1
 70
     0
 10
0.0
 20
0.0
 30
0.0
  3
SW_CENTERMARKSYMBOL_1
  1

  0
LINE
  5
33B
330
338
100
AcDbEntity
  8
FORMAT
 62
     0
100
AcDbLine
 10
0.0
 20
0.0
 30
0.0
 11
0.0
 21
2.5
 31
0.0
  0
LINE
  5
33C
330
338
100
AcDbEntity
  8
FORMAT
 62
     0
100
AcDbLine
 10
0.0
 20
0.0
 30
0.0
 11
-2.5
 21
0.0
 31
0.0
  0
LINE
  5
33D
330
338
100
AcDbEntity
  8
FORMAT
 62
     0
100
AcDbLine
 10
0.0
 20
0.0
 30
0.0
 11
0.0
 21
-2.5
 31
0.0
  0
LINE
  5
33E
330
338
100
AcDbEntity
  8
FORMAT
 62
     0
100
AcDbLine
 10
0.0
 20
0.0
 30
0.0
 11
2.5
 21
0.0
 31
0.0
  0
LINE
  5
33F
330
338
100
AcDbEntity
  8
FORMAT
 62
     0
100
AcDbLine
 10
0.0
 20
5.0
 30
0.0
 11
0.0
 21
8.0
 31
0.0
  0
LINE
  5
340
330
338
100
AcDbEntity
  8
FORMAT
 62
     0
100
AcDbLine
 10
-5.0
 20
0.0
 30
0.0
 11
-8.0
 21
0.0
 31
0.0
  0
LINE
  5
341
330
338
100
AcDbEntity
  8
FORMAT
 62
     0
100
AcDbLine
 10
0.0
 20
-5.0
 30
0.0
 11
0.0
 21
-8.0
 31
0.0
  0
LINE
  5
342
330
338
100
AcDbEntity
  8
FORMAT
 62
     0
100
AcDbLine
 10
5.0
 20
0.0
 30
0.0
 11
8.0
 21
0.0
 31
0.0
  0
ENDBLK
  5
33A
330
338
100
AcDbEntity
  8
0
100
AcDbBlockEnd
  0
BLOCK
  5
345
330
344
100
AcDbEntity
  8
0
100
AcDbBlockBegin
  2
SW_CENTERMARKSYMBOL_2
 70
     0
 10
0.0
 20
0.0
 30
0.0
  3
SW_CENTERMARKSYMBOL_2
  1

  0
LINE
  5
347
330
344
100
AcDbEntity
  8
FORMAT
 62
     0
100
AcDbLine
 10
0.0
 20
0.0
 30
0.0
 11
0.0
 21
2.5
 31
0.0
  0
LINE
  5
348
330
344
100
AcDbEntity
  8
FORMAT
 62
     0
100
AcDbLine
 10
0.0
 20
0.0
 30
0.0
 11
-2.5
 21
0.0
 31
0.0
  0
LINE
  5
349
330
344
100
AcDbEntity
  8
FORMAT
 62
     0
100
AcDbLine
 10
0.0
 20
0.0
 30
0.0
 11
0.0
 21
-2.5
 31
0.0
  0
LINE
  5
34A
330
344
100
AcDbEntity
  8
FORMAT
 62
     0
100
AcDbLine
 10
0.0
 20
0.0
 30
0.0
 11
2.5
 21
0.0
 31
0.0
  0
LINE
  5
34B
330
344
100
AcDbEntity
  8
FORMAT
 62
     0
100
AcDbLine
 10
0.0
 20
5.0
 30
0.0
 11
0.0
 21
9.0
 31
0.0
  0
LINE
  5
34C
330
344
100
AcDbEntity
  8
FORMAT
 62
     0
100
AcDbLine
 10
-5.0
 20
0.0
 30
0.0
 11
-9.0
 21
0.0
 31
0.0
  0
LINE
  5
34D
330
344
100
AcDbEntity
  8
FORMAT
 62
     0
100
AcDbLine
 10
0.0
 20
-5.0
 30
0.0
 11
0.0
 21
-9.0
 31
0.0
  0
LINE
  5
34E
330
344
100
AcDbEntity
  8
FORMAT
 62
     0
100
AcDbLine
 10
5.0
 20
0.0
 30
0.0
 11
9.0
 21
0.0
 31
0.0
  0
ENDBLK
  5
346
330
344
100
AcDbEntity
  8
0
100
AcDbBlockEnd
  0
BLOCK
  5
351
330
350
100
AcDbEntity
  8
0
100
AcDbBlockBegin
  2
SW_CENTERMARKSYMBOL_3
 70
     0
 10
0.0
 20
0.0
 30
0.0
  3
SW_CENTERMARKSYMBOL_3
  1

  0
LINE
  5
353
330
350
100
AcDbEntity
  8
FORMAT
 62
     0
100
AcDbLine
 10
0.0
 20
0.0
 30
0.0
 11
0.0
 21
2.5
 31
0.0
  0
LINE
  5
354
330
350
100
AcDbEntity
  8
FORMAT
 62
     0
100
AcDbLine
 10
0.0
 20
0.0
 30
0.0
 11
-2.5
 21
0.0
 31
0.0
  0
LINE
  5
355
330
350
100
AcDbEntity
  8
FORMAT
 62
     0
100
AcDbLine
 10
0.0
 20
0.0
 30
0.0
 11
0.0
 21
-2.5
 31
0.0
  0
LINE
  5
356
330
350
100
AcDbEntity
  8
FORMAT
 62
     0
100
AcDbLine
 10
0.0
 20
0.0
 30
0.0
 11
2.5
 21
0.0
 31
0.0
  0
LINE
  5
357
330
350
100
AcDbEntity
  8
FORMAT
 62
     0
100
AcDbLine
 10
0.0
 20
5.0
 30
0.0
 11
0.0
 21
8.0
 31
0.0
  0
LINE
  5
358
330
350
100
AcDbEntity
  8
FORMAT
 62
     0
100
AcDbLine
 10
-5.0
 20
0.0
 30
0.0
 11
-8.0
 21
0.0
 31
0.0
  0
LINE
  5
359
330
350
100
AcDbEntity
  8
FORMAT
 62
     0
100
AcDbLine
 10
0.0
 20
-5.0
 30
0.0
 11
0.0
 21
-8.0
 31
0.0
  0
LINE
  5
35A
330
350
100
AcDbEntity
  8
FORMAT
 62
     0
100
AcDbLine
 10
5.0
 20
0.0
 30
0.0
 11
8.0
 21
0.0
 31
0.0
  0
ENDBLK
  5
352
330
350
100
AcDbEntity
  8
0
100
AcDbBlockEnd
  0
BLOCK
  5
35D
330
35C
100
AcDbEntity
  8
0
100
AcDbBlockBegin
  2
SW_CENTERMARKSYMBOL_4
 70
     0
 10
0.0
 20
0.0
 30
0.0
  3
SW_CENTERMARKSYMBOL_4
  1

  0
LINE
  5
35F
330
35C
100
AcDbEntity
  8
FORMAT
 62
     0
100
AcDbLine
 10
0.0
 20
0.0
 30
0.0
 11
0.0
 21
2.5
 31
0.0
  0
LINE
  5
360
330
35C
100
AcDbEntity
  8
FORMAT
 62
     0
100
AcDbLine
 10
0.0
 20
0.0
 30
0.0
 11
-2.5
 21
0.0
 31
0.0
  0
LINE
  5
361
330
35C
100
AcDbEntity
  8
FORMAT
 62
     0
100
AcDbLine
 10
0.0
 20
0.0
 30
0.0
 11
0.0
 21
-2.5
 31
0.0
  0
LINE
  5
362
330
35C
100
AcDbEntity
  8
FORMAT
 62
     0
100
AcDbLine
 10
0.0
 20
0.0
 30
0.0
 11
2.5
 21
0.0
 31
0.0
  0
LINE
  5
363
330
35C
100
AcDbEntity
  8
FORMAT
 62
     0
100
AcDbLine
 10
0.0
 20
5.0
 30
0.0
 11
0.0
 21
8.0
 31
0.0
  0
LINE
  5
364
330
35C
100
AcDbEntity
  8
FORMAT
 62
     0
100
AcDbLine
 10
-5.0
 20
0.0
 30
0.0
 11
-8.0
 21
0.0
 31
0.0
  0
LINE
  5
365
330
35C
100
AcDbEntity
  8
FORMAT
 62
     0
100
AcDbLine
 10
0.0
 20
-5.0
 30
0.0
 11
0.0
 21
-8.0
 31
0.0
  0
LINE
  5
366
330
35C
100
AcDbEntity
  8
FORMAT
 62
     0
100
AcDbLine
 10
5.0
 20
0.0
 30
0.0
 11
8.0
 21
0.0
 31
0.0
  0
ENDBLK
  5
35E
330
35C
100
AcDbEntity
  8
0
100
AcDbBlockEnd
  0
BLOCK
  5
369
330
368
100
AcDbEntity
  8
0
100
AcDbBlockBegin
  2
SW_CENTERMARKSYMBOL_5
 70
     0
 10
0.0
 20
0.0
 30
0.0
  3
SW_CENTERMARKSYMBOL_5
  1

  0
LINE
  5
36B
330
368
100
AcDbEntity
  8
FORMAT
 62
     0
100
AcDbLine
 10
0.0
 20
0.0
 30
0.0
 11
0.0
 21
2.5
 31
0.0
  0
LINE
  5
36C
330
368
100
AcDbEntity
  8
FORMAT
 62
     0
100
AcDbLine
 10
0.0
 20
0.0
 30
0.0
 11
-2.5
 21
0.0
 31
0.0
  0
LINE
  5
36D
330
368
100
AcDbEntity
  8
FORMAT
 62
     0
100
AcDbLine
 10
0.0
 20
0.0
 30
0.0
 11
0.0
 21
-2.5
 31
0.0
  0
LINE
  5
36E
330
368
100
AcDbEntity
  8
FORMAT
 62
     0
100
AcDbLine
 10
0.0
 20
0.0
 30
0.0
 11
2.5
 21
0.0
 31
0.0
  0
LINE
  5
36F
330
368
100
AcDbEntity
  8
FORMAT
 62
     0
100
AcDbLine
 10
0.0
 20
5.0
 30
0.0
 11
0.0
 21
8.0
 31
0.0
  0
LINE
  5
370
330
368
100
AcDbEntity
  8
FORMAT
 62
     0
100
AcDbLine
 10
-5.0
 20
0.0
 30
0.0
 11
-8.0
 21
0.0
 31
0.0
  0
LINE
  5
371
330
368
100
AcDbEntity
  8
FORMAT
 62
     0
100
AcDbLine
 10
0.0
 20
-5.0
 30
0.0
 11
0.0
 21
-8.0
 31
0.0
  0
LINE
  5
372
330
368
100
AcDbEntity
  8
FORMAT
 62
     0
100
AcDbLine
 10
5.0
 20
0.0
 30
0.0
 11
8.0
 21
0.0
 31
0.0
  0
ENDBLK
  5
36A
330
368
100
AcDbEntity
  8
0
100
AcDbBlockEnd
  0
BLOCK
  5
375
330
374
100
AcDbEntity
  8
0
100
AcDbBlockBegin
  2
SW_CENTERMARKSYMBOL_6
 70
     0
 10
0.0
 20
0.0
 30
0.0
  3
SW_CENTERMARKSYMBOL_6
  1

  0
LINE
  5
377
330
374
100
AcDbEntity
  8
FORMAT
 62
     0
100
AcDbLine
 10
0.0
 20
0.0
 30
0.0
 11
0.0
 21
2.5
 31
0.0
  0
LINE
  5
378
330
374
100
AcDbEntity
  8
FORMAT
 62
     0
100
AcDbLine
 10
0.0
 20
0.0
 30
0.0
 11
-2.5
 21
0.0
 31
0.0
  0
LINE
  5
379
330
374
100
AcDbEntity
  8
FORMAT
 62
     0
100
AcDbLine
 10
0.0
 20
0.0
 30
0.0
 11
0.0
 21
-2.5
 31
0.0
  0
LINE
  5
37A
330
374
100
AcDbEntity
  8
FORMAT
 62
     0
100
AcDbLine
 10
0.0
 20
0.0
 30
0.0
 11
2.5
 21
0.0
 31
0.0
  0
LINE
  5
37B
330
374
100
AcDbEntity
  8
FORMAT
 62
     0
100
AcDbLine
 10
0.0
 20
5.0
 30
0.0
 11
0.0
 21
9.0
 31
0.0
  0
LINE
  5
37C
330
374
100
AcDbEntity
  8
FORMAT
 62
     0
100
AcDbLine
 10
-5.0
 20
0.0
 30
0.0
 11
-9.0
 21
0.0
 31
0.0
  0
LINE
  5
37D
330
374
100
AcDbEntity
  8
FORMAT
 62
     0
100
AcDbLine
 10
0.0
 20
-5.0
 30
0.0
 11
0.0
 21
-9.0
 31
0.0
  0
LINE
  5
37E
330
374
100
AcDbEntity
  8
FORMAT
 62
     0
100
AcDbLine
 10
5.0
 20
0.0
 30
0.0
 11
9.0
 21
0.0
 31
0.0
  0
ENDBLK
  5
376
330
374
100
AcDbEntity
  8
0
100
AcDbBlockEnd
  0
BLOCK
  5
381
330
380
100
AcDbEntity
  8
0
100
AcDbBlockBegin
  2
SW_CENTERMARKSYMBOL_7
 70
     0
 10
0.0
 20
0.0
 30
0.0
  3
SW_CENTERMARKSYMBOL_7
  1

  0
LINE
  5
383
330
380
100
AcDbEntity
  8
FORMAT
 62
     0
100
AcDbLine
 10
0.0
 20
0.0
 30
0.0
 11
0.0
 21
2.5
 31
0.0
  0
LINE
  5
384
330
380
100
AcDbEntity
  8
FORMAT
 62
     0
100
AcDbLine
 10
0.0
 20
0.0
 30
0.0
 11
-2.5
 21
0.0
 31
0.0
  0
LINE
  5
385
330
380
100
AcDbEntity
  8
FORMAT
 62
     0
100
AcDbLine
 10
0.0
 20
0.0
 30
0.0
 11
0.0
 21
-2.5
 31
0.0
  0
LINE
  5
386
330
380
100
AcDbEntity
  8
FORMAT
 62
     0
100
AcDbLine
 10
0.0
 20
0.0
 30
0.0
 11
2.5
 21
0.0
 31
0.0
  0
LINE
  5
387
330
380
100
AcDbEntity
  8
FORMAT
 62
     0
100
AcDbLine
 10
0.0
 20
5.0
 30
0.0
 11
0.0
 21
8.0
 31
0.0
  0
LINE
  5
388
330
380
100
AcDbEntity
  8
FORMAT
 62
     0
100
AcDbLine
 10
-5.0
 20
0.0
 30
0.0
 11
-8.0
 21
0.0
 31
0.0
  0
LINE
  5
389
330
380
100
AcDbEntity
  8
FORMAT
 62
     0
100
AcDbLine
 10
0.0
 20
-5.0
 30
0.0
 11
0.0
 21
-8.0
 31
0.0
  0
LINE
  5
38A
330
380
100
AcDbEntity
  8
FORMAT
 62
     0
100
AcDbLine
 10
5.0
 20
0.0
 30
0.0
 11
8.0
 21
0.0
 31
0.0
  0
ENDBLK
  5
382
330
380
100
AcDbEntity
  8
0
100
AcDbBlockEnd
  0
BLOCK
  5
38D
330
38C
100
AcDbEntity
  8
0
100
AcDbBlockBegin
  2
SW_CENTERMARKSYMBOL_8
 70
     0
 10
0.0
 20
0.0
 30
0.0
  3
SW_CENTERMARKSYMBOL_8
  1

  0
LINE
  5
38F
330
38C
100
AcDbEntity
  8
FORMAT
 62
     0
100
AcDbLine
 10
0.0
 20
0.0
 30
0.0
 11
0.0
 21
2.5
 31
0.0
  0
LINE
  5
390
330
38C
100
AcDbEntity
  8
FORMAT
 62
     0
100
AcDbLine
 10
0.0
 20
0.0
 30
0.0
 11
-2.5
 21
0.0
 31
0.0
  0
LINE
  5
391
330
38C
100
AcDbEntity
  8
FORMAT
 62
     0
100
AcDbLine
 10
0.0
 20
0.0
 30
0.0
 11
0.0
 21
-2.5
 31
0.0
  0
LINE
  5
392
330
38C
100
AcDbEntity
  8
FORMAT
 62
     0
100
AcDbLine
 10
0.0
 20
0.0
 30
0.0
 11
2.5
 21
0.0
 31
0.0
  0
LINE
  5
393
330
38C
100
AcDbEntity
  8
FORMAT
 62
     0
100
AcDbLine
 10
0.0
 20
2.5
 30
0.0
 11
0.0
 21
4.75
 31
0.0
  0
LINE
  5
394
330
38C
100
AcDbEntity
  8
FORMAT
 62
     0
100
AcDbLine
 10
-2.5
 20
0.0
 30
0.0
 11
-4.75
 21
0.0
 31
0.0
  0
LINE
  5
395
330
38C
100
AcDbEntity
  8
FORMAT
 62
     0
100
AcDbLine
 10
0.0
 20
-2.5
 30
0.0
 11
0.0
 21
-4.75
 31
0.0
  0
LINE
  5
396
330
38C
100
AcDbEntity
  8
FORMAT
 62
     0
100
AcDbLine
 10
2.5
 20
0.0
 30
0.0
 11
4.75
 21
0.0
 31
0.0
  0
ENDBLK
  5
38E
330
38C
100
AcDbEntity
  8
0
100
AcDbBlockEnd
  0
BLOCK
  5
399
330
398
100
AcDbEntity
  8
0
100
AcDbBlockBegin
  2
SW_CENTERMARKSYMBOL_9
 70
     0
 10
0.0
 20
0.0
 30
0.0
  3
SW_CENTERMARKSYMBOL_9
  1

  0
LINE
  5
39B
330
398
100
AcDbEntity
  8
FORMAT
 62
     0
100
AcDbLine
 10
0.0
 20
0.0
 30
0.0
 11
0.0
 21
2.5
 31
0.0
  0
LINE
  5
39C
330
398
100
AcDbEntity
  8
FORMAT
 62
     0
100
AcDbLine
 10
0.0
 20
0.0
 30
0.0
 11
-2.5
 21
0.0
 31
0.0
  0
LINE
  5
39D
330
398
100
AcDbEntity
  8
FORMAT
 62
     0
100
AcDbLine
 10
0.0
 20
0.0
 30
0.0
 11
0.0
 21
-2.5
 31
0.0
  0
LINE
  5
39E
330
398
100
AcDbEntity
  8
FORMAT
 62
     0
100
AcDbLine
 10
0.0
 20
0.0
 30
0.0
 11
2.5
 21
0.0
 31
0.0
  0
LINE
  5
39F
330
398
100
AcDbEntity
  8
FORMAT
 62
     0
100
AcDbLine
 10
0.0
 20
2.5
 30
0.0
 11
0.0
 21
4.75
 31
0.0
  0
LINE
  5
3A0
330
398
100
AcDbEntity
  8
FORMAT
 62
     0
100
AcDbLine
 10
-2.5
 20
0.0
 30
0.0
 11
-4.75
 21
0.0
 31
0.0
  0
LINE
  5
3A1
330
398
100
AcDbEntity
  8
FORMAT
 62
     0
100
AcDbLine
 10
0.0
 20
-2.5
 30
0.0
 11
0.0
 21
-4.75
 31
0.0
  0
LINE
  5
3A2
330
398
100
AcDbEntity
  8
FORMAT
 62
     0
100
AcDbLine
 10
2.5
 20
0.0
 30
0.0
 11
4.75
 21
0.0
 31
0.0
  0
ENDBLK
  5
39A
330
398
100
AcDbEntity
  8
0
100
AcDbBlockEnd
  0
BLOCK
  5
3F0
330
3EF
100
AcDbEntity
  8
0
100
AcDbBlockBegin
  2
_D_20
 70
     0
 10
0.0
 20
0.0
 30
0.0
  3
_D_20
  1

  0
SOLID
  5
3F2
330
3EF
100
AcDbEntity
  8
FORMAT
100
AcDbTrace
 10
248.799040316
 20
125.3759961524
 30
0.0
 11
252.101040316
 21
124.8679961524
 31
0.0
 12
252.101040316
 22
125.8839961524
 32
0.0
 13
252.101040316
 23
125.8839961524
 33
0.0
  0
SOLID
  5
3F3
330
3EF
100
AcDbEntity
  8
FORMAT
100
AcDbTrace
 10
262.799040316
 20
125.3759961524
 30
0.0
 11
259.497040316
 21
125.8839961524
 31
0.0
 12
259.497040316
 22
124.8679961524
 32
0.0
 13
259.497040316
 23
124.8679961524
 33
0.0
  0
LINE
  5
3F4
330
3EF
100
AcDbEntity
  8
FORMAT
100
AcDbLine
 10
248.799040316
 20
108.8759961524
 30
0.0
 11
248.799040316
 21
126.3759961524
 31
0.0
  0
LINE
  5
3F5
330
3EF
100
AcDbEntity
  8
FORMAT
100
AcDbLine
 10
262.799040316
 20
109.8759961524
 30
0.0
 11
262.799040316
 21
126.3759961524
 31
0.0
  0
LINE
  5
3F6
330
3EF
100
AcDbEntity
  8
FORMAT
100
AcDbLine
 10
248.799040316
 20
125.3759961524
 30
0.0
 11
262.799040316
 21
125.3759961524
 31
0.0
  0
MTEXT
  5
3F7
330
3EF
100
AcDbEntity
  8
FORMAT
100
AcDbMText
 10
253.1254292711
 20
129.8877334744
 30
0.0
 40
3.5
 41
0.0
 71
     1
 72
     1
  1
14
  7
SLDTEXTSTYLE0
 73
     1
 44
1.0
  0
ENDBLK
  5
3F1
330
3EF
100
AcDbEntity
  8
0
100
AcDbBlockEnd
  0
BLOCK
  5
3FA
330
3F9
100
AcDbEntity
  8
0
100
AcDbBlockBegin
  2
_D_21
 70
     0
 10
0.0
 20
0.0
 30
0.0
  3
_D_21
  1

  0
SOLID
  5
3FC
330
3F9
100
AcDbEntity
  8
FORMAT
100
AcDbTrace
 10
262.799040316
 20
119.3759961524
 30
0.0
 11
259.497040316
 21
119.8839961524
 31
0.0
 12
259.497040316
 22
118.8679961524
 32
0.0
 13
259.497040316
 23
118.8679961524
 33
0.0
  0
SOLID
  5
3FD
330
3F9
100
AcDbEntity
  8
FORMAT
100
AcDbTrace
 10
265.799040316
 20
119.3759961524
 30
0.0
 11
269.101040316
 21
118.8679961524
 31
0.0
 12
269.101040316
 22
119.8839961524
 32
0.0
 13
269.101040316
 23
119.8839961524
 33
0.0
  0
LINE
  5
3FE
330
3F9
100
AcDbEntity
  8
FORMAT
100
AcDbLine
 10
262.799040316
 20
110.3759961524
 30
0.0
 11
262.799040316
 21
120.3759961524
 31
0.0
  0
LINE
  5
3FF
330
3F9
100
AcDbEntity
  8
FORMAT
100
AcDbLine
 10
265.799040316
 20
110.3759961524
 30
0.0
 11
265.799040316
 21
120.3759961524
 31
0.0
  0
LINE
  5
400
330
3F9
100
AcDbEntity
  8
FORMAT
100
AcDbLine
 10
262.799040316
 20
119.3759961524
 30
0.0
 11
256.449040316
 21
119.3759961524
 31
0.0
  0
LINE
  5
401
330
3F9
100
AcDbEntity
  8
FORMAT
100
AcDbLine
 10
262.799040316
 20
119.3759961524
 30
0.0
 11
265.799040316
 21
119.3759961524
 31
0.0
  0
LINE
  5
402
330
3F9
100
AcDbEntity
  8
FORMAT
100
AcDbLine
 10
265.799040316
 20
119.3759961524
 30
0.0
 11
276.1594568834
 21
119.3759961524
 31
0.0
  0
MTEXT
  5
403
330
3F9
100
AcDbEntity
  8
FORMAT
100
AcDbMText
 10
273.4858458385
 20
123.8877334744
 30
0.0
 40
3.5
 41
0.0
 71
     1
 72
     1
  1
3
  7
SLDTEXTSTYLE0
 73
     1
 44
1.0
  0
ENDBLK
  5
3FB
330
3F9
100
AcDbEntity
  8
0
100
AcDbBlockEnd
  0
BLOCK
  5
406
330
405
100
AcDbEntity
  8
0
100
AcDbBlockBegin
  2
_D_22
 70
     0
 10
0.0
 20
0.0
 30
0.0
  3
_D_22
  1

  0
SOLID
  5
408
330
405
100
AcDbEntity
  8
FORMAT
100
AcDbTrace
 10
238.299040316
 20
119.3759961524
 30
0.0
 11
234.997040316
 21
119.8839961524
 31
0.0
 12
234.997040316
 22
118.8679961524
 32
0.0
 13
234.997040316
 23
118.8679961524
 33
0.0
  0
SOLID
  5
409
330
405
100
AcDbEntity
  8
FORMAT
100
AcDbTrace
 10
241.299040316
 20
119.3759961524
 30
0.0
 11
244.601040316
 21
118.8679961524
 31
0.0
 12
244.601040316
 22
119.8839961524
 32
0.0
 13
244.601040316
 23
119.8839961524
 33
0.0
  0
LINE
  5
40A
330
405
100
AcDbEntity
  8
FORMAT
100
AcDbLine
 10
238.299040316
 20
108.8759961524
 30
0.0
 11
238.299040316
 21
120.3759961524
 31
0.0
  0
LINE
  5
40B
330
405
100
AcDbEntity
  8
FORMAT
100
AcDbLine
 10
241.299040316
 20
91.5192308659
 30
0.0
 11
241.299040316
 21
120.3759961524
 31
0.0
  0
LINE
  5
40C
330
405
100
AcDbEntity
  8
FORMAT
100
AcDbLine
 10
238.299040316
 20
119.3759961524
 30
0.0
 11
227.9386237487
 21
119.3759961524
 31
0.0
  0
LINE
  5
40D
330
405
100
AcDbEntity
  8
FORMAT
100
AcDbLine
 10
238.299040316
 20
119.3759961524
 30
0.0
 11
241.299040316
 21
119.3759961524
 31
0.0
  0
LINE
  5
40E
330
405
100
AcDbEntity
  8
FORMAT
100
AcDbLine
 10
241.299040316
 20
119.3759961524
 30
0.0
 11
247.649040316
 21
119.3759961524
 31
0.0
  0
MTEXT
  5
40F
330
405
100
AcDbEntity
  8
FORMAT
100
AcDbMText
 10
227.9386237487
 20
123.8877334744
 30
0.0
 40
3.5
 41
0.0
 71
     1
 72
     1
  1
3
  7
SLDTEXTSTYLE0
 73
     1
 44
1.0
  0
ENDBLK
  5
407
330
405
100
AcDbEntity
  8
0
100
AcDbBlockEnd
  0
BLOCK
  5
412
330
411
100
AcDbEntity
  8
0
100
AcDbBlockBegin
  2
_D_23
 70
     0
 10
0.0
 20
0.0
 30
0.0
  3
_D_23
  1

  0
SOLID
  5
414
330
411
100
AcDbEntity
  8
FORMAT
100
AcDbTrace
 10
276.7419640543
 20
70.3759961524
 30
0.0
 11
277.2499640543
 21
73.6779961524
 31
0.0
 12
276.2339640543
 22
73.6779961524
 32
0.0
 13
276.2339640543
 23
73.6779961524
 33
0.0
  0
SOLID
  5
415
330
411
100
AcDbEntity
  8
FORMAT
100
AcDbTrace
 10
276.7419640543
 20
109.3759961524
 30
0.0
 11
276.2339640543
 21
106.0739961524
 31
0.0
 12
277.2499640543
 22
106.0739961524
 32
0.0
 13
277.2499640543
 23
106.0739961524
 33
0.0
  0
LINE
  5
416
330
411
100
AcDbEntity
  8
FORMAT
100
AcDbLine
 10
273.799040316
 20
70.3759961524
 30
0.0
 11
277.7419640543
 21
70.3759961524
 31
0.0
  0
LINE
  5
417
330
411
100
AcDbEntity
  8
FORMAT
100
AcDbLine
 10
266.799040316
 20
109.3759961524
 30
0.0
 11
277.7419640543
 21
109.3759961524
 31
0.0
  0
LINE
  5
418
330
411
100
AcDbEntity
  8
FORMAT
100
AcDbLine
 10
276.7419640543
 20
70.3759961524
 30
0.0
 11
276.7419640543
 21
109.3759961524
 31
0.0
  0
MTEXT
  5
419
330
411
100
AcDbEntity
  8
FORMAT
100
AcDbMText
 10
272.2302267323
 20
87.2023851075
 30
0.0
 40
3.5
 41
0.0
 71
     1
 72
     1
  1
39
  7
SLDTEXTSTYLE0
 11
-7.044195017643634E-15
 21
1.0
 31
0.0
 73
     1
 44
1.0
  0
ENDBLK
  5
413
330
411
100
AcDbEntity
  8
0
100
AcDbBlockEnd
  0
BLOCK
  5
41C
330
41B
100
AcDbEntity
  8
0
100
AcDbBlockBegin
  2
_D_24
 70
     0
 10
0.0
 20
0.0
 30
0.0
  3
_D_24
  1

  0
SOLID
  5
41E
330
41B
100
AcDbEntity
  8
FORMAT
100
AcDbTrace
 10
263.799040316
 20
54.0879231257
 30
0.0
 11
267.101040316
 21
53.5799231257
 31
0.0
 12
267.101040316
 22
54.5959231257
 32
0.0
 13
267.101040316
 23
54.5959231257
 33
0.0
  0
SOLID
  5
41F
330
41B
100
AcDbEntity
  8
FORMAT
100
AcDbTrace
 10
281.799040316
 20
54.0879231257
 30
0.0
 11
278.497040316
 21
54.5959231257
 31
0.0
 12
278.497040316
 22
53.5799231257
 32
0.0
 13
278.497040316
 23
53.5799231257
 33
0.0
  0
LINE
  5
420
330
41B
100
AcDbEntity
  8
FORMAT
100
AcDbLine
 10
263.799040316
 20
69.3759961524
 30
0.0
 11
263.799040316
 21
53.0879231257
 31
0.0
  0
LINE
  5
421
330
41B
100
AcDbEntity
  8
FORMAT
100
AcDbLine
 10
281.799040316
 20
69.3759961524
 30
0.0
 11
281.799040316
 21
53.0879231257
 31
0.0
  0
LINE
  5
422
330
41B
100
AcDbEntity
  8
FORMAT
100
AcDbLine
 10
263.799040316
 20
54.0879231257
 30
0.0
 11
281.799040316
 21
54.0879231257
 31
0.0
  0
MTEXT
  5
423
330
41B
100
AcDbEntity
  8
FORMAT
100
AcDbMText
 10
267.5739537313
 20
58.5996602149
 30
0.0
 40
3.5
 41
0.0
 71
     1
 72
     1
  1
%%c
  7
SLDTEXTSTYLE0
 73
     1
 44
1.0
  0
MTEXT
  5
424
330
41B
100
AcDbEntity
  8
FORMAT
100
AcDbMText
 10
272.6769052766
 20
58.6093825241
 30
0.0
 40
3.5
 41
0.0
 71
     1
 72
     1
  1
18
  7
SLDTEXTSTYLE0
 73
     1
 44
1.0
  0
ENDBLK
  5
41D
330
41B
100
AcDbEntity
  8
0
100
AcDbBlockEnd
  0
BLOCK
  5
427
330
426
100
AcDbEntity
  8
0
100
AcDbBlockBegin
  2
_D_25
 70
     0
 10
0.0
 20
0.0
 30
0.0
  3
_D_25
  1

  0
SOLID
  5
429
330
426
100
AcDbEntity
  8
FORMAT
100
AcDbTrace
 10
178.299040316
 20
56.8587565639
 30
0.0
 11
181.601040316
 21
56.3507565639
 31
0.0
 12
181.601040316
 22
57.3667565639
 32
0.0
 13
181.601040316
 23
57.3667565639
 33
0.0
  0
SOLID
  5
42A
330
426
100
AcDbEntity
  8
FORMAT
100
AcDbTrace
 10
238.299040316
 20
56.8587565639
 30
0.0
 11
234.997040316
 21
57.3667565639
 31
0.0
 12
234.997040316
 22
56.3507565639
 32
0.0
 13
234.997040316
 23
56.3507565639
 33
0.0
  0
LINE
  5
42B
330
426
100
AcDbEntity
  8
FORMAT
100
AcDbLine
 10
178.299040316
 20
88.7627474983
 30
0.0
 11
178.299040316
 21
55.8587565639
 31
0.0
  0
LINE
  5
42C
330
426
100
AcDbEntity
  8
FORMAT
100
AcDbLine
 10
238.299040316
 20
79.8769961524
 30
0.0
 11
238.299040316
 21
55.8587565639
 31
0.0
  0
LINE
  5
42D
330
426
100
AcDbEntity
  8
FORMAT
100
AcDbLine
 10
178.299040316
 20
56.8587565639
 30
0.0
 11
238.299040316
 21
56.8587565639
 31
0.0
  0
MTEXT
  5
42E
330
426
100
AcDbEntity
  8
FORMAT
100
AcDbMText
 10
205.6254292711
 20
61.370493886
 30
0.0
 40
3.5
 41
0.0
 71
     1
 72
     1
  1
60
  7
SLDTEXTSTYLE0
 73
     1
 44
1.0
  0
ENDBLK
  5
428
330
426
100
AcDbEntity
  8
0
100
AcDbBlockEnd
  0
BLOCK
  5
431
330
430
100
AcDbEntity
  8
0
100
AcDbBlockBegin
  2
_D_26
 70
     0
 10
0.0
 20
0.0
 30
0.0
  3
_D_26
  1

  0
SOLID
  5
433
330
430
100
AcDbEntity
  8
FORMAT
100
AcDbTrace
 10
254.8959333157
 20
99.3759961524
 30
0.0
 11
255.4039333157
 21
102.6779961524
 31
0.0
 12
254.3879333157
 22
102.6779961524
 32
0.0
 13
254.3879333157
 23
102.6779961524
 33
0.0
  0
SOLID
  5
434
330
430
100
AcDbEntity
  8
FORMAT
100
AcDbTrace
 10
254.8959333157
 20
86.3759961524
 30
0.0
 11
254.3879333157
 21
83.0739961524
 31
0.0
 12
255.4039333157
 22
83.0739961524
 32
0.0
 13
255.4039333157
 23
83.0739961524
 33
0.0
  0
LINE
  5
435
330
430
100
AcDbEntity
  8
FORMAT
100
AcDbLine
 10
242.299040316
 20
99.3759961524
 30
0.0
 11
255.8959333157
 21
99.3759961524
 31
0.0
  0
LINE
  5
436
330
430
100
AcDbEntity
  8
FORMAT
100
AcDbLine
 10
242.299040316
 20
86.3759961524
 30
0.0
 11
255.8959333157
 21
86.3759961524
 31
0.0
  0
LINE
  5
437
330
430
100
AcDbEntity
  8
FORMAT
100
AcDbLine
 10
254.8959333157
 20
99.3759961524
 30
0.0
 11
254.8959333157
 21
105.7259961524
 31
0.0
  0
LINE
  5
438
330
430
100
AcDbEntity
  8
FORMAT
100
AcDbLine
 10
254.8959333157
 20
99.3759961524
 30
0.0
 11
254.8959333157
 21
86.3759961524
 31
0.0
  0
LINE
  5
439
330
430
100
AcDbEntity
  8
FORMAT
100
AcDbLine
 10
254.8959333157
 20
86.3759961524
 30
0.0
 11
254.8959333157
 21
80.0259961524
 31
0.0
  0
MTEXT
  5
43A
330
430
100
AcDbEntity
  8
FORMAT
100
AcDbMText
 10
250.3841962265
 20
87.6509095677
 30
0.0
 40
3.5
 41
0.0
 71
     1
 72
     1
  1
%%c
  7
SLDTEXTSTYLE0
 11
-1.237326553584439E-14
 21
1.0
 31
0.0
 73
     1
 44
1.0
  0
MTEXT
  5
43B
330
430
100
AcDbEntity
  8
FORMAT
100
AcDbMText
 10
250.3744739173
 20
92.753861113
 30
0.0
 40
3.5
 41
0.0
 71
     1
 72
     1
  1
13
  7
SLDTEXTSTYLE0
 11
-1.237326553584439E-14
 21
1.0
 31
0.0
 73
     1
 44
1.0
  0
ENDBLK
  5
432
330
430
100
AcDbEntity
  8
0
100
AcDbBlockEnd
  0
BLOCK
  5
43E
330
43D
100
AcDbEntity
  8
0
100
AcDbBlockBegin
  2
_D_27
 70
     0
 10
0.0
 20
0.0
 30
0.0
  3
_D_27
  1

  0
ARC
  5
440
330
43D
100
AcDbEntity
  8
FORMAT
100
AcDbCircle
 10
234.799040316
 20
92.8759961524
 30
0.0
 40
26.18297997446805
100
AcDbArc
 50
315.0
 51
45.0
  0
SOLID
  5
441
330
43D
100
AcDbEntity
  8
FORMAT
100
AcDbTrace
 10
253.3132030076
 20
74.3618334608
 30
0.0
 11
255.8781397575
 21
76.5024799681
 31
0.0
 12
255.1160986454
 22
77.1744541816
 32
0.0
 13
255.1160986454
 23
77.1744541816
 33
0.0
  0
SOLID
  5
442
330
43D
100
AcDbEntity
  8
FORMAT
100
AcDbTrace
 10
253.3132030076
 20
111.390158844
 30
0.0
 11
255.1160986454
 21
108.5775381232
 31
0.0
 12
255.8781397575
 22
109.2495123367
 32
0.0
 13
255.8781397575
 23
109.2495123367
 33
0.0
  0
LINE
  5
443
330
43D
100
AcDbEntity
  8
FORMAT
100
AcDbLine
 10
242.0061470972
 20
85.6688893712
 30
0.0
 11
254.0203097888
 21
73.6547266796
 31
0.0
  0
LINE
  5
444
330
43D
100
AcDbEntity
  8
FORMAT
100
AcDbLine
 10
242.0061470972
 20
100.0831029336
 30
0.0
 11
254.0203097888
 21
112.0972656252
 31
0.0
  0
MTEXT
  5
445
330
43D
100
AcDbEntity
  8
FORMAT
100
AcDbMText
 10
256.4702829685
 20
89.2398851127
 30
0.0
 40
3.5
 41
0.0
 71
     1
 72
     1
  1
90°
  7
SLDTEXTSTYLE0
 11
-9.708730276744010E-15
 21
1.0
 31
0.0
 73
     1
 44
1.0
  0
ENDBLK
  5
43F
330
43D
100
AcDbEntity
  8
0
100
AcDbBlockEnd
  0
BLOCK
  5
448
330
447
100
AcDbEntity
  8
0
100
AcDbBlockBegin
  2
_D_28
 70
     0
 10
0.0
 20
0.0
 30
0.0
  3
_D_28
  1

  0
SOLID
  5
44A
330
447
100
AcDbEntity
  8
FORMAT
100
AcDbTrace
 10
227.0227507188
 20
96.3759961524
 30
0.0
 11
227.5307507188
 21
99.6779961524
 31
0.0
 12
226.5147507188
 22
99.6779961524
 32
0.0
 13
226.5147507188
 23
99.6779961524
 33
0.0
  0
SOLID
  5
44B
330
447
100
AcDbEntity
  8
FORMAT
100
AcDbTrace
 10
227.0227507188
 20
89.3759961524
 30
0.0
 11
226.5147507188
 21
86.0739961524
 31
0.0
 12
227.5307507188
 22
86.0739961524
 32
0.0
 13
227.5307507188
 23
86.0739961524
 33
0.0
  0
LINE
  5
44C
330
447
100
AcDbEntity
  8
FORMAT
100
AcDbLine
 10
237.299040316
 20
96.3759961524
 30
0.0
 11
226.0227507188
 21
96.3759961524
 31
0.0
  0
LINE
  5
44D
330
447
100
AcDbEntity
  8
FORMAT
100
AcDbLine
 10
237.299040316
 20
89.3759961524
 30
0.0
 11
226.0227507188
 21
89.3759961524
 31
0.0
  0
LINE
  5
44E
330
447
100
AcDbEntity
  8
FORMAT
100
AcDbLine
 10
227.0227507188
 20
96.3759961524
 30
0.0
 11
227.0227507188
 21
108.1483851036
 31
0.0
  0
LINE
  5
44F
330
447
100
AcDbEntity
  8
FORMAT
100
AcDbLine
 10
227.0227507188
 20
96.3759961524
 30
0.0
 11
227.0227507188
 21
89.3759961524
 31
0.0
  0
LINE
  5
450
330
447
100
AcDbEntity
  8
FORMAT
100
AcDbLine
 10
227.0227507188
 20
89.3759961524
 30
0.0
 11
227.0227507188
 21
83.0259961524
 31
0.0
  0
MTEXT
  5
451
330
447
100
AcDbEntity
  8
FORMAT
100
AcDbMText
 10
222.5110136296
 20
100.3718225134
 30
0.0
 40
3.5
 41
0.0
 71
     1
 72
     1
  1
%%c
  7
SLDTEXTSTYLE0
 11
-1.059690869644414E-14
 21
1.0
 31
0.0
 73
     1
 44
1.0
  0
MTEXT
  5
452
330
447
100
AcDbEntity
  8
FORMAT
100
AcDbMText
 10
222.5012913205
 20
105.4747740587
 30
0.0
 40
3.5
 41
0.0
 71
     1
 72
     1
  1
7
  7
SLDTEXTSTYLE0
 11
-1.059690869644414E-14
 21
1.0
 31
0.0
 73
     1
 44
1.0
  0
ENDBLK
  5
449
330
447
100
AcDbEntity
  8
0
100
AcDbBlockEnd
  0
BLOCK
  5
454
330
453
100
AcDbEntity
  8
0
100
AcDbBlockBegin
  2
SW_NOTE_0_10
 70
     0
 10
0.0
 20
0.0
 30
0.0
  3
SW_NOTE_0_10
  1

  0
MTEXT
  5
456
330
453
100
AcDbEntity
  8
FORMAT
 62
     0
100
AcDbMText
 10
0.0
 20
4.5117370892
 30
0.0
 40
3.5
 41
0.0
 71
     1
 72
     1
  1
Tragzapfen/Schrauben
  7
SLDTEXTSTYLE0
 73
     1
 44
1.0
  0
MTEXT
  5
457
330
453
100
AcDbEntity
  8
FORMAT
 62
     0
100
AcDbMText
 10
0.0
 20
-0.0090964031
 30
0.0
 40
3.5
 41
0.0
 71
     1
 72
     1
  1
sind separat zu bestellen
  7
SLDTEXTSTYLE0
 73
     1
 44
1.0
  0
ENDBLK
  5
455
330
453
100
AcDbEntity
  8
0
100
AcDbBlockEnd
  0
BLOCK
  5
45A
330
459
100
AcDbEntity
  8
0
100
AcDbBlockBegin
  2
SW_CENTERMARKSYMBOL_10
 70
     0
 10
0.0
 20
0.0
 30
0.0
  3
SW_CENTERMARKSYMBOL_10
  1

  0
LINE
  5
45C
330
459
100
AcDbEntity
  8
FORMAT
 62
     0
100
AcDbLine
 10
0.0
 20
0.0
 30
0.0
 11
0.0
 21
1.0
 31
0.0
  0
LINE
  5
45D
330
459
100
AcDbEntity
  8
FORMAT
 62
     0
100
AcDbLine
 10
0.0
 20
0.0
 30
0.0
 11
-1.0
 21
0.0
 31
0.0
  0
LINE
  5
45E
330
459
100
AcDbEntity
  8
FORMAT
 62
     0
100
AcDbLine
 10
0.0
 20
0.0
 30
0.0
 11
0.0
 21
-1.0
 31
0.0
  0
LINE
  5
45F
330
459
100
AcDbEntity
  8
FORMAT
 62
     0
100
AcDbLine
 10
0.0
 20
0.0
 30
0.0
 11
1.0
 21
0.0
 31
0.0
  0
LINE
  5
460
330
459
100
AcDbEntity
  8
FORMAT
 62
     0
100
AcDbLine
 10
0.0
 20
2.0
 30
0.0
 11
0.0
 21
10.0
 31
0.0
  0
LINE
  5
461
330
459
100
AcDbEntity
  8
FORMAT
 62
     0
100
AcDbLine
 10
-2.0
 20
0.0
 30
0.0
 11
-10.0
 21
0.0
 31
0.0
  0
LINE
  5
462
330
459
100
AcDbEntity
  8
FORMAT
 62
     0
100
AcDbLine
 10
0.0
 20
-2.0
 30
0.0
 11
0.0
 21
-10.0
 31
0.0
  0
LINE
  5
463
330
459
100
AcDbEntity
  8
FORMAT
 62
     0
100
AcDbLine
 10
2.0
 20
0.0
 30
0.0
 11
10.0
 21
0.0
 31
0.0
  0
ENDBLK
  5
45B
330
459
100
AcDbEntity
  8
0
100
AcDbBlockEnd
  0
BLOCK
  5
466
330
465
100
AcDbEntity
  8
0
100
AcDbBlockBegin
  2
_Dot
 70
     0
 10
0.0
 20
0.0
 30
0.0
  3
_Dot
  1

  0
LWPOLYLINE
  5
468
330
465
100
AcDbEntity
  8
0
  6
ByBlock
 62
     0
100
AcDbPolyline
 90
        2
 70
     1
 43
0.5
 10
-0.25
 20
0.0
 42
1.0
 10
0.25
 20
0.0
 42
1.0
  0
LINE
  5
469
330
465
100
AcDbEntity
  8
0
  6
ByBlock
 62
     0
370
    -2
100
AcDbLine
 10
-0.5
 20
0.0
 30
0.0
 11
-1.0
 21
0.0
 31
0.0
  0
ENDBLK
  5
467
330
465
100
AcDbEntity
  8
0
100
AcDbBlockEnd
  0
ENDSEC
  0
SECTION
  2
ENTITIES
  0
LINE
  5
139
330
1F
100
AcDbEntity
  8
FORMAT
  6
Continuous
 62
     7
370
    18
100
AcDbLine
 10
255.3923879518
 20
35.6464717326
 30
0.0
 11
180.9851741751
 21
35.6464717326
 31
0.0
  0
LINE
  5
13A
330
1F
100
AcDbEntity
  8
FORMAT
  6
Continuous
 62
     7
370
    18
100
AcDbLine
 10
255.3923879518
 20
48.7420674192
 30
0.0
 11
286.9438597858
 21
48.7420674192
 31
0.0
  0
LINE
  5
13B
330
1F
100
AcDbEntity
  8
FORMAT
  6
Continuous
 62
     7
370
    18
100
AcDbLine
 10
241.7100609089
 20
35.6464717326
 30
0.0
 11
241.7100609089
 21
25.9765524102
 31
0.0
  0
LINE
  5
13C
330
1F
100
AcDbEntity
  8
FORMAT
100
AcDbLine
 10
286.9438597858
 20
200.0
 30
0.0
 11
9.9438597858
 21
200.0
 31
0.0
  0
LINE
  5
13D
330
1F
100
AcDbEntity
  8
FORMAT
100
AcDbLine
 10
9.9438597858
 20
200.0
 30
0.0
 11
9.9438597858
 21
10.0
 31
0.0
  0
LINE
  5
13E
330
1F
100
AcDbEntity
  8
BEMASSUNG
  6
Continuous
 62
     7
370
    18
100
AcDbLine
 10
255.3923879518
 20
40.5638075942
 30
0.0
 11
286.9438597858
 21
40.5638075942
 31
0.0
  0
LINE
  5
13F
330
1F
100
AcDbEntity
  8
FORMAT
 62
     7
370
    18
100
AcDbLine
 10
180.9851741751
 20
52.6404959572
 30
0.0
 11
180.9851741751
 21
10.0
 31
0.0
  0
LINE
  5
140
330
1F
100
AcDbEntity
  8
FORMAT
 62
     7
100
AcDbLine
 10
272.1993193029
 20
10.0
 30
0.0
 11
272.1993193029
 21
19.3470401503
 31
0.0
  0
LINE
  5
141
330
1F
100
AcDbEntity
  8
FORMAT
 62
     7
100
AcDbLine
 10
180.9851741751
 20
25.9765524102
 30
0.0
 11
286.9438597858
 21
25.9765524102
 31
0.0
  0
LINE
  5
142
330
1F
100
AcDbEntity
  8
FORMAT
100
AcDbLine
 10
9.9438597858
 20
10.0
 30
0.0
 11
286.9438597858
 21
10.0
 31
0.0
  0
LINE
  5
143
330
1F
100
AcDbEntity
  8
FORMAT
 62
     7
100
AcDbLine
 10
255.3923879518
 20
19.3470401503
 30
0.0
 11
286.9438597858
 21
19.3470401503
 31
0.0
  0
LINE
  5
144
330
1F
100
AcDbEntity
  8
FORMAT
 62
     7
100
AcDbLine
 10
180.9851741751
 20
52.6404959572
 30
0.0
 11
286.9572416722
 21
52.6404959572
 31
0.0
  0
LINE
  5
145
330
1F
100
AcDbEntity
  8
FORMAT
 62
     7
100
AcDbLine
 10
255.3923879518
 20
10.0
 30
0.0
 11
255.3923879518
 21
52.6404959572
 31
0.0
  0
LINE
  5
146
330
1F
100
AcDbEntity
  8
FORMAT
100
AcDbLine
 10
286.9438597858
 20
10.0
 30
0.0
 11
286.9438597858
 21
200.0
 31
0.0
  0
INSERT
  5
147
330
1F
100
AcDbEntity
  8
FORMAT
100
AcDbBlockReference
  2
Block1_2
 10
262.8019335354
 20
27.0956685316
 30
0.0
  0
INSERT
  5
148
330
1F
100
AcDbEntity
  8
FORMAT
100
AcDbBlockReference
  2
Block2_2
 10
-49.4796720125
 20
-37.2714257085
 30
0.0
  0
MTEXT
  5
149
330
1F
100
AcDbEntity
  8
BEMASSUNG
 62
     7
100
AcDbMText
 10
256.196469587
 20
47.9363931555
 30
0.0
 40
2.0
 41
0.0
 71
     1
 72
     1
  1
Ausführung:
  7
SLDTEXTSTYLE0
 73
     1
 44
1.0
  0
MTEXT
  5
14A
330
1F
100
AcDbEntity
  8
FORMAT
100
AcDbMText
 10
244.8335352583
 20
34.4345411691
 30
0.0
 40
2.0
 41
0.0
 71
     1
 72
     1
  1
Index:
  7
SLDTEXTSTYLE0
 73
     1
 44
1.0
  0
MTEXT
  5
14C
330
1F
100
AcDbEntity
  8
FORMAT
100
AcDbMText
 10
257.9461905645
 20
51.6009600552
 30
0.0
 40
1.8
 41
0.0
 71
     1
 72
     1
  1
KATALOGZEICHNUNG
  7
SLDTEXTSTYLE3
 73
     1
 44
1.0
  0
MTEXT
  5
14D
330
1F
100
AcDbEntity
  8
FORMAT
100
AcDbMText
 10
182.9061937187
 20
34.8216251945
 30
0.0
 40
2.0
 41
0.0
 71
     1
 72
     1
  1
Zeichnungsnummer:
  7
SLDTEXTSTYLE0
 73
     1
 44
1.0
  0
MTEXT
  5
14E
330
1F
100
AcDbEntity
  8
FORMAT
100
AcDbMText
 10
265.9344367942
 20
14.2806067945
 30
0.0
 40
2.1166666667
 41
0.0
 71
     1
 72
     1
  1
3
  7
SLDTEXTSTYLE0
 73
     1
 44
1.0
  0
MTEXT
  5
14F
330
1F
100
AcDbEntity
  8
FORMAT
100
AcDbMText
 10
259.8619150727
 20
14.2806067945
 30
0.0
 40
2.1166666667
 41
0.0
 71
     1
 72
     1
  1
2
  7
SLDTEXTSTYLE0
 73
     1
 44
1.0
  0
MTEXT
  5
150
330
1F
100
AcDbEntity
  8
FORMAT
100
AcDbMText
 10
277.535567047
 20
14.1724992936
 30
0.0
 40
2.1166666667
 41
0.0
 71
     1
 72
     1
  1
A4
  7
SLDTEXTSTYLE0
 73
     1
 44
1.0
  0
MTEXT
  5
151
330
1F
100
AcDbEntity
  8
FORMAT
100
AcDbMText
 10
270.2136096579
 20
23.7012230636
 30
0.0
 40
2.1166666667
 41
0.0
 71
     1
 72
     1
  1
1:1
  7
SLDTEXTSTYLE0
 73
     1
 44
1.0
  0
MTEXT
  5
152
330
1F
100
AcDbEntity
  8
FORMAT
100
AcDbMText
 10
185.855694094
 20
31.2946896474
 30
0.0
 40
3.175
 41
0.0
 71
     1
 72
     1
  1
D042-25907
  7
SLDTEXTSTYLE3
 73
     1
 44
1.0
  0
MTEXT
  5
153
330
1F
100
AcDbEntity
  8
FORMAT
100
AcDbMText
 10
263.6389415355
 20
14.3853488894
 30
0.0
 40
2.5
 41
0.0
 71
     2
 72
     1
  1
/
  7
SLDTEXTSTYLE0
 73
     1
 44
1.0
  0
MTEXT
  5
154
330
1F
100
AcDbEntity
  8
FORMAT
100
AcDbMText
 10
257.6429342273
 20
17.8898077508
 30
0.0
 40
2.0
 41
0.0
 71
     1
 72
     1
  1
Blatt / von
  7
SLDTEXTSTYLE0
 73
     1
 44
1.0
  0
MTEXT
  5
155
330
1F
100
AcDbEntity
  8
FORMAT
100
AcDbMText
 10
182.596993557
 20
51.3045969115
 30
0.0
 40
2.0
 41
0.0
 71
     1
 72
     1
  1
Benennung:
  7
SLDTEXTSTYLE0
 73
     1
 44
1.0
  0
MTEXT
  5
156
330
1F
100
AcDbEntity
  8
FORMAT
100
AcDbMText
 10
274.992897395
 20
17.8898077508
 30
0.0
 40
2.0
 41
0.0
 71
     1
 72
     1
  1
Format
  7
SLDTEXTSTYLE0
 73
     1
 44
1.0
  0
MTEXT
  5
157
330
1F
100
AcDbEntity
  8
FORMAT
100
AcDbMText
 10
256.3213642251
 20
23.5727761737
 30
0.0
 40
2.0
 41
0.0
 71
     1
 72
     1
  1
Maßstab:
  7
SLDTEXTSTYLE0
 73
     1
 44
1.0
  0
MTEXT
  5
158
330
1F
100
AcDbEntity
  8
FORMAT
100
AcDbMText
 10
247.5724191773
 20
29.9687085165
 30
0.0
 40
2.5
 41
0.0
 71
     1
 72
     1
  1
b
  7
SLDTEXTSTYLE3
 73
     1
 44
1.0
  0
MTEXT
  5
159
330
1F
100
AcDbEntity
  8
FORMAT
100
AcDbMText
 10
182.8009845203
 20
40.0864163817
 30
0.0
 40
2.5
 41
0.0
 71
     1
 72
     1
  1
Lasergeschweißte Objektbänder
  7
SLDTEXTSTYLE3
 73
     1
 44
1.0
  0
MTEXT
  5
15A
330
1F
100
AcDbEntity
  8
FORMAT
100
AcDbMText
 10
182.8290795751
 20
43.5216266319
 30
0.0
 40
2.5
 41
0.0
 71
     1
 72
     1
  1
OBX-18-1532/160-LG-TZ
  7
SLDTEXTSTYLE3
 73
     1
 44
1.0
  0
MTEXT
  5
15B
330
1F
100
AcDbEntity
  8
FORMAT
100
AcDbMText
 10
182.8205662367
 20
47.7853851366
 30
0.0
 40
3.5
 41
0.0
 71
     1
 72
     1
  1
Zusammenbau
  7
SLDTEXTSTYLE3
 73
     1
 44
1.0
  0
INSERT
  5
166
330
1F
100
AcDbEntity
  8
FORMAT
100
AcDbBlockReference
  2
SW_NOTE_0_9
 10
13.3538297872
 20
34.2427660478
 30
0.0
  0
LINE
  5
167
330
1F
100
AcDbEntity
  8
0
  6
PHANTOM
 62
     7
370
    18
100
AcDbLine
 10
183.299040316
 20
151.7410045804
 30
0.0
 11
238.299040316
 21
151.7410045804
 31
0.0
  0
LINE
  5
168
330
1F
100
AcDbEntity
  8
0
  6
PHANTOM
 62
     7
370
    18
100
AcDbLine
 10
238.299040316
 20
163.7410045804
 30
0.0
 11
183.299040316
 21
163.7410045804
 31
0.0
  0
LINE
  5
169
330
1F
100
AcDbEntity
  8
0
  6
PHANTOM
 62
     7
370
    18
100
AcDbLine
 10
183.299040316
 20
163.7410045804
 30
0.0
 11
178.299040316
 21
160.8542532345
 31
0.0
  0
LINE
  5
16A
330
1F
100
AcDbEntity
  8
0
  6
PHANTOM
 62
     7
370
    18
100
AcDbLine
 10
178.299040316
 20
154.6277559264
 30
0.0
 11
183.299040316
 21
151.7410045804
 31
0.0
  0
LINE
  5
16B
330
1F
100
AcDbEntity
  8
0
  6
Continuous
 62
     7
370
    25
100
AcDbLine
 10
241.299040316
 20
152.0710045804
 30
0.0
 11
241.519040316
 21
152.0710045804
 31
0.0
  0
LINE
  5
16C
330
1F
100
AcDbEntity
  8
0
  6
PHANTOM
 62
     7
370
    18
100
AcDbLine
 10
183.299040316
 20
151.7410045804
 30
0.0
 11
183.299040316
 21
163.7410045804
 31
0.0
  0
LINE
  5
16D
330
1F
100
AcDbEntity
  8
0
  6
CENTER
 62
     7
370
    25
100
AcDbLine
 10
238.299040316
 20
157.9701110839
 30
0.0
 11
238.299040316
 21
163.7410045804
 31
0.0
  0
LINE
  5
16E
330
1F
100
AcDbEntity
  8
0
  6
PHANTOM
 62
     7
370
    18
100
AcDbLine
 10
178.299040316
 20
154.6277559264
 30
0.0
 11
178.299040316
 21
160.8542532345
 31
0.0
  0
LINE
  5
16F
330
1F
100
AcDbEntity
  8
0
  6
Continuous
 62
     7
370
    25
100
AcDbLine
 10
248.799040316
 20
154.7410045804
 30
0.0
 11
248.799040316
 21
149.7410045804
 31
0.0
  0
LINE
  5
170
330
1F
100
AcDbEntity
  8
0
  6
Continuous
 62
     7
370
    25
100
AcDbLine
 10
248.799040316
 20
149.7410045804
 30
0.0
 11
246.799040316
 21
149.7410045804
 31
0.0
  0
LINE
  5
171
330
1F
100
AcDbEntity
  8
0
  6
Continuous
 62
     7
370
    25
100
AcDbLine
 10
246.799040316
 20
154.7410045804
 30
0.0
 11
246.799040316
 21
149.7410045804
 31
0.0
  0
LINE
  5
172
330
1F
100
AcDbEntity
  8
0
  6
Continuous
 62
     7
370
    25
100
AcDbLine
 10
248.799040316
 20
160.7410045804
 30
0.0
 11
248.799040316
 21
154.7410045804
 31
0.0
  0
LINE
  5
173
330
1F
100
AcDbEntity
  8
0
  6
Continuous
 62
     7
370
    25
100
AcDbLine
 10
246.799040316
 20
160.7410045804
 30
0.0
 11
246.799040316
 21
154.7410045804
 31
0.0
  0
LINE
  5
174
330
1F
100
AcDbEntity
  8
0
  6
Continuous
 62
     7
370
    25
100
AcDbLine
 10
248.799040316
 20
172.7410045804
 30
0.0
 11
246.799040316
 21
172.7410045804
 31
0.0
  0
LINE
  5
175
330
1F
100
AcDbEntity
  8
0
  6
Continuous
 62
     7
370
    25
100
AcDbLine
 10
246.799040316
 20
172.7410045804
 30
0.0
 11
246.799040316
 21
160.7410045804
 31
0.0
  0
LINE
  5
176
330
1F
100
AcDbEntity
  8
0
  6
Continuous
 62
     7
370
    25
100
AcDbLine
 10
248.799040316
 20
172.7410045804
 30
0.0
 11
248.799040316
 21
160.7410045804
 31
0.0
  0
LINE
  5
177
330
1F
100
AcDbEntity
  8
0
  6
Continuous
 62
     7
370
    25
100
AcDbLine
 10
241.299040316
 20
156.7410045804
 30
0.0
 11
241.299040316
 21
160.7410045804
 31
0.0
  0
LINE
  5
178
330
1F
100
AcDbEntity
  8
0
  6
Continuous
 62
     7
370
    25
100
AcDbLine
 10
246.799040316
 20
156.7410045804
 30
0.0
 11
246.799040316
 21
160.7410045804
 31
0.0
  0
LINE
  5
179
330
1F
100
AcDbEntity
  8
0
  6
Continuous
 62
     7
370
    25
100
AcDbLine
 10
241.299040316
 20
156.7410045804
 30
0.0
 11
246.799040316
 21
156.7410045804
 31
0.0
  0
LINE
  5
17A
330
1F
100
AcDbEntity
  8
0
  6
Continuous
 62
     7
370
    25
100
AcDbLine
 10
241.299040316
 20
160.7410045804
 30
0.0
 11
241.299040316
 21
170.3410045804
 31
0.0
  0
LINE
  5
17B
330
1F
100
AcDbEntity
  8
0
  6
Continuous
 62
     7
370
    25
100
AcDbLine
 10
241.299040316
 20
170.3410045804
 30
0.0
 11
244.799040316
 21
170.3410045804
 31
0.0
  0
LINE
  5
17C
330
1F
100
AcDbEntity
  8
0
  6
Continuous
 62
     7
370
    25
100
AcDbLine
 10
244.799040316
 20
170.3410045804
 30
0.0
 11
244.799040316
 21
172.7410045804
 31
0.0
  0
LINE
  5
17D
330
1F
100
AcDbEntity
  8
0
  6
Continuous
 62
     7
370
    25
100
AcDbLine
 10
244.799040316
 20
172.7410045804
 30
0.0
 11
246.799040316
 21
172.7410045804
 31
0.0
  0
LINE
  5
17E
330
1F
100
AcDbEntity
  8
0
  6
Continuous
 62
     7
370
    25
100
AcDbLine
 10
241.299040316
 20
170.7410045804
 30
0.0
 11
244.799040316
 21
170.7410045804
 31
0.0
  0
LINE
  5
17F
330
1F
100
AcDbEntity
  8
0
  6
Continuous
 62
     7
370
    25
100
AcDbLine
 10
241.299040316
 20
172.7410045804
 30
0.0
 11
244.799040316
 21
172.7410045804
 31
0.0
  0
LINE
  5
180
330
1F
100
AcDbEntity
  8
0
  6
Continuous
 62
     7
370
    25
100
AcDbLine
 10
241.299040316
 20
170.7410045804
 30
0.0
 11
241.299040316
 21
172.7410045804
 31
0.0
  0
LINE
  5
181
330
1F
100
AcDbEntity
  8
0
  6
Continuous
 62
     7
370
    25
100
AcDbLine
 10
241.299040316
 20
170.7410045804
 30
0.0
 11
241.299040316
 21
170.3410045804
 31
0.0
  0
CIRCLE
  5
182
330
1F
100
AcDbEntity
  8
0
  6
Continuous
 62
     7
370
    25
100
AcDbCircle
 10
272.799040316
 20
135.2410045804
 30
0.0
 40
8.8
  0
CIRCLE
  5
183
330
1F
100
AcDbEntity
  8
0
  6
Continuous
 62
     7
370
    25
100
AcDbCircle
 10
272.799040316
 20
135.2410045804
 30
0.0
 40
8.999999999999986
  0
ARC
  5
184
330
1F
100
AcDbEntity
  8
0
  6
Continuous
 62
     7
370
    25
100
AcDbCircle
 10
266.299040316
 20
145.4331901658
 30
0.0
 40
0.5000000000000059
100
AcDbArc
 50
180.0
 51
222.0506415119
  0
LINE
  5
185
330
1F
100
AcDbEntity
  8
0
  6
Continuous
 62
     7
370
    25
100
AcDbLine
 10
267.8847853556
 20
142.9286634038
 30
0.0
 11
265.9277637577
 21
145.098296575
 31
0.0
  0
LINE
  5
186
330
1F
100
AcDbEntity
  8
0
  6
Continuous
 62
     7
370
    25
100
AcDbLine
 10
266.3508858824
 20
141.5450772575
 30
0.0
 11
267.8847853556
 21
142.9286634038
 31
0.0
  0
LINE
  5
187
330
1F
100
AcDbEntity
  8
0
  6
Continuous
 62
     7
370
    25
100
AcDbLine
 10
262.799040316
 20
145.5693610343
 30
0.0
 11
262.799040316
 21
162.3964918208
 31
0.0
  0
LINE
  5
188
330
1F
100
AcDbEntity
  8
0
  6
Continuous
 62
     7
370
    25
100
AcDbLine
 10
262.799040316
 20
162.3964918208
 30
0.0
 11
265.799040316
 21
162.3964918208
 31
0.0
  0
LINE
  5
189
330
1F
100
AcDbEntity
  8
0
  6
Continuous
 62
     7
370
    25
100
AcDbLine
 10
265.799040316
 20
145.4331901658
 30
0.0
 11
265.799040316
 21
162.3964918208
 31
0.0
  0
LINE
  5
18A
330
1F
100
AcDbEntity
  8
0
  6
Continuous
 62
     7
370
    25
100
AcDbLine
 10
262.799040316
 20
174.2410045804
 30
0.0
 11
265.799040316
 21
174.2410045804
 31
0.0
  0
LINE
  5
18B
330
1F
100
AcDbEntity
  8
0
  6
Continuous
 62
     7
370
    25
100
AcDbLine
 10
262.799040316
 20
173.7410045804
 30
0.0
 11
262.799040316
 21
174.2410045804
 31
0.0
  0
LINE
  5
18C
330
1F
100
AcDbEntity
  8
0
  6
Continuous
 62
     7
370
    25
100
AcDbLine
 10
265.799040316
 20
174.2410045804
 30
0.0
 11
265.799040316
 21
173.7410045804
 31
0.0
  0
LINE
  5
18D
330
1F
100
AcDbEntity
  8
0
  6
Continuous
 62
     7
370
    25
100
AcDbLine
 10
262.799040316
 20
173.7410045804
 30
0.0
 11
262.799040316
 21
162.3964918208
 31
0.0
  0
LINE
  5
18E
330
1F
100
AcDbEntity
  8
0
  6
Continuous
 62
     7
370
    25
100
AcDbLine
 10
265.799040316
 20
173.7410045804
 30
0.0
 11
265.799040316
 21
162.3964918208
 31
0.0
  0
LINE
  5
18F
330
1F
100
AcDbEntity
  8
0
  6
Continuous
 62
     7
370
    25
100
AcDbLine
 10
241.519040316
 20
156.7410045804
 30
0.0
 11
241.519040316
 21
152.0710045804
 31
0.0
  0
LINE
  5
190
330
1F
100
AcDbEntity
  8
0
  6
Continuous
 62
     7
370
    25
100
AcDbLine
 10
241.299040316
 20
155.3842392939
 30
0.0
 11
241.299040316
 21
158.1931362108
 31
0.0
  0
LINE
  5
191
330
1F
100
AcDbEntity
  8
0
  6
Continuous
 62
     7
370
    25
100
AcDbLine
 10
238.299040316
 20
155.3842392939
 30
0.0
 11
238.2990403003
 21
157.9701110777
 31
0.0
  0
ARC
  5
192
330
1F
100
AcDbEntity
  8
0
  6
Continuous
 62
     7
370
    18
100
AcDbCircle
 10
240.0484045048
 20
154.7273263799
 30
0.0
 40
3.684552580205011
100
AcDbArc
 50
70.1580458457
 51
118.3452446823
  0
LINE
  5
193
330
1F
100
AcDbEntity
  8
0
  6
Continuous
 62
     7
370
    25
100
AcDbLine
 10
238.299040316
 20
145.7420045804
 30
0.0
 11
241.299040316
 21
145.7420045804
 31
0.0
  0
LINE
  5
194
330
1F
100
AcDbEntity
  8
0
  6
Continuous
 62
     7
370
    25
100
AcDbLine
 10
241.299040316
 20
155.3842392939
 30
0.0
 11
241.299040316
 21
145.7420045804
 31
0.0
  0
LINE
  5
195
330
1F
100
AcDbEntity
  8
0
  6
Continuous
 62
     7
370
    25
100
AcDbLine
 10
238.299040316
 20
145.7420045804
 30
0.0
 11
238.299040316
 21
155.3842392939
 31
0.0
  0
LINE
  5
196
330
1F
100
AcDbEntity
  8
0
  6
Continuous
 62
     7
370
    25
100
AcDbLine
 10
261.7993216954
 20
145.7410045804
 30
0.0
 11
261.7993216954
 21
142.7407620773
 31
0.0
  0
ARC
  5
197
330
1F
100
AcDbEntity
  8
0
  6
Continuous
 62
     7
370
    25
100
AcDbCircle
 10
261.7986688566
 20
142.7400045804
 30
0.0
 40
3.001000071009413
100
AcDbArc
 50
49.2440225849
 51
89.9875358526
  0
LINE
  5
198
330
1F
100
AcDbEntity
  8
0
  6
Continuous
 62
     7
370
    25
100
AcDbLine
 10
261.7993216954
 20
142.7407620773
 30
0.0
 11
265.002310216
 21
139.9803083001
 31
0.0
  0
LINE
  5
199
330
1F
100
AcDbEntity
  8
0
  6
Continuous
 62
     7
370
    25
100
AcDbLine
 10
263.7578380423
 20
145.0132527195
 30
0.0
 11
266.960826563
 21
142.2527989423
 31
0.0
  0
LINE
  5
19A
330
1F
100
AcDbEntity
  8
0
  6
Continuous
 62
     7
370
    25
100
AcDbLine
 10
265.002310216
 20
139.9803083001
 30
0.0
 11
266.960826563
 21
142.2527989423
 31
0.0
  0
LINE
  5
19B
330
1F
100
AcDbEntity
  8
0
  6
Continuous
 62
     7
370
    25
100
AcDbLine
 10
261.7993216954
 20
145.2407620773
 30
0.0
 11
238.3411964619
 21
145.2407620773
 31
0.0
  0
ARC
  5
19C
330
1F
100
AcDbEntity
  8
0
  6
Continuous
 62
     7
370
    25
100
AcDbCircle
 10
241.300040316
 20
145.7420045804
 30
0.0
 40
3.001000000000009
100
AcDbArc
 50
180.0
 51
189.6149003472
  0
ARC
  5
19D
330
1F
100
AcDbEntity
  8
0
  6
Continuous
 62
     7
370
    25
100
AcDbCircle
 10
241.300040316
 20
145.7420045804
 30
0.0
 40
0.0010000000000048
100
AcDbArc
 50
179.9999999992
 51
270.0
  0
LINE
  5
19E
330
1F
100
AcDbEntity
  8
0
  6
Continuous
 62
     7
370
    25
100
AcDbLine
 10
261.7986688566
 20
145.7410045804
 30
0.0
 11
241.300040316
 21
145.7410045804
 31
0.0
  0
LINE
  5
19F
330
1F
100
AcDbEntity
  8
0
  6
Continuous
 62
     7
370
    25
100
AcDbLine
 10
261.7993216954
 20
145.7410045804
 30
0.0
 11
261.7986688566
 21
145.7410045804
 31
0.0
  0
LINE
  5
1A0
330
1F
100
AcDbEntity
  8
0
  6
Continuous
 62
     7
370
    25
100
AcDbLine
 10
241.300040316
 20
142.7410045804
 30
0.0
 11
261.7986688566
 21
142.7410045804
 31
0.0
  0
ARC
  5
1A1
330
1F
100
AcDbEntity
  8
0
  6
Continuous
 62
     7
370
    25
100
AcDbCircle
 10
241.300040316
 20
145.7420045804
 30
0.0
 40
3.001000000000009
100
AcDbArc
 50
189.6149003472
 51
270.0
  0
LINE
  5
1A2
330
1F
100
AcDbEntity
  8
0
  6
Continuous
 62
     7
370
    25
100
AcDbLine
 10
261.7986688566
 20
142.7410045804
 30
0.0
 11
261.7993216954
 21
142.7407620773
 31
0.0
  0
LINE
  5
1A3
330
1F
100
AcDbEntity
  8
0
  6
Continuous
 62
     7
370
    25
100
AcDbLine
 10
238.299040316
 20
172.7410045804
 30
0.0
 11
241.299040316
 21
172.7410045804
 31
0.0
  0
LINE
  5
1A4
330
1F
100
AcDbEntity
  8
0
  6
Continuous
 62
     7
370
    25
100
AcDbLine
 10
241.299040316
 20
171.2410045804
 30
0.0
 11
239.049040316
 21
168.9910045804
 31
0.0
  0
LINE
  5
1A5
330
1F
100
AcDbEntity
  8
0
  6
Continuous
 62
     7
370
    25
100
AcDbLine
 10
239.049040316
 20
168.9910045804
 30
0.0
 11
238.299040316
 21
168.9910045804
 31
0.0
  0
LINE
  5
1A6
330
1F
100
AcDbEntity
  8
0
  6
Continuous
 62
     7
370
    25
100
AcDbLine
 10
238.299040316
 20
172.7410045804
 30
0.0
 11
238.299040316
 21
168.9910045804
 31
0.0
  0
LINE
  5
1A7
330
1F
100
AcDbEntity
  8
0
  6
Continuous
 62
     7
370
    25
100
AcDbLine
 10
238.299040316
 20
162.4910045804
 30
0.0
 11
239.049040316
 21
162.4910045804
 31
0.0
  0
LINE
  5
1A8
330
1F
100
AcDbEntity
  8
0
  6
Continuous
 62
     7
370
    25
100
AcDbLine
 10
239.049040316
 20
162.4910045804
 30
0.0
 11
241.299040316
 21
160.2410045804
 31
0.0
  0
LINE
  5
1A9
330
1F
100
AcDbEntity
  8
0
  6
Continuous
 62
     7
370
    25
100
AcDbLine
 10
239.049040316
 20
162.4910045804
 30
0.0
 11
239.049040316
 21
168.9910045804
 31
0.0
  0
LINE
  5
1AA
330
1F
100
AcDbEntity
  8
0
  6
Continuous
 62
     7
370
    25
100
AcDbLine
 10
238.299040316
 20
163.7410045804
 30
0.0
 11
238.299040316
 21
168.9910045804
 31
0.0
  0
LINE
  5
1AB
330
1F
100
AcDbEntity
  8
FORMAT
  6
Continuous
370
    25
100
AcDbLine
 10
282.799040316
 20
123.0763475516
 30
0.0
 11
282.799040316
 21
107.4161738752
 31
0.0
  0
LINE
  5
1AC
330
1F
100
AcDbEntity
  8
FORMAT
  6
Continuous
370
    25
100
AcDbLine
 10
282.799040316
 20
96.2410045804
 30
0.0
 11
282.799040316
 21
107.4161738752
 31
0.0
  0
LINE
  5
1AD
330
1F
100
AcDbEntity
  8
FORMAT
  6
Continuous
370
    25
100
AcDbLine
 10
282.799040316
 20
96.2410045804
 30
0.0
 11
279.799040316
 21
96.2410045804
 31
0.0
  0
LINE
  5
1AE
330
1F
100
AcDbEntity
  8
FORMAT
  6
Continuous
370
    25
100
AcDbLine
 10
279.799040316
 20
96.2410045804
 30
0.0
 11
279.799040316
 21
107.4161738752
 31
0.0
  0
LINE
  5
1AF
330
1F
100
AcDbEntity
  8
FORMAT
  6
Continuous
370
    25
100
AcDbLine
 10
282.799040316
 20
107.4161738752
 30
0.0
 11
279.799040316
 21
107.4161738752
 31
0.0
  0
LINE
  5
1B0
330
1F
100
AcDbEntity
  8
FORMAT
  6
Continuous
370
    25
100
AcDbLine
 10
279.799040316
 20
123.0763475516
 30
0.0
 11
279.799040316
 21
107.4161738752
 31
0.0
  0
LINE
  5
1B1
330
1F
100
AcDbEntity
  8
FORMAT
  6
Continuous
370
    25
100
AcDbLine
 10
276.9402591205
 20
127.110795062
 30
0.0
 11
279.7012028233
 21
123.3734423475
 31
0.0
  0
LINE
  5
1B2
330
1F
100
AcDbEntity
  8
FORMAT
  6
Continuous
370
    25
100
AcDbLine
 10
279.3532341641
 20
128.8933638374
 30
0.0
 11
282.1141778669
 21
125.1560111229
 31
0.0
  0
ARC
  5
1B3
330
1F
100
AcDbEntity
  8
FORMAT
  6
Continuous
370
    25
100
AcDbCircle
 10
279.299040316
 20
123.0763475516
 30
0.0
 40
3.5
100
AcDbArc
 50
0.0
 51
36.4548814762
  0
ARC
  5
1B4
330
1F
100
AcDbEntity
  8
FORMAT
  6
Continuous
370
    25
100
AcDbCircle
 10
279.299040316
 20
123.0763475516
 30
0.0
 40
0.5000000000000069
100
AcDbArc
 50
0.0
 51
36.4548814762
  0
HATCH
  5
1B5
330
1F
100
AcDbEntity
  8
0
  6
Continuous
 62
     7
370
    18
100
AcDbHatch
 10
0.0
 20
0.0
 30
0.0
210
0.0
220
0.0
230
1.0
  2
ANSI31
 70
     0
 71
     0
 91
        1
 92
        0
 93
        4
 72
     4
 94
        3
 73
     1
 74
     0
 95
       11
 96
        7
 40
0.0
 40
0.0
 40
0.0
 40
0.0
 40
0.0015093749706502
 40
0.0015093749706502
 40
0.0015093749706502
 40
0.0043277468950874
 40
0.0043277468950874
 40
0.0043277468950874
 40
0.0043277468950874
 10
241.2990403160255
 20
158.1931362108425
 42
1.0
 10
240.9581989572529
 20
158.313262719977
 42
1.0
 10
240.6120703950732
 20
158.4133507472788
 42
1.0
 10
240.258963454516
 20
158.4296873550967
 42
1.0
 10
239.6075438100618
 20
158.4598254974949
 42
1.0
 10
238.9381000527032
 20
158.2229527506639
 42
1.0
 10
238.2990403160264
 20
157.9701110839424
 42
1.0
 72
     4
 94
        3
 73
     1
 74
     0
 95
       11
 96
        7
 40
0.0
 40
0.0
 40
0.0
 40
0.0
 40
0.0018286861108785
 40
0.0018286861108785
 40
0.0018286861108785
 40
0.004334609829654
 40
0.004334609829654
 40
0.004334609829654
 40
0.004334609829654
 10
238.299040316026
 20
157.9701110839399
 42
1.0
 10
238.7187305672678
 20
158.1361600094795
 42
1.0
 10
239.1464840257349
 20
158.2944729415087
 42
1.0
 10
239.577153520463
 20
158.3762808269453
 42
1.0
 10
240.1567084318665
 20
158.4863702629901
 42
1.0
 10
240.7433346945158
 20
158.3889897206946
 42
1.0
 10
241.2990403160252
 20
158.1931362108427
 42
1.0
 72
     4
 94
        3
 73
     1
 74
     0
 95
       14
 96
       10
 40
0.0
 40
0.0
 40
0.0
 40
0.0
 40
0.0015977583749868
 40
0.0015977583749868
 40
0.0015977583749868
 40
0.0037509919105573
 40
0.0037509919105573
 40
0.0037509919105573
 40
0.0067763934125634
 40
0.0067763934125634
 40
0.0067763934125634
 40
0.0067763934125634
 10
241.2990403160252
 20
158.1931362108427
 42
1.0
 10
241.0800767829279
 20
158.270307962984
 42
1.0
 10
240.8857237608886
 20
158.327525021065
 42
1.0
 10
240.737523386264
 20
158.3616684036873
 42
1.0
 10
240.5398210151681
 20
158.4072163837026
 42
1.0
 10
240.4325463101807
 20
158.4160695655529
 42
1.0
 10
240.4821153911659
 20
158.4092382288186
 42
1.0
 10
240.5513985865771
 20
158.3996900018093
 42
1.0
 10
240.8907666100594
 20
158.3370286517297
 42
1.0
 10
241.2990403160252
 20
158.1931362108426
 42
1.0
 72
     4
 94
        3
 73
     1
 74
     0
 95
       14
 96
       10
 40
0.0
 40
0.0
 40
0.0
 40
0.0
 40
0.0015977583749871
 40
0.0015977583749871
 40
0.0015977583749871
 40
0.0037509919105575
 40
0.0037509919105575
 40
0.0037509919105575
 40
0.0067763934125636
 40
0.0067763934125636
 40
0.0067763934125636
 40
0.0067763934125636
 10
241.2990403160255
 20
158.1931362108426
 42
1.0
 10
241.0800767829281
 20
158.2703079629839
 42
1.0
 10
240.8857237608888
 20
158.3275250210649
 42
1.0
 10
240.7375233862641
 20
158.3616684036872
 42
1.0
 10
240.5398210151683
 20
158.4072163837025
 42
1.0
 10
240.432546310181
 20
158.4160695655529
 42
1.0
 10
240.4821153911661
 20
158.4092382288185
 42
1.0
 10
240.5513985865774
 20
158.3996900018092
 42
1.0
 10
240.8907666100597
 20
158.3370286517296
 42
1.0
 10
241.2990403160255
 20
158.1931362108425
 42
1.0
 97
        0
 75
     0
 76
     1
 52
0.0
 41
0.5
 77
     0
 78
     1
 53
45.0
 43
0.0
 44
0.0
 45
-1.122532015133644
 46
1.122532015133644
 79
     0
 98
        1
 10
0.0
 20
0.0
  0
HATCH
  5
1B6
330
1F
100
AcDbEntity
  8
0
  6
Continuous
 62
     7
370
    18
100
AcDbHatch
 10
0.0
 20
0.0
 30
0.0
210
0.0
220
0.0
230
1.0
  2
ANSI31
 70
     0
 71
     0
 91
        1
 92
        0
 93
        3
 72
     1
 10
238.299040316026
 20
157.9701110839422
 11
238.2990403002738
 21
157.9701110777077
 72
     4
 94
        3
 73
     1
 74
     0
 95
       10
 96
        6
 40
0.4340712843582247
 40
0.4340712843582247
 40
0.4340712843582247
 40
0.4340712843582247
 40
0.4549064037920094
 40
0.4787614399193327
 40
0.4955781186174473
 40
0.4955781186174473
 40
0.4955781186174473
 40
0.4955781186174473
 10
238.2990403002738
 20
157.9701110777077
 42
1.0
 10
238.6408159113161
 20
158.1053333587397
 42
1.0
 10
239.3748951350674
 20
158.3773688307955
 42
1.0
 10
240.34563099263
 20
158.4944910294081
 42
1.0
 10
241.0233650409324
 20
158.2902955126683
 42
1.0
 10
241.2990403160318
 20
158.1931362108403
 42
1.0
 72
     4
 94
        3
 73
     1
 74
     0
 95
       11
 96
        7
 40
0.0
 40
0.0
 40
0.0
 40
0.0
 40
0.0015093749706501
 40
0.0015093749706501
 40
0.0015093749706501
 40
0.0043277468950874
 40
0.0043277468950874
 40
0.0043277468950874
 40
0.0043277468950874
 10
241.2990403160252
 20
158.1931362108427
 42
1.0
 10
240.9581989572525
 20
158.3132627199771
 42
1.0
 10
240.6120703950729
 20
158.4133507472789
 42
1.0
 10
240.2589634545157
 20
158.4296873550967
 42
1.0
 10
239.6075438100614
 20
158.4598254974949
 42
1.0
 10
238.9381000527029
 20
158.2229527506638
 42
1.0
 10
238.299040316026
 20
157.9701110839422
 42
1.0
 97
        0
 75
     0
 76
     1
 52
0.0
 41
0.5
 77
     0
 78
     1
 53
45.0
 43
0.0
 44
0.0
 45
-1.122532015133644
 46
1.122532015133644
 79
     0
 98
        1
 10
0.0
 20
0.0
  0
HATCH
  5
1B7
330
1F
100
AcDbEntity
  8
0
  6
Continuous
 62
     7
370
    18
100
AcDbHatch
 10
0.0
 20
0.0
 30
0.0
210
0.0
220
0.0
230
1.0
  2
ANSI31
 70
     0
 71
     0
 91
        1
 92
        0
 93
        3
 72
     1
 10
238.2990403002744
 20
157.9701110777079
 11
238.2990403160256
 21
157.9701110839423
 72
     4
 94
        3
 73
     1
 74
     0
 95
       11
 96
        7
 40
0.0
 40
0.0
 40
0.0
 40
0.0
 40
0.0018286861108775
 40
0.0018286861108775
 40
0.0018286861108775
 40
0.0043346098296541
 40
0.0043346098296541
 40
0.0043346098296541
 40
0.0043346098296541
 10
238.2990403160263
 20
157.9701110839401
 42
1.0
 10
238.7187305672679
 20
158.1361600094795
 42
1.0
 10
239.1464840257348
 20
158.2944729415086
 42
1.0
 10
239.5771535204627
 20
158.3762808269452
 42
1.0
 10
240.1567084318664
 20
158.4863702629901
 42
1.0
 10
240.743334694516
 20
158.3889897206945
 42
1.0
 10
241.2990403160256
 20
158.1931362108425
 42
1.0
 72
     4
 94
        3
 73
     1
 74
     0
 95
       10
 96
        6
 40
0.5044218813825422
 40
0.5044218813825422
 40
0.5044218813825422
 40
0.5044218813825422
 40
0.5212385600806673
 40
0.5450935962079906
 40
0.5659287156417651
 40
0.5659287156417651
 40
0.5659287156417651
 40
0.5659287156417651
 10
241.2990403160323
 20
158.1931362108402
 42
1.0
 10
241.0233650409328
 20
158.2902955126682
 42
1.0
 10
240.3456309926301
 20
158.4944910294081
 42
1.0
 10
239.3748951350676
 20
158.3773688307955
 42
1.0
 10
238.6408159113165
 20
158.1053333587398
 42
1.0
 10
238.2990403002744
 20
157.9701110777079
 42
1.0
 97
        0
 75
     0
 76
     1
 52
0.0
 41
0.5
 77
     0
 78
     1
 53
45.0
 43
0.0
 44
0.0
 45
-1.122532015133644
 46
1.122532015133644
 79
     0
 98
        1
 10
0.0
 20
0.0
  0
HATCH
  5
1B8
330
1F
100
AcDbEntity
  8
0
  6
Continuous
 62
     7
370
    18
100
AcDbHatch
 10
0.0
 20
0.0
 30
0.0
210
0.0
220
0.0
230
1.0
  2
ANSI31
 70
     0
 71
     0
 91
        1
 92
        0
 93
        5
 72
     1
 10
238.2990403160256
 20
162.4910045804183
 11
238.2990403002744
 21
157.9701110777079
 72
     4
 94
        3
 73
     1
 74
     0
 95
       10
 96
        6
 40
0.4340712843582349
 40
0.4340712843582349
 40
0.4340712843582349
 40
0.4340712843582349
 40
0.4549064037920094
 40
0.4787614399193327
 40
0.495578118617458
 40
0.495578118617458
 40
0.495578118617458
 40
0.495578118617458
 10
238.2990403002744
 20
157.9701110777079
 42
1.0
 10
238.6408159113165
 20
158.1053333587398
 42
1.0
 10
239.3748951350676
 20
158.3773688307955
 42
1.0
 10
240.3456309926302
 20
158.4944910294081
 42
1.0
 10
241.0233650409328
 20
158.2902955126682
 42
1.0
 10
241.2990403160323
 20
158.1931362108401
 42
1.0
 72
     1
 10
241.2990403160323
 20
158.1931362108401
 11
241.2990403160256
 21
160.2410045804183
 72
     1
 10
241.2990403160256
 20
160.2410045804183
 11
239.0490403160256
 21
162.4910045804183
 72
     1
 10
239.0490403160256
 20
162.4910045804183
 11
238.2990403160256
 21
162.4910045804183
 97
        0
 75
     0
 76
     1
 52
0.0
 41
0.5
 77
     0
 78
     1
 53
45.0
 43
0.0
 44
0.0
 45
-1.122532015133644
 46
1.122532015133644
 79
     0
 98
        1
 10
0.0
 20
0.0
  0
HATCH
  5
1B9
330
1F
100
AcDbEntity
  8
0
  6
Continuous
 62
     7
370
    18
100
AcDbHatch
 10
0.0
 20
0.0
 30
0.0
210
0.0
220
0.0
230
1.0
  2
ANSI31
 70
     0
 71
     0
 91
        1
 92
        0
 93
        5
 72
     1
 10
238.2990403160255
 20
172.7410045804183
 11
238.2990403160255
 21
168.9910045804183
 72
     1
 10
238.2990403160255
 20
168.9910045804183
 11
239.0490403160255
 21
168.9910045804183
 72
     1
 10
239.0490403160255
 20
168.9910045804183
 11
241.2990403160255
 21
171.2410045804183
 72
     1
 10
241.2990403160255
 20
171.2410045804183
 11
241.2990403160255
 21
172.7410045804183
 72
     1
 10
241.2990403160255
 20
172.7410045804183
 11
238.2990403160255
 21
172.7410045804183
 97
        0
 75
     0
 76
     1
 52
0.0
 41
0.5
 77
     0
 78
     1
 53
45.0
 43
0.0
 44
0.0
 45
-1.122532015133644
 46
1.122532015133644
 79
     0
 98
        1
 10
0.0
 20
0.0
  0
HATCH
  5
1BA
330
1F
100
AcDbEntity
  8
0
  6
Continuous
 62
     7
370
    18
100
AcDbHatch
 10
0.0
 20
0.0
 30
0.0
210
0.0
220
0.0
230
1.0
  2
ANSI31
 70
     0
 71
     0
 91
        1
 92
        0
 93
       12
 72
     4
 94
        3
 73
     1
 74
     0
 95
       59
 96
       55
 40
0.0
 40
0.0
 40
0.0
 40
0.0
 40
0.0017541086745812
 40
0.0017541086745812
 40
0.0017541086745812
 40
0.0022998598711223
 40
0.0022998598711223
 40
0.0022998598711223
 40
0.0028450024206726
 40
0.0028450024206726
 40
0.0028450024206726
 40
0.0036565348261969
 40
0.0036565348261969
 40
0.0036565348261969
 40
0.0044928282595476
 40
0.0044928282595476
 40
0.0044928282595476
 40
0.0054384866191041
 40
0.0054384866191041
 40
0.0054384866191041
 40
0.0063692879711865
 40
0.0063692879711865
 40
0.0063692879711865
 40
0.0073048260597861
 40
0.0073048260597861
 40
0.0073048260597861
 40
0.0082731287478337
 40
0.0082731287478337
 40
0.0082731287478337
 40
0.0092566559620043
 40
0.0092566559620043
 40
0.0092566559620043
 40
0.0102344943739706
 40
0.0102344943739706
 40
0.0102344943739706
 40
0.0111809824312271
 40
0.0111809824312271
 40
0.0111809824312271
 40
0.0121086441872655
 40
0.0121086441872655
 40
0.0121086441872655
 40
0.0130563213369729
 40
0.0130563213369729
 40
0.0130563213369729
 40
0.0136203440801492
 40
0.0136203440801492
 40
0.0136203440801492
 40
0.0141882489929375
 40
0.0141882489929375
 40
0.0141882489929375
 40
0.0150927020126937
 40
0.0150927020126937
 40
0.0150927020126937
 40
0.015872993387713
 40
0.015872993387713
 40
0.015872993387713
 40
0.015872993387713
 10
237.6954869254319
 20
157.7284342800965
 42
1.0
 10
237.151692055875
 20
157.5135766512013
 42
1.0
 10
236.5805482290122
 20
157.2928142535759
 42
1.0
 10
235.9958539225545
 20
157.2959476871264
 42
1.0
 10
235.8102029172249
 20
157.2969426088869
 42
1.0
 10
235.6214184555858
 20
157.3246357604016
 42
1.0
 10
235.4463568679225
 20
157.386013688874
 42
1.0
 10
235.2711408637867
 20
157.44744575694
 42
1.0
 10
235.1061225356741
 20
157.5418351011794
 42
1.0
 10
234.9577732389318
 20
157.6536832940663
 42
1.0
 10
234.7377807012894
 20
157.819547024628
 42
1.0
 10
234.5464707400725
 20
158.0278937816801
 42
1.0
 10
234.3837280056808
 20
158.2470708879201
 42
1.0
 10
234.2158708460123
 20
158.4731359510108
 42
1.0
 10
234.073984237498
 20
158.7169940601382
 42
1.0
 10
233.957590292754
 20
158.9541376355585
 42
1.0
 10
233.826429455858
 20
159.2213676008719
 42
1.0
 10
233.7244933059936
 20
159.4871279415056
 42
1.0
 10
233.6495286814335
 20
159.7210503868173
 42
1.0
 10
233.5756987891113
 20
159.9514319708038
 42
1.0
 10
233.5258622192458
 20
160.1571760559778
 42
1.0
 10
233.4932009740808
 20
160.3178290021806
 42
1.0
 10
233.4603567644021
 20
160.4793819075863
 42
1.0
 10
233.4432306613116
 20
160.599810774429
 42
1.0
 10
233.4339286893542
 20
160.6689039229612
 42
1.0
 10
233.4243074287631
 20
160.7403686822764
 42
1.0
 10
233.4224700093987
 20
160.7588859952179
 42
1.0
 10
233.4269386864115
 20
160.7229131324055
 42
1.0
 10
233.4314751055053
 20
160.6863949456467
 42
1.0
 10
233.4427760893829
 20
160.5925764996484
 42
1.0
 10
233.4680774305029
 20
160.449863927127
 42
1.0
 10
233.4932202085069
 20
160.3080457321047
 42
1.0
 10
233.533831941538
 20
160.1136060505069
 42
1.0
 10
233.5991032661637
 20
159.8868581355136
 42
1.0
 10
233.6623197761909
 20
159.6672484995205
 42
1.0
 10
233.7506267141811
 20
159.4112213536964
 42
1.0
 10
233.867387986164
 20
159.1475398514847
 42
1.0
 10
233.981938154408
 20
158.8888516757888
 42
1.0
 10
234.1267973513411
 20
158.6158051804037
 42
1.0
 10
234.3025342339612
 20
158.3606367846032
 42
1.0
 10
234.4816819372334
 20
158.10051590745
 42
1.0
 10
234.6987529251134
 20
157.8497628156257
 42
1.0
 10
234.9543158203633
 20
157.6562953321048
 42
1.0
 10
235.1075770420501
 20
157.5402727661057
 42
1.0
 10
235.2788301015575
 20
157.4427964188484
 42
1.0
 10
235.4607439800898
 20
157.3810499204987
 42
1.0
 10
235.6435691243671
 20
157.3189941138693
 42
1.0
 10
235.8408163384614
 20
157.2935991080964
 42
1.0
 10
236.0340153093956
 20
157.2960937628472
 42
1.0
 10
236.3415269019132
 20
157.3000644633717
 42
1.0
 10
236.647872143861
 20
157.3690260223917
 42
1.0
 10
236.9420350968561
 20
157.4583356567615
 42
1.0
 10
237.1972678251045
 20
157.5358258417322
 42
1.0
 10
237.4473183665797
 20
157.6303809311108
 42
1.0
 10
237.6954869254319
 20
157.7284342800966
 42
1.0
 72
     4
 94
        3
 73
     1
 74
     0
 95
       14
 96
       10
 40
0.0
 40
0.0
 40
0.0
 40
0.0
 40
0.0000235061034276
 40
0.0000235061034276
 40
0.0000235061034276
 40
0.0001165574848861
 40
0.0001165574848861
 40
0.0001165574848861
 40
0.000209920410856
 40
0.000209920410856
 40
0.000209920410856
 40
0.000209920410856
 10
237.6954869254319
 20
157.7284342800966
 42
1.0
 10
237.7027741013249
 20
157.7313135005919
 42
1.0
 10
237.7100652810855
 20
157.7341984258319
 42
1.0
 10
237.7173253880319
 20
157.7370748341477
 42
1.0
 10
237.7457253360207
 20
157.7483267133783
 42
1.0
 10
237.7740997694488
 20
157.7596282892374
 42
1.0
 10
237.8002921531649
 20
157.7700940587646
 42
1.0
 10
237.8265391127549
 20
157.7805816353377
 42
1.0
 10
237.8512997949712
 20
157.7905103927734
 42
1.0
 10
237.8722636207285
 20
157.7989285794228
 42
1.0
 72
     4
 94
        3
 73
     1
 74
     0
 95
        8
 96
        4
 40
0.0
 40
0.0
 40
0.0
 40
0.0
 40
0.0036958345971958
 40
0.0036958345971958
 40
0.0036958345971958
 40
0.0036958345971958
 10
237.8722636207285
 20
157.7989285794228
 42
1.0
 10
238.7131240607048
 20
158.1365826036358
 42
1.0
 10
239.6114633934379
 20
158.5245128220685
 42
1.0
 10
240.4690403160251
 20
158.4110045804184
 42
1.0
 72
     4
 94
        3
 73
     1
 74
     0
 95
        8
 96
        4
 40
0.0
 40
0.0
 40
0.0
 40
0.0
 40
0.001091781126083
 40
0.001091781126083
 40
0.001091781126083
 40
0.001091781126083
 10
240.4690403160251
 20
158.4110045804184
 42
1.0
 10
240.8297768539516
 20
158.3632577613979
 42
1.0
 10
241.1780692007469
 20
158.2400617791718
 42
1.0
 10
241.5190403160252
 20
158.1131291567974
 42
1.0
 72
     1
 10
241.5190403160252
 20
158.1131291567973
 11
241.5190402965289
 21
158.1131291640553
 72
     4
 94
        3
 73
     1
 74
     0
 95
        9
 96
        5
 40
0.4999244151496473
 40
0.4999244151496473
 40
0.4999244151496473
 40
0.4999244151496473
 40
0.5212385600806673
 40
0.5450935962079906
 40
0.5450935962079906
 40
0.5450935962079906
 40
0.5450935962079906
 10
241.5190402965289
 20
158.1131291640553
 42
1.0
 10
241.1736904268006
 20
158.2416918560637
 42
1.0
 10
240.4166125639147
 20
158.5030551693078
 42
1.0
 10
239.7037268457965
 20
158.4170433649482
 42
1.0
 10
239.3190403160256
 20
158.3183548496081
 42
1.0
 72
     4
 94
        3
 73
     1
 74
     0
 95
       29
 96
       25
 40
0.0
 40
0.0
 40
0.0
 40
0.0
 40
0.0014864242526114
 40
0.0014864242526114
 40
0.0014864242526114
 40
0.0020539808460588
 40
0.0020539808460588
 40
0.0020539808460588
 40
0.0021852885177759
 40
0.0021852885177759
 40
0.0021852885177759
 40
0.0022910225311271
 40
0.0022910225311271
 40
0.0022910225311271
 40
0.0025660204841219
 40
0.0025660204841219
 40
0.0025660204841219
 40
0.0028905563364807
 40
0.0028905563364807
 40
0.0028905563364807
 40
0.0034422250134352
 40
0.0034422250134352
 40
0.0034422250134352
 40
0.0044147333774847
 40
0.0044147333774847
 40
0.0044147333774847
 40
0.0044147333774847
 10
239.3190403160252
 20
158.318354849608
 42
1.0
 10
239.0732813178653
 20
158.2553071762872
 42
1.0
 10
238.8255502172125
 20
158.1707889969191
 42
1.0
 10
238.5848979188546
 20
158.0805674687354
 42
1.0
 10
238.4930507503193
 20
158.0461335906418
 42
1.0
 10
238.3935430157229
 20
158.0073837858813
 42
1.0
 10
238.3275205570964
 20
157.9813586993601
 42
1.0
 10
238.31225737838
 20
157.9753421777862
 42
1.0
 10
238.2997759127054
 20
157.9704023411757
 42
1.0
 10
238.2966750127468
 20
157.969175123684
 42
1.0
 10
238.2941778582704
 20
157.968186845541
 42
1.0
 10
238.2982831804546
 20
157.9698132851792
 42
1.0
 10
238.3067253850401
 20
157.9731501954146
 42
1.0
 10
238.3286440895303
 20
157.9818138979604
 42
1.0
 10
238.3715547589885
 20
157.9987183538097
 42
1.0
 10
238.413055167107
 20
158.0148618055246
 42
1.0
 10
238.4621727325471
 20
158.0339682934361
 42
1.0
 10
238.5142720786366
 20
158.0539831540492
 42
1.0
 10
238.5666695477384
 20
158.0737177406871
 42
1.0
 10
238.6557427096169
 20
158.1072655829845
 42
1.0
 10
238.7464268246383
 20
158.1403036856832
 42
1.0
 10
238.8372426330639
 20
158.1716502383414
 42
1.0
 10
238.9973105652452
 20
158.2269002873363
 42
1.0
 10
239.1582651189622
 20
158.2771091488263
 42
1.0
 10
239.3190403160252
 20
158.3183548496079
 42
1.0
 72
     4
 94
        3
 73
     1
 74
     0
 95
        9
 96
        5
 40
0.4549064037920094
 40
0.4549064037920094
 40
0.4549064037920094
 40
0.4549064037920094
 40
0.4787614399193327
 40
0.5000755848503528
 40
0.5000755848503528
 40
0.5000755848503528
 40
0.5000755848503528
 10
239.3190403160256
 20
158.3183548496081
 42
1.0
 10
239.7037268457965
 20
158.4170433649482
 42
1.0
 10
240.4166125639147
 20
158.5030551693078
 42
1.0
 10
241.1736904268007
 20
158.2416918560636
 42
1.0
 10
241.519040296529
 20
158.1131291640552
 42
1.0
 72
     1
 10
241.5190402965289
 20
158.1131291640552
 11
241.5190403160252
 21
158.1131291567973
 72
     4
 94
        3
 73
     1
 74
     0
 95
        8
 96
        4
 40
0.0000000000000001
 40
0.0000000000000001
 40
0.0000000000000001
 40
0.0000000000000001
 40
0.0010917811260829
 40
0.0010917811260829
 40
0.0010917811260829
 40
0.0010917811260829
 10
241.5190403160252
 20
158.1131291567975
 42
1.0
 10
241.178069200747
 20
158.2400617791719
 42
1.0
 10
240.8297768539516
 20
158.3632577613979
 42
1.0
 10
240.4690403160252
 20
158.4110045804184
 42
1.0
 72
     4
 94
        3
 73
     1
 74
     0
 95
       11
 96
        7
 40
0.0
 40
0.0
 40
0.0
 40
0.0
 40
0.0019382242404175
 40
0.0019382242404175
 40
0.0019382242404175
 40
0.0036970466196431
 40
0.0036970466196431
 40
0.0036970466196431
 40
0.0036970466196431
 10
240.4690403160252
 20
158.4110045804184
 42
1.0
 10
240.0192971428208
 20
158.470532251278
 42
1.0
 10
239.5515497487412
 20
158.3935929695353
 42
1.0
 10
239.0985224648983
 20
158.2565362506599
 42
1.0
 10
238.684147244726
 20
158.1311731432146
 42
1.0
 10
238.2756161948472
 20
157.9608979305219
 42
1.0
 10
237.8722636207285
 20
157.7989285794228
 42
1.0
 72
     4
 94
        3
 73
     1
 74
     0
 95
       14
 96
       10
 40
0.0
 40
0.0
 40
0.0
 40
0.0
 40
0.0000137417987943
 40
0.0000137417987943
 40
0.0000137417987943
 40
0.0001122442903339
 40
0.0001122442903339
 40
0.0001122442903339
 40
0.0002104816557098
 40
0.0002104816557098
 40
0.0002104816557098
 40
0.0002104816557098
 10
237.8722636207285
 20
157.7989285794228
 42
1.0
 10
237.8691371455911
 20
157.7976731191091
 42
1.0
 10
237.8659330943112
 20
157.7963868227252
 42
1.0
 10
237.862659088221
 20
157.7950728221106
 42
1.0
 10
237.8395622906635
 20
157.7858030757055
 42
1.0
 10
237.8125125536914
 20
157.7749654994177
 42
1.0
 10
237.7841812994087
 20
157.7636610832259
 42
1.0
 10
237.7558918967887
 20
157.7523733662105
 42
1.0
 10
237.7254959897582
 20
157.7402910973772
 42
1.0
 10
237.6954869254319
 20
157.7284342800965
 42
1.0
 97
        0
 75
     0
 76
     1
 52
90.0
 41
1.0
 77
     0
 78
     1
 53
135.0000000000002
 43
0.0
 44
0.0
 45
-2.245064030267281
 46
-2.245064030267296
 79
     0
 98
        1
 10
0.0
 20
0.0
  0
HATCH
  5
1BB
330
1F
100
AcDbEntity
  8
0
  6
Continuous
 62
     7
370
    18
100
AcDbHatch
 10
0.0
 20
0.0
 30
0.0
210
0.0
220
0.0
230
1.0
  2
ANSI31
 70
     0
 71
     0
 91
        1
 92
        0
 93
        4
 72
     4
 94
        3
 73
     1
 74
     0
 95
        8
 96
        4
 40
0.0
 40
0.0
 40
0.0
 40
0.0
 40
0.0029246131311731
 40
0.0029246131311731
 40
0.0029246131311731
 40
0.0029246131311731
 10
238.2990403160265
 20
157.9701110839402
 42
1.0
 10
237.6293619091078
 20
157.7051552514021
 42
1.0
 10
236.9734700322729
 20
157.3985611923051
 42
1.0
 10
236.2990403160259
 20
157.3148321960306
 42
1.0
 72
     4
 94
        3
 73
     1
 74
     0
 95
       53
 96
       49
 40
0.0
 40
0.0
 40
0.0
 40
0.0
 40
0.0003166798851335
 40
0.0003166798851335
 40
0.0003166798851335
 40
0.0009236720458565
 40
0.0009236720458565
 40
0.0009236720458565
 40
0.0015239001065431
 40
0.0015239001065431
 40
0.0015239001065431
 40
0.002377515902746
 40
0.002377515902746
 40
0.002377515902746
 40
0.0031939429945934
 40
0.0031939429945934
 40
0.0031939429945934
 40
0.004007945912607
 40
0.004007945912607
 40
0.004007945912607
 40
0.0048343912732574
 40
0.0048343912732574
 40
0.0048343912732574
 40
0.0056638974916591
 40
0.0056638974916591
 40
0.0056638974916591
 40
0.0064838814560959
 40
0.0064838814560959
 40
0.0064838814560959
 40
0.00729567623535
 40
0.00729567623535
 40
0.00729567623535
 40
0.0081303613277958
 40
0.0081303613277958
 40
0.0081303613277958
 40
0.0090003630179599
 40
0.0090003630179599
 40
0.0090003630179599
 40
0.0097694023606074
 40
0.0097694023606074
 40
0.0097694023606074
 40
0.010516186322742
 40
0.010516186322742
 40
0.010516186322742
 40
0.0111445471991043
 40
0.0111445471991043
 40
0.0111445471991043
 40
0.0117632493188095
 40
0.0117632493188095
 40
0.0117632493188095
 40
0.0117632493188095
 10
236.299040316026
 20
157.3148321960307
 42
1.0
 10
236.1943083380696
 20
157.3018299466029
 42
1.0
 10
236.0884874201093
 20
157.2948243030334
 42
1.0
 10
235.9829349001747
 20
157.296057707512
 42
1.0
 10
235.7831553239292
 20
157.2983921759286
 42
1.0
 10
235.5796901903567
 20
157.3327159640676
 42
1.0
 10
235.3938817245774
 20
157.405486767748
 42
1.0
 10
235.2093860011978
 20
157.4777434435115
 42
1.0
 10
235.0374200491983
 20
157.5858804128134
 42
1.0
 10
234.8840514273899
 20
157.7117031196448
 42
1.0
 10
234.6668379667953
 20
157.88990375319
 42
1.0
 10
234.478686287076
 20
158.1089075027625
 42
1.0
 10
234.3206412811463
 20
158.334565135891
 42
1.0
 10
234.1693083750239
 20
158.5506391915636
 42
1.0
 10
234.0415221060144
 20
158.7790352683323
 42
1.0
 10
233.9382330437316
 20
158.9939970816831
 42
1.0
 10
233.8353266476554
 20
159.2081625026582
 42
1.0
 10
233.7541155769092
 20
159.4144417253166
 42
1.0
 10
233.6932041480919
 20
159.5901104554398
 42
1.0
 10
233.6313932883106
 20
159.7683731469646
 42
1.0
 10
233.588526475829
 20
159.919948563019
 42
1.0
 10
233.5601640362232
 20
160.0289724628959
 42
1.0
 10
233.5316912262045
 20
160.1384206215114
 42
1.0
 10
233.5166273818559
 20
160.2081866022378
 42
1.0
 10
233.5114439824447
 20
160.2317081723561
 42
1.0
 10
233.5063180227089
 20
160.2549690889445
 42
1.0
 10
233.5105989628015
 20
160.2337193357505
 42
1.0
 10
233.5254531682044
 20
160.169852601997
 42
1.0
 10
233.540160097888
 20
160.1066190908828
 42
1.0
 10
233.5659106537807
 20
159.9998205381357
 42
1.0
 10
233.607031097858
 20
159.8595701995652
 42
1.0
 10
233.6492679577625
 20
159.715512078728
 42
1.0
 10
233.7093226266188
 20
159.5319593453255
 42
1.0
 10
233.7906511966678
 20
159.3294171692033
 42
1.0
 10
233.8753585765672
 20
159.1184603424929
 42
1.0
 10
233.9858423142203
 20
158.8807786843925
 42
1.0
 10
234.1219814216809
 20
158.6463120421913
 42
1.0
 10
234.2428066599022
 20
158.438219831016
 42
1.0
 10
234.3865529564706
 20
158.2275987632977
 42
1.0
 10
234.5524385765291
 20
158.0368067523871
 42
1.0
 10
234.7133767683037
 20
157.8517049863015
 42
1.0
 10
234.8994377188858
 20
157.6803643019335
 42
1.0
 10
235.1082190175604
 20
157.5501292659272
 42
1.0
 10
235.2834926524612
 20
157.4407958711396
 42
1.0
 10
235.4814973263176
 20
157.360021060481
 42
1.0
 10
235.684894681102
 20
157.3234709144567
 42
1.0
 10
235.8863127126549
 20
157.2872764493272
 42
1.0
 10
236.0959101536937
 20
157.2896140240026
 42
1.0
 10
236.299040316026
 20
157.3148321960306
 42
1.0
 72
     4
 94
        3
 73
     1
 74
     0
 95
        8
 96
        4
 40
0.0
 40
0.0
 40
0.0
 40
0.0
 40
0.0029246131311724
 40
0.0029246131311724
 40
0.0029246131311724
 40
0.0029246131311724
 10
236.299040316026
 20
157.3148321960306
 42
1.0
 10
236.9734700322728
 20
157.3985611923051
 42
1.0
 10
237.6293619091075
 20
157.7051552514023
 42
1.0
 10
238.2990403160261
 20
157.9701110839404
 42
1.0
 72
     4
 94
        3
 73
     1
 74
     0
 95
       68
 96
       64
 40
0.0000000000000001
 40
0.0000000000000001
 40
0.0000000000000001
 40
0.0000000000000001
 40
0.0015037677407303
 40
0.0015037677407303
 40
0.0015037677407303
 40
0.0022774284316578
 40
0.0022774284316578
 40
0.0022774284316578
 40
0.0028631793533925
 40
0.0028631793533925
 40
0.0028631793533925
 40
0.0034531139327475
 40
0.0034531139327475
 40
0.0034531139327475
 40
0.004295449685297
 40
0.004295449685297
 40
0.004295449685297
 40
0.0055986400976074
 40
0.0055986400976074
 40
0.0055986400976074
 40
0.0069430908442095
 40
0.0069430908442095
 40
0.0069430908442095
 40
0.0084172970010731
 40
0.0084172970010731
 40
0.0084172970010731
 40
0.0104006940391967
 40
0.0104006940391967
 40
0.0104006940391967
 40
0.0124041049444396
 40
0.0124041049444396
 40
0.0124041049444396
 40
0.0144410748986818
 40
0.0144410748986818
 40
0.0144410748986818
 40
0.0164107141993402
 40
0.0164107141993402
 40
0.0164107141993402
 40
0.0184239676235628
 40
0.0184239676235628
 40
0.0184239676235628
 40
0.0200689920812332
 40
0.0200689920812332
 40
0.0200689920812332
 40
0.0217281666523247
 40
0.0217281666523247
 40
0.0217281666523247
 40
0.0232166140371513
 40
0.0232166140371513
 40
0.0232166140371513
 40
0.023870899592878
 40
0.023870899592878
 40
0.023870899592878
 40
0.0244224555626566
 40
0.0244224555626566
 40
0.0244224555626566
 40
0.024971416715136
 40
0.024971416715136
 40
0.024971416715136
 40
0.0264094618516469
 40
0.0264094618516469
 40
0.0264094618516469
 40
0.0272112895111712
 40
0.0272112895111712
 40
0.0272112895111712
 40
0.0272112895111712
 10
238.2990403160261
 20
157.97011108394
 42
1.0
 10
237.8329854892613
 20
157.7857181822754
 42
1.0
 10
237.3716472574735
 20
157.5840095999201
 42
1.0
 10
236.8906820691438
 20
157.4430102468995
 42
1.0
 10
236.6437542032416
 20
157.3706210799082
 42
1.0
 10
236.3890652317322
 20
157.3142510574741
 42
1.0
 10
236.1321418590456
 20
157.2995634169221
 42
1.0
 10
235.938164290149
 20
157.2884742241511
 42
1.0
 10
235.7392723816376
 20
157.3025760559275
 42
1.0
 10
235.551750648615
 20
157.353327785319
 42
1.0
 10
235.3632176888492
 20
157.4043531976869
 42
1.0
 10
235.1834949009204
 20
157.494593703166
 42
1.0
 10
235.0232139249246
 20
157.6062310718054
 42
1.0
 10
234.7946388250849
 20
157.7654360087858
 42
1.0
 10
234.5962416979998
 20
157.9708311189383
 42
1.0
 10
234.4262538251888
 20
158.1909125272105
 42
1.0
 10
234.1643216387007
 20
158.530033215768
 42
1.0
 10
233.9593094640184
 20
158.9155588978009
 42
1.0
 10
233.8020551403549
 20
159.3012337539316
 42
1.0
 10
233.6397499529229
 20
159.6992961305565
 42
1.0
 10
233.5249835470647
 20
160.109282563449
 42
1.0
 10
233.4596916122744
 20
160.4984705672288
 42
1.0
 10
233.3881516398525
 20
160.9249014755294
 42
1.0
 10
233.3748173145297
 20
161.3354889954003
 42
1.0
 10
233.3939144054173
 20
161.6999749151116
 42
1.0
 10
233.4195151447157
 20
162.1885890743756
 42
1.0
 10
233.4992980104328
 20
162.6097208481936
 42
1.0
 10
233.5718660490853
 20
162.9337140323778
 42
1.0
 10
233.6451451099949
 20
163.2608817045234
 42
1.0
 10
233.7131305099338
 20
163.498282659746
 42
1.0
 10
233.7494357637821
 20
163.6260850873476
 42
1.0
 10
233.7863081212929
 20
163.7558838437749
 42
1.0
 10
233.7923165589501
 20
163.775493315184
 42
1.0
 10
233.7656928405552
 20
163.682948628493
 42
1.0
 10
233.7399126976848
 20
163.5933362306525
 42
1.0
 10
233.6823798092676
 20
163.3967862738908
 42
1.0
 10
233.6129581988384
 20
163.109956549009
 42
1.0
 10
233.5420067842402
 20
162.81680612217
 42
1.0
 10
233.4560136797128
 20
162.4215679908606
 42
1.0
 10
233.4123081622165
 20
161.9521117578211
 42
1.0
 10
233.3765352964787
 20
161.5678629087897
 42
1.0
 10
233.3714414477598
 20
161.122998579
 42
1.0
 10
233.4359922476557
 20
160.6537411969709
 42
1.0
 10
233.5008926168529
 20
160.1819425919768
 42
1.0
 10
233.639511092628
 20
159.6725042903608
 42
1.0
 10
233.8504036758111
 20
159.186293287594
 42
1.0
 10
234.039766195042
 20
158.7497196586306
 42
1.0
 10
234.2924523051121
 20
158.3128311872701
 42
1.0
 10
234.6251722431483
 20
157.9559995537045
 42
1.0
 10
234.7734469928856
 20
157.796979563867
 42
1.0
 10
234.9409753246924
 20
157.6516966814449
 42
1.0
 10
235.1267765981483
 20
157.5386983527291
 42
1.0
 10
235.2830670163187
 20
157.4436475722954
 42
1.0
 10
235.4566212318286
 20
157.371082539346
 42
1.0
 10
235.6355745581319
 20
157.3331266802506
 42
1.0
 10
235.8142984036045
 20
157.2952194938581
 42
1.0
 10
236.0007432166749
 20
157.2886961804693
 42
1.0
 10
236.182896380867
 20
157.3030128055955
 42
1.0
 10
236.6560944324184
 20
157.3402045784894
 42
1.0
 10
237.1147290505731
 20
157.503428680731
 42
1.0
 10
237.5574980846984
 20
157.6744813617332
 42
1.0
 10
237.8057198403164
 20
157.7703755944123
 42
1.0
 10
238.0516244880395
 20
157.8722219090614
 42
1.0
 10
238.2990403160267
 20
157.9701110839403
 42
1.0
 97
        0
 75
     0
 76
     1
 52
90.0
 41
1.0
 77
     0
 78
     1
 53
135.0000000000002
 43
0.0
 44
0.0
 45
-2.245064030267281
 46
-2.245064030267296
 79
     0
 98
        1
 10
0.0
 20
0.0
  0
HATCH
  5
1BC
330
1F
100
AcDbEntity
  8
0
  6
Continuous
 62
     7
370
    18
100
AcDbHatch
 10
0.0
 20
0.0
 30
0.0
210
0.0
220
0.0
230
1.0
  2
ANSI31
 70
     0
 71
     0
 91
        1
 92
        0
 93
       12
 72
     4
 94
        3
 73
     1
 74
     0
 95
       59
 96
       55
 40
0.0
 40
0.0
 40
0.0
 40
0.0
 40
0.0017541086745812
 40
0.0017541086745812
 40
0.0017541086745812
 40
0.0022998598711224
 40
0.0022998598711224
 40
0.0022998598711224
 40
0.0028450024206728
 40
0.0028450024206728
 40
0.0028450024206728
 40
0.003656534826197
 40
0.003656534826197
 40
0.003656534826197
 40
0.0044928282595476
 40
0.0044928282595476
 40
0.0044928282595476
 40
0.0054384866191042
 40
0.0054384866191042
 40
0.0054384866191042
 40
0.0063692879711866
 40
0.0063692879711866
 40
0.0063692879711866
 40
0.0073048260597862
 40
0.0073048260597862
 40
0.0073048260597862
 40
0.0082731287478339
 40
0.0082731287478339
 40
0.0082731287478339
 40
0.0092566559620044
 40
0.0092566559620044
 40
0.0092566559620044
 40
0.0102344943739708
 40
0.0102344943739708
 40
0.0102344943739708
 40
0.0111809824312274
 40
0.0111809824312274
 40
0.0111809824312274
 40
0.0121086441872658
 40
0.0121086441872658
 40
0.0121086441872658
 40
0.0130563213369732
 40
0.0130563213369732
 40
0.0130563213369732
 40
0.0136203440801495
 40
0.0136203440801495
 40
0.0136203440801495
 40
0.014188248992938
 40
0.014188248992938
 40
0.014188248992938
 40
0.0150927020126938
 40
0.0150927020126938
 40
0.0150927020126938
 40
0.0158729933877142
 40
0.0158729933877142
 40
0.0158729933877142
 40
0.0158729933877142
 10
237.6954869254322
 20
157.7284342800966
 42
1.0
 10
237.1516920558754
 20
157.5135766512014
 42
1.0
 10
236.5805482290126
 20
157.292814253576
 42
1.0
 10
235.9958539225548
 20
157.2959476871264
 42
1.0
 10
235.8102029172253
 20
157.2969426088869
 42
1.0
 10
235.6214184555861
 20
157.3246357604015
 42
1.0
 10
235.4463568679228
 20
157.3860136888739
 42
1.0
 10
235.271140863787
 20
157.4474457569398
 42
1.0
 10
235.1061225356743
 20
157.5418351011792
 42
1.0
 10
234.957773238932
 20
157.6536832940661
 42
1.0
 10
234.7377807012896
 20
157.8195470246278
 42
1.0
 10
234.5464707400727
 20
158.0278937816799
 42
1.0
 10
234.383728005681
 20
158.2470708879198
 42
1.0
 10
234.2158708460125
 20
158.4731359510105
 42
1.0
 10
234.0739842374982
 20
158.7169940601378
 42
1.0
 10
233.9575902927542
 20
158.9541376355581
 42
1.0
 10
233.8264294558582
 20
159.2213676008715
 42
1.0
 10
233.7244933059937
 20
159.4871279415052
 42
1.0
 10
233.6495286814336
 20
159.721050386817
 42
1.0
 10
233.5756987891114
 20
159.9514319708035
 42
1.0
 10
233.5258622192459
 20
160.1571760559775
 42
1.0
 10
233.4932009740808
 20
160.3178290021804
 42
1.0
 10
233.4603567644022
 20
160.4793819075861
 42
1.0
 10
233.4432306613116
 20
160.5998107744289
 42
1.0
 10
233.4339286893542
 20
160.6689039229611
 42
1.0
 10
233.4243074287631
 20
160.7403686822763
 42
1.0
 10
233.4224700093987
 20
160.7588859952179
 42
1.0
 10
233.4269386864115
 20
160.7229131324056
 42
1.0
 10
233.4314751055053
 20
160.6863949456468
 42
1.0
 10
233.4427760893828
 20
160.5925764996486
 42
1.0
 10
233.4680774305029
 20
160.4498639271273
 42
1.0
 10
233.4932202085069
 20
160.3080457321049
 42
1.0
 10
233.5338319415379
 20
160.1136060505073
 42
1.0
 10
233.5991032661636
 20
159.8868581355139
 42
1.0
 10
233.6623197761908
 20
159.6672484995208
 42
1.0
 10
233.750626714181
 20
159.4112213536968
 42
1.0
 10
233.8673879861638
 20
159.1475398514851
 42
1.0
 10
233.9819381544078
 20
158.8888516757892
 42
1.0
 10
234.1267973513409
 20
158.6158051804041
 42
1.0
 10
234.302534233961
 20
158.3606367846035
 42
1.0
 10
234.4816819372331
 20
158.1005159074504
 42
1.0
 10
234.698752925113
 20
157.8497628156261
 42
1.0
 10
234.954315820363
 20
157.6562953321051
 42
1.0
 10
235.1075770420497
 20
157.5402727661059
 42
1.0
 10
235.2788301015571
 20
157.4427964188486
 42
1.0
 10
235.4607439800894
 20
157.3810499204988
 42
1.0
 10
235.6435691243666
 20
157.3189941138693
 42
1.0
 10
235.8408163384611
 20
157.2935991080964
 42
1.0
 10
236.0340153093952
 20
157.2960937628472
 42
1.0
 10
236.3415269019127
 20
157.3000644633717
 42
1.0
 10
236.6478721438605
 20
157.3690260223915
 42
1.0
 10
236.9420350968554
 20
157.4583356567613
 42
1.0
 10
237.1972678251042
 20
157.535825841732
 42
1.0
 10
237.4473183665797
 20
157.6303809311108
 42
1.0
 10
237.6954869254322
 20
157.7284342800967
 42
1.0
 72
     4
 94
        3
 73
     1
 74
     0
 95
       14
 96
       10
 40
0.0
 40
0.0
 40
0.0
 40
0.0
 40
0.0000235061034276
 40
0.0000235061034276
 40
0.0000235061034276
 40
0.0001165574848861
 40
0.0001165574848861
 40
0.0001165574848861
 40
0.000209920410856
 40
0.000209920410856
 40
0.000209920410856
 40
0.000209920410856
 10
237.6954869254322
 20
157.7284342800967
 42
1.0
 10
237.7027741013253
 20
157.7313135005921
 42
1.0
 10
237.7100652810859
 20
157.7341984258321
 42
1.0
 10
237.7173253880323
 20
157.7370748341478
 42
1.0
 10
237.7457253360211
 20
157.7483267133784
 42
1.0
 10
237.7740997694491
 20
157.7596282892376
 42
1.0
 10
237.8002921531653
 20
157.7700940587647
 42
1.0
 10
237.8265391127553
 20
157.7805816353379
 42
1.0
 10
237.8512997949715
 20
157.7905103927735
 42
1.0
 10
237.8722636207289
 20
157.7989285794229
 42
1.0
 72
     4
 94
        3
 73
     1
 74
     0
 95
        8
 96
        4
 40
0.0
 40
0.0
 40
0.0
 40
0.0
 40
0.0036958345971958
 40
0.0036958345971958
 40
0.0036958345971958
 40
0.0036958345971958
 10
237.8722636207289
 20
157.7989285794229
 42
1.0
 10
238.7131240607052
 20
158.1365826036359
 42
1.0
 10
239.6114633934383
 20
158.5245128220686
 42
1.0
 10
240.4690403160255
 20
158.4110045804184
 42
1.0
 72
     4
 94
        3
 73
     1
 74
     0
 95
        8
 96
        4
 40
0.0
 40
0.0
 40
0.0
 40
0.0
 40
0.001091781126083
 40
0.001091781126083
 40
0.001091781126083
 40
0.001091781126083
 10
240.4690403160255
 20
158.4110045804184
 42
1.0
 10
240.829776853952
 20
158.3632577613978
 42
1.0
 10
241.1780692007473
 20
158.2400617791717
 42
1.0
 10
241.5190403160255
 20
158.1131291567973
 42
1.0
 72
     1
 10
241.5190403160255
 20
158.1131291567972
 11
241.5190402965292
 21
158.1131291640551
 72
     4
 94
        3
 73
     1
 74
     0
 95
        9
 96
        5
 40
0.4999244151496403
 40
0.4999244151496403
 40
0.4999244151496403
 40
0.4999244151496403
 40
0.5212385600806673
 40
0.5450935962079906
 40
0.5450935962079906
 40
0.5450935962079906
 40
0.5450935962079906
 10
241.5190402965292
 20
158.1131291640551
 42
1.0
 10
241.1736904268008
 20
158.2416918560636
 42
1.0
 10
240.4166125639148
 20
158.5030551693078
 42
1.0
 10
239.7037268457965
 20
158.4170433649482
 42
1.0
 10
239.3190403160256
 20
158.3183548496081
 42
1.0
 72
     4
 94
        3
 73
     1
 74
     0
 95
       29
 96
       25
 40
0.0
 40
0.0
 40
0.0
 40
0.0
 40
0.0014864242526114
 40
0.0014864242526114
 40
0.0014864242526114
 40
0.0020539808460588
 40
0.0020539808460588
 40
0.0020539808460588
 40
0.0021852885177759
 40
0.0021852885177759
 40
0.0021852885177759
 40
0.0022910225311272
 40
0.0022910225311272
 40
0.0022910225311272
 40
0.0025660204841217
 40
0.0025660204841217
 40
0.0025660204841217
 40
0.0028905563364806
 40
0.0028905563364806
 40
0.0028905563364806
 40
0.003442225013435
 40
0.003442225013435
 40
0.003442225013435
 40
0.0044147333774845
 40
0.0044147333774845
 40
0.0044147333774845
 40
0.0044147333774845
 10
239.3190403160255
 20
158.3183548496081
 42
1.0
 10
239.0732813178657
 20
158.2553071762873
 42
1.0
 10
238.8255502172128
 20
158.1707889969192
 42
1.0
 10
238.584897918855
 20
158.0805674687355
 42
1.0
 10
238.4930507503197
 20
158.0461335906419
 42
1.0
 10
238.3935430157232
 20
158.0073837858815
 42
1.0
 10
238.3275205570968
 20
157.9813586993602
 42
1.0
 10
238.3122573783804
 20
157.9753421777864
 42
1.0
 10
238.2997759127059
 20
157.9704023411759
 42
1.0
 10
238.2966750127472
 20
157.9691751236842
 42
1.0
 10
238.2941778582708
 20
157.9681868455412
 42
1.0
 10
238.2982831804551
 20
157.9698132851794
 42
1.0
 10
238.3067253850406
 20
157.9731501954148
 42
1.0
 10
238.3286440895307
 20
157.9818138979605
 42
1.0
 10
238.3715547589889
 20
157.9987183538098
 42
1.0
 10
238.4130551671073
 20
158.0148618055247
 42
1.0
 10
238.4621727325475
 20
158.0339682934362
 42
1.0
 10
238.514272078637
 20
158.0539831540493
 42
1.0
 10
238.5666695477388
 20
158.0737177406873
 42
1.0
 10
238.6557427096173
 20
158.1072655829846
 42
1.0
 10
238.7464268246387
 20
158.1403036856833
 42
1.0
 10
238.8372426330643
 20
158.1716502383416
 42
1.0
 10
238.9973105652455
 20
158.2269002873364
 42
1.0
 10
239.1582651189626
 20
158.2771091488264
 42
1.0
 10
239.3190403160255
 20
158.318354849608
 42
1.0
 72
     4
 94
        3
 73
     1
 74
     0
 95
        9
 96
        5
 40
0.4549064037920094
 40
0.4549064037920094
 40
0.4549064037920094
 40
0.4549064037920094
 40
0.4787614399193327
 40
0.5000755848503603
 40
0.5000755848503603
 40
0.5000755848503603
 40
0.5000755848503603
 10
239.3190403160256
 20
158.3183548496081
 42
1.0
 10
239.7037268457965
 20
158.4170433649482
 42
1.0
 10
240.4166125639148
 20
158.5030551693078
 42
1.0
 10
241.173690426801
 20
158.2416918560635
 42
1.0
 10
241.5190402965294
 20
158.113129164055
 42
1.0
 72
     1
 10
241.5190402965292
 20
158.1131291640551
 11
241.5190403160255
 21
158.1131291567972
 72
     4
 94
        3
 73
     1
 74
     0
 95
        8
 96
        4
 40
0.0000000000000001
 40
0.0000000000000001
 40
0.0000000000000001
 40
0.0000000000000001
 40
0.001091781126083
 40
0.001091781126083
 40
0.001091781126083
 40
0.001091781126083
 10
241.5190403160255
 20
158.1131291567974
 42
1.0
 10
241.1780692007473
 20
158.2400617791718
 42
1.0
 10
240.829776853952
 20
158.3632577613978
 42
1.0
 10
240.4690403160255
 20
158.4110045804183
 42
1.0
 72
     4
 94
        3
 73
     1
 74
     0
 95
       11
 96
        7
 40
0.0
 40
0.0
 40
0.0
 40
0.0
 40
0.0019382242404172
 40
0.0019382242404172
 40
0.0019382242404172
 40
0.0036970466196431
 40
0.0036970466196431
 40
0.0036970466196431
 40
0.0036970466196431
 10
240.4690403160255
 20
158.4110045804183
 42
1.0
 10
240.0192971428213
 20
158.470532251278
 42
1.0
 10
239.5515497487417
 20
158.3935929695354
 42
1.0
 10
239.0985224648988
 20
158.25653625066
 42
1.0
 10
238.6841472447265
 20
158.1311731432148
 42
1.0
 10
238.2756161948476
 20
157.960897930522
 42
1.0
 10
237.8722636207289
 20
157.7989285794229
 42
1.0
 72
     4
 94
        3
 73
     1
 74
     0
 95
       14
 96
       10
 40
0.0
 40
0.0
 40
0.0
 40
0.0
 40
0.0000137417987943
 40
0.0000137417987943
 40
0.0000137417987943
 40
0.0001122442903339
 40
0.0001122442903339
 40
0.0001122442903339
 40
0.0002104816557098
 40
0.0002104816557098
 40
0.0002104816557098
 40
0.0002104816557098
 10
237.8722636207289
 20
157.7989285794229
 42
1.0
 10
237.8691371455914
 20
157.7976731191092
 42
1.0
 10
237.8659330943116
 20
157.7963868227253
 42
1.0
 10
237.8626590882213
 20
157.7950728221107
 42
1.0
 10
237.8395622906638
 20
157.7858030757056
 42
1.0
 10
237.8125125536918
 20
157.7749654994178
 42
1.0
 10
237.7841812994091
 20
157.763661083226
 42
1.0
 10
237.755891896789
 20
157.7523733662106
 42
1.0
 10
237.7254959897585
 20
157.7402910973773
 42
1.0
 10
237.6954869254323
 20
157.7284342800966
 42
1.0
 97
        0
 75
     0
 76
     1
 52
0.0
 41
1.0
 77
     0
 78
     1
 53
45.0
 43
0.0
 44
0.0
 45
-2.245064030267288
 46
2.245064030267288
 79
     0
 98
        1
 10
0.0
 20
0.0
  0
DIMENSION
  5
1BD
330
1F
100
AcDbEntity
  8
FORMAT
100
AcDbDimension
  2
_D
 10
248.799040316
 20
186.4888745416
 30
0.0
 11
243.549040316
 21
186.4888745416
 31
0.0
 70
   160
  1
<>
 71
     2
 42
-1.0
  3
SLDDIMSTYLE0
100
AcDbAlignedDimension
 13
238.299040316
 23
172.7410045804
 33
0.0
 14
248.799040316
 24
172.7410045804
 34
0.0
100
AcDbRotatedDimension
  0
DIMENSION
  5
1CB
330
1F
100
AcDbEntity
  8
FORMAT
100
AcDbDimension
  2
_D_1
 10
232.3217457932
 20
168.9910045804
 30
0.0
 11
232.3217457932
 21
178.705487353
 31
0.0
 70
   160
  1
%%c<>
 71
     2
 42
-1.0
  3
SLDDIMSTYLE0
100
AcDbAlignedDimension
 13
238.299040316
 23
162.4910045804
 33
0.0
 14
238.299040316
 24
168.9910045804
 34
0.0
 50
90.0
100
AcDbRotatedDimension
  0
DIMENSION
  5
1D8
330
1F
100
AcDbEntity
  8
FORMAT
100
AcDbDimension
  2
_D_2
 10
255.2855300068
 20
160.2410045804
 30
0.0
 11
255.2855300068
 21
165.7410045804
 31
0.0
 70
   160
  1
%%c<>
 71
     2
 42
-1.0
  3
SLDDIMSTYLE0
100
AcDbAlignedDimension
 13
241.299040316
 23
171.2410045804
 33
0.0
 14
241.299040316
 24
160.2410045804
 34
0.0
 50
90.0
100
AcDbRotatedDimension
  0
DIMENSION
  5
1E5
330
1F
100
AcDbEntity
  8
FORMAT
100
AcDbDimension
  2
_D_3
 10
239.049040316
 20
168.9910045804
 30
0.0
 11
261.3559497103
 21
165.7410045804
 31
0.0
 70
   162
  1
<>
 71
     1
 42
-1.0
  3
SLDDIMSTYLE1
100
AcDb2LineAngularDimension
 13
239.049040316
 23
162.4910045804
 33
0.0
 14
241.299040316
 24
160.2410045804
 34
0.0
 15
241.299040316
 25
171.2410045804
 35
0.0
 16
261.3559497103
 26
165.7410045804
 36
0.0
  0
DIMENSION
  5
1F0
330
1F
100
AcDbEntity
  8
FORMAT
100
AcDbDimension
  2
_D_4
 10
225.3620361722
 20
172.7410045804
 30
0.0
 11
225.3620361722
 21
154.8958432986
 31
0.0
 70
   160
  1
<>
 71
     2
 42
-1.0
  3
SLDDIMSTYLE2
100
AcDbAlignedDimension
 13
241.300040316
 23
142.7410045804
 33
0.0
 14
238.299040316
 24
172.7410045804
 34
0.0
 50
90.0
100
AcDbRotatedDimension
  0
INSERT
  5
207
330
1F
100
AcDbEntity
  8
FORMAT
100
AcDbBlockReference
  2
SW_CENTERMARKSYMBOL_0
 10
272.799040316
 20
135.2410045804
 30
0.0
  0
LINE
  5
208
330
1F
100
AcDbEntity
  8
FORMAT
  6
CENTERX2
370
    18
100
AcDbLine
 10
236.299040316
 20
160.7410045804
 30
0.0
 11
241.299040316
 21
160.7410045804
 31
0.0
  0
LINE
  5
209
330
1F
100
AcDbEntity
  8
FORMAT
  6
CENTERX2
370
    18
100
AcDbLine
 10
236.299040316
 20
155.3842392939
 30
0.0
 11
243.299040316
 21
155.3842392939
 31
0.0
  0
LINE
  5
20A
330
1F
100
AcDbEntity
  8
FORMAT
  6
CENTERX2
370
    18
100
AcDbLine
 10
244.799040316
 20
160.7410045804
 30
0.0
 11
246.799040316
 21
160.7410045804
 31
0.0
  0
LINE
  5
20B
330
1F
100
AcDbEntity
  8
FORMAT
  6
CENTERX2
370
    18
100
AcDbLine
 10
241.299040316
 20
160.7410045804
 30
0.0
 11
244.799040316
 21
160.7410045804
 31
0.0
  0
LINE
  5
20C
330
1F
100
AcDbEntity
  8
FORMAT
  6
CENTERX2
370
    18
100
AcDbLine
 10
239.299040316
 20
163.7410045804
 30
0.0
 11
246.799040316
 21
163.7410045804
 31
0.0
  0
LINE
  5
20D
330
1F
100
AcDbEntity
  8
FORMAT
  6
CENTERX2
370
    18
100
AcDbLine
 10
250.799040316
 20
160.7410045804
 30
0.0
 11
246.799040316
 21
160.7410045804
 31
0.0
  0
LINE
  5
20E
330
1F
100
AcDbEntity
  8
FORMAT
  6
CENTERX2
370
    18
100
AcDbLine
 10
250.799040316
 20
154.7410045804
 30
0.0
 11
244.799040316
 21
154.7410045804
 31
0.0
  0
LINE
  5
20F
330
1F
100
AcDbEntity
  8
FORMAT
  6
CENTERX2
370
    18
100
AcDbLine
 10
236.299040316
 20
165.7410045804
 30
0.0
 11
242.3797356654
 21
165.7410045804
 31
0.0
  0
LINE
  5
210
330
1F
100
AcDbEntity
  8
FORMAT
  6
CENTERX2
370
    18
100
AcDbLine
 10
176.3373988504
 20
157.7410045804
 30
0.0
 11
240.299040316
 21
157.7410045804
 31
0.0
  0
LINE
  5
211
330
1F
100
AcDbEntity
  8
0
  6
Continuous
 62
     7
370
    25
100
AcDbLine
 10
137.3884324043
 20
144.2410045804
 30
0.0
 11
53.3884324043
 21
144.2410045804
 31
0.0
  0
LINE
  5
212
330
1F
100
AcDbEntity
  8
0
  6
Continuous
 62
     7
370
    25
100
AcDbLine
 10
53.3884324043
 20
126.2410045804
 30
0.0
 11
54.0224359892
 21
126.2410045804
 31
0.0
  0
LINE
  5
213
330
1F
100
AcDbEntity
  8
0
  6
Continuous
 62
     7
370
    25
100
AcDbLine
 10
136.7544288193
 20
126.2410045804
 30
0.0
 11
137.3884324043
 21
126.2410045804
 31
0.0
  0
LINE
  5
214
330
1F
100
AcDbEntity
  8
0
  6
Continuous
 62
     7
370
    25
100
AcDbLine
 10
138.3884324043
 20
140.9910045804
 30
0.0
 11
137.3884324043
 21
140.9910045804
 31
0.0
  0
LINE
  5
215
330
1F
100
AcDbEntity
  8
0
  6
Continuous
 62
     7
370
    25
100
AcDbLine
 10
137.3884324043
 20
129.4910045804
 30
0.0
 11
138.3884324043
 21
129.4910045804
 31
0.0
  0
LINE
  5
216
330
1F
100
AcDbEntity
  8
0
  6
Continuous
 62
     7
370
    25
100
AcDbLine
 10
53.3884324043
 20
140.9910045804
 30
0.0
 11
52.3884324043
 21
140.9910045804
 31
0.0
  0
LINE
  5
217
330
1F
100
AcDbEntity
  8
0
  6
Continuous
 62
     7
370
    25
100
AcDbLine
 10
52.3884324043
 20
129.4910045804
 30
0.0
 11
53.3884324043
 21
129.4910045804
 31
0.0
  0
LINE
  5
218
330
1F
100
AcDbEntity
  8
0
  6
Continuous
 62
     7
370
    25
100
AcDbLine
 10
15.5884324043
 20
144.2410045804
 30
0.0
 11
15.3884324043
 21
144.0410045804
 31
0.0
  0
LINE
  5
219
330
1F
100
AcDbEntity
  8
0
  6
Continuous
 62
     7
370
    25
100
AcDbLine
 10
15.3884324043
 20
126.4410045804
 30
0.0
 11
15.5884324043
 21
126.2410045804
 31
0.0
  0
LINE
  5
21A
330
1F
100
AcDbEntity
  8
0
  6
Continuous
 62
     7
370
    25
100
AcDbLine
 10
52.3884324043
 20
144.2410045804
 30
0.0
 11
15.5884324043
 21
144.2410045804
 31
0.0
  0
LINE
  5
21B
330
1F
100
AcDbEntity
  8
0
  6
Continuous
 62
     7
370
    25
100
AcDbLine
 10
15.5884324043
 20
126.2410045804
 30
0.0
 11
52.3884324043
 21
126.2410045804
 31
0.0
  0
LINE
  5
21C
330
1F
100
AcDbEntity
  8
0
  6
Continuous
 62
     7
370
    25
100
AcDbLine
 10
138.3884324043
 20
126.2410045804
 30
0.0
 11
175.1884324043
 21
126.2410045804
 31
0.0
  0
LINE
  5
21D
330
1F
100
AcDbEntity
  8
0
  6
Continuous
 62
     7
370
    25
100
AcDbLine
 10
175.1884324043
 20
144.2410045804
 30
0.0
 11
138.3884324043
 21
144.2410045804
 31
0.0
  0
LINE
  5
21E
330
1F
100
AcDbEntity
  8
0
  6
Continuous
 62
     7
370
    25
100
AcDbLine
 10
175.1884324043
 20
126.2410045804
 30
0.0
 11
175.3884324043
 21
126.4410045804
 31
0.0
  0
LINE
  5
21F
330
1F
100
AcDbEntity
  8
0
  6
Continuous
 62
     7
370
    25
100
AcDbLine
 10
175.3884324043
 20
144.0410045804
 30
0.0
 11
175.1884324043
 21
144.2410045804
 31
0.0
  0
LINE
  5
220
330
1F
100
AcDbEntity
  8
0
  6
Continuous
 62
     7
370
    25
100
AcDbLine
 10
163.3884324043
 20
172.7410045804
 30
0.0
 11
27.3884324043
 21
172.7410045804
 31
0.0
  0
ARC
  5
221
330
1F
100
AcDbEntity
  8
0
  6
Continuous
 62
     7
370
    25
100
AcDbCircle
 10
163.3884324043
 20
160.7410045804
 30
0.0
 40
12.0
100
AcDbArc
 50
0.0
 51
90.0
  0
LINE
  5
222
330
1F
100
AcDbEntity
  8
0
  6
Continuous
 62
     7
370
    25
100
AcDbLine
 10
175.3884324043
 20
154.7410045804
 30
0.0
 11
175.3884324043
 21
160.7410045804
 31
0.0
  0
ARC
  5
223
330
1F
100
AcDbEntity
  8
0
  6
Continuous
 62
     7
370
    25
100
AcDbCircle
 10
163.3884324043
 20
154.7410045804
 30
0.0
 40
11.99999999999998
100
AcDbArc
 50
335.3756816478
 51
0.0
  0
LINE
  5
224
330
1F
100
AcDbEntity
  8
0
  6
Continuous
 62
     7
370
    25
100
AcDbLine
 10
16.4797202896
 20
149.7410045804
 30
0.0
 11
174.2971445189
 21
149.7410045804
 31
0.0
  0
ARC
  5
225
330
1F
100
AcDbEntity
  8
0
  6
Continuous
 62
     7
370
    25
100
AcDbCircle
 10
27.3884324043
 20
154.7410045804
 30
0.0
 40
12.0
100
AcDbArc
 50
180.0
 51
204.6243183522
  0
LINE
  5
226
330
1F
100
AcDbEntity
  8
0
  6
Continuous
 62
     7
370
    25
100
AcDbLine
 10
15.3884324043
 20
160.7410045804
 30
0.0
 11
15.3884324043
 21
154.7410045804
 31
0.0
  0
ARC
  5
227
330
1F
100
AcDbEntity
  8
0
  6
Continuous
 62
     7
370
    25
100
AcDbCircle
 10
27.3884324043
 20
160.7410045804
 30
0.0
 40
12.0
100
AcDbArc
 50
90.0
 51
180.0
  0
CIRCLE
  5
228
330
1F
100
AcDbEntity
  8
0
  6
Continuous
 62
     7
370
    25
100
AcDbCircle
 10
61.3884324043
 20
164.7410045804
 30
0.0
 40
4.25
  0
CIRCLE
  5
229
330
1F
100
AcDbEntity
  8
0
  6
Continuous
 62
     7
370
    25
100
AcDbCircle
 10
129.3884324043
 20
164.7410045804
 30
0.0
 40
4.25
  0
CIRCLE
  5
22A
330
1F
100
AcDbEntity
  8
0
  6
Continuous
 62
     7
370
    25
100
AcDbCircle
 10
61.3884324043
 20
164.7410045804
 30
0.0
 40
2.25
  0
CIRCLE
  5
22B
330
1F
100
AcDbEntity
  8
0
  6
Continuous
 62
     7
370
    25
100
AcDbCircle
 10
129.3884324043
 20
164.7410045804
 30
0.0
 40
2.25
  0
LINE
  5
22C
330
1F
100
AcDbEntity
  8
0
  6
Continuous
 62
     7
370
    25
100
AcDbLine
 10
137.3884324043
 20
144.2410045804
 30
0.0
 11
137.3884324043
 21
126.2410045804
 31
0.0
  0
LINE
  5
22D
330
1F
100
AcDbEntity
  8
0
  6
Continuous
 62
     7
370
    25
100
AcDbLine
 10
53.3884324043
 20
144.2410045804
 30
0.0
 11
53.3884324043
 21
126.2410045804
 31
0.0
  0
LINE
  5
22E
330
1F
100
AcDbEntity
  8
0
  6
Continuous
 62
     7
370
    25
100
AcDbLine
 10
15.3884324043
 20
144.0410045804
 30
0.0
 11
15.3884324043
 21
126.4410045804
 31
0.0
  0
LINE
  5
22F
330
1F
100
AcDbEntity
  8
0
  6
Continuous
 62
     7
370
    25
100
AcDbLine
 10
15.5884324043
 20
144.2410045804
 30
0.0
 11
15.5884324043
 21
126.2410045804
 31
0.0
  0
LINE
  5
230
330
1F
100
AcDbEntity
  8
0
  6
Continuous
 62
     7
370
    25
100
AcDbLine
 10
52.3884324043
 20
144.2410045804
 30
0.0
 11
52.3884324043
 21
126.2410045804
 31
0.0
  0
LINE
  5
231
330
1F
100
AcDbEntity
  8
0
  6
Continuous
 62
     7
370
    25
100
AcDbLine
 10
175.1884324043
 20
135.2410045804
 30
0.0
 11
175.1884324043
 21
144.2410045804
 31
0.0
  0
LINE
  5
232
330
1F
100
AcDbEntity
  8
0
  6
Continuous
 62
     7
370
    25
100
AcDbLine
 10
175.1884324043
 20
126.2410045804
 30
0.0
 11
175.1884324043
 21
135.2410045804
 31
0.0
  0
LINE
  5
233
330
1F
100
AcDbEntity
  8
0
  6
Continuous
 62
     7
370
    25
100
AcDbLine
 10
138.3884324043
 20
135.2410045804
 30
0.0
 11
138.3884324043
 21
144.2410045804
 31
0.0
  0
LINE
  5
234
330
1F
100
AcDbEntity
  8
0
  6
Continuous
 62
     7
370
    25
100
AcDbLine
 10
138.3884324043
 20
126.2410045804
 30
0.0
 11
138.3884324043
 21
135.2410045804
 31
0.0
  0
LINE
  5
235
330
1F
100
AcDbEntity
  8
0
  6
Continuous
 62
     7
370
    25
100
AcDbLine
 10
175.3884324043
 20
135.2410045804
 30
0.0
 11
175.3884324043
 21
144.0410045804
 31
0.0
  0
LINE
  5
236
330
1F
100
AcDbEntity
  8
0
  6
Continuous
 62
     7
370
    25
100
AcDbLine
 10
175.3884324043
 20
126.4410045804
 30
0.0
 11
175.3884324043
 21
135.2410045804
 31
0.0
  0
LINE
  5
237
330
1F
100
AcDbEntity
  8
0
  6
Continuous
 62
     7
370
    25
100
AcDbLine
 10
54.0626671444
 20
127.393074131
 30
0.0
 11
53.9808039512
 21
125.048818995
 31
0.0
  0
LINE
  5
238
330
1F
100
AcDbEntity
  8
0
  6
Continuous
 62
     7
370
    25
100
AcDbLine
 10
136.7960608573
 20
125.048818995
 30
0.0
 11
136.7141976641
 21
127.393074131
 31
0.0
  0
ARC
  5
239
330
1F
100
AcDbEntity
  8
0
  6
Continuous
 62
     7
370
    25
100
AcDbCircle
 10
136.8884324043
 20
96.7410045804
 30
0.0
 40
0.5
100
AcDbArc
 50
270.0
 51
0.0
  0
LINE
  5
23A
330
1F
100
AcDbEntity
  8
0
  6
Continuous
 62
     7
370
    25
100
AcDbLine
 10
128.7788206075
 20
96.2410045804
 30
0.0
 11
136.8884324043
 21
96.2410045804
 31
0.0
  0
ARC
  5
23B
330
1F
100
AcDbEntity
  8
0
  6
Continuous
 62
     7
370
    25
100
AcDbCircle
 10
128.7788206075
 20
96.7410045804
 30
0.0
 40
0.5
100
AcDbArc
 50
194.0362434679
 51
270.0
  0
LINE
  5
23C
330
1F
100
AcDbEntity
  8
0
  6
Continuous
 62
     7
370
    25
100
AcDbLine
 10
127.0437493574
 20
101.6197367679
 30
0.0
 11
128.2937493574
 21
96.6197367679
 31
0.0
  0
ARC
  5
23D
330
1F
100
AcDbEntity
  8
0
  6
Continuous
 62
     7
370
    25
100
AcDbCircle
 10
127.5288206075
 20
101.7410045804
 30
0.0
 40
0.5000000000000233
100
AcDbArc
 50
90.0
 51
194.0362434679
  0
LINE
  5
23E
330
1F
100
AcDbEntity
  8
0
  6
Continuous
 62
     7
370
    25
100
AcDbLine
 10
129.8884324043
 20
102.2410045804
 30
0.0
 11
127.5288206075
 21
102.2410045804
 31
0.0
  0
ARC
  5
23F
330
1F
100
AcDbEntity
  8
0
  6
Continuous
 62
     7
370
    25
100
AcDbCircle
 10
129.8884324043
 20
102.7410045804
 30
0.0
 40
0.5
100
AcDbArc
 50
270.0
 51
0.0
  0
LINE
  5
240
330
1F
100
AcDbEntity
  8
0
  6
Continuous
 62
     7
370
    25
100
AcDbLine
 10
130.3884324043
 20
111.2410045804
 30
0.0
 11
130.3884324043
 21
102.7410045804
 31
0.0
  0
ARC
  5
241
330
1F
100
AcDbEntity
  8
0
  6
Continuous
 62
     7
370
    25
100
AcDbCircle
 10
128.3884324043
 20
111.2410045804
 30
0.0
 40
2.0
100
AcDbArc
 50
0.0
 51
90.0
  0
LINE
  5
242
330
1F
100
AcDbEntity
  8
0
  6
Continuous
 62
     7
370
    25
100
AcDbLine
 10
118.3884324043
 20
113.2410045804
 30
0.0
 11
128.3884324043
 21
113.2410045804
 31
0.0
  0
ARC
  5
243
330
1F
100
AcDbEntity
  8
0
  6
Continuous
 62
     7
370
    25
100
AcDbCircle
 10
118.3884324043
 20
111.2410045804
 30
0.0
 40
2.000000000000028
100
AcDbArc
 50
90.0
 51
180.0
  0
LINE
  5
244
330
1F
100
AcDbEntity
  8
0
  6
Continuous
 62
     7
370
    25
100
AcDbLine
 10
116.3884324043
 20
102.7410045804
 30
0.0
 11
116.3884324043
 21
111.2410045804
 31
0.0
  0
ARC
  5
245
330
1F
100
AcDbEntity
  8
0
  6
Continuous
 62
     7
370
    25
100
AcDbCircle
 10
116.8884324043
 20
102.7410045804
 30
0.0
 40
0.5000000000000284
100
AcDbArc
 50
180.0
 51
270.0
  0
LINE
  5
246
330
1F
100
AcDbEntity
  8
0
  6
Continuous
 62
     7
370
    25
100
AcDbLine
 10
119.2480442011
 20
102.2410045804
 30
0.0
 11
116.8884324043
 21
102.2410045804
 31
0.0
  0
ARC
  5
247
330
1F
100
AcDbEntity
  8
0
  6
Continuous
 62
     7
370
    25
100
AcDbCircle
 10
119.2480442011
 20
101.7410045804
 30
0.0
 40
0.5
100
AcDbArc
 50
345.9637565321
 51
90.0
  0
LINE
  5
248
330
1F
100
AcDbEntity
  8
0
  6
Continuous
 62
     7
370
    25
100
AcDbLine
 10
118.4831154511
 20
96.6197367679
 30
0.0
 11
119.7331154511
 21
101.6197367679
 31
0.0
  0
ARC
  5
249
330
1F
100
AcDbEntity
  8
0
  6
Continuous
 62
     7
370
    25
100
AcDbCircle
 10
117.9980442011
 20
96.7410045804
 30
0.0
 40
0.5
100
AcDbArc
 50
270.0
 51
345.9637565321
  0
LINE
  5
24A
330
1F
100
AcDbEntity
  8
0
  6
Continuous
 62
     7
370
    25
100
AcDbLine
 10
100.7788206075
 20
96.2410045804
 30
0.0
 11
117.9980442011
 21
96.2410045804
 31
0.0
  0
ARC
  5
24B
330
1F
100
AcDbEntity
  8
0
  6
Continuous
 62
     7
370
    25
100
AcDbCircle
 10
100.7788206075
 20
96.7410045804
 30
0.0
 40
0.5
100
AcDbArc
 50
194.0362434679
 51
270.0
  0
LINE
  5
24C
330
1F
100
AcDbEntity
  8
0
  6
Continuous
 62
     7
370
    25
100
AcDbLine
 10
99.0437493574
 20
101.6197367679
 30
0.0
 11
100.2937493574
 21
96.6197367679
 31
0.0
  0
ARC
  5
24D
330
1F
100
AcDbEntity
  8
0
  6
Continuous
 62
     7
370
    25
100
AcDbCircle
 10
99.5288206075
 20
101.7410045804
 30
0.0
 40
0.5
100
AcDbArc
 50
90.0
 51
194.0362434679
  0
LINE
  5
24E
330
1F
100
AcDbEntity
  8
0
  6
Continuous
 62
     7
370
    25
100
AcDbLine
 10
101.8884324043
 20
102.2410045804
 30
0.0
 11
99.5288206075
 21
102.2410045804
 31
0.0
  0
ARC
  5
24F
330
1F
100
AcDbEntity
  8
0
  6
Continuous
 62
     7
370
    25
100
AcDbCircle
 10
101.8884324043
 20
102.7410045804
 30
0.0
 40
0.5
100
AcDbArc
 50
270.0
 51
0.0
  0
LINE
  5
250
330
1F
100
AcDbEntity
  8
0
  6
Continuous
 62
     7
370
    25
100
AcDbLine
 10
102.3884324043
 20
111.2410045804
 30
0.0
 11
102.3884324043
 21
102.7410045804
 31
0.0
  0
ARC
  5
251
330
1F
100
AcDbEntity
  8
0
  6
Continuous
 62
     7
370
    25
100
AcDbCircle
 10
100.3884324043
 20
111.2410045804
 30
0.0
 40
2.0
100
AcDbArc
 50
0.0
 51
90.0
  0
LINE
  5
252
330
1F
100
AcDbEntity
  8
0
  6
Continuous
 62
     7
370
    25
100
AcDbLine
 10
90.3884324043
 20
113.2410045804
 30
0.0
 11
100.3884324043
 21
113.2410045804
 31
0.0
  0
ARC
  5
253
330
1F
100
AcDbEntity
  8
0
  6
Continuous
 62
     7
370
    25
100
AcDbCircle
 10
90.3884324043
 20
111.2410045804
 30
0.0
 40
2.0
100
AcDbArc
 50
90.0
 51
180.0
  0
LINE
  5
254
330
1F
100
AcDbEntity
  8
0
  6
Continuous
 62
     7
370
    25
100
AcDbLine
 10
88.3884324043
 20
102.7410045804
 30
0.0
 11
88.3884324043
 21
111.2410045804
 31
0.0
  0
ARC
  5
255
330
1F
100
AcDbEntity
  8
0
  6
Continuous
 62
     7
370
    25
100
AcDbCircle
 10
88.8884324043
 20
102.7410045804
 30
0.0
 40
0.5
100
AcDbArc
 50
180.0
 51
270.0
  0
LINE
  5
256
330
1F
100
AcDbEntity
  8
0
  6
Continuous
 62
     7
370
    25
100
AcDbLine
 10
91.2480442011
 20
102.2410045804
 30
0.0
 11
88.8884324043
 21
102.2410045804
 31
0.0
  0
ARC
  5
257
330
1F
100
AcDbEntity
  8
0
  6
Continuous
 62
     7
370
    25
100
AcDbCircle
 10
91.2480442011
 20
101.7410045804
 30
0.0
 40
0.5
100
AcDbArc
 50
345.9637565321
 51
90.0
  0
LINE
  5
258
330
1F
100
AcDbEntity
  8
0
  6
Continuous
 62
     7
370
    25
100
AcDbLine
 10
90.4831154511
 20
96.6197367679
 30
0.0
 11
91.7331154511
 21
101.6197367679
 31
0.0
  0
ARC
  5
259
330
1F
100
AcDbEntity
  8
0
  6
Continuous
 62
     7
370
    25
100
AcDbCircle
 10
89.9980442011
 20
96.7410045804
 30
0.0
 40
0.5
100
AcDbArc
 50
270.0
 51
345.9637565321
  0
LINE
  5
25A
330
1F
100
AcDbEntity
  8
0
  6
Continuous
 62
     7
370
    25
100
AcDbLine
 10
72.7788206075
 20
96.2410045804
 30
0.0
 11
89.9980442011
 21
96.2410045804
 31
0.0
  0
ARC
  5
25B
330
1F
100
AcDbEntity
  8
0
  6
Continuous
 62
     7
370
    25
100
AcDbCircle
 10
72.7788206075
 20
96.7410045804
 30
0.0
 40
0.5
100
AcDbArc
 50
194.0362434679
 51
270.0
  0
LINE
  5
25C
330
1F
100
AcDbEntity
  8
0
  6
Continuous
 62
     7
370
    25
100
AcDbLine
 10
71.0437493574
 20
101.6197367679
 30
0.0
 11
72.2937493574
 21
96.6197367679
 31
0.0
  0
ARC
  5
25D
330
1F
100
AcDbEntity
  8
0
  6
Continuous
 62
     7
370
    25
100
AcDbCircle
 10
71.5288206075
 20
101.7410045804
 30
0.0
 40
0.5
100
AcDbArc
 50
90.0
 51
194.0362434679
  0
LINE
  5
25E
330
1F
100
AcDbEntity
  8
0
  6
Continuous
 62
     7
370
    25
100
AcDbLine
 10
73.8884324043
 20
102.2410045804
 30
0.0
 11
71.5288206075
 21
102.2410045804
 31
0.0
  0
ARC
  5
25F
330
1F
100
AcDbEntity
  8
0
  6
Continuous
 62
     7
370
    25
100
AcDbCircle
 10
73.8884324043
 20
102.7410045804
 30
0.0
 40
0.5
100
AcDbArc
 50
270.0
 51
0.0
  0
LINE
  5
260
330
1F
100
AcDbEntity
  8
0
  6
Continuous
 62
     7
370
    25
100
AcDbLine
 10
74.3884324043
 20
111.2410045804
 30
0.0
 11
74.3884324043
 21
102.7410045804
 31
0.0
  0
ARC
  5
261
330
1F
100
AcDbEntity
  8
0
  6
Continuous
 62
     7
370
    25
100
AcDbCircle
 10
72.3884324043
 20
111.2410045804
 30
0.0
 40
2.0
100
AcDbArc
 50
0.0
 51
90.0
  0
LINE
  5
262
330
1F
100
AcDbEntity
  8
0
  6
Continuous
 62
     7
370
    25
100
AcDbLine
 10
62.3884324043
 20
113.2410045804
 30
0.0
 11
72.3884324043
 21
113.2410045804
 31
0.0
  0
ARC
  5
263
330
1F
100
AcDbEntity
  8
0
  6
Continuous
 62
     7
370
    25
100
AcDbCircle
 10
62.3884324043
 20
111.2410045804
 30
0.0
 40
2.0
100
AcDbArc
 50
90.0
 51
180.0
  0
LINE
  5
264
330
1F
100
AcDbEntity
  8
0
  6
Continuous
 62
     7
370
    25
100
AcDbLine
 10
60.3884324043
 20
102.7410045804
 30
0.0
 11
60.3884324043
 21
111.2410045804
 31
0.0
  0
ARC
  5
265
330
1F
100
AcDbEntity
  8
0
  6
Continuous
 62
     7
370
    25
100
AcDbCircle
 10
60.8884324043
 20
102.7410045804
 30
0.0
 40
0.5
100
AcDbArc
 50
180.0
 51
270.0
  0
LINE
  5
266
330
1F
100
AcDbEntity
  8
0
  6
Continuous
 62
     7
370
    25
100
AcDbLine
 10
63.2480442011
 20
102.2410045804
 30
0.0
 11
60.8884324043
 21
102.2410045804
 31
0.0
  0
ARC
  5
267
330
1F
100
AcDbEntity
  8
0
  6
Continuous
 62
     7
370
    25
100
AcDbCircle
 10
63.2480442011
 20
101.7410045804
 30
0.0
 40
0.5000000000000027
100
AcDbArc
 50
345.9637565321
 51
90.0
  0
LINE
  5
268
330
1F
100
AcDbEntity
  8
0
  6
Continuous
 62
     7
370
    25
100
AcDbLine
 10
62.4831154511
 20
96.6197367679
 30
0.0
 11
63.7331154511
 21
101.6197367679
 31
0.0
  0
ARC
  5
269
330
1F
100
AcDbEntity
  8
0
  6
Continuous
 62
     7
370
    25
100
AcDbCircle
 10
61.9980442011
 20
96.7410045804
 30
0.0
 40
0.5
100
AcDbArc
 50
270.0
 51
345.9637565321
  0
LINE
  5
26A
330
1F
100
AcDbEntity
  8
0
  6
Continuous
 62
     7
370
    25
100
AcDbLine
 10
53.8884324043
 20
96.2410045804
 30
0.0
 11
61.9980442011
 21
96.2410045804
 31
0.0
  0
ARC
  5
26B
330
1F
100
AcDbEntity
  8
0
  6
Continuous
 62
     7
370
    25
100
AcDbCircle
 10
53.8884324043
 20
96.7410045804
 30
0.0
 40
0.5
100
AcDbArc
 50
180.0
 51
270.0
  0
LINE
  5
26C
330
1F
100
AcDbEntity
  8
0
  6
Continuous
 62
     7
370
    25
100
AcDbLine
 10
53.3884324043
 20
96.7410045804
 30
0.0
 11
53.3884324043
 21
108.0855173401
 31
0.0
  0
LINE
  5
26D
330
1F
100
AcDbEntity
  8
0
  6
Continuous
 62
     7
370
    25
100
AcDbLine
 10
137.3884324043
 20
96.7410045804
 30
0.0
 11
137.3884324043
 21
108.0855173401
 31
0.0
  0
LINE
  5
26E
330
1F
100
AcDbEntity
  8
0
  6
Continuous
 62
     7
370
    25
100
AcDbLine
 10
53.9808039512
 20
125.048818995
 30
0.0
 11
53.3884324043
 21
108.0855173401
 31
0.0
  0
LINE
  5
26F
330
1F
100
AcDbEntity
  8
0
  6
Continuous
 62
     7
370
    25
100
AcDbLine
 10
137.3884324043
 20
108.0855173401
 30
0.0
 11
136.7960608573
 21
125.048818995
 31
0.0
  0
LINE
  5
270
330
1F
100
AcDbEntity
  8
0
  6
Continuous
 62
     7
370
    25
100
AcDbLine
 10
54.1384324043
 20
129.5627073023
 30
0.0
 11
136.6384324043
 21
129.5627073023
 31
0.0
  0
LINE
  5
271
330
1F
100
AcDbEntity
  8
0
  6
Continuous
 62
     7
370
    25
100
AcDbLine
 10
54.1384324043
 20
129.5627073023
 30
0.0
 11
54.0626671444
 21
127.393074131
 31
0.0
  0
LINE
  5
272
330
1F
100
AcDbEntity
  8
0
  6
Continuous
 62
     7
370
    25
100
AcDbLine
 10
136.7141976641
 20
127.393074131
 30
0.0
 11
136.6384324043
 21
129.5627073023
 31
0.0
  0
LINE
  5
273
330
1F
100
AcDbEntity
  8
0
  6
Continuous
 62
     7
370
    25
100
AcDbLine
 10
17.3884324043
 20
145.0132527195
 30
0.0
 11
17.3884324043
 21
144.2410045804
 31
0.0
  0
LINE
  5
274
330
1F
100
AcDbEntity
  8
0
  6
Continuous
 62
     7
370
    25
100
AcDbLine
 10
51.6384324043
 20
145.0132527195
 30
0.0
 11
51.6384324043
 21
144.2410045804
 31
0.0
  0
LINE
  5
275
330
1F
100
AcDbEntity
  8
0
  6
Continuous
 62
     7
370
    25
100
AcDbLine
 10
139.1384324043
 20
145.0132527195
 30
0.0
 11
139.1384324043
 21
144.2410045804
 31
0.0
  0
LINE
  5
276
330
1F
100
AcDbEntity
  8
0
  6
Continuous
 62
     7
370
    25
100
AcDbLine
 10
173.3884324043
 20
144.2410045804
 30
0.0
 11
173.3884324043
 21
145.0132527195
 31
0.0
  0
LINE
  5
277
330
1F
100
AcDbEntity
  8
0
  6
Continuous
 62
     7
370
    25
100
AcDbLine
 10
20.8884324043
 20
145.7410045804
 30
0.0
 11
51.6384324043
 21
145.7410045804
 31
0.0
  0
LINE
  5
278
330
1F
100
AcDbEntity
  8
0
  6
Continuous
 62
     7
370
    25
100
AcDbLine
 10
20.8884324043
 20
145.7410045804
 30
0.0
 11
17.3884324043
 21
145.7410045804
 31
0.0
  0
LINE
  5
279
330
1F
100
AcDbEntity
  8
0
  6
Continuous
 62
     7
370
    25
100
AcDbLine
 10
17.3884324043
 20
145.7410045804
 30
0.0
 11
17.3884324043
 21
145.0132527195
 31
0.0
  0
LINE
  5
27A
330
1F
100
AcDbEntity
  8
0
  6
Continuous
 62
     7
370
    25
100
AcDbLine
 10
51.6384324043
 20
145.7410045804
 30
0.0
 11
51.6384324043
 21
145.0132527195
 31
0.0
  0
LINE
  5
27B
330
1F
100
AcDbEntity
  8
0
  6
Continuous
 62
     7
370
    25
100
AcDbLine
 10
139.1384324043
 20
145.7410045804
 30
0.0
 11
169.8884324043
 21
145.7410045804
 31
0.0
  0
LINE
  5
27C
330
1F
100
AcDbEntity
  8
0
  6
Continuous
 62
     7
370
    25
100
AcDbLine
 10
169.8884324043
 20
145.7410045804
 30
0.0
 11
173.3884324043
 21
145.7410045804
 31
0.0
  0
LINE
  5
27D
330
1F
100
AcDbEntity
  8
0
  6
Continuous
 62
     7
370
    25
100
AcDbLine
 10
139.1384324043
 20
145.7410045804
 30
0.0
 11
139.1384324043
 21
145.0132527195
 31
0.0
  0
LINE
  5
27E
330
1F
100
AcDbEntity
  8
0
  6
Continuous
 62
     7
370
    25
100
AcDbLine
 10
173.3884324043
 20
145.0132527195
 30
0.0
 11
173.3884324043
 21
145.7410045804
 31
0.0
  0
LINE
  5
27F
330
1F
100
AcDbEntity
  8
0
  6
Continuous
 62
     7
370
    25
100
AcDbLine
 10
138.3884324043
 20
142.7410045804
 30
0.0
 11
137.3884324043
 21
142.7410045804
 31
0.0
  0
LINE
  5
280
330
1F
100
AcDbEntity
  8
0
  6
Continuous
 62
     7
370
    25
100
AcDbLine
 10
53.3884324043
 20
142.7410045804
 30
0.0
 11
52.3884324043
 21
142.7410045804
 31
0.0
  0
LINE
  5
281
330
1F
100
AcDbEntity
  8
0
  6
Continuous
 62
     7
370
    25
100
AcDbLine
 10
51.6384324043
 20
145.7410045804
 30
0.0
 11
139.1384324043
 21
145.7410045804
 31
0.0
  0
LINE
  5
282
330
1F
100
AcDbEntity
  8
0
  6
Continuous
 62
     7
370
    25
100
AcDbLine
 10
20.8884324043
 20
145.7410045804
 30
0.0
 11
20.8884324043
 21
145.7420045804
 31
0.0
  0
LINE
  5
283
330
1F
100
AcDbEntity
  8
0
  6
Continuous
 62
     7
370
    25
100
AcDbLine
 10
169.8884324043
 20
145.7420045804
 30
0.0
 11
169.8884324043
 21
145.7410045804
 31
0.0
  0
LINE
  5
284
330
1F
100
AcDbEntity
  8
0
  6
Continuous
 62
     7
370
    25
100
AcDbLine
 10
20.2450921681
 20
145.7420045804
 30
0.0
 11
20.8884324043
 21
145.7420045804
 31
0.0
  0
ARC
  5
285
330
1F
100
AcDbEntity
  8
0
  6
Continuous
 62
     7
370
    25
100
AcDbCircle
 10
27.3884324043
 20
155.3842392939
 30
0.0
 40
12.00000000000001
100
AcDbArc
 50
208.0517956434
 51
233.4675222017
  0
ARC
  5
286
330
1F
100
AcDbEntity
  8
0
  6
Continuous
 62
     7
370
    25
100
AcDbCircle
 10
163.3884324043
 20
155.3842392939
 30
0.0
 40
12.00000000000002
100
AcDbArc
 50
306.5324777983
 51
331.9482043566
  0
LINE
  5
287
330
1F
100
AcDbEntity
  8
0
  6
Continuous
 62
     7
370
    25
100
AcDbLine
 10
169.8884324043
 20
145.7420045804
 30
0.0
 11
170.5317726405
 21
145.7420045804
 31
0.0
  0
CIRCLE
  5
288
330
1F
100
AcDbEntity
  8
0
  6
Continuous
 62
     7
370
    25
100
AcDbCircle
 10
61.3884324043
 20
164.7410045804
 30
0.0
 40
1.999999999999972
  0
ARC
  5
289
330
1F
100
AcDbEntity
  8
0
  6
Continuous
 62
     7
370
    25
100
AcDbCircle
 10
129.3884324043
 20
153.7410045804
 30
0.0
 40
5.500000000000051
100
AcDbArc
 50
226.6582417728
 51
313.3417582272
  0
ARC
  5
28A
330
1F
100
AcDbEntity
  8
0
  6
Continuous
 62
     7
370
    25
100
AcDbCircle
 10
61.3884324043
 20
153.7410045804
 30
0.0
 40
5.500000000000026
100
AcDbArc
 50
226.6582417728
 51
313.3417582272
  0
CIRCLE
  5
28B
330
1F
100
AcDbEntity
  8
0
  6
Continuous
 62
     7
370
    25
100
AcDbCircle
 10
129.3884324043
 20
164.7410045804
 30
0.0
 40
2.0
  0
CIRCLE
  5
28C
330
1F
100
AcDbEntity
  8
0
  6
HIDDEN
 62
     7
370
    18
100
AcDbCircle
 10
163.3884324043
 20
165.7410045804
 30
0.0
 40
5.5
  0
ARC
  5
28D
330
1F
100
AcDbEntity
  8
0
  6
HIDDEN
 62
     7
370
    18
100
AcDbCircle
 10
129.3884324043
 20
153.7410045804
 30
0.0
 40
5.500000000000012
100
AcDbArc
 50
90.0
 51
226.6582417728
  0
ARC
  5
28E
330
1F
100
AcDbEntity
  8
0
  6
HIDDEN
 62
     7
370
    18
100
AcDbCircle
 10
129.3884324043
 20
153.7410045804
 30
0.0
 40
5.500000000000051
100
AcDbArc
 50
313.3417582272
 51
90.0
  0
CIRCLE
  5
28F
330
1F
100
AcDbEntity
  8
0
  6
HIDDEN
 62
     7
370
    18
100
AcDbCircle
 10
95.3884324043
 20
165.7410045804
 30
0.0
 40
5.5
  0
ARC
  5
290
330
1F
100
AcDbEntity
  8
0
  6
HIDDEN
 62
     7
370
    18
100
AcDbCircle
 10
61.3884324043
 20
153.7410045804
 30
0.0
 40
5.50000000000002
100
AcDbArc
 50
90.0
 51
226.6582417728
  0
ARC
  5
291
330
1F
100
AcDbEntity
  8
0
  6
HIDDEN
 62
     7
370
    18
100
AcDbCircle
 10
61.3884324043
 20
153.7410045804
 30
0.0
 40
5.500000000000026
100
AcDbArc
 50
313.3417582272
 51
90.0
  0
CIRCLE
  5
292
330
1F
100
AcDbEntity
  8
0
  6
HIDDEN
 62
     7
370
    18
100
AcDbCircle
 10
27.3884324043
 20
165.7410045804
 30
0.0
 40
5.499999999999972
  0
CIRCLE
  5
293
330
1F
100
AcDbEntity
  8
0
  6
HIDDEN
 62
     7
370
    18
100
AcDbCircle
 10
145.3884324043
 20
157.7410045804
 30
0.0
 40
6.5
  0
CIRCLE
  5
294
330
1F
100
AcDbEntity
  8
0
  6
HIDDEN
 62
     7
370
    18
100
AcDbCircle
 10
45.3884324043
 20
157.7410045804
 30
0.0
 40
6.5
  0
CIRCLE
  5
295
330
1F
100
AcDbEntity
  8
0
  6
HIDDEN
 62
     7
370
    18
100
AcDbCircle
 10
27.3884324043
 20
165.7410045804
 30
0.0
 40
3.249999999999972
  0
CIRCLE
  5
296
330
1F
100
AcDbEntity
  8
0
  6
HIDDEN
 62
     7
370
    18
100
AcDbCircle
 10
95.3884324043
 20
165.7410045804
 30
0.0
 40
3.25
  0
CIRCLE
  5
297
330
1F
100
AcDbEntity
  8
0
  6
HIDDEN
 62
     7
370
    18
100
AcDbCircle
 10
163.3884324043
 20
165.7410045804
 30
0.0
 40
3.25
  0
CIRCLE
  5
298
330
1F
100
AcDbEntity
  8
0
  6
HIDDEN
 62
     7
370
    18
100
AcDbCircle
 10
61.3884324043
 20
153.7410045804
 30
0.0
 40
3.25
  0
CIRCLE
  5
299
330
1F
100
AcDbEntity
  8
0
  6
HIDDEN
 62
     7
370
    18
100
AcDbCircle
 10
145.3884324043
 20
157.7410045804
 30
0.0
 40
3.5
  0
CIRCLE
  5
29A
330
1F
100
AcDbEntity
  8
0
  6
HIDDEN
 62
     7
370
    18
100
AcDbCircle
 10
45.3884324043
 20
157.7410045804
 30
0.0
 40
3.5
  0
CIRCLE
  5
29B
330
1F
100
AcDbEntity
  8
0
  6
HIDDEN
 62
     7
370
    18
100
AcDbCircle
 10
129.3884324043
 20
153.7410045804
 30
0.0
 40
3.249999999999972
  0
CIRCLE
  5
29C
330
1F
100
AcDbEntity
  8
0
  6
HIDDEN
 62
     7
370
    18
100
AcDbCircle
 10
129.3884324043
 20
153.7410045804
 30
0.0
 40
3.25
  0
CIRCLE
  5
29D
330
1F
100
AcDbEntity
  8
0
  6
HIDDEN
 62
     7
370
    18
100
AcDbCircle
 10
95.3884324043
 20
165.7410045804
 30
0.0
 40
3.25
  0
CIRCLE
  5
29E
330
1F
100
AcDbEntity
  8
0
  6
HIDDEN
 62
     7
370
    18
100
AcDbCircle
 10
61.3884324043
 20
153.7410045804
 30
0.0
 40
3.25
  0
CIRCLE
  5
29F
330
1F
100
AcDbEntity
  8
0
  6
HIDDEN
 62
     7
370
    18
100
AcDbCircle
 10
27.3884324043
 20
165.7410045804
 30
0.0
 40
3.249999999999972
  0
CIRCLE
  5
2A0
330
1F
100
AcDbEntity
  8
0
  6
HIDDEN
 62
     7
370
    18
100
AcDbCircle
 10
163.3884324043
 20
165.7410045804
 30
0.0
 40
3.25
  0
DIMENSION
  5
2A1
330
1F
100
AcDbEntity
  8
FORMAT
100
AcDbDimension
  2
_D_5
 10
27.3884324043
 20
160.7410045804
 30
0.0
 11
17.7186395461
 21
177.4896044299
 31
0.0
 70
   164
  1
<>
 71
     1
 42
-1.0
  3
SLDDIMSTYLE3
100
AcDbRadialDimension
 15
21.3884324043
 25
171.1333094258
 35
0.0
 40
0.0
  0
DIMENSION
  5
2A9
330
1F
100
AcDbEntity
  8
FORMAT
100
AcDbDimension
  2
_D_6
 10
95.3884324043
 20
86.2410045804
 30
0.0
 11
81.3884324043
 21
86.2410045804
 31
0.0
 70
   160
  1
<>
 71
     2
 42
-1.0
  3
SLDDIMSTYLE2
100
AcDbAlignedDimension
 13
67.3884324043
 23
100.7410045804
 33
0.0
 14
95.3884324043
 24
90.0596614074
 34
0.0
100
AcDbRotatedDimension
  0
DIMENSION
  5
2B3
330
1F
100
AcDbEntity
  8
FORMAT
100
AcDbDimension
  2
_D_7
 10
95.3884324043
 20
86.2410045804
 30
0.0
 11
109.3884324043
 21
86.2410045804
 31
0.0
 70
   160
  1
<>
 71
     2
 42
-1.0
  3
SLDDIMSTYLE2
100
AcDbAlignedDimension
 13
123.3884324043
 23
100.7410045804
 33
0.0
 14
95.3884324043
 24
90.0596614074
 34
0.0
100
AcDbRotatedDimension
  0
DIMENSION
  5
2BD
330
1F
100
AcDbEntity
  8
FORMAT
100
AcDbDimension
  2
_D_8
 10
137.3884324043
 20
78.2504742041
 30
0.0
 11
95.3884324043
 21
78.2504742041
 31
0.0
 70
   160
  1
<>
 71
     2
 42
-1.0
  3
SLDDIMSTYLE2
100
AcDbAlignedDimension
 13
53.3884324043
 23
96.7410045804
 33
0.0
 14
137.3884324043
 24
96.7410045804
 34
0.0
100
AcDbRotatedDimension
  0
DIMENSION
  5
2C7
330
1F
100
AcDbEntity
  8
FORMAT
100
AcDbDimension
  2
_D_9
 10
95.3884324043
 20
182.7410045804
 30
0.0
 11
78.3884324043
 21
182.7410045804
 31
0.0
 70
   160
  1
<>
 71
     2
 42
-1.0
  3
SLDDIMSTYLE2
100
AcDbAlignedDimension
 13
61.3884324043
 23
164.7410045804
 33
0.0
 14
95.3884324043
 24
176.5103239544
 34
0.0
100
AcDbRotatedDimension
  0
DIMENSION
  5
2D1
330
1F
100
AcDbEntity
  8
FORMAT
100
AcDbDimension
  2
_D_10
 10
129.3884324043
 20
182.7410045804
 30
0.0
 11
112.3884324043
 21
182.7410045804
 31
0.0
 70
   160
  1
<>
 71
     2
 42
-1.0
  3
SLDDIMSTYLE2
100
AcDbAlignedDimension
 13
95.3884324043
 23
176.5103239544
 33
0.0
 14
129.3884324043
 24
164.7410045804
 34
0.0
100
AcDbRotatedDimension
  0
DIMENSION
  5
2DB
330
1F
100
AcDbEntity
  8
FORMAT
100
AcDbDimension
  2
_D_11
 10
61.3884324043
 20
182.7410045804
 30
0.0
 11
41.5831529074
 21
182.7410045804
 31
0.0
 70
   160
  1
<>
 71
     2
 42
-1.0
  3
SLDDIMSTYLE2
100
AcDbAlignedDimension
 13
27.3884324043
 23
165.7410045804
 33
0.0
 14
61.3884324043
 24
164.7410045804
 34
0.0
100
AcDbRotatedDimension
  0
DIMENSION
  5
2E5
330
1F
100
AcDbEntity
  8
FORMAT
100
AcDbDimension
  2
_D_12
 10
129.3884324043
 20
182.7410045804
 30
0.0
 11
149.8669789804
 21
182.7410045804
 31
0.0
 70
   160
  1
<>
 71
     2
 42
-1.0
  3
SLDDIMSTYLE2
100
AcDbAlignedDimension
 13
163.3884324043
 23
165.7410045804
 33
0.0
 14
129.3884324043
 24
164.7410045804
 34
0.0
100
AcDbRotatedDimension
  0
DIMENSION
  5
2EF
330
1F
100
AcDbEntity
  8
FORMAT
100
AcDbDimension
  2
_D_13
 10
175.3884324043
 20
194.7410045804
 30
0.0
 11
95.3884324043
 21
194.7410045804
 31
0.0
 70
   160
  1
<>
 71
     2
 42
-1.0
  3
SLDDIMSTYLE2
100
AcDbAlignedDimension
 13
15.3884324043
 23
160.7410045804
 33
0.0
 14
175.3884324043
 24
160.7410045804
 34
0.0
100
AcDbRotatedDimension
  0
DIMENSION
  5
2F9
330
1F
100
AcDbEntity
  8
FORMAT
100
AcDbDimension
  2
_D_14
 10
95.3884324043
 20
188.7410045804
 30
0.0
 11
70.3884324043
 21
188.7410045804
 31
0.0
 70
   160
  1
<>
 71
     2
 42
-1.0
  3
SLDDIMSTYLE2
100
AcDbAlignedDimension
 13
45.3884324043
 23
157.7410045804
 33
0.0
 14
95.3884324043
 24
176.5103239544
 34
0.0
100
AcDbRotatedDimension
  0
DIMENSION
  5
304
330
1F
100
AcDbEntity
  8
FORMAT
100
AcDbDimension
  2
_D_15
 10
145.3884324043
 20
188.7410045804
 30
0.0
 11
120.3884324043
 21
188.7410045804
 31
0.0
 70
   160
  1
<>
 71
     2
 42
-1.0
  3
SLDDIMSTYLE2
100
AcDbAlignedDimension
 13
95.3884324043
 23
176.5103239544
 33
0.0
 14
145.3884324043
 24
157.7410045804
 34
0.0
100
AcDbRotatedDimension
  0
DIMENSION
  5
30F
330
1F
100
AcDbEntity
  8
FORMAT
100
AcDbDimension
  2
_D_16
 10
37.7185497264
 20
172.7410045804
 30
0.0
 11
37.7185497264
 21
169.2410045804
 31
0.0
 70
   160
  1
<>
 71
     2
 42
-1.0
  3
SLDDIMSTYLE0
100
AcDbAlignedDimension
 13
35.3884324043
 23
165.7410045804
 33
0.0
 14
27.3884324043
 24
172.7410045804
 34
0.0
 50
90.0
100
AcDbRotatedDimension
  0
DIMENSION
  5
31A
330
1F
100
AcDbEntity
  8
FORMAT
100
AcDbDimension
  2
_D_17
 10
54.2143750846
 20
172.7410045804
 30
0.0
 11
54.2143750846
 21
165.2410045804
 31
0.0
 70
   160
  1
<>
 71
     2
 42
-1.0
  3
SLDDIMSTYLE2
100
AcDbAlignedDimension
 13
45.3884324043
 23
157.7410045804
 33
0.0
 14
27.3884324043
 24
172.7410045804
 34
0.0
 50
90.0
100
AcDbRotatedDimension
  0
DIMENSION
  5
323
330
1F
100
AcDbEntity
  8
FORMAT
100
AcDbDimension
  2
_D_18
 10
73.5338101887
 20
172.7410045804
 30
0.0
 11
73.5338101887
 21
168.7410045804
 31
0.0
 70
   160
  1
<>
 71
     2
 42
-1.0
  3
SLDDIMSTYLE0
100
AcDbAlignedDimension
 13
61.3884324043
 23
164.7410045804
 33
0.0
 14
27.3884324043
 24
172.7410045804
 34
0.0
 50
90.0
100
AcDbRotatedDimension
  0
DIMENSION
  5
32E
330
1F
100
AcDbEntity
  8
FORMAT
100
AcDbDimension
  2
_D_19
 10
82.3018615052
 20
172.7410045804
 30
0.0
 11
82.3018615052
 21
163.2410045804
 31
0.0
 70
   160
  1
<>
 71
     2
 42
-1.0
  3
SLDDIMSTYLE2
100
AcDbAlignedDimension
 13
61.3884324043
 23
153.7410045804
 33
0.0
 14
27.3884324043
 24
172.7410045804
 34
0.0
 50
90.0
100
AcDbRotatedDimension
  0
MTEXT
  5
337
330
1F
100
AcDbEntity
  8
FORMAT
100
AcDbMText
 10
91.0112366032
 20
116.9347393093
 30
0.0
 40
3.5
 41
0.0
 71
     1
 72
     1
  1
BBL
  7
SLDTEXTSTYLE0
 11
-3.491481338843133E-15
 21
1.0
 31
0.0
 73
     1
 44
1.0
  0
INSERT
  5
343
330
1F
100
AcDbEntity
  8
FORMAT
100
AcDbBlockReference
  2
SW_CENTERMARKSYMBOL_1
 10
27.3884324043
 20
165.7410045804
 30
0.0
  0
INSERT
  5
34F
330
1F
100
AcDbEntity
  8
FORMAT
100
AcDbBlockReference
  2
SW_CENTERMARKSYMBOL_2
 10
45.3884324043
 20
157.7410045804
 30
0.0
  0
INSERT
  5
35B
330
1F
100
AcDbEntity
  8
FORMAT
100
AcDbBlockReference
  2
SW_CENTERMARKSYMBOL_3
 10
61.3884324043
 20
153.7410045804
 30
0.0
  0
INSERT
  5
367
330
1F
100
AcDbEntity
  8
FORMAT
100
AcDbBlockReference
  2
SW_CENTERMARKSYMBOL_4
 10
95.3884324043
 20
165.7410045804
 30
0.0
  0
INSERT
  5
373
330
1F
100
AcDbEntity
  8
FORMAT
100
AcDbBlockReference
  2
SW_CENTERMARKSYMBOL_5
 10
129.3884324043
 20
153.7410045804
 30
0.0
  0
INSERT
  5
37F
330
1F
100
AcDbEntity
  8
FORMAT
100
AcDbBlockReference
  2
SW_CENTERMARKSYMBOL_6
 10
145.3884324043
 20
157.7410045804
 30
0.0
  0
INSERT
  5
38B
330
1F
100
AcDbEntity
  8
FORMAT
100
AcDbBlockReference
  2
SW_CENTERMARKSYMBOL_7
 10
163.3884324043
 20
165.7410045804
 30
0.0
  0
INSERT
  5
397
330
1F
100
AcDbEntity
  8
FORMAT
100
AcDbBlockReference
  2
SW_CENTERMARKSYMBOL_8
 10
61.3884324043
 20
164.7410045804
 30
0.0
  0
INSERT
  5
3A3
330
1F
100
AcDbEntity
  8
FORMAT
100
AcDbBlockReference
  2
SW_CENTERMARKSYMBOL_9
 10
129.3884324043
 20
164.7410045804
 30
0.0
  0
LINE
  5
3A4
330
1F
100
AcDbEntity
  8
FORMAT
  6
CENTERX2
370
    18
100
AcDbLine
 10
67.3884324043
 20
116.8371850736
 30
0.0
 11
67.3884324043
 21
100.7410045804
 31
0.0
  0
LINE
  5
3A5
330
1F
100
AcDbEntity
  8
FORMAT
  6
CENTERX2
370
    18
100
AcDbLine
 10
95.3884324043
 20
176.5103239544
 30
0.0
 11
95.3884324043
 21
90.0596614074
 31
0.0
  0
LINE
  5
3A6
330
1F
100
AcDbEntity
  8
FORMAT
  6
CENTERX2
370
    18
100
AcDbLine
 10
123.3884324043
 20
116.5798326116
 30
0.0
 11
123.3884324043
 21
100.7410045804
 31
0.0
  0
LINE
  5
3A7
330
1F
100
AcDbEntity
  8
FORMAT
  6
CENTERX2
370
    18
100
AcDbLine
 10
13.3191645198
 20
135.2410045804
 30
0.0
 11
177.4553864773
 21
135.2410045804
 31
0.0
  0
LINE
  5
3A8
330
1F
100
AcDbEntity
  8
0
  6
PHANTOM
 62
     7
370
    18
100
AcDbLine
 10
183.299040316
 20
86.8759961524
 30
0.0
 11
238.299040316
 21
86.8759961524
 31
0.0
  0
LINE
  5
3A9
330
1F
100
AcDbEntity
  8
0
  6
PHANTOM
 62
     7
370
    18
100
AcDbLine
 10
238.299040316
 20
98.8759961524
 30
0.0
 11
183.299040316
 21
98.8759961524
 31
0.0
  0
LINE
  5
3AA
330
1F
100
AcDbEntity
  8
0
  6
PHANTOM
 62
     7
370
    18
100
AcDbLine
 10
183.299040316
 20
98.8759961524
 30
0.0
 11
178.299040316
 21
95.9892448065
 31
0.0
  0
LINE
  5
3AB
330
1F
100
AcDbEntity
  8
0
  6
PHANTOM
 62
     7
370
    18
100
AcDbLine
 10
178.299040316
 20
89.7627474983
 30
0.0
 11
183.299040316
 21
86.8759961524
 31
0.0
  0
LINE
  5
3AC
330
1F
100
AcDbEntity
  8
0
  6
PHANTOM
 62
     7
370
    18
100
AcDbLine
 10
183.299040316
 20
86.8759961524
 30
0.0
 11
183.299040316
 21
98.8759961524
 31
0.0
  0
LINE
  5
3AD
330
1F
100
AcDbEntity
  8
0
  6
CENTER
 62
     7
370
    25
100
AcDbLine
 10
238.299040316
 20
86.8759961524
 30
0.0
 11
238.299040316
 21
98.8759961524
 31
0.0
  0
LINE
  5
3AE
330
1F
100
AcDbEntity
  8
0
  6
PHANTOM
 62
     7
370
    18
100
AcDbLine
 10
178.299040316
 20
89.7627474983
 30
0.0
 11
178.299040316
 21
95.9892448065
 31
0.0
  0
LINE
  5
3AF
330
1F
100
AcDbEntity
  8
0
  6
Continuous
 62
     7
370
    25
100
AcDbLine
 10
246.799040316
 20
95.8759961524
 30
0.0
 11
246.799040316
 21
89.8759961524
 31
0.0
  0
LINE
  5
3B0
330
1F
100
AcDbEntity
  8
0
  6
Continuous
 62
     7
370
    25
100
AcDbLine
 10
248.799040316
 20
95.8759961524
 30
0.0
 11
248.799040316
 21
89.8759961524
 31
0.0
  0
LINE
  5
3B1
330
1F
100
AcDbEntity
  8
0
  6
Continuous
 62
     7
370
    25
100
AcDbLine
 10
248.799040316
 20
84.8759961524
 30
0.0
 11
246.799040316
 21
84.8759961524
 31
0.0
  0
LINE
  5
3B2
330
1F
100
AcDbEntity
  8
0
  6
Continuous
 62
     7
370
    25
100
AcDbLine
 10
246.799040316
 20
89.8759961524
 30
0.0
 11
246.799040316
 21
84.8759961524
 31
0.0
  0
LINE
  5
3B3
330
1F
100
AcDbEntity
  8
0
  6
Continuous
 62
     7
370
    25
100
AcDbLine
 10
248.799040316
 20
89.8759961524
 30
0.0
 11
248.799040316
 21
84.8759961524
 31
0.0
  0
LINE
  5
3B4
330
1F
100
AcDbEntity
  8
0
  6
Continuous
 62
     7
370
    25
100
AcDbLine
 10
248.799040316
 20
107.8759961524
 30
0.0
 11
246.799040316
 21
107.8759961524
 31
0.0
  0
LINE
  5
3B5
330
1F
100
AcDbEntity
  8
0
  6
Continuous
 62
     7
370
    25
100
AcDbLine
 10
246.799040316
 20
107.8759961524
 30
0.0
 11
246.799040316
 21
95.8759961524
 31
0.0
  0
LINE
  5
3B6
330
1F
100
AcDbEntity
  8
0
  6
Continuous
 62
     7
370
    25
100
AcDbLine
 10
248.799040316
 20
107.8759961524
 30
0.0
 11
248.799040316
 21
95.8759961524
 31
0.0
  0
LINE
  5
3B7
330
1F
100
AcDbEntity
  8
0
  6
Continuous
 62
     7
370
    25
100
AcDbLine
 10
241.299040316
 20
91.8759961524
 30
0.0
 11
246.799040316
 21
91.8759961524
 31
0.0
  0
LINE
  5
3B8
330
1F
100
AcDbEntity
  8
0
  6
Continuous
 62
     7
370
    25
100
AcDbLine
 10
241.299040316
 20
91.8759961524
 30
0.0
 11
241.299040316
 21
95.8759961524
 31
0.0
  0
LINE
  5
3B9
330
1F
100
AcDbEntity
  8
0
  6
Continuous
 62
     7
370
    25
100
AcDbLine
 10
246.799040316
 20
91.8759961524
 30
0.0
 11
246.799040316
 21
95.8759961524
 31
0.0
  0
LINE
  5
3BA
330
1F
100
AcDbEntity
  8
0
  6
Continuous
 62
     7
370
    25
100
AcDbLine
 10
241.299040316
 20
95.8759961524
 30
0.0
 11
241.299040316
 21
105.4759961524
 31
0.0
  0
LINE
  5
3BB
330
1F
100
AcDbEntity
  8
0
  6
Continuous
 62
     7
370
    25
100
AcDbLine
 10
241.299040316
 20
105.4759961524
 30
0.0
 11
244.799040316
 21
105.4759961524
 31
0.0
  0
LINE
  5
3BC
330
1F
100
AcDbEntity
  8
0
  6
Continuous
 62
     7
370
    25
100
AcDbLine
 10
244.799040316
 20
105.4759961524
 30
0.0
 11
244.799040316
 21
107.8759961524
 31
0.0
  0
LINE
  5
3BD
330
1F
100
AcDbEntity
  8
0
  6
Continuous
 62
     7
370
    25
100
AcDbLine
 10
244.799040316
 20
107.8759961524
 30
0.0
 11
246.799040316
 21
107.8759961524
 31
0.0
  0
LINE
  5
3BE
330
1F
100
AcDbEntity
  8
0
  6
Continuous
 62
     7
370
    25
100
AcDbLine
 10
241.299040316
 20
105.8759961524
 30
0.0
 11
244.799040316
 21
105.8759961524
 31
0.0
  0
LINE
  5
3BF
330
1F
100
AcDbEntity
  8
0
  6
Continuous
 62
     7
370
    25
100
AcDbLine
 10
241.299040316
 20
107.8759961524
 30
0.0
 11
244.799040316
 21
107.8759961524
 31
0.0
  0
CIRCLE
  5
3C0
330
1F
100
AcDbEntity
  8
0
  6
Continuous
 62
     7
370
    25
100
AcDbCircle
 10
272.799040316
 20
70.3759961524
 30
0.0
 40
8.800000000000045
  0
CIRCLE
  5
3C1
330
1F
100
AcDbEntity
  8
0
  6
Continuous
 62
     7
370
    25
100
AcDbCircle
 10
272.799040316
 20
70.3759961524
 30
0.0
 40
9.00000000000004
  0
ARC
  5
3C2
330
1F
100
AcDbEntity
  8
0
  6
Continuous
 62
     7
370
    25
100
AcDbCircle
 10
266.299040316
 20
80.5681817378
 30
0.0
 40
0.5000000000000059
100
AcDbArc
 50
180.0
 51
222.0506415119
  0
LINE
  5
3C3
330
1F
100
AcDbEntity
  8
0
  6
Continuous
 62
     7
370
    25
100
AcDbLine
 10
267.8847853556
 20
78.0636549757
 30
0.0
 11
265.9277637577
 21
80.233288147
 31
0.0
  0
LINE
  5
3C4
330
1F
100
AcDbEntity
  8
0
  6
Continuous
 62
     7
370
    25
100
AcDbLine
 10
266.3508858824
 20
76.6800688295
 30
0.0
 11
267.8847853556
 21
78.0636549757
 31
0.0
  0
LINE
  5
3C5
330
1F
100
AcDbEntity
  8
0
  6
Continuous
 62
     7
370
    25
100
AcDbLine
 10
262.799040316
 20
80.7043526063
 30
0.0
 11
262.799040316
 21
97.5314833928
 31
0.0
  0
LINE
  5
3C6
330
1F
100
AcDbEntity
  8
0
  6
Continuous
 62
     7
370
    25
100
AcDbLine
 10
262.799040316
 20
97.5314833928
 30
0.0
 11
265.799040316
 21
97.5314833928
 31
0.0
  0
LINE
  5
3C7
330
1F
100
AcDbEntity
  8
0
  6
Continuous
 62
     7
370
    25
100
AcDbLine
 10
265.799040316
 20
80.5681817378
 30
0.0
 11
265.799040316
 21
97.5314833928
 31
0.0
  0
LINE
  5
3C8
330
1F
100
AcDbEntity
  8
0
  6
Continuous
 62
     7
370
    25
100
AcDbLine
 10
262.799040316
 20
109.3759961524
 30
0.0
 11
265.799040316
 21
109.3759961524
 31
0.0
  0
LINE
  5
3C9
330
1F
100
AcDbEntity
  8
0
  6
Continuous
 62
     7
370
    25
100
AcDbLine
 10
262.799040316
 20
108.8759961524
 30
0.0
 11
262.799040316
 21
109.3759961524
 31
0.0
  0
LINE
  5
3CA
330
1F
100
AcDbEntity
  8
0
  6
Continuous
 62
     7
370
    25
100
AcDbLine
 10
265.799040316
 20
109.3759961524
 30
0.0
 11
265.799040316
 21
108.8759961524
 31
0.0
  0
LINE
  5
3CB
330
1F
100
AcDbEntity
  8
0
  6
Continuous
 62
     7
370
    25
100
AcDbLine
 10
262.799040316
 20
108.8759961524
 30
0.0
 11
262.799040316
 21
97.5314833928
 31
0.0
  0
LINE
  5
3CC
330
1F
100
AcDbEntity
  8
0
  6
Continuous
 62
     7
370
    25
100
AcDbLine
 10
265.799040316
 20
108.8759961524
 30
0.0
 11
265.799040316
 21
97.5314833928
 31
0.0
  0
LINE
  5
3CD
330
1F
100
AcDbEntity
  8
0
  6
Continuous
 62
     7
370
    25
100
AcDbLine
 10
238.299040316
 20
102.8200078628
 30
0.0
 11
238.299040316
 21
107.8759961524
 31
0.0
  0
LINE
  5
3CE
330
1F
100
AcDbEntity
  8
0
  6
Continuous
 62
     7
370
    25
100
AcDbLine
 10
238.299040316
 20
107.8759961524
 30
0.0
 11
241.299040316
 21
107.8759961524
 31
0.0
  0
LINE
  5
3CF
330
1F
100
AcDbEntity
  8
0
  6
Continuous
 62
     7
370
    25
100
AcDbLine
 10
241.299040316
 20
107.8759961524
 30
0.0
 11
241.299040316
 21
102.1522384526
 31
0.0
  0
LWPOLYLINE
  5
3D0
330
1F
100
AcDbEntity
  8
0
  6
Continuous
 62
     7
370
    18
100
AcDbPolyline
 90
        3
 70
   128
 43
0.0
 10
241.299040316
 20
102.1522384526
 10
239.8222214762
 20
102.55882553
 10
238.299040316
 20
102.8200078628
  0
LINE
  5
3D1
330
1F
100
AcDbEntity
  8
0
  6
Continuous
 62
     7
370
    25
100
AcDbLine
 10
261.7993216954
 20
80.8759961524
 30
0.0
 11
261.7993216954
 21
77.8757536493
 31
0.0
  0
ARC
  5
3D2
330
1F
100
AcDbEntity
  8
0
  6
Continuous
 62
     7
370
    25
100
AcDbCircle
 10
261.7986688566
 20
77.8749961524
 30
0.0
 40
3.001000071009399
100
AcDbArc
 50
49.2440225849
 51
89.9875358526
  0
LINE
  5
3D3
330
1F
100
AcDbEntity
  8
0
  6
Continuous
 62
     7
370
    25
100
AcDbLine
 10
261.7993216954
 20
77.8757536493
 30
0.0
 11
265.002310216
 21
75.1152998721
 31
0.0
  0
LINE
  5
3D4
330
1F
100
AcDbEntity
  8
0
  6
Continuous
 62
     7
370
    25
100
AcDbLine
 10
265.002310216
 20
75.1152998721
 30
0.0
 11
266.960826563
 21
77.3877905143
 31
0.0
  0
LINE
  5
3D5
330
1F
100
AcDbEntity
  8
0
  6
Continuous
 62
     7
370
    25
100
AcDbLine
 10
263.7578380423
 20
80.1482442915
 30
0.0
 11
266.960826563
 21
77.3877905143
 31
0.0
  0
LINE
  5
3D6
330
1F
100
AcDbEntity
  8
0
  6
Continuous
 62
     7
370
    25
100
AcDbLine
 10
238.299040316
 20
80.8769961524
 30
0.0
 11
241.299040316
 21
80.8769961524
 31
0.0
  0
LWPOLYLINE
  5
3D7
330
1F
100
AcDbEntity
  8
0
  6
Continuous
 62
     7
370
    18
100
AcDbPolyline
 90
        3
 70
   128
 43
0.0
 10
238.299040316
 20
82.4436328221
 10
239.7907219011
 20
82.4505782691
 10
241.299040316
 20
82.6430353122
  0
LINE
  5
3D8
330
1F
100
AcDbEntity
  8
0
  6
Continuous
 62
     7
370
    25
100
AcDbLine
 10
238.299040316
 20
80.8769961524
 30
0.0
 11
238.299040316
 21
82.4436328221
 31
0.0
  0
LINE
  5
3D9
330
1F
100
AcDbEntity
  8
0
  6
Continuous
 62
     7
370
    25
100
AcDbLine
 10
241.299040316
 20
82.6430353122
 30
0.0
 11
241.299040316
 21
80.8769961524
 31
0.0
  0
LINE
  5
3DA
330
1F
100
AcDbEntity
  8
0
  6
Continuous
 62
     7
370
    25
100
AcDbLine
 10
241.300040316
 20
77.8759961524
 30
0.0
 11
261.7986688566
 21
77.8759961524
 31
0.0
  0
ARC
  5
3DB
330
1F
100
AcDbEntity
  8
0
  6
Continuous
 62
     7
370
    25
100
AcDbCircle
 10
241.300040316
 20
80.8769961524
 30
0.0
 40
3.001000000000007
100
AcDbArc
 50
189.6149003472
 51
270.0
  0
LINE
  5
3DC
330
1F
100
AcDbEntity
  8
0
  6
Continuous
 62
     7
370
    25
100
AcDbLine
 10
261.7993216954
 20
80.3757536493
 30
0.0
 11
238.3411964619
 21
80.3757536493
 31
0.0
  0
LINE
  5
3DD
330
1F
100
AcDbEntity
  8
0
  6
Continuous
 62
     7
370
    25
100
AcDbLine
 10
261.7986688566
 20
77.8759961524
 30
0.0
 11
261.7993216954
 21
77.8757536493
 31
0.0
  0
ARC
  5
3DE
330
1F
100
AcDbEntity
  8
0
  6
Continuous
 62
     7
370
    25
100
AcDbCircle
 10
241.300040316
 20
80.8769961524
 30
0.0
 40
3.001000000000007
100
AcDbArc
 50
180.0
 51
189.6149003472
  0
ARC
  5
3DF
330
1F
100
AcDbEntity
  8
0
  6
Continuous
 62
     7
370
    25
100
AcDbCircle
 10
241.300040316
 20
80.8769961524
 30
0.0
 40
0.0010000000000048
100
AcDbArc
 50
179.9999999992
 51
270.0
  0
LINE
  5
3E0
330
1F
100
AcDbEntity
  8
0
  6
Continuous
 62
     7
370
    25
100
AcDbLine
 10
261.7986688566
 20
80.8759961524
 30
0.0
 11
241.300040316
 21
80.8759961524
 31
0.0
  0
LINE
  5
3E1
330
1F
100
AcDbEntity
  8
0
  6
Continuous
 62
     7
370
    25
100
AcDbLine
 10
261.7993216954
 20
80.8759961524
 30
0.0
 11
261.7986688566
 21
80.8759961524
 31
0.0
  0
LINE
  5
3E2
330
1F
100
AcDbEntity
  8
0
  6
Continuous
 62
     7
370
    25
100
AcDbLine
 10
241.299040316
 20
86.3759961524
 30
0.0
 11
238.299040316
 21
89.3759961524
 31
0.0
  0
LINE
  5
3E3
330
1F
100
AcDbEntity
  8
0
  6
Continuous
 62
     7
370
    25
100
AcDbLine
 10
238.299040301
 20
82.4436328228
 30
0.0
 11
238.299040316
 21
86.8759961524
 31
0.0
  0
LINE
  5
3E4
330
1F
100
AcDbEntity
  8
0
  6
Continuous
 62
     7
370
    25
100
AcDbLine
 10
241.2990403355
 20
82.6430353162
 30
0.0
 11
241.299040316
 21
86.3759961524
 31
0.0
  0
LINE
  5
3E5
330
1F
100
AcDbEntity
  8
0
  6
Continuous
 62
     7
370
    25
100
AcDbLine
 10
238.299040316
 20
96.3759961524
 30
0.0
 11
241.299040316
 21
99.3759961524
 31
0.0
  0
LINE
  5
3E6
330
1F
100
AcDbEntity
  8
0
  6
Continuous
 62
     7
370
    25
100
AcDbLine
 10
238.299040316
 20
98.8759961524
 30
0.0
 11
238.299040329
 21
102.8200078623
 31
0.0
  0
LINE
  5
3E7
330
1F
100
AcDbEntity
  8
0
  6
Continuous
 62
     7
370
    25
100
AcDbLine
 10
241.299040316
 20
86.3759961524
 30
0.0
 11
241.299040316
 21
91.8759961524
 31
0.0
  0
HATCH
  5
3E8
330
1F
100
AcDbEntity
  8
0
  6
Continuous
 62
     7
370
    18
100
AcDbHatch
 10
0.0
 20
0.0
 30
0.0
210
0.0
220
0.0
230
1.0
  2
ANSI31
 70
     0
 71
     0
 91
        1
 92
        0
 93
        4
 72
     1
 10
238.2990403160256
 20
96.37599615240013
 11
241.2990403160256
 21
99.37599615240016
 72
     1
 10
241.2990403160256
 20
99.37599615240016
 11
241.2990403160288
 21
102.152238452621
 72
     4
 94
        3
 73
     1
 74
     0
 95
        8
 96
        4
 40
0.8567245878518154
 40
0.8567245878518154
 40
0.8567245878518154
 40
0.8567245878518154
 40
0.9063888289100382
 40
0.9063888289100382
 40
0.9063888289100382
 40
0.9063888289100382
 10
241.2990403160288
 20
102.152238452621
 42
1.0
 10
240.2639314256263
 20
102.3984077697124
 42
1.0
 10
239.3275211891001
 20
102.7861265503501
 42
1.0
 10
238.2990403160251
 20
102.8200078627693
 42
1.0
 72
     1
 10
238.2990403289529
 20
102.8200078623435
 11
238.2990403160256
 21
96.37599615240013
 97
        0
 75
     0
 76
     1
 52
0.0
 41
1.0
 77
     0
 78
     1
 53
45.0
 43
0.0
 44
0.0
 45
-2.245064030267288
 46
2.245064030267288
 79
     0
 98
        1
 10
0.0
 20
0.0
  0
HATCH
  5
3E9
330
1F
100
AcDbEntity
  8
0
  6
Continuous
 62
     7
370
    18
100
AcDbHatch
 10
0.0
 20
0.0
 30
0.0
210
0.0
220
0.0
230
1.0
  2
ANSI31
 70
     0
 71
     0
 91
        1
 92
        0
 93
        4
 72
     1
 10
238.2990403160254
 20
102.8200078627693
 11
238.2990403289529
 21
102.8200078623435
 72
     4
 94
        3
 73
     1
 74
     0
 95
        8
 96
        4
 40
0.0936111710899236
 40
0.0936111710899236
 40
0.0936111710899236
 40
0.0936111710899236
 40
0.1432754121481848
 40
0.1432754121481848
 40
0.1432754121481848
 40
0.1432754121481848
 10
238.2990403160251
 20
102.8200078627693
 42
1.0
 10
239.3275211891
 20
102.7861265503501
 42
1.0
 10
240.2639314256263
 20
102.3984077697124
 42
1.0
 10
241.2990403160288
 20
102.152238452621
 42
1.0
 72
     4
 94
        3
 73
     1
 74
     0
 95
        8
 96
        4
 40
0.0
 40
0.0
 40
0.0
 40
0.0
 40
0.0035521020022984
 40
0.0035521020022984
 40
0.0035521020022984
 40
0.0035521020022984
 10
241.2990403160254
 20
102.1522384526218
 42
1.0
 10
240.5067448718538
 20
102.3406619414306
 42
1.0
 10
239.7513337031806
 20
102.6110539188956
 42
1.0
 10
239.0490403160254
 20
102.7372688850056
 42
1.0
 72
     4
 94
        3
 73
     1
 74
     0
 95
        8
 96
        4
 40
0.0
 40
0.0
 40
0.0
 40
0.0
 40
0.0007569126073009
 40
0.0007569126073009
 40
0.0007569126073009
 40
0.0007569126073009
 10
239.0490403160254
 20
102.7372688850057
 42
1.0
 10
238.802589126597
 20
102.78156067116
 42
1.0
 10
238.5511316079908
 20
102.8117032029114
 42
1.0
 10
238.2990403160254
 20
102.8200078627693
 42
1.0
 97
        0
 75
     0
 76
     1
 52
0.0
 41
1.0
 77
     0
 78
     1
 53
45.0
 43
0.0
 44
0.0
 45
-2.245064030267288
 46
2.245064030267288
 79
     0
 98
        1
 10
0.0
 20
0.0
  0
HATCH
  5
3EA
330
1F
100
AcDbEntity
  8
0
  6
Continuous
 62
     7
370
    18
100
AcDbHatch
 10
0.0
 20
0.0
 30
0.0
210
0.0
220
0.0
230
1.0
  2
ANSI31
 70
     0
 71
     0
 91
        1
 92
        0
 93
        4
 72
     4
 94
        3
 73
     1
 74
     0
 95
        9
 96
        5
 40
0.3302901985607863
 40
0.3302901985607863
 40
0.3302901985607863
 40
0.3302901985607863
 40
0.3437462836472196
 40
0.3776701176591724
 40
0.3776701176591724
 40
0.3776701176591724
 40
0.3776701176591724
 10
238.2990403010299
 20
82.44363282283516
 42
1.0
 10
238.5996273388416
 20
82.42872414792551
 42
1.0
 10
239.6528120196961
 20
82.41348560420877
 42
1.0
 10
240.6143289577099
 20
82.50503052461974
 42
1.0
 10
241.2990403355363
 20
82.64303531616244
 42
1.0
 72
     1
 10
241.2990403355363
 20
82.64303531616244
 11
241.2990403160256
 21
86.37599615240016
 72
     1
 10
241.2990403160256
 20
86.37599615240016
 11
238.2990403160256
 21
89.37599615240013
 72
     1
 10
238.2990403160256
 20
89.37599615240013
 11
238.2990403010299
 21
82.44363282283516
 97
        0
 75
     0
 76
     1
 52
0.0
 41
1.0
 77
     0
 78
     1
 53
45.0
 43
0.0
 44
0.0
 45
-2.245064030267288
 46
2.245064030267288
 79
     0
 98
        1
 10
0.0
 20
0.0
  0
HATCH
  5
3EB
330
1F
100
AcDbEntity
  8
0
  6
Continuous
 62
     7
370
    18
100
AcDbHatch
 10
0.0
 20
0.0
 30
0.0
210
0.0
220
0.0
230
1.0
  2
ANSI31
 70
     0
 71
     0
 91
        1
 92
        0
 93
        4
 72
     1
 10
238.2990403010299
 20
82.44363282283516
 11
238.2990403160252
 21
82.44363282209142
 72
     4
 94
        3
 73
     1
 74
     0
 95
        8
 96
        4
 40
0.0
 40
0.0
 40
0.0
 40
0.0
 40
0.0030118490272304
 40
0.0030118490272304
 40
0.0030118490272304
 40
0.0030118490272304
 10
238.2990403160252
 20
82.44363282209142
 42
1.0
 10
239.3007405306101
 20
82.3939499661212
 42
1.0
 10
240.3291054315486
 20
82.44754321946215
 42
1.0
 10
241.2990403160252
 20
82.64303531222994
 42
1.0
 72
     1
 10
241.2990403160252
 20
82.64303531223003
 11
241.2990403355363
 21
82.64303531616244
 72
     4
 94
        3
 73
     1
 74
     0
 95
        9
 96
        5
 40
0.6223298823408276
 40
0.6223298823408276
 40
0.6223298823408276
 40
0.6223298823408276
 40
0.6562537163527804
 40
0.6697098014392137
 40
0.6697098014392137
 40
0.6697098014392137
 40
0.6697098014392137
 10
241.2990403355363
 20
82.64303531616244
 42
1.0
 10
240.6143289577099
 20
82.50503052461974
 42
1.0
 10
239.6528120196961
 20
82.41348560420877
 42
1.0
 10
238.5996273388416
 20
82.42872414792551
 42
1.0
 10
238.2990403010299
 20
82.44363282283516
 42
1.0
 97
        0
 75
     0
 76
     1
 52
0.0
 41
1.0
 77
     0
 78
     1
 53
45.0
 43
0.0
 44
0.0
 45
-2.245064030267288
 46
2.245064030267288
 79
     0
 98
        1
 10
0.0
 20
0.0
  0
HATCH
  5
3EC
330
1F
100
AcDbEntity
  8
0
  6
Continuous
 62
     7
370
    18
100
AcDbHatch
 10
0.0
 20
0.0
 30
0.0
210
0.0
220
0.0
230
1.0
  2
ANSI31
 70
     0
 71
     0
 91
        1
 92
        0
 93
        3
 72
     4
 94
        3
 73
     1
 74
     0
 95
        8
 96
        4
 40
0.0
 40
0.0
 40
0.0
 40
0.0
 40
0.0007569126073009
 40
0.0007569126073009
 40
0.0007569126073009
 40
0.0007569126073009
 10
238.2990403160251
 20
102.8200078627693
 42
1.0
 10
238.5511316079906
 20
102.8117032029114
 42
1.0
 10
238.8025891265967
 20
102.78156067116
 42
1.0
 10
239.0490403160251
 20
102.7372688850057
 42
1.0
 72
     4
 94
        3
 73
     1
 74
     0
 95
        8
 96
        4
 40
0.0
 40
0.0
 40
0.0
 40
0.0
 40
0.0035521020022984
 40
0.0035521020022984
 40
0.0035521020022984
 40
0.0035521020022984
 10
239.0490403160251
 20
102.7372688850057
 42
1.0
 10
239.7513337031804
 20
102.6110539188958
 42
1.0
 10
240.5067448718536
 20
102.3406619414307
 42
1.0
 10
241.2990403160251
 20
102.1522384526218
 42
1.0
 72
     4
 94
        3
 73
     1
 74
     0
 95
        8
 96
        4
 40
0.0000000000000001
 40
0.0000000000000001
 40
0.0000000000000001
 40
0.0000000000000001
 40
0.0031049105109229
 40
0.0031049105109229
 40
0.0031049105109229
 40
0.0031049105109229
 10
241.2990403160251
 20
102.1522384526218
 42
1.0
 10
240.3021496435566
 20
102.389318723434
 42
1.0
 10
239.3331671918106
 20
102.7859405537149
 42
1.0
 10
238.2990403160252
 20
102.8200078627693
 42
1.0
 97
        0
 75
     0
 76
     1
 52
0.0
 41
1.0
 77
     0
 78
     1
 53
45.0
 43
0.0
 44
0.0
 45
-2.245064030267288
 46
2.245064030267288
 79
     0
 98
        1
 10
0.0
 20
0.0
  0
HATCH
  5
3ED
330
1F
100
AcDbEntity
  8
0
  6
Continuous
 62
     7
370
    18
100
AcDbHatch
 10
0.0
 20
0.0
 30
0.0
210
0.0
220
0.0
230
1.0
  2
ANSI31
 70
     0
 71
     0
 91
        1
 92
        0
 93
        4
 72
     4
 94
        3
 73
     1
 74
     0
 95
        8
 96
        4
 40
0.0
 40
0.0
 40
0.0
 40
0.0
 40
0.0035521020022984
 40
0.0035521020022984
 40
0.0035521020022984
 40
0.0035521020022984
 10
239.0490403160254
 20
102.7372688850057
 42
1.0
 10
239.7513337031806
 20
102.6110539188957
 42
1.0
 10
240.5067448718538
 20
102.3406619414306
 42
1.0
 10
241.2990403160253
 20
102.1522384526218
 42
1.0
 72
     4
 94
        3
 73
     1
 74
     0
 95
        8
 96
        4
 40
0.0
 40
0.0
 40
0.0
 40
0.0
 40
0.0035521020022984
 40
0.0035521020022984
 40
0.0035521020022984
 40
0.0035521020022984
 10
241.2990403160252
 20
102.1522384526218
 42
1.0
 10
240.5067448718536
 20
102.3406619414306
 42
1.0
 10
239.7513337031804
 20
102.6110539188957
 42
1.0
 10
239.0490403160251
 20
102.7372688850057
 42
1.0
 72
     4
 94
        3
 73
     1
 74
     0
 95
        8
 96
        4
 40
0.0
 40
0.0
 40
0.0
 40
0.0
 40
0.0007569126073009
 40
0.0007569126073009
 40
0.0007569126073009
 40
0.0007569126073009
 10
239.0490403160251
 20
102.7372688850057
 42
1.0
 10
238.8025891265967
 20
102.78156067116
 42
1.0
 10
238.5511316079906
 20
102.8117032029114
 42
1.0
 10
238.2990403160251
 20
102.8200078627693
 42
1.0
 72
     4
 94
        3
 73
     1
 74
     0
 95
        8
 96
        4
 40
0.0
 40
0.0
 40
0.0
 40
0.0
 40
0.0007569126073009
 40
0.0007569126073009
 40
0.0007569126073009
 40
0.0007569126073009
 10
238.2990403160253
 20
102.8200078627693
 42
1.0
 10
238.5511316079908
 20
102.8117032029114
 42
1.0
 10
238.802589126597
 20
102.78156067116
 42
1.0
 10
239.0490403160254
 20
102.7372688850056
 42
1.0
 97
        0
 75
     0
 76
     1
 52
0.0
 41
1.0
 77
     0
 78
     1
 53
45.0
 43
0.0
 44
0.0
 45
-2.245064030267288
 46
2.245064030267288
 79
     0
 98
        1
 10
0.0
 20
0.0
  0
DIMENSION
  5
3EE
330
1F
100
AcDbEntity
  8
FORMAT
100
AcDbDimension
  2
_D_20
 10
262.799040316
 20
125.3759961524
 30
0.0
 11
255.799040316
 21
125.3759961524
 31
0.0
 70
   160
  1
<>
 71
     2
 42
-1.0
  3
SLDDIMSTYLE2
100
AcDbAlignedDimension
 13
248.799040316
 23
107.8759961524
 33
0.0
 14
262.799040316
 24
108.8759961524
 34
0.0
100
AcDbRotatedDimension
  0
DIMENSION
  5
3F8
330
1F
100
AcDbEntity
  8
FORMAT
100
AcDbDimension
  2
_D_21
 10
265.799040316
 20
119.3759961524
 30
0.0
 11
274.8226513609
 21
119.3759961524
 31
0.0
 70
   160
  1
<>
 71
     2
 42
-1.0
  3
SLDDIMSTYLE0
100
AcDbAlignedDimension
 13
262.799040316
 23
109.3759961524
 33
0.0
 14
265.799040316
 24
109.3759961524
 34
0.0
 50
0.0
100
AcDbRotatedDimension
  0
DIMENSION
  5
404
330
1F
100
AcDbEntity
  8
FORMAT
100
AcDbDimension
  2
_D_22
 10
241.299040316
 20
119.3759961524
 30
0.0
 11
229.2754292711
 21
119.3759961524
 31
0.0
 70
   160
  1
<>
 71
     2
 42
-1.0
  3
SLDDIMSTYLE0
100
AcDbAlignedDimension
 13
238.299040316
 23
107.8759961524
 33
0.0
 14
241.299040316
 24
90.5192308659
 34
0.0
100
AcDbRotatedDimension
  0
DIMENSION
  5
410
330
1F
100
AcDbEntity
  8
FORMAT
100
AcDbDimension
  2
_D_23
 10
276.7419640543
 20
109.3759961524
 30
0.0
 11
276.7419640543
 21
89.8759961524
 31
0.0
 70
   160
  1
<>
 71
     2
 42
-1.0
  3
SLDDIMSTYLE2
100
AcDbAlignedDimension
 13
272.799040316
 23
70.3759961524
 33
0.0
 14
265.799040316
 24
109.3759961524
 34
0.0
 50
90.0
100
AcDbRotatedDimension
  0
DIMENSION
  5
41A
330
1F
100
AcDbEntity
  8
FORMAT
100
AcDbDimension
  2
_D_24
 10
281.799040316
 20
56.8587565639
 30
0.0
 11
272.799040316
 21
56.8587565639
 31
0.0
 70
   160
  1
%%c<>
 71
     2
 42
-1.0
  3
SLDDIMSTYLE2
100
AcDbAlignedDimension
 13
263.799040316
 23
70.3759961524
 33
0.0
 14
281.799040316
 24
70.3759961524
 34
0.0
100
AcDbRotatedDimension
  0
DIMENSION
  5
425
330
1F
100
AcDbEntity
  8
FORMAT
100
AcDbDimension
  2
_D_25
 10
238.299040316
 20
56.8587565639
 30
0.0
 11
208.299040316
 21
56.8587565639
 31
0.0
 70
   160
  1
<>
 71
     2
 42
-1.0
  3
SLDDIMSTYLE2
100
AcDbAlignedDimension
 13
178.299040316
 23
89.7627474983
 33
0.0
 14
238.299040316
 24
80.8769961524
 34
0.0
 50
0.0
100
AcDbRotatedDimension
  0
DIMENSION
  5
42F
330
1F
100
AcDbEntity
  8
FORMAT
100
AcDbDimension
  2
_D_26
 10
254.8959333157
 20
86.3759961524
 30
0.0
 11
254.8959333157
 21
92.8759961524
 31
0.0
 70
   160
  1
%%c<>
 71
     2
 42
-1.0
  3
SLDDIMSTYLE0
100
AcDbAlignedDimension
 13
241.299040316
 23
99.3759961524
 33
0.0
 14
241.299040316
 24
86.3759961524
 34
0.0
 50
90.0
100
AcDbRotatedDimension
  0
DIMENSION
  5
43C
330
1F
100
AcDbEntity
  8
FORMAT
100
AcDbDimension
  2
_D_27
 10
241.299040316
 20
99.3759961524
 30
0.0
 11
260.9820202905
 21
92.8759961524
 31
0.0
 70
   162
  1
<>
 71
     1
 42
-1.0
  3
SLDDIMSTYLE1
100
AcDb2LineAngularDimension
 13
241.299040316
 23
86.3759961524
 33
0.0
 14
238.299040316
 24
89.3759961524
 34
0.0
 15
238.299040316
 25
96.3759961524
 35
0.0
 16
260.9820202905
 26
92.8759961524
 36
0.0
  0
DIMENSION
  5
446
330
1F
100
AcDbEntity
  8
FORMAT
100
AcDbDimension
  2
_D_28
 10
227.0227507188
 20
89.3759961524
 30
0.0
 11
227.0227507188
 21
104.2601038085
 31
0.0
 70
   160
  1
%%c<>
 71
     2
 42
-1.0
  3
SLDDIMSTYLE0
100
AcDbAlignedDimension
 13
238.299040316
 23
96.3759961524
 33
0.0
 14
238.299040316
 24
89.3759961524
 34
0.0
 50
90.0
100
AcDbRotatedDimension
  0
INSERT
  5
458
330
1F
100
AcDbEntity
  8
FORMAT
100
AcDbBlockReference
  2
SW_NOTE_0_10
 10
152.3877869428
 20
107.7601034509
 30
0.0
  0
INSERT
  5
464
330
1F
100
AcDbEntity
  8
FORMAT
100
AcDbBlockReference
  2
SW_CENTERMARKSYMBOL_10
 10
272.799040316
 20
70.3759961524
 30
0.0
  0
INSERT
  5
46A
330
1F
100
AcDbEntity
  8
FORMAT
100
AcDbBlockReference
  2
_Dot
 10
211.9119593422
 20
95.2261094339
 30
44.479405144
 41
1.016
 42
1.016
 50
270.1677350167
  0
LINE
  5
46B
330
1F
100
AcDbEntity
  8
FORMAT
100
AcDbLine
 10
211.9119593422
 20
95.2261094339
 30
0.0
 11
211.881981054
 21
105.4662162162
 31
0.0
  0
LINE
  5
46C
330
1F
100
AcDbEntity
  8
FORMAT
100
AcDbLine
 10
211.881981054
 20
105.4662162162
 30
0.0
 11
205.5320945946
 21
105.4662162162
 31
0.0
  0
LINE
  5
46D
330
1F
100
AcDbEntity
  8
FORMAT
  6
CENTERX2
370
    18
100
AcDbLine
 10
175.225851324
 20
92.8759961524
 30
0.0
 11
243.519040316
 21
92.8759961524
 31
0.0
  0
ENDSEC
  0
SECTION
  2
OBJECTS
  0
DICTIONARY
  5
C
330
0
100
AcDbDictionary
281
     1
  3
ACAD_GROUP
350
D
  3
ACAD_LAYOUT
350
1A
  3
ACAD_MLINESTYLE
350
17
  3
ACAD_PLOTSETTINGS
350
19
  3
ACAD_PLOTSTYLENAME
350
E
  3
ACAD_SCALELIST
350
47
  3
DWGPROPS
350
46E
  0
DICTIONARY
  5
D
102
{ACAD_REACTORS
330
C
102
}
330
C
100
AcDbDictionary
281
     1
  0
DICTIONARY
  5
1A
102
{ACAD_REACTORS
330
C
102
}
330
C
100
AcDbDictionary
281
     1
  3
Layout1
350
1E
  3
Layout2
350
26
  3
Model
350
22
  0
DICTIONARY
  5
17
102
{ACAD_REACTORS
330
C
102
}
330
C
100
AcDbDictionary
281
     1
  3
Standard
350
18
  0
DICTIONARY
  5
19
102
{ACAD_REACTORS
330
C
102
}
330
C
100
AcDbDictionary
281
     1
  0
ACDBDICTIONARYWDFLT
  5
E
102
{ACAD_REACTORS
330
C
102
}
330
C
100
AcDbDictionary
281
     1
  3
Normal
350
F
100
AcDbDictionaryWithDefault
340
F
  0
DICTIONARY
  5
47
102
{ACAD_REACTORS
330
C
102
}
330
C
100
AcDbDictionary
281
     1
  3
A0
350
48
  3
A1
350
49
  3
A2
350
4A
  3
A3
350
4B
  3
A4
350
4C
  3
A5
350
4D
  3
A6
350
4E
  3
A7
350
4F
  3
A8
350
50
  3
A9
350
51
  3
B0
350
52
  3
B1
350
53
  3
B2
350
54
  3
B3
350
55
  3
B4
350
56
  3
B5
350
57
  3
B6
350
58
  3
B7
350
59
  3
B8
350
5A
  3
B9
350
5B
  3
C0
350
5C
  3
C1
350
5D
  3
C2
350
5E
  3
C3
350
5F
  3
C4
350
60
  3
C5
350
61
  3
C6
350
62
  3
C7
350
63
  3
C8
350
64
  3
C9
350
65
  3
D0
350
66
  3
D1
350
67
  3
D2
350
68
  0
XRECORD
  5
46E
102
{ACAD_REACTORS
330
C
102
}
330
C
100
AcDbXrecord
280
     1
  1
DWGPROPS COOKIE
  2

  3

  4

  6

  7

  8
blumenstein
  9

300
=
301
=
302
=
303
=
304
=
305
=
306
=
307
=
308
=
309
=
 40
0.0
 41
2459704.375855046
 42
2459704.375859711
  1

 90
        0
  0
LAYOUT
  5
1E
102
{ACAD_REACTORS
330
1A
102
}
330
1A
100
AcDbPlotSettings
  1

  2
none_device
  4

  6

 40
0.0
 41
0.0
 42
0.0
 43
0.0
 44
0.0
 45
0.0
 46
0.0
 47
0.0
 48
0.0
 49
0.0
140
0.0
141
0.0
142
1.0
143
1.0
 70
   688
 72
     1
 73
     0
 74
     5
  7

 75
    16
147
1.0
148
0.0
149
0.0
100
AcDbLayout
  1
Layout1
 70
     1
 71
     1
 10
0.0
 20
0.0
 11
420.0
 21
297.0
 12
0.0
 22
0.0
 32
0.0
 14
1.0000000000E+20
 24
1.0000000000E+20
 34
1.0000000000E+20
 15
-1.0000000000E+20
 25
-1.0000000000E+20
 35
-1.0000000000E+20
146
0.0
 13
0.0
 23
0.0
 33
0.0
 16
1.0
 26
0.0
 36
0.0
 17
0.0
 27
1.0
 37
0.0
 76
     0
330
1B
  0
LAYOUT
  5
26
102
{ACAD_REACTORS
330
1A
102
}
330
1A
100
AcDbPlotSettings
  1

  2
none_device
  4

  6

 40
0.0
 41
0.0
 42
0.0
 43
0.0
 44
0.0
 45
0.0
 46
0.0
 47
0.0
 48
0.0
 49
0.0
140
0.0
141
0.0
142
1.0
143
1.0
 70
   688
 72
     1
 73
     0
 74
     5
  7

 75
    16
147
1.0
148
0.0
149
0.0
100
AcDbLayout
  1
Layout2
 70
     1
 71
     2
 10
0.0
 20
0.0
 11
0.0
 21
0.0
 12
0.0
 22
0.0
 32
0.0
 14
0.0
 24
0.0
 34
0.0
 15
0.0
 25
0.0
 35
0.0
146
0.0
 13
0.0
 23
0.0
 33
0.0
 16
1.0
 26
0.0
 36
0.0
 17
0.0
 27
1.0
 37
0.0
 76
     0
330
23
  0
LAYOUT
  5
22
102
{ACAD_REACTORS
330
1A
102
}
330
1A
100
AcDbPlotSettings
  1

  2
none_device
  4
Letter_(8.50_x_11.00_Inches)
  6

 40
6.35
 41
6.35
 42
6.35000508
 43
6.35000508
 44
215.9
 45
279.4
 46
0.0
 47
0.0
 48
0.0
 49
0.0
140
0.0
141
0.0
142
1.0
143
1.0
 70
  1712
 72
     1
 73
     0
 74
     0
  7

 75
     0
147
1.0
148
0.0
149
0.0
100
AcDbLayout
  1
Model
 70
     1
 71
     0
 10
0.0
 20
0.0
 11
297.0
 21
210.0
 12
0.0
 22
0.0
 32
0.0
 14
0.0
 24
0.0
 34
0.0
 15
297.0
 25
210.0
 35
0.0
146
0.0
 13
0.0
 23
0.0
 33
0.0
 16
1.0
 26
0.0
 36
0.0
 17
0.0
 27
1.0
 37
0.0
 76
     0
330
1F
331
29
  0
MLINESTYLE
  5
18
102
{ACAD_REACTORS
330
17
102
}
330
17
100
AcDbMlineStyle
  2
Standard
 70
     0
  3

 62
   256
 51
90.0
 52
90.0
 71
     2
 49
0.5
 62
   256
  6
BYLAYER
 49
-0.5
 62
   256
  6
BYLAYER
  0
ACDBPLACEHOLDER
  5
F
102
{ACAD_REACTORS
330
E
102
}
330
E
  0
SCALE
  5
48
102
{ACAD_REACTORS
330
47
102
}
330
47
100
AcDbScale
 70
     0
300
1:1
140
1.0
141
1.0
290
     1
  0
SCALE
  5
49
102
{ACAD_REACTORS
330
47
102
}
330
47
100
AcDbScale
 70
     0
300
1:2
140
1.0
141
2.0
290
     0
  0
SCALE
  5
4A
102
{ACAD_REACTORS
330
47
102
}
330
47
100
AcDbScale
 70
     0
300
1:4
140
1.0
141
4.0
290
     0
  0
SCALE
  5
4B
102
{ACAD_REACTORS
330
47
102
}
330
47
100
AcDbScale
 70
     0
300
1:5
140
1.0
141
5.0
290
     0
  0
SCALE
  5
4C
102
{ACAD_REACTORS
330
47
102
}
330
47
100
AcDbScale
 70
     0
300
1:8
140
1.0
141
8.0
290
     0
  0
SCALE
  5
4D
102
{ACAD_REACTORS
330
47
102
}
330
47
100
AcDbScale
 70
     0
300
1:10
140
1.0
141
10.0
290
     0
  0
SCALE
  5
4E
102
{ACAD_REACTORS
330
47
102
}
330
47
100
AcDbScale
 70
     0
300
1:16
140
1.0
141
16.0
290
     0
  0
SCALE
  5
4F
102
{ACAD_REACTORS
330
47
102
}
330
47
100
AcDbScale
 70
     0
300
1:20
140
1.0
141
20.0
290
     0
  0
SCALE
  5
50
102
{ACAD_REACTORS
330
47
102
}
330
47
100
AcDbScale
 70
     0
300
1:30
140
1.0
141
30.0
290
     0
  0
SCALE
  5
51
102
{ACAD_REACTORS
330
47
102
}
330
47
100
AcDbScale
 70
     0
300
1:40
140
1.0
141
40.0
290
     0
  0
SCALE
  5
52
102
{ACAD_REACTORS
330
47
102
}
330
47
100
AcDbScale
 70
     0
300
1:50
140
1.0
141
50.0
290
     0
  0
SCALE
  5
53
102
{ACAD_REACTORS
330
47
102
}
330
47
100
AcDbScale
 70
     0
300
1:100
140
1.0
141
100.0
290
     0
  0
SCALE
  5
54
102
{ACAD_REACTORS
330
47
102
}
330
47
100
AcDbScale
 70
     0
300
2:1
140
2.0
141
1.0
290
     0
  0
SCALE
  5
55
102
{ACAD_REACTORS
330
47
102
}
330
47
100
AcDbScale
 70
     0
300
4:1
140
4.0
141
1.0
290
     0
  0
SCALE
  5
56
102
{ACAD_REACTORS
330
47
102
}
330
47
100
AcDbScale
 70
     0
300
8:1
140
8.0
141
1.0
290
     0
  0
SCALE
  5
57
102
{ACAD_REACTORS
330
47
102
}
330
47
100
AcDbScale
 70
     0
300
10:1
140
10.0
141
1.0
290
     0
  0
SCALE
  5
58
102
{ACAD_REACTORS
330
47
102
}
330
47
100
AcDbScale
 70
     0
300
100:1
140
100.0
141
1.0
290
     0
  0
SCALE
  5
59
102
{ACAD_REACTORS
330
47
102
}
330
47
100
AcDbScale
 70
     0
300
1/128" = 1'-0"
140
0.0078125
141
12.0
290
     0
  0
SCALE
  5
5A
102
{ACAD_REACTORS
330
47
102
}
330
47
100
AcDbScale
 70
     0
300
1/64" = 1'-0"
140
0.015625
141
12.0
290
     0
  0
SCALE
  5
5B
102
{ACAD_REACTORS
330
47
102
}
330
47
100
AcDbScale
 70
     0
300
1/32" = 1'-0"
140
0.03125
141
12.0
290
     0
  0
SCALE
  5
5C
102
{ACAD_REACTORS
330
47
102
}
330
47
100
AcDbScale
 70
     0
300
1/16" = 1'-0"
140
0.0625
141
12.0
290
     0
  0
SCALE
  5
5D
102
{ACAD_REACTORS
330
47
102
}
330
47
100
AcDbScale
 70
     0
300
3/32" = 1'-0"
140
0.09375
141
12.0
290
     0
  0
SCALE
  5
5E
102
{ACAD_REACTORS
330
47
102
}
330
47
100
AcDbScale
 70
     0
300
1/8" = 1'-0"
140
0.125
141
12.0
290
     0
  0
SCALE
  5
5F
102
{ACAD_REACTORS
330
47
102
}
330
47
100
AcDbScale
 70
     0
300
3/16" = 1'-0"
140
0.1875
141
12.0
290
     0
  0
SCALE
  5
60
102
{ACAD_REACTORS
330
47
102
}
330
47
100
AcDbScale
 70
     0
300
1/4" = 1'-0"
140
0.25
141
12.0
290
     0
  0
SCALE
  5
61
102
{ACAD_REACTORS
330
47
102
}
330
47
100
AcDbScale
 70
     0
300
3/8" = 1'-0"
140
0.375
141
12.0
290
     0
  0
SCALE
  5
62
102
{ACAD_REACTORS
330
47
102
}
330
47
100
AcDbScale
 70
     0
300
1/2" = 1'-0"
140
0.5
141
12.0
290
     0
  0
SCALE
  5
63
102
{ACAD_REACTORS
330
47
102
}
330
47
100
AcDbScale
 70
     0
300
3/4" = 1'-0"
140
0.75
141
12.0
290
     0
  0
SCALE
  5
64
102
{ACAD_REACTORS
330
47
102
}
330
47
100
AcDbScale
 70
     0
300
1" = 1'-0"
140
1.0
141
12.0
290
     0
  0
SCALE
  5
65
102
{ACAD_REACTORS
330
47
102
}
330
47
100
AcDbScale
 70
     0
300
1-1/2" = 1'-0"
140
1.5
141
12.0
290
     0
  0
SCALE
  5
66
102
{ACAD_REACTORS
330
47
102
}
330
47
100
AcDbScale
 70
     0
300
3" = 1'-0"
140
3.0
141
12.0
290
     0
  0
SCALE
  5
67
102
{ACAD_REACTORS
330
47
102
}
330
47
100
AcDbScale
 70
     0
300
6" = 1'-0"
140
6.0
141
12.0
290
     0
  0
SCALE
  5
68
102
{ACAD_REACTORS
330
47
102
}
330
47
100
AcDbScale
 70
     0
300
1'-0" = 1'-0"
140
12.0
141
12.0
290
     0
  0
ENDSEC
  0
EOF
