  0
SECTION
  2
HEADER
  9
$ACADVER
  1
AC1021
  9
$ACADMAINTVER
 70
    25
  9
$DWGCODEPAGE
  3
ANSI_1252
  9
$INSBASE
 10
0.0
 20
0.0
 30
0.0
  9
$EXTMIN
 10
0.0
 20
0.0
 30
0.0
  9
$EXTMAX
 10
297.0
 20
210.0
 30
0.0
  9
$LIMMIN
 10
0.0
 20
0.0
  9
$LIMMAX
 10
297.0
 20
210.0
  9
$ORTHOMODE
 70
     0
  9
$REGENMODE
 70
     1
  9
$FILLMODE
 70
     1
  9
$QTEXTMODE
 70
     0
  9
$MIRRTEXT
 70
     1
  9
$LTSCALE
 40
1.0
  9
$ATTMODE
 70
     1
  9
$TEXTSIZE
 40
3.5
  9
$TRACEWID
 40
1.0
  9
$TEXTSTYLE
  7
Standard
  9
$CLAYER
  8
0
  9
$CELTYPE
  6
ByLayer
  9
$CECOLOR
 62
   256
  9
$CELTSCALE
 40
1.0
  9
$DISPSILH
 70
     0
  9
$DIMSCALE
 40
1.0
  9
$DIMASZ
 40
3.302
  9
$DIMEXO
 40
1.0
  9
$DIMDLI
 40
3.75
  9
$DIMRND
 40
0.0
  9
$DIMDLE
 40
0.0
  9
$DIMEXE
 40
1.0
  9
$DIMTP
 40
0.0
  9
$DIMTM
 40
0.0
  9
$DIMTXT
 40
3.5
  9
$DIMCEN
 40
2.5
  9
$DIMTSZ
 40
0.0
  9
$DIMTOL
 70
     0
  9
$DIMLIM
 70
     0
  9
$DIMTIH
 70
     1
  9
$DIMTOH
 70
     1
  9
$DIMSE1
 70
     0
  9
$DIMSE2
 70
     0
  9
$DIMTAD
 70
     1
  9
$DIMZIN
 70
     0
  9
$DIMBLK
  1

  9
$DIMASO
 70
     1
  9
$DIMSHO
 70
     1
  9
$DIMPOST
  1

  9
$DIMAPOST
  1

  9
$DIMALT
 70
     0
  9
$DIMALTD
 70
     3
  9
$DIMALTF
 40
0.0393700787
  9
$DIMLFAC
 40
1.0
  9
$DIMTOFL
 70
     1
  9
$DIMTVP
 40
0.0
  9
$DIMTIX
 70
     0
  9
$DIMSOXD
 70
     0
  9
$DIMSAH
 70
     0
  9
$DIMBLK1
  1

  9
$DIMBLK2
  1

  9
$DIMSTYLE
  2
ISO-25
  9
$DIMCLRD
 70
     0
  9
$DIMCLRE
 70
     0
  9
$DIMCLRT
 70
     0
  9
$DIMTFAC
 40
1.0
  9
$DIMGAP
 40
3.0
  9
$DIMJUST
 70
     0
  9
$DIMSD1
 70
     0
  9
$DIMSD2
 70
     0
  9
$DIMTOLJ
 70
     0
  9
$DIMTZIN
 70
     0
  9
$DIMALTZ
 70
     0
  9
$DIMALTTZ
 70
     0
  9
$DIMUPT
 70
     0
  9
$DIMDEC
 70
     2
  9
$DIMTDEC
 70
     2
  9
$DIMALTU
 70
     2
  9
$DIMALTTD
 70
     3
  9
$DIMTXSTY
  7
Standard
  9
$DIMAUNIT
 70
     0
  9
$DIMADEC
 70
     2
  9
$DIMALTRND
 40
0.0
  9
$DIMAZIN
 70
     0
  9
$DIMDSEP
 70
    44
  9
$DIMATFIT
 70
     3
  9
$DIMFRAC
 70
     0
  9
$DIMLDRBLK
  1

  9
$DIMLUNIT
 70
     2
  9
$DIMLWD
 70
    -2
  9
$DIMLWE
 70
    -2
  9
$DIMTMOVE
 70
     0
  9
$DIMFXL
 40
1.0
  9
$DIMFXLON
 70
     0
  9
$DIMJOGANG
 40
0.7853981634
  9
$DIMTFILL
 70
     0
  9
$DIMTFILLCLR
 70
     0
  9
$DIMARCSYM
 70
     0
  9
$DIMLTYPE
  6

  9
$DIMLTEX1
  6

  9
$DIMLTEX2
  6

  9
$LUNITS
 70
     2
  9
$LUPREC
 70
     2
  9
$SKETCHINC
 40
1.0
  9
$FILLETRAD
 40
10.0
  9
$AUNITS
 70
     0
  9
$AUPREC
 70
     2
  9
$MENU
  1
.
  9
$ELEVATION
 40
0.0
  9
$PELEVATION
 40
0.0
  9
$THICKNESS
 40
0.0
  9
$LIMCHECK
 70
     0
  9
$CHAMFERA
 40
0.0
  9
$CHAMFERB
 40
0.0
  9
$CHAMFERC
 40
0.0
  9
$CHAMFERD
 40
0.0
  9
$SKPOLY
 70
     0
  9
$TDCREATE
 40
2458529.402791991
  9
$TDUCREATE
 40
2458529.361125324
  9
$TDUPDATE
 40
2458529.402795428
  9
$TDUUPDATE
 40
2458529.361128761
  9
$TDINDWG
 40
0.0000000116
  9
$TDUSRTIMER
 40
0.0000000116
  9
$USRTIMER
 70
     1
  9
$ANGBASE
 50
0.0
  9
$ANGDIR
 70
     0
  9
$PDMODE
 70
     0
  9
$PDSIZE
 40
-1.0
  9
$PLINEWID
 40
0.0
  9
$SPLFRAME
 70
     0
  9
$SPLINETYPE
 70
     6
  9
$SPLINESEGS
 70
     8
  9
$HANDSEED
  5
3F7
  9
$SURFTAB1
 70
     6
  9
$SURFTAB2
 70
     6
  9
$SURFTYPE
 70
     6
  9
$SURFU
 70
     6
  9
$SURFV
 70
     6
  9
$UCSBASE
  2

  9
$UCSNAME
  2

  9
$UCSORG
 10
0.0
 20
0.0
 30
0.0
  9
$UCSXDIR
 10
1.0
 20
0.0
 30
0.0
  9
$UCSYDIR
 10
0.0
 20
1.0
 30
0.0
  9
$UCSORTHOREF
  2

  9
$UCSORTHOVIEW
 70
     0
  9
$UCSORGTOP
 10
0.0
 20
0.0
 30
0.0
  9
$UCSORGBOTTOM
 10
0.0
 20
0.0
 30
0.0
  9
$UCSORGLEFT
 10
0.0
 20
0.0
 30
0.0
  9
$UCSORGRIGHT
 10
0.0
 20
0.0
 30
0.0
  9
$UCSORGFRONT
 10
0.0
 20
0.0
 30
0.0
  9
$UCSORGBACK
 10
0.0
 20
0.0
 30
0.0
  9
$PUCSBASE
  2

  9
$PUCSNAME
  2

  9
$PUCSORG
 10
0.0
 20
0.0
 30
0.0
  9
$PUCSXDIR
 10
1.0
 20
0.0
 30
0.0
  9
$PUCSYDIR
 10
0.0
 20
1.0
 30
0.0
  9
$PUCSORTHOREF
  2

  9
$PUCSORTHOVIEW
 70
     0
  9
$PUCSORGTOP
 10
0.0
 20
0.0
 30
0.0
  9
$PUCSORGBOTTOM
 10
0.0
 20
0.0
 30
0.0
  9
$PUCSORGLEFT
 10
0.0
 20
0.0
 30
0.0
  9
$PUCSORGRIGHT
 10
0.0
 20
0.0
 30
0.0
  9
$PUCSORGFRONT
 10
0.0
 20
0.0
 30
0.0
  9
$PUCSORGBACK
 10
0.0
 20
0.0
 30
0.0
  9
$USERI1
 70
     0
  9
$USERI2
 70
     0
  9
$USERI3
 70
     0
  9
$USERI4
 70
     0
  9
$USERI5
 70
     0
  9
$USERR1
 40
0.0
  9
$USERR2
 40
0.0
  9
$USERR3
 40
0.0
  9
$USERR4
 40
0.0
  9
$USERR5
 40
0.0
  9
$WORLDVIEW
 70
     1
  9
$SHADEDGE
 70
     3
  9
$SHADEDIF
 70
    70
  9
$TILEMODE
 70
     1
  9
$MAXACTVP
 70
    64
  9
$PINSBASE
 10
0.0
 20
0.0
 30
0.0
  9
$PLIMCHECK
 70
     0
  9
$PEXTMIN
 10
1.0000000000E+20
 20
1.0000000000E+20
 30
1.0000000000E+20
  9
$PEXTMAX
 10
-1.0000000000E+20
 20
-1.0000000000E+20
 30
-1.0000000000E+20
  9
$PLIMMIN
 10
0.0
 20
0.0
  9
$PLIMMAX
 10
420.0
 20
297.0
  9
$UNITMODE
 70
     0
  9
$VISRETAIN
 70
     1
  9
$PLINEGEN
 70
     0
  9
$PSLTSCALE
 70
     1
  9
$TREEDEPTH
 70
  3020
  9
$CMLSTYLE
  2
Standard
  9
$CMLJUST
 70
     0
  9
$CMLSCALE
 40
20.0
  9
$PROXYGRAPHICS
 70
     1
  9
$MEASUREMENT
 70
     1
  9
$CELWEIGHT
370
    -1
  9
$ENDCAPS
280
     0
  9
$JOINSTYLE
280
     0
  9
$LWDISPLAY
290
     1
  9
$INSUNITS
 70
     4
  9
$HYPERLINKBASE
  1

  9
$STYLESHEET
  1

  9
$XEDIT
290
     1
  9
$CEPSNTYPE
380
     0
  9
$PSTYLEMODE
290
     1
  9
$FINGERPRINTGUID
  2
{64A21677-D1A5-4184-A307-B497115B0A38}
  9
$VERSIONGUID
  2
{FAEB1C32-E019-11D5-929B-00C0DF256EC4}
  9
$EXTNAMES
290
     1
  9
$PSVPSCALE
 40
0.0
  9
$OLESTARTUP
290
     0
  9
$SORTENTS
280
   127
  9
$INDEXCTL
280
     0
  9
$HIDETEXT
280
     1
  9
$XCLIPFRAME
290
     0
  9
$HALOGAP
280
     0
  9
$OBSCOLOR
 70
   257
  9
$OBSLTYPE
280
     0
  9
$INTERSECTIONDISPLAY
280
     0
  9
$INTERSECTIONCOLOR
 70
   257
  9
$DIMASSOC
280
     2
  9
$PROJECTNAME
  1

  9
$CAMERADISPLAY
290
     0
  9
$LENSLENGTH
 40
50.0
  9
$CAMERAHEIGHT
 40
0.0
  9
$STEPSPERSEC
 40
2.0
  9
$STEPSIZE
 40
6.0
  9
$3DDWFPREC
 40
2.0
  9
$PSOLWIDTH
 40
5.0
  9
$PSOLHEIGHT
 40
80.0
  9
$LOFTANG1
 40
1.5707963268
  9
$LOFTANG2
 40
1.5707963268
  9
$LOFTMAG1
 40
0.0
  9
$LOFTMAG2
 40
0.0
  9
$LOFTPARAM
 70
     7
  9
$LOFTNORMALS
280
     1
  9
$LATITUDE
 40
37.795
  9
$LONGITUDE
 40
-122.394
  9
$NORTHDIRECTION
 40
0.0
  9
$TIMEZONE
 70
 -8000
  9
$LIGHTGLYPHDISPLAY
280
     1
  9
$TILEMODELIGHTSYNCH
280
     1
  9
$CMATERIAL
347
44
  9
$SOLIDHIST
280
     0
  9
$SHOWHIST
280
     1
  9
$DWFFRAME
280
     2
  9
$DGNFRAME
280
     2
  9
$REALWORLDSCALE
290
     1
  9
$INTERFERECOLOR
 62
   256
  9
$CSHADOW
280
     0
  9
$SHADOWPLANELOCATION
 40
0.0
  0
ENDSEC
  0
SECTION
  2
CLASSES
  0
CLASS
  1
ACDBDICTIONARYWDFLT
  2
AcDbDictionaryWithDefault
  3
ObjectDBX Classes
 90
        0
 91
        4
280
     0
281
     0
  0
CLASS
  1
VISUALSTYLE
  2
AcDbVisualStyle
  3
ObjectDBX Classes
 90
     4095
 91
        4
280
     0
281
     0
  0
CLASS
  1
MATERIAL
  2
AcDbMaterial
  3
ObjectDBX Classes
 90
     1153
 91
        4
280
     0
281
     0
  0
CLASS
  1
SCALE
  2
AcDbScale
  3
ObjectDBX Classes
 90
     1153
 91
        4
280
     0
281
     0
  0
CLASS
  1
TABLESTYLE
  2
AcDbTableStyle
  3
ObjectDBX Classes
 90
     4095
 91
        4
280
     0
281
     0
  0
CLASS
  1
MLEADERSTYLE
  2
AcDbMLeaderStyle
  3
ACDB_MLEADERSTYLE_CLASS
 90
     4095
 91
        4
280
     0
281
     0
  0
CLASS
  1
SUN
  2
AcDbSun
  3
SCENEOE
 90
     1153
 91
        4
280
     0
281
     0
  0
CLASS
  1
DICTIONARYVAR
  2
AcDbDictionaryVar
  3
ObjectDBX Classes
 90
        0
 91
        4
280
     0
281
     0
  0
CLASS
  1
CELLSTYLEMAP
  2
AcDbCellStyleMap
  3
ObjectDBX Classes
 90
     1152
 91
        4
280
     0
281
     0
  0
ENDSEC
  0
SECTION
  2
TABLES
  0
TABLE
  2
VPORT
  5
8
330
0
100
AcDbSymbolTable
 70
     1
  0
VPORT
  5
29
330
8
100
AcDbSymbolTableRecord
100
AcDbViewportTableRecord
  2
*Active
 70
     0
 10
0.0
 20
0.0
 11
1.0
 21
1.0
 12
148.5
 22
105.0
 13
0.0
 23
0.0
 14
10.0
 24
10.0
 15
10.0
 25
10.0
 16
0.0
 26
0.0
 36
1.0
 17
0.0
 27
0.0
 37
0.0
 40
210.0
 41
1.4142857143
 42
50.0
 43
0.0
 44
0.0
 50
0.0
 51
0.0
 71
     0
 72
  2000
 73
     1
 74
     3
 75
     0
 76
     0
 77
     0
 78
     0
281
     0
 65
     1
110
0.0
120
0.0
130
0.0
111
1.0
121
0.0
131
0.0
112
0.0
122
1.0
132
0.0
 79
     0
146
0.0
348
2F
 60
     3
 61
     5
292
     1
282
     1
141
0.0
142
0.0
 63
   250
361
6D
  0
ENDTAB
  0
TABLE
  2
LTYPE
  5
5
330
0
100
AcDbSymbolTable
 70
     6
  0
LTYPE
  5
14
330
5
100
AcDbSymbolTableRecord
100
AcDbLinetypeTableRecord
  2
ByBlock
 70
     0
  3

 72
    65
 73
     0
 40
0.0
  0
LTYPE
  5
15
330
5
100
AcDbSymbolTableRecord
100
AcDbLinetypeTableRecord
  2
ByLayer
 70
     0
  3

 72
    65
 73
     0
 40
0.0
  0
LTYPE
  5
16
330
5
100
AcDbSymbolTableRecord
100
AcDbLinetypeTableRecord
  2
Continuous
 70
     0
  3
Solid line
 72
    65
 73
     0
 40
0.0
  0
LTYPE
  5
6E
330
5
100
AcDbSymbolTableRecord
100
AcDbLinetypeTableRecord
  2
HIDDEN
 70
     0
  3
Hidden __ __ __ __ __ __ __ __ __ __ __ __ __ __
 72
    65
 73
     2
 40
1.905
 49
1.27
 74
     0
 49
-0.635
 74
     0
  0
LTYPE
  5
6F
330
5
100
AcDbSymbolTableRecord
100
AcDbLinetypeTableRecord
  2
PHANTOM
 70
     0
  3
Phantom ______  __  __  ______  __  __  ______
 72
    65
 73
     6
 40
12.7
 49
6.35
 74
     0
 49
-1.27
 74
     0
 49
1.27
 74
     0
 49
-1.27
 74
     0
 49
1.27
 74
     0
 49
-1.27
 74
     0
  0
LTYPE
  5
70
330
5
100
AcDbSymbolTableRecord
100
AcDbLinetypeTableRecord
  2
CENTER
 70
     0
  3
Center ____ _ ____ _ ____ _ ____ _ ____ _ ____
 72
    65
 73
     4
 40
10.16
 49
6.35
 74
     0
 49
-1.27
 74
     0
 49
1.27
 74
     0
 49
-1.27
 74
     0
  0
LTYPE
  5
71
330
5
100
AcDbSymbolTableRecord
100
AcDbLinetypeTableRecord
  2
CENTERX2
 70
     0
  3
Center (2x) ________  __  ________  __  _____
 72
    65
 73
     4
 40
20.32
 49
12.7
 74
     0
 49
-2.54
 74
     0
 49
2.54
 74
     0
 49
-2.54
 74
     0
  0
LTYPE
  5
72
330
5
100
AcDbSymbolTableRecord
100
AcDbLinetypeTableRecord
  2
DOT2
 70
     0
  3
Dot (.5x) ........................................
 72
    65
 73
     2
 40
0.635
 49
0.0
 74
     0
 49
-0.635
 74
     0
  0
ENDTAB
  0
TABLE
  2
LAYER
  5
2
330
0
100
AcDbSymbolTable
 70
     7
  0
LAYER
  5
10
330
2
100
AcDbSymbolTableRecord
100
AcDbLayerTableRecord
  2
0
 70
     0
 62
     7
  6
Continuous
370
    -3
390
F
347
46
  0
LAYER
  5
73
330
2
100
AcDbSymbolTableRecord
100
AcDbLayerTableRecord
  2
FORMAT
 70
     0
 62
     7
  6
Continuous
370
    -3
390
F
347
46
  0
LAYER
  5
74
330
2
100
AcDbSymbolTableRecord
100
AcDbLayerTableRecord
  2
VORLAGE
 70
     0
 62
     7
  6
Continuous
370
    -3
390
F
347
46
  0
LAYER
  5
75
330
2
100
AcDbSymbolTableRecord
100
AcDbLayerTableRecord
  2
1
 70
     0
 62
   179
  6
Continuous
370
    -3
390
F
347
46
  0
LAYER
  5
76
330
2
100
AcDbSymbolTableRecord
100
AcDbLayerTableRecord
  2
LAYER0
 70
     0
 62
     7
  6
Continuous
370
    -3
390
F
347
46
  0
LAYER
  5
77
330
2
100
AcDbSymbolTableRecord
100
AcDbLayerTableRecord
  2
BEMASSUNG
 70
     0
 62
     1
  6
Continuous
370
    -3
390
F
347
46
  0
LAYER
  5
78
330
2
100
AcDbSymbolTableRecord
100
AcDbLayerTableRecord
  2
ÄNDERUNG
 70
     0
 62
     1
  6
Continuous
370
    -3
390
F
347
46
  0
ENDTAB
  0
TABLE
  2
STYLE
  5
3
330
0
100
AcDbSymbolTable
 70
     4
  0
STYLE
  5
11
330
3
100
AcDbSymbolTableRecord
100
AcDbTextStyleTableRecord
  2
Standard
 70
     0
 40
0.0
 41
1.0
 50
0.0
 71
     0
 42
3.5
  3
txt
  4

  0
STYLE
  5
86
330
3
100
AcDbSymbolTableRecord
100
AcDbTextStyleTableRecord
  2
SLDTEXTSTYLE0
 70
     0
 40
0.0
 41
0.605
 50
0.0
 71
     0
 42
3.5
  3
TXT
  4

  0
STYLE
  5
AE
330
3
100
AcDbSymbolTableRecord
100
AcDbTextStyleTableRecord
  2
SLDTEXTSTYLE1
 70
     0
 40
0.0
 41
0.5668181818
 50
0.0
 71
     0
 42
3.5
  3
TXT
  4

  0
STYLE
  5
D2
330
3
100
AcDbSymbolTableRecord
100
AcDbTextStyleTableRecord
  2
SLDTEXTSTYLE2
 70
     0
 40
0.0
 41
0.7
 50
0.0
 71
     0
 42
3.5
  3
TXT
  4

  0
ENDTAB
  0
TABLE
  2
VIEW
  5
6
330
0
100
AcDbSymbolTable
 70
     0
  0
ENDTAB
  0
TABLE
  2
UCS
  5
7
330
0
100
AcDbSymbolTable
 70
     0
  0
ENDTAB
  0
TABLE
  2
APPID
  5
9
330
0
100
AcDbSymbolTable
 70
     2
  0
APPID
  5
12
330
9
100
AcDbSymbolTableRecord
100
AcDbRegAppTableRecord
  2
ACAD
 70
     0
  0
APPID
  5
3F1
330
9
100
AcDbSymbolTableRecord
100
AcDbRegAppTableRecord
  2
ACAD_MLEADERVER
 70
     0
  0
ENDTAB
  0
TABLE
  2
DIMSTYLE
  5
A
330
0
100
AcDbSymbolTable
 70
     5
100
AcDbDimStyleTable
  0
DIMSTYLE
105
27
330
A
100
AcDbSymbolTableRecord
100
AcDbDimStyleTableRecord
  2
ISO-25
 70
     0
 41
2.5
 42
0.625
 43
3.75
 44
1.25
 73
     0
 74
     0
 77
     1
 78
     8
140
2.5
141
2.5
143
0.0393700787
147
0.625
171
     3
172
     1
178
     0
271
     2
272
     2
274
     3
278
    44
283
     0
284
     8
340
11
  0
DIMSTYLE
105
26F
102
{ACAD_REACTORS
330
26E
330
279
330
28C
330
297
330
2A1
330
2AB
330
2B5
330
2BF
330
2C8
330
2DD
330
2E7
330
37F
330
3B5
330
3D7
102
}
330
A
100
AcDbSymbolTableRecord
100
AcDbDimStyleTableRecord
  2
SLDDIMSTYLE0
 70
     0
 41
3.302
 44
0.0
 45
0.000000001
 73
     0
 74
     0
 77
     1
 78
    12
 79
     3
140
3.5
147
0.875
173
     1
178
     0
271
     2
272
     2
276
     2
284
    12
340
86
  0
DIMSTYLE
105
285
102
{ACAD_REACTORS
330
284
102
}
330
A
100
AcDbSymbolTableRecord
100
AcDbDimStyleTableRecord
  2
SLDDIMSTYLE1
 70
     0
 41
3.302
 44
0.0
 45
0.000000001
 73
     0
 74
     0
 77
     1
 78
    12
 79
     3
140
3.5
141
0.0
147
0.875
173
     1
178
     0
271
     2
272
     2
276
     2
284
    12
340
86
  0
DIMSTYLE
105
2D2
102
{ACAD_REACTORS
330
2D1
330
35A
330
372
330
3BF
330
3CB
102
}
330
A
100
AcDbSymbolTableRecord
100
AcDbDimStyleTableRecord
  2
SLDDIMSTYLE2
 70
     0
 41
3.302
 44
0.0
 45
0.000000001
 73
     0
 74
     0
 77
     1
 78
    12
 79
     3
140
3.5
147
0.875
172
     1
173
     1
178
     0
271
     2
272
     2
276
     2
284
    12
289
     0
340
86
  0
DIMSTYLE
105
368
102
{ACAD_REACTORS
330
367
102
}
330
A
100
AcDbSymbolTableRecord
100
AcDbDimStyleTableRecord
  2
SLDDIMSTYLE3
 70
     0
 41
3.302
 44
0.0
 73
     0
 74
     0
 77
     1
 78
    12
 79
     3
140
3.5
147
0.875
173
     1
178
     0
179
     2
272
     2
276
     2
284
    12
340
86
  0
ENDTAB
  0
TABLE
  2
BLOCK_RECORD
  5
1
330
0
100
AcDbSymbolTable
 70
    43
  0
BLOCK_RECORD
  5
1F
330
1
100
AcDbSymbolTableRecord
100
AcDbBlockTableRecord
  2
*Model_Space
340
22
 70
     0
280
     1
281
     0
  0
BLOCK_RECORD
  5
1B
330
1
100
AcDbSymbolTableRecord
100
AcDbBlockTableRecord
  2
*Paper_Space
340
1E
 70
     0
280
     1
281
     0
  0
BLOCK_RECORD
  5
23
330
1
100
AcDbSymbolTableRecord
100
AcDbBlockTableRecord
  2
*Paper_Space0
340
26
 70
     0
280
     1
281
     0
  0
BLOCK_RECORD
  5
79
330
1
100
AcDbSymbolTableRecord
100
AcDbBlockTableRecord
  2
Schleifrichtung+mattiert
340
0
 70
     0
280
     1
281
     0
  0
BLOCK_RECORD
  5
89
330
1
100
AcDbSymbolTableRecord
100
AcDbBlockTableRecord
  2
Schleifrichtungspfeil senkrecht
340
0
 70
     0
280
     1
281
     0
  0
BLOCK_RECORD
  5
91
330
1
100
AcDbSymbolTableRecord
100
AcDbBlockTableRecord
  2
Block1
340
0
 70
     0
280
     1
281
     0
  0
BLOCK_RECORD
  5
9D
330
1
100
AcDbSymbolTableRecord
100
AcDbBlockTableRecord
  2
Block1_2
340
0
102
{BLKREFS
331
132
102
}
 70
     0
280
     1
281
     0
  0
BLOCK_RECORD
  5
AB
330
1
100
AcDbSymbolTableRecord
100
AcDbBlockTableRecord
  2
SW_NOTE_0
340
0
102
{BLKREFS
331
B1
102
}
 70
     0
280
     1
281
     0
  0
BLOCK_RECORD
  5
B2
330
1
100
AcDbSymbolTableRecord
100
AcDbBlockTableRecord
  2
Block2_2
340
0
102
{BLKREFS
331
131
102
}
 70
     0
280
     1
281
     0
  0
BLOCK_RECORD
  5
D4
330
1
100
AcDbSymbolTableRecord
100
AcDbBlockTableRecord
  2
SW_NOTE_1
340
0
102
{BLKREFS
331
DA
102
}
 70
     0
280
     1
281
     0
  0
BLOCK_RECORD
  5
DB
330
1
100
AcDbSymbolTableRecord
100
AcDbBlockTableRecord
  2
Block1_3_1_1
340
0
 70
     0
280
     1
281
     0
  0
BLOCK_RECORD
  5
E9
330
1
100
AcDbSymbolTableRecord
100
AcDbBlockTableRecord
  2
SW_NOTE_2
340
0
102
{BLKREFS
331
EE
102
}
 70
     0
280
     1
281
     0
  0
BLOCK_RECORD
  5
EF
330
1
100
AcDbSymbolTableRecord
100
AcDbBlockTableRecord
  2
Block2_3_1_1
340
0
 70
     0
280
     1
281
     0
  0
BLOCK_RECORD
  5
110
330
1
100
AcDbSymbolTableRecord
100
AcDbBlockTableRecord
  2
SW_NOTE_3
340
0
102
{BLKREFS
331
116
102
}
 70
     0
280
     1
281
     0
  0
BLOCK_RECORD
  5
117
330
1
100
AcDbSymbolTableRecord
100
AcDbBlockTableRecord
  2
rechtlicher_Hinweis_Katalogzeichnungen_1_1
340
0
 70
     0
280
     1
281
     0
  0
BLOCK_RECORD
  5
11A
330
1
100
AcDbSymbolTableRecord
100
AcDbBlockTableRecord
  2
SW_NOTE_4
340
0
102
{BLKREFS
331
122
102
}
 70
     0
280
     1
281
     0
  0
BLOCK_RECORD
  5
144
330
1
100
AcDbSymbolTableRecord
100
AcDbBlockTableRecord
  2
SW_NOTE_5
340
0
102
{BLKREFS
331
14E
102
}
 70
     0
280
     1
281
     0
  0
BLOCK_RECORD
  5
270
330
1
100
AcDbSymbolTableRecord
100
AcDbBlockTableRecord
  2
_D
340
0
 70
     0
280
     1
281
     0
  0
BLOCK_RECORD
  5
27A
330
1
100
AcDbSymbolTableRecord
100
AcDbBlockTableRecord
  2
_D_1
340
0
 70
     0
280
     1
281
     0
  0
BLOCK_RECORD
  5
286
330
1
100
AcDbSymbolTableRecord
100
AcDbBlockTableRecord
  2
_D_2
340
0
 70
     0
280
     1
281
     0
  0
BLOCK_RECORD
  5
28D
330
1
100
AcDbSymbolTableRecord
100
AcDbBlockTableRecord
  2
_D_3
340
0
 70
     0
280
     1
281
     0
  0
BLOCK_RECORD
  5
298
330
1
100
AcDbSymbolTableRecord
100
AcDbBlockTableRecord
  2
_D_4
340
0
 70
     0
280
     1
281
     0
  0
BLOCK_RECORD
  5
2A2
330
1
100
AcDbSymbolTableRecord
100
AcDbBlockTableRecord
  2
_D_5
340
0
 70
     0
280
     1
281
     0
  0
BLOCK_RECORD
  5
2AC
330
1
100
AcDbSymbolTableRecord
100
AcDbBlockTableRecord
  2
_D_6
340
0
 70
     0
280
     1
281
     0
  0
BLOCK_RECORD
  5
2B6
330
1
100
AcDbSymbolTableRecord
100
AcDbBlockTableRecord
  2
_D_7
340
0
 70
     0
280
     1
281
     0
  0
BLOCK_RECORD
  5
2C0
330
1
100
AcDbSymbolTableRecord
100
AcDbBlockTableRecord
  2
_D_8
340
0
 70
     0
280
     1
281
     0
  0
BLOCK_RECORD
  5
2C9
330
1
100
AcDbSymbolTableRecord
100
AcDbBlockTableRecord
  2
_D_9
340
0
 70
     0
280
     1
281
     0
  0
BLOCK_RECORD
  5
2D3
330
1
100
AcDbSymbolTableRecord
100
AcDbBlockTableRecord
  2
_D_10
340
0
 70
     0
280
     1
281
     0
  0
BLOCK_RECORD
  5
2DE
330
1
100
AcDbSymbolTableRecord
100
AcDbBlockTableRecord
  2
_D_11
340
0
 70
     0
280
     1
281
     0
  0
BLOCK_RECORD
  5
2E8
330
1
100
AcDbSymbolTableRecord
100
AcDbBlockTableRecord
  2
_D_12
340
0
 70
     0
280
     1
281
     0
  0
BLOCK_RECORD
  5
2F1
330
1
100
AcDbSymbolTableRecord
100
AcDbBlockTableRecord
  2
SW_CENTERMARKSYMBOL_0
340
0
102
{BLKREFS
331
2FC
102
}
 70
     0
280
     1
281
     0
  0
BLOCK_RECORD
  5
2FD
330
1
100
AcDbSymbolTableRecord
100
AcDbBlockTableRecord
  2
SW_CENTERMARKSYMBOL_1
340
0
102
{BLKREFS
331
308
102
}
 70
     0
280
     1
281
     0
  0
BLOCK_RECORD
  5
309
330
1
100
AcDbSymbolTableRecord
100
AcDbBlockTableRecord
  2
SW_CENTERMARKSYMBOL_2
340
0
102
{BLKREFS
331
314
102
}
 70
     0
280
     1
281
     0
  0
BLOCK_RECORD
  5
315
330
1
100
AcDbSymbolTableRecord
100
AcDbBlockTableRecord
  2
SW_CENTERMARKSYMBOL_3
340
0
102
{BLKREFS
331
320
102
}
 70
     0
280
     1
281
     0
  0
BLOCK_RECORD
  5
321
330
1
100
AcDbSymbolTableRecord
100
AcDbBlockTableRecord
  2
SW_CENTERMARKSYMBOL_4
340
0
102
{BLKREFS
331
32C
102
}
 70
     0
280
     1
281
     0
  0
BLOCK_RECORD
  5
35B
330
1
100
AcDbSymbolTableRecord
100
AcDbBlockTableRecord
  2
_D_13
340
0
 70
     0
280
     1
281
     0
  0
BLOCK_RECORD
  5
369
330
1
100
AcDbSymbolTableRecord
100
AcDbBlockTableRecord
  2
_D_14
340
0
 70
     0
280
     1
281
     0
  0
BLOCK_RECORD
  5
373
330
1
100
AcDbSymbolTableRecord
100
AcDbBlockTableRecord
  2
_D_15
340
0
 70
     0
280
     1
281
     0
  0
BLOCK_RECORD
  5
380
330
1
100
AcDbSymbolTableRecord
100
AcDbBlockTableRecord
  2
_D_16
340
0
 70
     0
280
     1
281
     0
  0
BLOCK_RECORD
  5
38A
330
1
100
AcDbSymbolTableRecord
100
AcDbBlockTableRecord
  2
SW_CENTERMARKSYMBOL_5
340
0
102
{BLKREFS
331
395
102
}
 70
     0
280
     1
281
     0
  0
BLOCK_RECORD
  5
3B6
330
1
100
AcDbSymbolTableRecord
100
AcDbBlockTableRecord
  2
_D_17
340
0
 70
     0
280
     1
281
     0
  0
BLOCK_RECORD
  5
3C0
330
1
100
AcDbSymbolTableRecord
100
AcDbBlockTableRecord
  2
_D_18
340
0
 70
     0
280
     1
281
     0
  0
BLOCK_RECORD
  5
3CC
330
1
100
AcDbSymbolTableRecord
100
AcDbBlockTableRecord
  2
_D_19
340
0
 70
     0
280
     1
281
     0
  0
BLOCK_RECORD
  5
3D8
330
1
100
AcDbSymbolTableRecord
100
AcDbBlockTableRecord
  2
_D_20
340
0
 70
     0
280
     1
281
     0
  0
BLOCK_RECORD
  5
3E1
330
1
100
AcDbSymbolTableRecord
100
AcDbBlockTableRecord
  2
SW_CENTERMARKSYMBOL_6
340
0
102
{BLKREFS
331
3EC
102
}
 70
     0
280
     1
281
     0
  0
ENDTAB
  0
ENDSEC
  0
SECTION
  2
BLOCKS
  0
BLOCK
  5
20
330
1F
100
AcDbEntity
  8
0
100
AcDbBlockBegin
  2
*Model_Space
 70
     0
 10
0.0
 20
0.0
 30
0.0
  3
*Model_Space
  1

  0
ENDBLK
  5
21
330
1F
100
AcDbEntity
  8
0
100
AcDbBlockEnd
  0
BLOCK
  5
1C
330
1B
100
AcDbEntity
 67
     1
  8
0
100
AcDbBlockBegin
  2
*Paper_Space
 70
     0
 10
0.0
 20
0.0
 30
0.0
  3
*Paper_Space
  1

  0
ENDBLK
  5
1D
330
1B
100
AcDbEntity
 67
     1
  8
0
100
AcDbBlockEnd
  0
BLOCK
  5
24
330
23
100
AcDbEntity
  8
0
100
AcDbBlockBegin
  2
*Paper_Space0
 70
     0
 10
0.0
 20
0.0
 30
0.0
  3
*Paper_Space0
  1

  0
ENDBLK
  5
25
330
23
100
AcDbEntity
  8
0
100
AcDbBlockEnd
  0
BLOCK
  5
7A
330
79
100
AcDbEntity
  8
0
100
AcDbBlockBegin
  2
Schleifrichtung+mattiert
 70
     0
 10
0.0
 20
0.0
 30
0.0
  3
Schleifrichtung+mattiert
  1

  0
LINE
  5
7C
330
79
100
AcDbEntity
  8
0
  6
CENTER
 62
     7
370
    25
100
AcDbLine
 10
257.5643835569
 20
128.8441861289
 30
0.0
 11
277.114664664
 21
128.8441861289
 31
0.0
  0
LINE
  5
7D
330
79
100
AcDbEntity
  8
FORMAT
370
    18
100
AcDbLine
 10
204.5055437613
 20
129.9367184644
 30
0.0
 11
212.5055437613
 21
129.9367184644
 31
0.0
  0
LINE
  5
7E
330
79
100
AcDbEntity
  8
FORMAT
370
    25
100
AcDbLine
 10
201.0055437613
 20
129.9367184644
 30
0.0
 11
204.5055437613
 21
130.3975022059
 31
0.0
  0
LINE
  5
7F
330
79
100
AcDbEntity
  8
FORMAT
370
    25
100
AcDbLine
 10
204.5055437613
 20
130.3975022059
 30
0.0
 11
204.5055437613
 21
129.4759347228
 31
0.0
  0
LINE
  5
80
330
79
100
AcDbEntity
  8
FORMAT
370
    25
100
AcDbLine
 10
204.5055437613
 20
129.4759347228
 30
0.0
 11
201.0055437613
 21
129.9367184644
 31
0.0
  0
LINE
  5
81
330
79
100
AcDbEntity
  8
FORMAT
  6
Continuous
 62
     7
370
    25
100
AcDbLine
 10
212.5055437613
 20
130.3975022059
 30
0.0
 11
212.5055437613
 21
129.4759347228
 31
0.0
  0
LINE
  5
82
330
79
100
AcDbEntity
  8
FORMAT
  6
Continuous
 62
     7
370
    25
100
AcDbLine
 10
212.5055437613
 20
129.4759347228
 30
0.0
 11
216.0055437613
 21
129.9367184644
 31
0.0
  0
LINE
  5
83
330
79
100
AcDbEntity
  8
FORMAT
  6
Continuous
 62
     7
370
    25
100
AcDbLine
 10
216.0055437613
 20
129.9367184644
 30
0.0
 11
212.5055437613
 21
130.3975022059
 31
0.0
  0
HATCH
  5
84
330
79
100
AcDbEntity
  8
0
  6
Continuous
 62
     7
100
AcDbHatch
 10
0.0
 20
0.0
 30
0.0
210
0.0
220
0.0
230
1.0
  2
SOLID
 70
     1
 71
     0
 91
        1
 92
        0
 93
        3
 72
     1
 10
201.0055437612864
 20
129.9367184643777
 11
204.5055437612864
 21
129.4759347228218
 72
     1
 10
204.5055437612864
 20
129.4759347228218
 11
204.5055437612864
 21
130.3975022059335
 72
     1
 10
204.5055437612864
 20
130.3975022059335
 11
201.0055437612864
 21
129.9367184643777
 97
        0
 75
     0
 76
     1
 98
        1
 10
0.0
 20
0.0
  0
HATCH
  5
85
330
79
100
AcDbEntity
  8
0
  6
Continuous
 62
     7
100
AcDbHatch
 10
0.0
 20
0.0
 30
0.0
210
0.0
220
0.0
230
1.0
  2
SOLID
 70
     1
 71
     0
 91
        1
 92
        0
 93
        3
 72
     1
 10
212.5055437612864
 20
129.4759347228218
 11
216.0055437612864
 21
129.9367184643776
 72
     1
 10
216.0055437612864
 20
129.9367184643776
 11
212.5055437612864
 21
130.3975022059335
 72
     1
 10
212.5055437612864
 20
130.3975022059335
 11
212.5055437612864
 21
129.4759347228218
 97
        0
 75
     0
 76
     1
 98
        1
 10
0.0
 20
0.0
  0
MTEXT
  5
87
330
79
100
AcDbEntity
  8
FORMAT
100
AcDbMText
 10
279.6337272995
 20
131.4082109767
 30
0.0
 40
3.5
 41
0.0
 46
0.0
 71
     1
 72
     1
  1
mattiert
  7
SLDTEXTSTYLE0
 73
     1
 44
1.0
  0
MTEXT
  5
88
330
79
100
AcDbEntity
  8
0
  6
Continuous
 62
     7
370
     0
100
AcDbMText
 10
218.8952299572
 20
131.9337401116
 30
0.0
 40
3.5
 41
0.0
 46
0.0
 71
     1
 72
     1
  1
Schleifrichtung
  7
SLDTEXTSTYLE0
 73
     1
 44
1.0
  0
ENDBLK
  5
7B
330
79
100
AcDbEntity
  8
0
100
AcDbBlockEnd
  0
BLOCK
  5
8A
330
89
100
AcDbEntity
  8
0
100
AcDbBlockBegin
  2
Schleifrichtungspfeil senkrecht
 70
     0
 10
0.0
 20
0.0
 30
0.0
  3
Schleifrichtungspfeil senkrecht
  1

  0
LINE
  5
8C
330
89
100
AcDbEntity
  8
0
  6
Continuous
 62
     7
370
    18
100
AcDbLine
 10
-180.2961675747
 20
161.707847149
 30
0.0
 11
-180.2961675747
 21
153.5890355268
 31
0.0
  0
HATCH
  5
8D
330
89
100
AcDbEntity
  8
FORMAT
100
AcDbHatch
 10
0.0
 20
0.0
 30
0.0
210
0.0
220
0.0
230
1.0
  2
SOLID
 70
     1
 71
     0
 91
        1
 92
        0
 93
        3
 72
     1
 10
-180.2797164503988
 20
165.1487704095346
 11
-180.7405001919547
 21
161.6487704095346
 72
     1
 10
-180.7405001919547
 20
161.6487704095346
 11
-180.2797164503988
 21
161.6487704095346
 72
     1
 10
-180.2797164503988
 20
161.6487704095346
 11
-180.2797164503988
 21
165.1487704095346
 97
        0
 75
     0
 76
     1
 98
        1
 10
0.0
 20
0.0
  0
HATCH
  5
8E
330
89
100
AcDbEntity
  8
FORMAT
100
AcDbHatch
 10
0.0
 20
0.0
 30
0.0
210
0.0
220
0.0
230
1.0
  2
SOLID
 70
     1
 71
     0
 91
        1
 92
        0
 93
        3
 72
     1
 10
-180.2797164503988
 20
161.6487704095346
 11
-179.818932708843
 21
161.6487704095346
 72
     1
 10
-179.818932708843
 20
161.6487704095346
 11
-180.2797164503988
 21
165.1487704095346
 72
     1
 10
-180.2797164503988
 20
165.1487704095346
 11
-180.2797164503988
 21
161.6487704095346
 97
        0
 75
     0
 76
     1
 98
        1
 10
0.0
 20
0.0
  0
HATCH
  5
8F
330
89
100
AcDbEntity
  8
FORMAT
100
AcDbHatch
 10
0.0
 20
0.0
 30
0.0
210
0.0
220
0.0
230
1.0
  2
SOLID
 70
     1
 71
     0
 91
        1
 92
        0
 93
        3
 72
     1
 10
-180.2797164503988
 20
153.6487704095346
 11
-180.7405001919547
 21
153.6487704095346
 72
     1
 10
-180.7405001919547
 20
153.6487704095346
 11
-180.2797164503988
 21
150.1487704095346
 72
     1
 10
-180.2797164503988
 20
150.1487704095346
 11
-180.2797164503988
 21
153.6487704095346
 97
        0
 75
     0
 76
     1
 98
        1
 10
0.0
 20
0.0
  0
HATCH
  5
90
330
89
100
AcDbEntity
  8
FORMAT
100
AcDbHatch
 10
0.0
 20
0.0
 30
0.0
210
0.0
220
0.0
230
1.0
  2
SOLID
 70
     1
 71
     0
 91
        1
 92
        0
 93
        3
 72
     1
 10
-180.2797164503988
 20
150.1487704095346
 11
-179.8189327088429
 21
153.6487704095346
 72
     1
 10
-179.8189327088429
 20
153.6487704095346
 11
-180.2797164503988
 21
153.6487704095346
 72
     1
 10
-180.2797164503988
 20
153.6487704095346
 11
-180.2797164503988
 21
150.1487704095346
 97
        0
 75
     0
 76
     1
 98
        1
 10
0.0
 20
0.0
  0
ENDBLK
  5
8B
330
89
100
AcDbEntity
  8
0
100
AcDbBlockEnd
  0
BLOCK
  5
92
330
91
100
AcDbEntity
  8
0
100
AcDbBlockBegin
  2
Block1
 70
     0
 10
0.0
 20
0.0
 30
0.0
  3
Block1
  1

  0
LINE
  5
94
330
91
100
AcDbEntity
  8
FORMAT
370
    25
100
AcDbLine
 10
236.8560112868
 20
65.9690166542
 30
0.0
 11
240.8560112868
 21
65.9690166542
 31
0.0
  0
LINE
  5
95
330
91
100
AcDbEntity
  8
FORMAT
370
    25
100
AcDbLine
 10
235.1060112868
 20
65.9690166542
 30
0.0
 11
236.8560112868
 21
66.199408525
 31
0.0
  0
LINE
  5
96
330
91
100
AcDbEntity
  8
FORMAT
370
    25
100
AcDbLine
 10
236.8560112868
 20
66.199408525
 30
0.0
 11
236.8560112868
 21
65.7386247835
 31
0.0
  0
LINE
  5
97
330
91
100
AcDbEntity
  8
FORMAT
370
    25
100
AcDbLine
 10
236.8560112868
 20
65.7386247835
 30
0.0
 11
235.1060112868
 21
65.9690166542
 31
0.0
  0
LINE
  5
98
330
91
100
AcDbEntity
  8
FORMAT
  6
Continuous
 62
     7
370
    25
100
AcDbLine
 10
240.8560112868
 20
66.199408525
 30
0.0
 11
240.8560112868
 21
65.7386247835
 31
0.0
  0
LINE
  5
99
330
91
100
AcDbEntity
  8
FORMAT
  6
Continuous
 62
     7
370
    25
100
AcDbLine
 10
240.8560112868
 20
65.7386247835
 30
0.0
 11
242.6060112868
 21
65.9690166542
 31
0.0
  0
LINE
  5
9A
330
91
100
AcDbEntity
  8
FORMAT
  6
Continuous
 62
     7
370
    25
100
AcDbLine
 10
242.6060112868
 20
65.9690166542
 30
0.0
 11
240.8560112868
 21
66.199408525
 31
0.0
  0
HATCH
  5
9B
330
91
100
AcDbEntity
  8
0
  6
Continuous
 62
     7
100
AcDbHatch
 10
0.0
 20
0.0
 30
0.0
210
0.0
220
0.0
230
1.0
  2
SOLID
 70
     1
 71
     0
 91
        1
 92
        0
 93
        3
 72
     1
 10
235.1060112868415
 20
65.96901665423289
 11
236.8560112868416
 21
65.73862478345495
 72
     1
 10
236.8560112868416
 20
65.73862478345495
 11
236.8560112868416
 21
66.19940852501082
 72
     1
 10
236.8560112868416
 20
66.19940852501082
 11
235.1060112868415
 21
65.96901665423289
 97
        0
 75
     0
 76
     1
 98
        1
 10
0.0
 20
0.0
  0
HATCH
  5
9C
330
91
100
AcDbEntity
  8
0
  6
Continuous
 62
     7
100
AcDbHatch
 10
0.0
 20
0.0
 30
0.0
210
0.0
220
0.0
230
1.0
  2
SOLID
 70
     1
 71
     0
 91
        1
 92
        0
 93
        3
 72
     1
 10
240.8560112868416
 20
65.73862478345495
 11
242.6060112868416
 21
65.96901665423289
 72
     1
 10
242.6060112868416
 20
65.96901665423289
 11
240.8560112868416
 21
66.19940852501081
 72
     1
 10
240.8560112868416
 20
66.19940852501081
 11
240.8560112868416
 21
65.73862478345495
 97
        0
 75
     0
 76
     1
 98
        1
 10
0.0
 20
0.0
  0
ENDBLK
  5
93
330
91
100
AcDbEntity
  8
0
100
AcDbBlockEnd
  0
BLOCK
  5
9E
330
9D
100
AcDbEntity
  8
0
100
AcDbBlockBegin
  2
Block1_2
 70
     0
 10
0.0
 20
0.0
 30
0.0
  3
Block1_2
  1

  0
CIRCLE
  5
A0
330
9D
100
AcDbEntity
  8
0
  6
Continuous
 62
     7
370
    18
100
AcDbCircle
 10
11.6137544821
 20
9.0896586992
 30
0.0
 40
1.255909011058753
  0
CIRCLE
  5
A1
330
9D
100
AcDbEntity
  8
0
  6
Continuous
 62
     7
370
    18
100
AcDbCircle
 10
11.6137544821
 20
9.0896586992
 30
0.0
 40
2.216014863655655
  0
LINE
  5
A2
330
9D
100
AcDbEntity
  8
0
  6
CENTERX2
 62
     7
370
    18
100
AcDbLine
 10
11.6137544821
 20
9.0896586992
 30
0.0
 11
7.8977396184
 21
9.0896586992
 31
0.0
  0
LINE
  5
A3
330
9D
100
AcDbEntity
  8
0
  6
Continuous
 62
     7
370
    18
100
AcDbLine
 10
8.165753588
 20
6.8736438356
 30
0.0
 11
8.165753588
 21
11.3071584591
 31
0.0
  0
LINE
  5
A4
330
9D
100
AcDbEntity
  8
0
  6
Continuous
 62
     7
370
    18
100
AcDbLine
 10
2.6797147895
 20
10.3455677103
 30
0.0
 11
2.6797147895
 21
7.8337496881
 31
0.0
  0
LINE
  5
A5
330
9D
100
AcDbEntity
  8
0
  6
Continuous
 62
     7
370
    18
100
AcDbLine
 10
2.6797147895
 20
7.8337496881
 30
0.0
 11
8.165753588
 21
6.8736438356
 31
0.0
  0
LINE
  5
A6
330
9D
100
AcDbEntity
  8
0
  6
CENTERX2
 62
     7
370
    18
100
AcDbLine
 10
9.665753588
 20
9.0896586992
 30
0.0
 11
1.1797147895
 21
9.0896586992
 31
0.0
  0
LINE
  5
A7
330
9D
100
AcDbEntity
  8
0
  6
Continuous
 62
     7
370
    18
100
AcDbLine
 10
8.165753588
 20
11.3071584591
 30
0.0
 11
2.6797147895
 21
10.3455677103
 31
0.0
  0
LINE
  5
A8
330
9D
100
AcDbEntity
  8
0
  6
CENTERX2
 62
     7
370
    18
100
AcDbLine
 10
11.6137544821
 20
9.0896586992
 30
0.0
 11
11.6137544821
 21
5.3736438356
 31
0.0
  0
LINE
  5
A9
330
9D
100
AcDbEntity
  8
0
  6
CENTERX2
 62
     7
370
    18
100
AcDbLine
 10
11.6137544821
 20
9.0896586992
 30
0.0
 11
11.6137544821
 21
12.8056735629
 31
0.0
  0
LINE
  5
AA
330
9D
100
AcDbEntity
  8
0
  6
CENTERX2
 62
     7
370
    18
100
AcDbLine
 10
11.6137544821
 20
9.0896586992
 30
0.0
 11
15.3297693458
 21
9.0896586992
 31
0.0
  0
INSERT
  5
B1
330
9D
100
AcDbEntity
  8
0
  6
Continuous
 62
     7
370
     0
100
AcDbBlockReference
  2
SW_NOTE_0
 10
2.1031832889
 20
2.3754472768
 30
0.0
  0
ENDBLK
  5
9F
330
9D
100
AcDbEntity
  8
0
100
AcDbBlockEnd
  0
BLOCK
  5
AC
330
AB
100
AcDbEntity
  8
0
100
AcDbBlockBegin
  2
SW_NOTE_0
 70
     0
 10
0.0
 20
0.0
 30
0.0
  3
SW_NOTE_0
  1

  0
MTEXT
  5
AF
330
AB
100
AcDbEntity
  8
0
  6
Continuous
 62
     0
370
     0
100
AcDbMText
 10
6.234375
 20
2.4492287056
 30
0.0
 40
1.9
 41
0.0
 46
0.0
 71
     2
 72
     1
  1
DIN 6  T1 -
  7
SLDTEXTSTYLE1
 73
     1
 44
1.0
  0
MTEXT
  5
B0
330
AB
100
AcDbEntity
  8
0
  6
Continuous
 62
     0
370
     0
100
AcDbMText
 10
6.6569262624
 20
0.0003397443
 30
0.0
 40
1.9
 41
0.0
 46
0.0
 71
     2
 72
     1
  1
Proj.methode 1
  7
SLDTEXTSTYLE0
 73
     1
 44
1.0
  0
ENDBLK
  5
AD
330
AB
100
AcDbEntity
  8
0
100
AcDbBlockEnd
  0
BLOCK
  5
B3
330
B2
100
AcDbEntity
  8
0
100
AcDbBlockBegin
  2
Block2_2
 70
     0
 10
0.0
 20
0.0
 30
0.0
  3
Block2_2
  1

  0
ARC
  5
B5
330
B2
100
AcDbEntity
  8
FORMAT
100
AcDbCircle
 10
236.7496365382
 20
57.0990600997
 30
0.0
 40
3.75000000000001
100
AcDbArc
 50
93.8225537293
 51
266.1774462707
  0
ARC
  5
B6
330
B2
100
AcDbEntity
  8
FORMAT
100
AcDbCircle
 10
236.7496365382
 20
57.0990600997
 30
0.0
 40
3.000000000000012
100
AcDbArc
 50
94.7801918472
 51
265.2198081528
  0
ARC
  5
B7
330
B2
100
AcDbEntity
  8
FORMAT
100
AcDbCircle
 10
236.7496365382
 20
57.0990600997
 30
0.0
 40
3.75000000000001
100
AcDbArc
 50
273.8225537293
 51
86.1774462707
  0
ARC
  5
B8
330
B2
100
AcDbEntity
  8
FORMAT
100
AcDbCircle
 10
236.7496365382
 20
57.0990600997
 30
0.0
 40
3.000000000000012
100
AcDbArc
 50
274.7801918472
 51
85.2198081528
  0
ARC
  5
B9
330
B2
100
AcDbEntity
  8
FORMAT
100
AcDbCircle
 10
236.7496365382
 20
58.2320416436
 30
0.0
 40
0.8604027828068846
100
AcDbArc
 50
304.8395134495
 51
73.1084194601
  0
ARC
  5
BA
330
B2
100
AcDbEntity
  8
FORMAT
100
AcDbCircle
 10
236.7496365382
 20
58.2320416436
 30
0.0
 40
1.402314431660661
100
AcDbArc
 50
313.8988153445
 51
79.7306010333
  0
ARC
  5
BB
330
B2
100
AcDbEntity
  8
FORMAT
100
AcDbCircle
 10
236.7496365382
 20
55.4979572256
 30
0.0
 40
0.4915306686725103
100
AcDbArc
 50
300.5716370086
 51
0.0
  0
ARC
  5
BC
330
B2
100
AcDbEntity
  8
FORMAT
100
AcDbCircle
 10
236.7496365382
 20
58.2320416436
 30
0.0
 40
1.402314431660661
100
AcDbArc
 50
100.2693989667
 51
226.1011846555
  0
ARC
  5
BD
330
B2
100
AcDbEntity
  8
FORMAT
100
AcDbCircle
 10
236.7496365382
 20
55.4979572256
 30
0.0
 40
0.9723464985416115
100
AcDbArc
 50
180.0
 51
255.1013518888
  0
ARC
  5
BE
330
B2
100
AcDbEntity
  8
FORMAT
100
AcDbCircle
 10
236.7496365382
 20
55.4979572256
 30
0.0
 40
0.9723464985416115
100
AcDbArc
 50
284.8986481112
 51
0.0
  0
ARC
  5
BF
330
B2
100
AcDbEntity
  8
FORMAT
100
AcDbCircle
 10
236.7496365382
 20
55.4979572256
 30
0.0
 40
0.4915306686725099
100
AcDbArc
 50
180.0
 51
239.4283629914
  0
ARC
  5
C0
330
B2
100
AcDbEntity
  8
FORMAT
100
AcDbCircle
 10
236.7496365382
 20
58.2320416436
 30
0.0
 40
0.8604027828068846
100
AcDbArc
 50
106.8915805399
 51
235.1604865505
  0
LINE
  5
C1
330
B2
100
AcDbEntity
  8
FORMAT
100
AcDbLine
 10
232.5312401271
 20
52.8806636887
 30
0.0
 11
240.9680329492
 21
52.8806636887
 31
0.0
  0
LINE
  5
C2
330
B2
100
AcDbEntity
  8
FORMAT
100
AcDbLine
 10
232.5312401271
 20
61.3174565107
 30
0.0
 11
240.9680329492
 21
61.3174565107
 31
0.0
  0
LINE
  5
C3
330
B2
100
AcDbEntity
  8
FORMAT
100
AcDbLine
 10
232.5312401271
 20
61.3174565107
 30
0.0
 11
232.5312401271
 21
52.8806636887
 31
0.0
  0
LINE
  5
C4
330
B2
100
AcDbEntity
  8
FORMAT
100
AcDbLine
 10
240.9680329492
 20
61.3174565107
 30
0.0
 11
240.9680329492
 21
52.8806636887
 31
0.0
  0
LINE
  5
C5
330
B2
100
AcDbEntity
  8
FORMAT
100
AcDbLine
 10
236.4996365382
 20
60.8407174865
 30
0.0
 11
236.4996365382
 21
60.0886252855
 31
0.0
  0
LINE
  5
C6
330
B2
100
AcDbEntity
  8
FORMAT
100
AcDbLine
 10
236.9996365382
 20
60.8407174865
 30
0.0
 11
236.9996365382
 21
60.0886252855
 31
0.0
  0
LINE
  5
C7
330
B2
100
AcDbEntity
  8
FORMAT
100
AcDbLine
 10
236.4996365382
 20
54.1094949139
 30
0.0
 11
236.4996365382
 21
53.3574027129
 31
0.0
  0
LINE
  5
C8
330
B2
100
AcDbEntity
  8
FORMAT
100
AcDbLine
 10
236.9996365382
 20
54.1094949139
 30
0.0
 11
236.9996365382
 21
53.3574027129
 31
0.0
  0
LINE
  5
C9
330
B2
100
AcDbEntity
  8
FORMAT
100
AcDbLine
 10
236.9996365382
 20
59.6118915504
 30
0.0
 11
236.9996365382
 21
59.0553234597
 31
0.0
  0
LINE
  5
CA
330
B2
100
AcDbEntity
  8
FORMAT
100
AcDbLine
 10
236.4996365382
 20
59.6118915504
 30
0.0
 11
236.4996365382
 21
59.0553234597
 31
0.0
  0
LINE
  5
CB
330
B2
100
AcDbEntity
  8
FORMAT
100
AcDbLine
 10
235.7772900396
 20
55.4979572256
 30
0.0
 11
235.7772900396
 21
57.2215823164
 31
0.0
  0
LINE
  5
CC
330
B2
100
AcDbEntity
  8
FORMAT
100
AcDbLine
 10
237.7219830367
 20
55.4979572256
 30
0.0
 11
237.7219830367
 21
57.2215823164
 31
0.0
  0
LINE
  5
CD
330
B2
100
AcDbEntity
  8
FORMAT
100
AcDbLine
 10
237.2411672068
 20
55.4979572256
 30
0.0
 11
237.2411672068
 21
57.5258613901
 31
0.0
  0
LINE
  5
CE
330
B2
100
AcDbEntity
  8
FORMAT
100
AcDbLine
 10
236.2581058695
 20
55.4979572256
 30
0.0
 11
236.2581058695
 21
57.5258613901
 31
0.0
  0
LINE
  5
CF
330
B2
100
AcDbEntity
  8
FORMAT
100
AcDbLine
 10
236.4996365382
 20
55.0747523127
 30
0.0
 11
236.4996365382
 21
54.5582989296
 31
0.0
  0
LINE
  5
D0
330
B2
100
AcDbEntity
  8
FORMAT
100
AcDbLine
 10
236.9996365382
 20
55.0747523127
 30
0.0
 11
236.9996365382
 21
54.5582989296
 31
0.0
  0
HATCH
  5
D1
330
B2
100
AcDbEntity
  8
FORMAT
100
AcDbHatch
 10
0.0
 20
0.0
 30
0.0
210
0.0
220
0.0
230
1.0
  2
SOLID
 70
     1
 71
     0
 91
        5
 92
        0
 93
        4
 72
     1
 10
240.9680329492058
 20
61.31745651073599
 11
240.9680329492058
 21
52.88066368865002
 72
     1
 10
240.9680329492058
 20
52.88066368865002
 11
232.5312401271199
 21
52.88066368865002
 72
     1
 10
232.5312401271199
 20
52.88066368865002
 11
232.5312401271199
 21
61.31745651073599
 72
     1
 10
232.5312401271199
 20
61.31745651073599
 11
240.9680329492058
 21
61.31745651073599
 97
        0
 92
        0
 93
        4
 72
     2
 10
236.7496365381628
 20
57.09906009969301
 40
3.000000000000011
 50
94.78019184719915
 51
265.2198081528016
 73
     0
 72
     1
 10
236.4996365381628
 20
60.08862528546836
 11
236.4996365381628
 21
60.84071748646695
 72
     2
 10
236.7496365381628
 20
57.09906009969301
 40
3.750000000000007
 50
93.82255372927435
 51
266.1774462707265
 73
     1
 72
     1
 10
236.4996365381628
 20
53.35740271291905
 11
236.4996365381628
 21
54.10949491391764
 97
        0
 92
        0
 93
        8
 72
     1
 10
237.7219830367044
 20
55.49795722557887
 11
237.7219830367044
 21
57.22158231636488
 72
     2
 10
236.7496365381628
 20
58.23204164361047
 40
1.402314431660656
 50
313.8988153445118
 51
439.730601033339
 73
     1
 72
     1
 10
236.9996365381628
 20
59.61189155039155
 11
236.9996365381628
 21
59.05532345967459
 72
     2
 10
236.7496365381628
 20
58.23204164361047
 40
0.8604027828068782
 50
286.8915805399266
 51
415.1604865505413
 73
     0
 72
     1
 10
237.2411672068353
 20
57.52586139012261
 11
237.2411672068353
 21
55.49795722557887
 72
     2
 10
236.7496365381628
 20
55.49795722557887
 40
0.4915306686725041
 50
0.0
 51
59.42836299135124
 73
     0
 72
     1
 10
236.9996365381628
 20
55.07475231274628
 11
236.9996365381628
 21
54.55829892958712
 72
     2
 10
236.7496365381628
 20
55.49795722557887
 40
0.9723464985416097
 50
284.8986481111874
 51
360.0000000000008
 73
     1
 97
        0
 92
        0
 93
        8
 72
     2
 10
236.7496365381628
 20
55.49795722557887
 40
0.4915306686725041
 50
120.5716370086484
 51
180.0
 73
     0
 72
     1
 10
236.2581058694904
 20
55.49795722557887
 11
236.2581058694904
 21
57.52586139012261
 72
     2
 10
236.7496365381628
 20
58.23204164361047
 40
0.8604027828068782
 50
124.839513449458
 51
253.108419460075
 73
     0
 72
     1
 10
236.4996365381628
 20
59.05532345967459
 11
236.4996365381628
 21
59.61189155039155
 72
     2
 10
236.7496365381628
 20
58.23204164361047
 40
1.402314431660656
 50
100.2693989666618
 51
226.1011846554898
 73
     1
 72
     1
 10
235.7772900396212
 20
57.22158231636488
 11
235.7772900396212
 21
55.49795722557887
 72
     2
 10
236.7496365381628
 20
55.49795722557887
 40
0.9723464985416097
 50
180.0
 51
255.1013518888143
 73
     1
 72
     1
 10
236.4996365381628
 20
54.55829892958712
 11
236.4996365381628
 21
55.07475231274628
 97
        0
 92
        0
 93
        4
 72
     2
 10
236.7496365381628
 20
57.09906009969301
 40
3.000000000000011
 50
274.7801918471999
 51
445.2198081528016
 73
     0
 72
     1
 10
236.9996365381628
 20
54.10949491391764
 11
236.9996365381628
 21
53.35740271291905
 72
     2
 10
236.7496365381628
 20
57.09906009969301
 40
3.750000000000007
 50
273.8225537292751
 51
446.1774462707265
 73
     1
 72
     1
 10
236.9996365381628
 20
60.84071748646695
 11
236.9996365381628
 21
60.08862528546836
 97
        0
 75
     0
 76
     1
 98
        1
 10
0.0
 20
0.0
  0
MTEXT
  5
D3
330
B2
100
AcDbEntity
  8
FORMAT
100
AcDbMText
 10
232.2514665163
 20
51.5904971018
 30
0.0
 40
3.0
 41
0.0
 46
0.0
 71
     1
 72
     1
  1
ECO
  7
SLDTEXTSTYLE2
 73
     1
 44
1.0
  0
INSERT
  5
DA
330
B2
100
AcDbEntity
  8
0
  6
Continuous
 62
     7
370
     0
100
AcDbBlockReference
  2
SW_NOTE_1
 10
244.0723034979
 20
57.1176018272
 30
0.0
  0
ENDBLK
  5
B4
330
B2
100
AcDbEntity
  8
0
100
AcDbBlockEnd
  0
BLOCK
  5
D5
330
D4
100
AcDbEntity
  8
0
100
AcDbBlockBegin
  2
SW_NOTE_1
 70
     0
 10
0.0
 20
0.0
 30
0.0
  3
SW_NOTE_1
  1

  0
MTEXT
  5
D7
330
D4
100
AcDbEntity
  8
0
  6
Continuous
 62
     0
370
     0
100
AcDbMText
 10
0.0
 20
3.2226693494
 30
0.0
 40
2.5
 41
0.0
 46
0.0
 71
     1
 72
     1
  1
ECO Schulte GmbH & Co. KG
  7
SLDTEXTSTYLE0
 73
     1
 44
1.0
  0
MTEXT
  5
D8
330
D4
100
AcDbEntity
  8
0
  6
Continuous
 62
     0
370
     0
100
AcDbMText
 10
0.0
 20
-0.2773307586
 30
0.0
 40
2.5
 41
0.0
 46
0.0
 71
     1
 72
     1
  1
Postfach 206
  7
SLDTEXTSTYLE0
 73
     1
 44
1.0
  0
MTEXT
  5
D9
330
D4
100
AcDbEntity
  8
0
  6
Continuous
 62
     0
370
     0
100
AcDbMText
 10
0.0
 20
-3.7773308666
 30
0.0
 40
2.5
 41
0.0
 46
0.0
 71
     1
 72
     1
  1
58682 Menden
  7
SLDTEXTSTYLE0
 73
     1
 44
1.0
  0
ENDBLK
  5
D6
330
D4
100
AcDbEntity
  8
0
100
AcDbBlockEnd
  0
BLOCK
  5
DC
330
DB
100
AcDbEntity
  8
0
100
AcDbBlockBegin
  2
Block1_3_1_1
 70
     0
 10
0.0
 20
0.0
 30
0.0
  3
Block1_3_1_1
  1

  0
CIRCLE
  5
DE
330
DB
100
AcDbEntity
  8
0
  6
Continuous
 62
     7
370
    18
100
AcDbCircle
 10
11.6137544821
 20
9.0896586992
 30
0.0
 40
1.255909011058753
  0
CIRCLE
  5
DF
330
DB
100
AcDbEntity
  8
0
  6
Continuous
 62
     7
370
    18
100
AcDbCircle
 10
11.6137544821
 20
9.0896586992
 30
0.0
 40
2.216014863655655
  0
LINE
  5
E0
330
DB
100
AcDbEntity
  8
0
  6
CENTERX2
 62
     7
370
    18
100
AcDbLine
 10
11.6137544821
 20
9.0896586992
 30
0.0
 11
7.8977396184
 21
9.0896586992
 31
0.0
  0
LINE
  5
E1
330
DB
100
AcDbEntity
  8
0
  6
Continuous
 62
     7
370
    18
100
AcDbLine
 10
8.165753588
 20
6.8736438356
 30
0.0
 11
8.165753588
 21
11.3071584591
 31
0.0
  0
LINE
  5
E2
330
DB
100
AcDbEntity
  8
0
  6
Continuous
 62
     7
370
    18
100
AcDbLine
 10
2.6797147895
 20
10.3455677103
 30
0.0
 11
2.6797147895
 21
7.8337496881
 31
0.0
  0
LINE
  5
E3
330
DB
100
AcDbEntity
  8
0
  6
Continuous
 62
     7
370
    18
100
AcDbLine
 10
2.6797147895
 20
7.8337496881
 30
0.0
 11
8.165753588
 21
6.8736438356
 31
0.0
  0
LINE
  5
E4
330
DB
100
AcDbEntity
  8
0
  6
CENTERX2
 62
     7
370
    18
100
AcDbLine
 10
9.665753588
 20
9.0896586992
 30
0.0
 11
1.1797147895
 21
9.0896586992
 31
0.0
  0
LINE
  5
E5
330
DB
100
AcDbEntity
  8
0
  6
Continuous
 62
     7
370
    18
100
AcDbLine
 10
8.165753588
 20
11.3071584591
 30
0.0
 11
2.6797147895
 21
10.3455677103
 31
0.0
  0
LINE
  5
E6
330
DB
100
AcDbEntity
  8
0
  6
CENTERX2
 62
     7
370
    18
100
AcDbLine
 10
11.6137544821
 20
9.0896586992
 30
0.0
 11
11.6137544821
 21
5.3736438356
 31
0.0
  0
LINE
  5
E7
330
DB
100
AcDbEntity
  8
0
  6
CENTERX2
 62
     7
370
    18
100
AcDbLine
 10
11.6137544821
 20
9.0896586992
 30
0.0
 11
11.6137544821
 21
12.8056735629
 31
0.0
  0
LINE
  5
E8
330
DB
100
AcDbEntity
  8
0
  6
CENTERX2
 62
     7
370
    18
100
AcDbLine
 10
11.6137544821
 20
9.0896586992
 30
0.0
 11
15.3297693458
 21
9.0896586992
 31
0.0
  0
INSERT
  5
EE
330
DB
100
AcDbEntity
  8
0
  6
Continuous
 62
     7
370
     0
100
AcDbBlockReference
  2
SW_NOTE_2
 10
2.1031832889
 20
2.3754472768
 30
0.0
  0
ENDBLK
  5
DD
330
DB
100
AcDbEntity
  8
0
100
AcDbBlockEnd
  0
BLOCK
  5
EA
330
E9
100
AcDbEntity
  8
0
100
AcDbBlockBegin
  2
SW_NOTE_2
 70
     0
 10
0.0
 20
0.0
 30
0.0
  3
SW_NOTE_2
  1

  0
MTEXT
  5
EC
330
E9
100
AcDbEntity
  8
0
  6
Continuous
 62
     0
370
     0
100
AcDbMText
 10
6.234375
 20
2.4492287056
 30
0.0
 40
1.9
 41
0.0
 46
0.0
 71
     2
 72
     1
  1
DIN 6  T1 -
  7
SLDTEXTSTYLE1
 73
     1
 44
1.0
  0
MTEXT
  5
ED
330
E9
100
AcDbEntity
  8
0
  6
Continuous
 62
     0
370
     0
100
AcDbMText
 10
6.6569262624
 20
0.0003397443
 30
0.0
 40
1.9
 41
0.0
 46
0.0
 71
     2
 72
     1
  1
Proj.methode 1
  7
SLDTEXTSTYLE0
 73
     1
 44
1.0
  0
ENDBLK
  5
EB
330
E9
100
AcDbEntity
  8
0
100
AcDbBlockEnd
  0
BLOCK
  5
F0
330
EF
100
AcDbEntity
  8
0
100
AcDbBlockBegin
  2
Block2_3_1_1
 70
     0
 10
0.0
 20
0.0
 30
0.0
  3
Block2_3_1_1
  1

  0
ARC
  5
F2
330
EF
100
AcDbEntity
  8
FORMAT
100
AcDbCircle
 10
236.7496365382
 20
57.0990600997
 30
0.0
 40
3.75000000000001
100
AcDbArc
 50
93.8225537293
 51
266.1774462707
  0
ARC
  5
F3
330
EF
100
AcDbEntity
  8
FORMAT
100
AcDbCircle
 10
236.7496365382
 20
57.0990600997
 30
0.0
 40
3.000000000000012
100
AcDbArc
 50
94.7801918472
 51
265.2198081528
  0
ARC
  5
F4
330
EF
100
AcDbEntity
  8
FORMAT
100
AcDbCircle
 10
236.7496365382
 20
57.0990600997
 30
0.0
 40
3.75000000000001
100
AcDbArc
 50
273.8225537293
 51
86.1774462707
  0
ARC
  5
F5
330
EF
100
AcDbEntity
  8
FORMAT
100
AcDbCircle
 10
236.7496365382
 20
57.0990600997
 30
0.0
 40
3.000000000000012
100
AcDbArc
 50
274.7801918472
 51
85.2198081528
  0
ARC
  5
F6
330
EF
100
AcDbEntity
  8
FORMAT
100
AcDbCircle
 10
236.7496365382
 20
58.2320416436
 30
0.0
 40
0.8604027828068846
100
AcDbArc
 50
304.8395134495
 51
73.1084194601
  0
ARC
  5
F7
330
EF
100
AcDbEntity
  8
FORMAT
100
AcDbCircle
 10
236.7496365382
 20
58.2320416436
 30
0.0
 40
1.402314431660661
100
AcDbArc
 50
313.8988153445
 51
79.7306010333
  0
ARC
  5
F8
330
EF
100
AcDbEntity
  8
FORMAT
100
AcDbCircle
 10
236.7496365382
 20
55.4979572256
 30
0.0
 40
0.4915306686725103
100
AcDbArc
 50
300.5716370086
 51
0.0
  0
ARC
  5
F9
330
EF
100
AcDbEntity
  8
FORMAT
100
AcDbCircle
 10
236.7496365382
 20
58.2320416436
 30
0.0
 40
1.402314431660661
100
AcDbArc
 50
100.2693989667
 51
226.1011846555
  0
ARC
  5
FA
330
EF
100
AcDbEntity
  8
FORMAT
100
AcDbCircle
 10
236.7496365382
 20
55.4979572256
 30
0.0
 40
0.9723464985416115
100
AcDbArc
 50
180.0
 51
255.1013518888
  0
ARC
  5
FB
330
EF
100
AcDbEntity
  8
FORMAT
100
AcDbCircle
 10
236.7496365382
 20
55.4979572256
 30
0.0
 40
0.9723464985416115
100
AcDbArc
 50
284.8986481112
 51
0.0
  0
ARC
  5
FC
330
EF
100
AcDbEntity
  8
FORMAT
100
AcDbCircle
 10
236.7496365382
 20
55.4979572256
 30
0.0
 40
0.4915306686725099
100
AcDbArc
 50
180.0
 51
239.4283629914
  0
ARC
  5
FD
330
EF
100
AcDbEntity
  8
FORMAT
100
AcDbCircle
 10
236.7496365382
 20
58.2320416436
 30
0.0
 40
0.8604027828068846
100
AcDbArc
 50
106.8915805399
 51
235.1604865505
  0
LINE
  5
FE
330
EF
100
AcDbEntity
  8
FORMAT
100
AcDbLine
 10
232.5312401271
 20
52.8806636887
 30
0.0
 11
240.9680329492
 21
52.8806636887
 31
0.0
  0
LINE
  5
FF
330
EF
100
AcDbEntity
  8
FORMAT
100
AcDbLine
 10
232.5312401271
 20
61.3174565107
 30
0.0
 11
240.9680329492
 21
61.3174565107
 31
0.0
  0
LINE
  5
100
330
EF
100
AcDbEntity
  8
FORMAT
100
AcDbLine
 10
232.5312401271
 20
61.3174565107
 30
0.0
 11
232.5312401271
 21
52.8806636887
 31
0.0
  0
LINE
  5
101
330
EF
100
AcDbEntity
  8
FORMAT
100
AcDbLine
 10
240.9680329492
 20
61.3174565107
 30
0.0
 11
240.9680329492
 21
52.8806636887
 31
0.0
  0
LINE
  5
102
330
EF
100
AcDbEntity
  8
FORMAT
100
AcDbLine
 10
236.4996365382
 20
60.8407174865
 30
0.0
 11
236.4996365382
 21
60.0886252855
 31
0.0
  0
LINE
  5
103
330
EF
100
AcDbEntity
  8
FORMAT
100
AcDbLine
 10
236.9996365382
 20
60.8407174865
 30
0.0
 11
236.9996365382
 21
60.0886252855
 31
0.0
  0
LINE
  5
104
330
EF
100
AcDbEntity
  8
FORMAT
100
AcDbLine
 10
236.4996365382
 20
54.1094949139
 30
0.0
 11
236.4996365382
 21
53.3574027129
 31
0.0
  0
LINE
  5
105
330
EF
100
AcDbEntity
  8
FORMAT
100
AcDbLine
 10
236.9996365382
 20
54.1094949139
 30
0.0
 11
236.9996365382
 21
53.3574027129
 31
0.0
  0
LINE
  5
106
330
EF
100
AcDbEntity
  8
FORMAT
100
AcDbLine
 10
236.9996365382
 20
59.6118915504
 30
0.0
 11
236.9996365382
 21
59.0553234597
 31
0.0
  0
LINE
  5
107
330
EF
100
AcDbEntity
  8
FORMAT
100
AcDbLine
 10
236.4996365382
 20
59.6118915504
 30
0.0
 11
236.4996365382
 21
59.0553234597
 31
0.0
  0
LINE
  5
108
330
EF
100
AcDbEntity
  8
FORMAT
100
AcDbLine
 10
235.7772900396
 20
55.4979572256
 30
0.0
 11
235.7772900396
 21
57.2215823164
 31
0.0
  0
LINE
  5
109
330
EF
100
AcDbEntity
  8
FORMAT
100
AcDbLine
 10
237.7219830367
 20
55.4979572256
 30
0.0
 11
237.7219830367
 21
57.2215823164
 31
0.0
  0
LINE
  5
10A
330
EF
100
AcDbEntity
  8
FORMAT
100
AcDbLine
 10
237.2411672068
 20
55.4979572256
 30
0.0
 11
237.2411672068
 21
57.5258613901
 31
0.0
  0
LINE
  5
10B
330
EF
100
AcDbEntity
  8
FORMAT
100
AcDbLine
 10
236.2581058695
 20
55.4979572256
 30
0.0
 11
236.2581058695
 21
57.5258613901
 31
0.0
  0
LINE
  5
10C
330
EF
100
AcDbEntity
  8
FORMAT
100
AcDbLine
 10
236.4996365382
 20
55.0747523127
 30
0.0
 11
236.4996365382
 21
54.5582989296
 31
0.0
  0
LINE
  5
10D
330
EF
100
AcDbEntity
  8
FORMAT
100
AcDbLine
 10
236.9996365382
 20
55.0747523127
 30
0.0
 11
236.9996365382
 21
54.5582989296
 31
0.0
  0
HATCH
  5
10E
330
EF
100
AcDbEntity
  8
FORMAT
100
AcDbHatch
 10
0.0
 20
0.0
 30
0.0
210
0.0
220
0.0
230
1.0
  2
SOLID
 70
     1
 71
     0
 91
        5
 92
        0
 93
        4
 72
     1
 10
240.9680329492058
 20
61.31745651073599
 11
240.9680329492058
 21
52.88066368865002
 72
     1
 10
240.9680329492058
 20
52.88066368865002
 11
232.5312401271199
 21
52.88066368865002
 72
     1
 10
232.5312401271199
 20
52.88066368865002
 11
232.5312401271199
 21
61.31745651073599
 72
     1
 10
232.5312401271199
 20
61.31745651073599
 11
240.9680329492058
 21
61.31745651073599
 97
        0
 92
        0
 93
        4
 72
     2
 10
236.7496365381628
 20
57.09906009969301
 40
3.000000000000011
 50
94.78019184719915
 51
265.2198081528016
 73
     0
 72
     1
 10
236.4996365381628
 20
60.08862528546836
 11
236.4996365381628
 21
60.84071748646695
 72
     2
 10
236.7496365381628
 20
57.09906009969301
 40
3.750000000000007
 50
93.82255372927435
 51
266.1774462707265
 73
     1
 72
     1
 10
236.4996365381628
 20
53.35740271291905
 11
236.4996365381628
 21
54.10949491391764
 97
        0
 92
        0
 93
        8
 72
     1
 10
237.7219830367044
 20
55.49795722557887
 11
237.7219830367044
 21
57.22158231636488
 72
     2
 10
236.7496365381628
 20
58.23204164361047
 40
1.402314431660656
 50
313.8988153445118
 51
439.730601033339
 73
     1
 72
     1
 10
236.9996365381628
 20
59.61189155039155
 11
236.9996365381628
 21
59.05532345967459
 72
     2
 10
236.7496365381628
 20
58.23204164361047
 40
0.8604027828068782
 50
286.8915805399266
 51
415.1604865505413
 73
     0
 72
     1
 10
237.2411672068353
 20
57.52586139012261
 11
237.2411672068353
 21
55.49795722557887
 72
     2
 10
236.7496365381628
 20
55.49795722557887
 40
0.4915306686725041
 50
0.0
 51
59.42836299135124
 73
     0
 72
     1
 10
236.9996365381628
 20
55.07475231274628
 11
236.9996365381628
 21
54.55829892958712
 72
     2
 10
236.7496365381628
 20
55.49795722557887
 40
0.9723464985416097
 50
284.8986481111874
 51
360.0000000000008
 73
     1
 97
        0
 92
        0
 93
        8
 72
     2
 10
236.7496365381628
 20
55.49795722557887
 40
0.4915306686725041
 50
120.5716370086484
 51
180.0
 73
     0
 72
     1
 10
236.2581058694904
 20
55.49795722557887
 11
236.2581058694904
 21
57.52586139012261
 72
     2
 10
236.7496365381628
 20
58.23204164361047
 40
0.8604027828068782
 50
124.839513449458
 51
253.108419460075
 73
     0
 72
     1
 10
236.4996365381628
 20
59.05532345967459
 11
236.4996365381628
 21
59.61189155039155
 72
     2
 10
236.7496365381628
 20
58.23204164361047
 40
1.402314431660656
 50
100.2693989666618
 51
226.1011846554898
 73
     1
 72
     1
 10
235.7772900396212
 20
57.22158231636488
 11
235.7772900396212
 21
55.49795722557887
 72
     2
 10
236.7496365381628
 20
55.49795722557887
 40
0.9723464985416097
 50
180.0
 51
255.1013518888143
 73
     1
 72
     1
 10
236.4996365381628
 20
54.55829892958712
 11
236.4996365381628
 21
55.07475231274628
 97
        0
 92
        0
 93
        4
 72
     2
 10
236.7496365381628
 20
57.09906009969301
 40
3.000000000000011
 50
274.7801918471999
 51
445.2198081528016
 73
     0
 72
     1
 10
236.9996365381628
 20
54.10949491391764
 11
236.9996365381628
 21
53.35740271291905
 72
     2
 10
236.7496365381628
 20
57.09906009969301
 40
3.750000000000007
 50
273.8225537292751
 51
446.1774462707265
 73
     1
 72
     1
 10
236.9996365381628
 20
60.84071748646695
 11
236.9996365381628
 21
60.08862528546836
 97
        0
 75
     0
 76
     1
 98
        1
 10
0.0
 20
0.0
  0
MTEXT
  5
10F
330
EF
100
AcDbEntity
  8
FORMAT
100
AcDbMText
 10
232.2514665163
 20
51.5904971018
 30
0.0
 40
3.0
 41
0.0
 46
0.0
 71
     1
 72
     1
  1
ECO
  7
SLDTEXTSTYLE2
 73
     1
 44
1.0
  0
INSERT
  5
116
330
EF
100
AcDbEntity
  8
0
  6
Continuous
 62
     7
370
     0
100
AcDbBlockReference
  2
SW_NOTE_3
 10
244.0723034979
 20
57.1176018272
 30
0.0
  0
ENDBLK
  5
F1
330
EF
100
AcDbEntity
  8
0
100
AcDbBlockEnd
  0
BLOCK
  5
111
330
110
100
AcDbEntity
  8
0
100
AcDbBlockBegin
  2
SW_NOTE_3
 70
     0
 10
0.0
 20
0.0
 30
0.0
  3
SW_NOTE_3
  1

  0
MTEXT
  5
113
330
110
100
AcDbEntity
  8
0
  6
Continuous
 62
     0
370
     0
100
AcDbMText
 10
0.0
 20
3.2226693494
 30
0.0
 40
2.5
 41
0.0
 46
0.0
 71
     1
 72
     1
  1
ECO Schulte GmbH & Co. KG
  7
SLDTEXTSTYLE0
 73
     1
 44
1.0
  0
MTEXT
  5
114
330
110
100
AcDbEntity
  8
0
  6
Continuous
 62
     0
370
     0
100
AcDbMText
 10
0.0
 20
-0.2773307586
 30
0.0
 40
2.5
 41
0.0
 46
0.0
 71
     1
 72
     1
  1
Postfach 206
  7
SLDTEXTSTYLE0
 73
     1
 44
1.0
  0
MTEXT
  5
115
330
110
100
AcDbEntity
  8
0
  6
Continuous
 62
     0
370
     0
100
AcDbMText
 10
0.0
 20
-3.7773308666
 30
0.0
 40
2.5
 41
0.0
 46
0.0
 71
     1
 72
     1
  1
58682 Menden
  7
SLDTEXTSTYLE0
 73
     1
 44
1.0
  0
ENDBLK
  5
112
330
110
100
AcDbEntity
  8
0
100
AcDbBlockEnd
  0
BLOCK
  5
118
330
117
100
AcDbEntity
  8
0
100
AcDbBlockBegin
  2
rechtlicher_Hinweis_Katalogzeichnungen_1_1
 70
     0
 10
0.0
 20
0.0
 30
0.0
  3
rechtlicher_Hinweis_Katalogzeichnungen_1_1
  1

  0
INSERT
  5
122
330
117
100
AcDbEntity
  8
0
  6
Continuous
 62
     7
370
     0
100
AcDbBlockReference
  2
SW_NOTE_4
 10
0.677633552
 20
47.8243897458
 30
0.0
  0
ENDBLK
  5
119
330
117
100
AcDbEntity
  8
0
100
AcDbBlockEnd
  0
BLOCK
  5
11B
330
11A
100
AcDbEntity
  8
0
100
AcDbBlockBegin
  2
SW_NOTE_4
 70
     0
 10
0.0
 20
0.0
 30
0.0
  3
SW_NOTE_4
  1

  0
MTEXT
  5
11D
330
11A
100
AcDbEntity
  8
0
  6
Continuous
 62
     0
370
     0
100
AcDbMText
 10
0.0
 20
6.4453386989
 30
0.0
 40
5.0
 41
0.0
 46
0.0
 71
     1
 72
     1
  1
Technische Änderungen und Irrtümer vorbehalten. Aus dem Gebrauch der Zeichnung können keinerlei Ansprüche (inkl.
  7
SLDTEXTSTYLE0
 73
     1
 44
1.0
  0
MTEXT
  5
11E
330
11A
100
AcDbEntity
  8
0
  6
Continuous
 62
     0
370
     0
100
AcDbMText
 10
0.0
 20
-0.5546615172
 30
0.0
 40
5.0
 41
0.0
 46
0.0
 71
     1
 72
     1
  1
Schadenersatzansprüche) erhoben und gegen ECO Schulte geltend gemacht werden. Die Zeichnung bleibt unser Eigentum. Sämtliche
  7
SLDTEXTSTYLE0
 73
     1
 44
1.0
  0
MTEXT
  5
11F
330
11A
100
AcDbEntity
  8
0
  6
Continuous
 62
     0
370
     0
100
AcDbMText
 10
0.0
 20
-7.5546617333
 30
0.0
 40
5.0
 41
0.0
 46
0.0
 71
     1
 72
     1
  1
sich aus der Zeichnung ergebenden Ansprüche stehen ausschließlich ECO Schulte zu.
  7
SLDTEXTSTYLE0
 73
     1
 44
1.0
  0
MTEXT
  5
120
330
11A
100
AcDbEntity
  8
0
  6
Continuous
 62
     0
370
     0
100
AcDbMText
 10
0.0
 20
-21.5546621654
 30
0.0
 40
5.0
 41
0.0
 46
0.0
 71
     1
 72
     1
  1
Technical changes and errors excepted. No claims (including compensation claims) may be raised against ECO Schulte by using of this
  7
SLDTEXTSTYLE0
 73
     1
 44
1.0
  0
MTEXT
  5
121
330
11A
100
AcDbEntity
  8
0
  6
Continuous
 62
     0
370
     0
100
AcDbMText
 10
0.0
 20
-28.5546623815
 30
0.0
 40
5.0
 41
0.0
 46
0.0
 71
     1
 72
     1
  1
drawing. The drawing remains the property of ECO Schulte. All claims resulting from this drawing are solely entitled to ECO Schulte.
  7
SLDTEXTSTYLE0
 73
     1
 44
1.0
  0
ENDBLK
  5
11C
330
11A
100
AcDbEntity
  8
0
100
AcDbBlockEnd
  0
BLOCK
  5
145
330
144
100
AcDbEntity
  8
0
100
AcDbBlockBegin
  2
SW_NOTE_5
 70
     0
 10
0.0
 20
0.0
 30
0.0
  3
SW_NOTE_5
  1

  0
MTEXT
  5
147
330
144
100
AcDbEntity
  8
FORMAT
 62
     0
100
AcDbMText
 10
0.0
 20
2.5781354795
 30
0.0
 40
2.0
 41
0.0
 46
0.0
 71
     1
 72
     1
  1
Technische Änderungen und Irrtümer vorbehalten. Aus dem Gebrauch der Zeichnung
  7
SLDTEXTSTYLE0
 73
     1
 44
1.0
  0
MTEXT
  5
148
330
144
100
AcDbEntity
  8
FORMAT
 62
     0
100
AcDbMText
 10
0.0
 20
-0.4218645465
 30
0.0
 40
2.0
 41
0.0
 46
0.0
 71
     1
 72
     1
  1
können keinerlei Ansprüche (inkl. Schadenersatzansprüche) erhoben und gegen ECO
  7
SLDTEXTSTYLE0
 73
     1
 44
1.0
  0
MTEXT
  5
149
330
144
100
AcDbEntity
  8
FORMAT
 62
     0
100
AcDbMText
 10
0.0
 20
-3.4218645726
 30
0.0
 40
2.0
 41
0.0
 46
0.0
 71
     1
 72
     1
  1
Schulte geltend gemacht werden. Die Zeichnung bleibt unser Eigentum. Sämtliche sich
  7
SLDTEXTSTYLE0
 73
     1
 44
1.0
  0
MTEXT
  5
14A
330
144
100
AcDbEntity
  8
FORMAT
 62
     0
100
AcDbMText
 10
0.0
 20
-6.4218645987
 30
0.0
 40
2.0
 41
0.0
 46
0.0
 71
     1
 72
     1
  1
aus der Zeichnung ergebenden Ansprüche stehen ausschließlich ECO Schulte zu.
  7
SLDTEXTSTYLE0
 73
     1
 44
1.0
  0
MTEXT
  5
14B
330
144
100
AcDbEntity
  8
FORMAT
 62
     0
100
AcDbMText
 10
0.0
 20
-12.4218646508
 30
0.0
 40
2.0
 41
0.0
 46
0.0
 71
     1
 72
     1
  1
Technical changes and errors excepted. No claims (including compensation claims) may
  7
SLDTEXTSTYLE0
 73
     1
 44
1.0
  0
MTEXT
  5
14C
330
144
100
AcDbEntity
  8
FORMAT
 62
     0
100
AcDbMText
 10
0.0
 20
-15.4218646769
 30
0.0
 40
2.0
 41
0.0
 46
0.0
 71
     1
 72
     1
  1
be raised against ECO Schulte by using of this drawing. The drawing remains the property
  7
SLDTEXTSTYLE0
 73
     1
 44
1.0
  0
MTEXT
  5
14D
330
144
100
AcDbEntity
  8
FORMAT
 62
     0
100
AcDbMText
 10
0.0
 20
-18.421864703
 30
0.0
 40
2.0
 41
0.0
 46
0.0
 71
     1
 72
     1
  1
of ECO Schulte. All claims resulting from this drawing are solely entitled to ECO Schulte.
  7
SLDTEXTSTYLE0
 73
     1
 44
1.0
  0
ENDBLK
  5
146
330
144
100
AcDbEntity
  8
0
100
AcDbBlockEnd
  0
BLOCK
  5
271
330
270
100
AcDbEntity
  8
0
100
AcDbBlockBegin
  2
_D
 70
     0
 10
0.0
 20
0.0
 30
0.0
  3
_D
  1

  0
SOLID
  5
273
330
270
100
AcDbEntity
  8
FORMAT
100
AcDbTrace
 10
64.8673061088
 20
65.9643133155
 30
0.0
 11
68.1693061088
 21
65.4563133155
 31
0.0
 12
68.1693061088
 22
66.4723133155
 32
0.0
 13
68.1693061088
 23
66.4723133155
 33
0.0
  0
SOLID
  5
274
330
270
100
AcDbEntity
  8
FORMAT
100
AcDbTrace
 10
148.8673061088
 20
65.9643133155
 30
0.0
 11
145.5653061088
 21
66.4723133155
 31
0.0
 12
145.5653061088
 22
65.4563133155
 32
0.0
 13
145.5653061088
 23
65.4563133155
 33
0.0
  0
LINE
  5
275
330
270
100
AcDbEntity
  8
FORMAT
100
AcDbLine
 10
64.8673061088
 20
83.6729510451
 30
0.0
 11
64.8673061088
 21
64.9643133155
 31
0.0
  0
LINE
  5
276
330
270
100
AcDbEntity
  8
FORMAT
100
AcDbLine
 10
148.8673061088
 20
83.6729510451
 30
0.0
 11
148.8673061088
 21
64.9643133155
 31
0.0
  0
LINE
  5
277
330
270
100
AcDbEntity
  8
FORMAT
100
AcDbLine
 10
64.8673061088
 20
65.9643133155
 30
0.0
 11
148.8673061088
 21
65.9643133155
 31
0.0
  0
MTEXT
  5
278
330
270
100
AcDbEntity
  8
FORMAT
100
AcDbMText
 10
104.1936950639
 20
70.4760506375
 30
0.0
 40
3.5
 41
0.0
 46
0.0
 71
     1
 72
     1
  1
84
  7
SLDTEXTSTYLE0
 73
     1
 44
1.0
  0
ENDBLK
  5
272
330
270
100
AcDbEntity
  8
0
100
AcDbBlockEnd
  0
BLOCK
  5
27B
330
27A
100
AcDbEntity
  8
0
100
AcDbBlockBegin
  2
_D_1
 70
     0
 10
0.0
 20
0.0
 30
0.0
  3
_D_1
  1

  0
SOLID
  5
27D
330
27A
100
AcDbEntity
  8
FORMAT
100
AcDbTrace
 10
36.0673061088
 20
132.1729510451
 30
0.0
 11
35.5593061088
 21
128.8709510451
 31
0.0
 12
36.5753061088
 22
128.8709510451
 32
0.0
 13
36.5753061088
 23
128.8709510451
 33
0.0
  0
SOLID
  5
27E
330
27A
100
AcDbEntity
  8
FORMAT
100
AcDbTrace
 10
36.0673061088
 20
114.1729510451
 30
0.0
 11
36.5753061088
 21
117.4749510451
 31
0.0
 12
35.5593061088
 22
117.4749510451
 32
0.0
 13
35.5593061088
 23
117.4749510451
 33
0.0
  0
LINE
  5
27F
330
27A
100
AcDbEntity
  8
FORMAT
100
AcDbLine
 10
46.0673061088
 20
132.1729510451
 30
0.0
 11
35.0673061088
 21
132.1729510451
 31
0.0
  0
LINE
  5
280
330
27A
100
AcDbEntity
  8
FORMAT
100
AcDbLine
 10
46.0673061088
 20
114.1729510451
 30
0.0
 11
35.0673061088
 21
114.1729510451
 31
0.0
  0
LINE
  5
281
330
27A
100
AcDbEntity
  8
FORMAT
100
AcDbLine
 10
36.0673061088
 20
132.1729510451
 30
0.0
 11
36.0673061088
 21
114.1729510451
 31
0.0
  0
MTEXT
  5
282
330
27A
100
AcDbEntity
  8
FORMAT
100
AcDbMText
 10
31.5555690196
 20
117.9478644604
 30
0.0
 40
3.5
 41
0.0
 46
0.0
 71
     1
 72
     1
  1
%%c
  7
SLDTEXTSTYLE0
 11
-7.044195017643634E-15
 21
1.0
 31
0.0
 73
     1
 44
1.0
  0
MTEXT
  5
283
330
27A
100
AcDbEntity
  8
FORMAT
100
AcDbMText
 10
31.5458467104
 20
123.0508160057
 30
0.0
 40
3.5
 41
0.0
 46
0.0
 71
     1
 72
     1
  1
18
  7
SLDTEXTSTYLE0
 11
-7.044195017643634E-15
 21
1.0
 31
0.0
 73
     1
 44
1.0
  0
ENDBLK
  5
27C
330
27A
100
AcDbEntity
  8
0
100
AcDbBlockEnd
  0
BLOCK
  5
287
330
286
100
AcDbEntity
  8
0
100
AcDbBlockBegin
  2
_D_2
 70
     0
 10
0.0
 20
0.0
 30
0.0
  3
_D_2
  1

  0
SOLID
  5
289
330
286
100
AcDbEntity
  8
FORMAT
100
AcDbTrace
 10
49.1044669183
 20
163.1505560023
 30
0.0
 11
46.7134442775
 21
165.4838538255
 31
0.0
 12
46.1226737245
 22
164.657266774
 32
0.0
 13
46.1226737245
 23
164.657266774
 33
0.0
  0
LINE
  5
28A
330
286
100
AcDbEntity
  8
FORMAT
100
AcDbLine
 10
49.1044669183
 20
163.1505560023
 30
0.0
 11
33.8817138415
 21
174.0304194579
 31
0.0
  0
MTEXT
  5
28B
330
286
100
AcDbEntity
  8
FORMAT
100
AcDbMText
 10
36.4971437859
 20
177.6898444494
 30
0.0
 40
3.5
 41
0.0
 46
0.0
 71
     1
 72
     1
  1
R12
  7
SLDTEXTSTYLE0
 11
0.8135699325463076
 21
-0.5814670797702967
 31
0.0
 73
     1
 44
1.0
  0
ENDBLK
  5
288
330
286
100
AcDbEntity
  8
0
100
AcDbBlockEnd
  0
BLOCK
  5
28E
330
28D
100
AcDbEntity
  8
0
100
AcDbBlockBegin
  2
_D_3
 70
     0
 10
0.0
 20
0.0
 30
0.0
  3
_D_3
  1

  0
SOLID
  5
290
330
28D
100
AcDbEntity
  8
FORMAT
100
AcDbTrace
 10
46.8673061088
 20
184.1729510451
 30
0.0
 11
50.1693061088
 21
183.6649510451
 31
0.0
 12
50.1693061088
 22
184.6809510451
 32
0.0
 13
50.1693061088
 23
184.6809510451
 33
0.0
  0
SOLID
  5
291
330
28D
100
AcDbEntity
  8
FORMAT
100
AcDbTrace
 10
166.8673061088
 20
184.1729510451
 30
0.0
 11
163.5653061088
 21
184.6809510451
 31
0.0
 12
163.5653061088
 22
183.6649510451
 32
0.0
 13
163.5653061088
 23
183.6649510451
 33
0.0
  0
LINE
  5
292
330
28D
100
AcDbEntity
  8
FORMAT
100
AcDbLine
 10
46.8673061088
 20
157.1729510451
 30
0.0
 11
46.8673061088
 21
163.2494786159
 31
0.0
  0
LINE
  5
293
330
28D
100
AcDbEntity
  8
FORMAT
100
AcDbLine
 10
46.8673061088
 20
166.2494786159
 30
0.0
 11
46.8673061088
 21
185.1729510451
 31
0.0
  0
LINE
  5
294
330
28D
100
AcDbEntity
  8
FORMAT
100
AcDbLine
 10
166.8673061088
 20
157.1729510451
 30
0.0
 11
166.8673061088
 21
185.1729510451
 31
0.0
  0
LINE
  5
295
330
28D
100
AcDbEntity
  8
FORMAT
100
AcDbLine
 10
46.8673061088
 20
184.1729510451
 30
0.0
 11
166.8673061088
 21
184.1729510451
 31
0.0
  0
MTEXT
  5
296
330
28D
100
AcDbEntity
  8
FORMAT
100
AcDbMText
 10
102.8568895415
 20
188.6846883671
 30
0.0
 40
3.5
 41
0.0
 46
0.0
 71
     1
 72
     1
  1
120
  7
SLDTEXTSTYLE0
 73
     1
 44
1.0
  0
ENDBLK
  5
28F
330
28D
100
AcDbEntity
  8
0
100
AcDbBlockEnd
  0
BLOCK
  5
299
330
298
100
AcDbEntity
  8
0
100
AcDbBlockBegin
  2
_D_4
 70
     0
 10
0.0
 20
0.0
 30
0.0
  3
_D_4
  1

  0
SOLID
  5
29B
330
298
100
AcDbEntity
  8
FORMAT
100
AcDbTrace
 10
58.8673061088
 20
178.1729510451
 30
0.0
 11
62.1693061088
 21
177.6649510451
 31
0.0
 12
62.1693061088
 22
178.6809510451
 32
0.0
 13
62.1693061088
 23
178.6809510451
 33
0.0
  0
SOLID
  5
29C
330
298
100
AcDbEntity
  8
FORMAT
100
AcDbTrace
 10
82.8673061088
 20
178.1729510451
 30
0.0
 11
79.5653061088
 21
178.6809510451
 31
0.0
 12
79.5653061088
 22
177.6649510451
 32
0.0
 13
79.5653061088
 23
177.6649510451
 33
0.0
  0
LINE
  5
29D
330
298
100
AcDbEntity
  8
FORMAT
100
AcDbLine
 10
58.8673061088
 20
157.1729510451
 30
0.0
 11
58.8673061088
 21
179.1729510451
 31
0.0
  0
LINE
  5
29E
330
298
100
AcDbEntity
  8
FORMAT
100
AcDbLine
 10
82.8673061088
 20
147.1729510451
 30
0.0
 11
82.8673061088
 21
179.1729510451
 31
0.0
  0
LINE
  5
29F
330
298
100
AcDbEntity
  8
FORMAT
100
AcDbLine
 10
58.8673061088
 20
178.1729510451
 30
0.0
 11
82.8673061088
 21
178.1729510451
 31
0.0
  0
MTEXT
  5
2A0
330
298
100
AcDbEntity
  8
FORMAT
100
AcDbMText
 10
68.1936950639
 20
182.6846883671
 30
0.0
 40
3.5
 41
0.0
 46
0.0
 71
     1
 72
     1
  1
24
  7
SLDTEXTSTYLE0
 73
     1
 44
1.0
  0
ENDBLK
  5
29A
330
298
100
AcDbEntity
  8
0
100
AcDbBlockEnd
  0
BLOCK
  5
2A3
330
2A2
100
AcDbEntity
  8
0
100
AcDbBlockBegin
  2
_D_5
 70
     0
 10
0.0
 20
0.0
 30
0.0
  3
_D_5
  1

  0
SOLID
  5
2A5
330
2A2
100
AcDbEntity
  8
FORMAT
100
AcDbTrace
 10
82.8673061088
 20
178.1729510451
 30
0.0
 11
86.1693061088
 21
177.6649510451
 31
0.0
 12
86.1693061088
 22
178.6809510451
 32
0.0
 13
86.1693061088
 23
178.6809510451
 33
0.0
  0
SOLID
  5
2A6
330
2A2
100
AcDbEntity
  8
FORMAT
100
AcDbTrace
 10
106.8673061088
 20
178.1729510451
 30
0.0
 11
103.5653061088
 21
178.6809510451
 31
0.0
 12
103.5653061088
 22
177.6649510451
 32
0.0
 13
103.5653061088
 23
177.6649510451
 33
0.0
  0
LINE
  5
2A7
330
2A2
100
AcDbEntity
  8
FORMAT
100
AcDbLine
 10
82.8673061088
 20
147.1729510451
 30
0.0
 11
82.8673061088
 21
179.1729510451
 31
0.0
  0
LINE
  5
2A8
330
2A2
100
AcDbEntity
  8
FORMAT
100
AcDbLine
 10
106.8673061088
 20
161.1729510451
 30
0.0
 11
106.8673061088
 21
179.1729510451
 31
0.0
  0
LINE
  5
2A9
330
2A2
100
AcDbEntity
  8
FORMAT
100
AcDbLine
 10
82.8673061088
 20
178.1729510451
 30
0.0
 11
106.8673061088
 21
178.1729510451
 31
0.0
  0
MTEXT
  5
2AA
330
2A2
100
AcDbEntity
  8
FORMAT
100
AcDbMText
 10
92.1936950639
 20
182.6846883671
 30
0.0
 40
3.5
 41
0.0
 46
0.0
 71
     1
 72
     1
  1
24
  7
SLDTEXTSTYLE0
 73
     1
 44
1.0
  0
ENDBLK
  5
2A4
330
2A2
100
AcDbEntity
  8
0
100
AcDbBlockEnd
  0
BLOCK
  5
2AD
330
2AC
100
AcDbEntity
  8
0
100
AcDbBlockBegin
  2
_D_6
 70
     0
 10
0.0
 20
0.0
 30
0.0
  3
_D_6
  1

  0
SOLID
  5
2AF
330
2AC
100
AcDbEntity
  8
FORMAT
100
AcDbTrace
 10
106.8673061088
 20
178.1729510451
 30
0.0
 11
110.1693061088
 21
177.6649510451
 31
0.0
 12
110.1693061088
 22
178.6809510451
 32
0.0
 13
110.1693061088
 23
178.6809510451
 33
0.0
  0
SOLID
  5
2B0
330
2AC
100
AcDbEntity
  8
FORMAT
100
AcDbTrace
 10
130.8673061088
 20
178.1729510451
 30
0.0
 11
127.5653061088
 21
178.6809510451
 31
0.0
 12
127.5653061088
 22
177.6649510451
 32
0.0
 13
127.5653061088
 23
177.6649510451
 33
0.0
  0
LINE
  5
2B1
330
2AC
100
AcDbEntity
  8
FORMAT
100
AcDbLine
 10
106.8673061088
 20
161.1729510451
 30
0.0
 11
106.8673061088
 21
179.1729510451
 31
0.0
  0
LINE
  5
2B2
330
2AC
100
AcDbEntity
  8
FORMAT
100
AcDbLine
 10
130.8673061088
 20
147.1729510451
 30
0.0
 11
130.8673061088
 21
179.1729510451
 31
0.0
  0
LINE
  5
2B3
330
2AC
100
AcDbEntity
  8
FORMAT
100
AcDbLine
 10
106.8673061088
 20
178.1729510451
 30
0.0
 11
130.8673061088
 21
178.1729510451
 31
0.0
  0
MTEXT
  5
2B4
330
2AC
100
AcDbEntity
  8
FORMAT
100
AcDbMText
 10
116.1936950639
 20
182.6846883671
 30
0.0
 40
3.5
 41
0.0
 46
0.0
 71
     1
 72
     1
  1
24
  7
SLDTEXTSTYLE0
 73
     1
 44
1.0
  0
ENDBLK
  5
2AE
330
2AC
100
AcDbEntity
  8
0
100
AcDbBlockEnd
  0
BLOCK
  5
2B7
330
2B6
100
AcDbEntity
  8
0
100
AcDbBlockBegin
  2
_D_7
 70
     0
 10
0.0
 20
0.0
 30
0.0
  3
_D_7
  1

  0
SOLID
  5
2B9
330
2B6
100
AcDbEntity
  8
FORMAT
100
AcDbTrace
 10
130.8673061088
 20
178.1729510451
 30
0.0
 11
134.1693061088
 21
177.6649510451
 31
0.0
 12
134.1693061088
 22
178.6809510451
 32
0.0
 13
134.1693061088
 23
178.6809510451
 33
0.0
  0
SOLID
  5
2BA
330
2B6
100
AcDbEntity
  8
FORMAT
100
AcDbTrace
 10
154.8673061088
 20
178.1729510451
 30
0.0
 11
151.5653061088
 21
178.6809510451
 31
0.0
 12
151.5653061088
 22
177.6649510451
 32
0.0
 13
151.5653061088
 23
177.6649510451
 33
0.0
  0
LINE
  5
2BB
330
2B6
100
AcDbEntity
  8
FORMAT
100
AcDbLine
 10
130.8673061088
 20
147.1729510451
 30
0.0
 11
130.8673061088
 21
179.1729510451
 31
0.0
  0
LINE
  5
2BC
330
2B6
100
AcDbEntity
  8
FORMAT
100
AcDbLine
 10
154.8673061088
 20
157.1729510451
 30
0.0
 11
154.8673061088
 21
179.1729510451
 31
0.0
  0
LINE
  5
2BD
330
2B6
100
AcDbEntity
  8
FORMAT
100
AcDbLine
 10
130.8673061088
 20
178.1729510451
 30
0.0
 11
154.8673061088
 21
178.1729510451
 31
0.0
  0
MTEXT
  5
2BE
330
2B6
100
AcDbEntity
  8
FORMAT
100
AcDbMText
 10
140.1936950639
 20
182.6846883671
 30
0.0
 40
3.5
 41
0.0
 46
0.0
 71
     1
 72
     1
  1
24
  7
SLDTEXTSTYLE0
 73
     1
 44
1.0
  0
ENDBLK
  5
2B8
330
2B6
100
AcDbEntity
  8
0
100
AcDbBlockEnd
  0
BLOCK
  5
2C1
330
2C0
100
AcDbEntity
  8
0
100
AcDbBlockBegin
  2
_D_8
 70
     0
 10
0.0
 20
0.0
 30
0.0
  3
_D_8
  1

  0
SOLID
  5
2C3
330
2C0
100
AcDbEntity
  8
FORMAT
100
AcDbTrace
 10
73.1379246141
 20
168.1729510451
 30
0.0
 11
72.6299246141
 21
164.8709510451
 31
0.0
 12
73.6459246141
 22
164.8709510451
 32
0.0
 13
73.6459246141
 23
164.8709510451
 33
0.0
  0
SOLID
  5
2C4
330
2C0
100
AcDbEntity
  8
FORMAT
100
AcDbTrace
 10
73.1379246141
 20
156.1729510451
 30
0.0
 11
73.6459246141
 21
159.4749510451
 31
0.0
 12
72.6299246141
 22
159.4749510451
 32
0.0
 13
72.6299246141
 23
159.4749510451
 33
0.0
  0
LINE
  5
2C5
330
2C0
100
AcDbEntity
  8
FORMAT
100
AcDbLine
 10
67.8673061088
 20
156.1729510451
 30
0.0
 11
74.1379246141
 21
156.1729510451
 31
0.0
  0
LINE
  5
2C6
330
2C0
100
AcDbEntity
  8
FORMAT
100
AcDbLine
 10
73.1379246141
 20
168.1729510451
 30
0.0
 11
73.1379246141
 21
156.1729510451
 31
0.0
  0
MTEXT
  5
2C7
330
2C0
100
AcDbEntity
  8
FORMAT
100
AcDbMText
 10
68.6261872921
 20
159.4993400002
 30
0.0
 40
3.5
 41
0.0
 46
0.0
 71
     1
 72
     1
  1
12
  7
SLDTEXTSTYLE0
 11
-7.044195017643634E-15
 21
1.0
 31
0.0
 73
     1
 44
1.0
  0
ENDBLK
  5
2C2
330
2C0
100
AcDbEntity
  8
0
100
AcDbBlockEnd
  0
BLOCK
  5
2CA
330
2C9
100
AcDbEntity
  8
0
100
AcDbBlockBegin
  2
_D_9
 70
     0
 10
0.0
 20
0.0
 30
0.0
  3
_D_9
  1

  0
SOLID
  5
2CC
330
2C9
100
AcDbEntity
  8
FORMAT
100
AcDbTrace
 10
94.8673061088
 20
146.1729510451
 30
0.0
 11
95.3753061088
 21
149.4749510451
 31
0.0
 12
94.3593061088
 22
149.4749510451
 32
0.0
 13
94.3593061088
 23
149.4749510451
 33
0.0
  0
SOLID
  5
2CD
330
2C9
100
AcDbEntity
  8
FORMAT
100
AcDbTrace
 10
94.8673061088
 20
168.1729510451
 30
0.0
 11
94.3593061088
 21
164.8709510451
 31
0.0
 12
95.3753061088
 22
164.8709510451
 32
0.0
 13
95.3753061088
 23
164.8709510451
 33
0.0
  0
LINE
  5
2CE
330
2C9
100
AcDbEntity
  8
FORMAT
100
AcDbLine
 10
91.8673061088
 20
146.1729510451
 30
0.0
 11
95.8673061088
 21
146.1729510451
 31
0.0
  0
LINE
  5
2CF
330
2C9
100
AcDbEntity
  8
FORMAT
100
AcDbLine
 10
94.8673061088
 20
146.1729510451
 30
0.0
 11
94.8673061088
 21
168.1729510451
 31
0.0
  0
MTEXT
  5
2D0
330
2C9
100
AcDbEntity
  8
FORMAT
100
AcDbMText
 10
90.3555687868
 20
154.4993400002
 30
0.0
 40
3.5
 41
0.0
 46
0.0
 71
     1
 72
     1
  1
22
  7
SLDTEXTSTYLE0
 11
6.123233995736766E-17
 21
1.0
 31
0.0
 73
     1
 44
1.0
  0
ENDBLK
  5
2CB
330
2C9
100
AcDbEntity
  8
0
100
AcDbBlockEnd
  0
BLOCK
  5
2D4
330
2D3
100
AcDbEntity
  8
0
100
AcDbBlockBegin
  2
_D_10
 70
     0
 10
0.0
 20
0.0
 30
0.0
  3
_D_10
  1

  0
SOLID
  5
2D6
330
2D3
100
AcDbEntity
  8
FORMAT
100
AcDbTrace
 10
119.6465278135
 20
160.1729510451
 30
0.0
 11
119.1385278135
 21
156.8709510451
 31
0.0
 12
120.1545278135
 22
156.8709510451
 32
0.0
 13
120.1545278135
 23
156.8709510451
 33
0.0
  0
SOLID
  5
2D7
330
2D3
100
AcDbEntity
  8
FORMAT
100
AcDbTrace
 10
119.6465278135
 20
168.1729510451
 30
0.0
 11
120.1545278135
 21
171.4749510451
 31
0.0
 12
119.1385278135
 22
171.4749510451
 32
0.0
 13
119.1385278135
 23
171.4749510451
 33
0.0
  0
LINE
  5
2D8
330
2D3
100
AcDbEntity
  8
FORMAT
100
AcDbLine
 10
115.8673061088
 20
160.1729510451
 30
0.0
 11
120.6465278135
 21
160.1729510451
 31
0.0
  0
LINE
  5
2D9
330
2D3
100
AcDbEntity
  8
FORMAT
100
AcDbLine
 10
119.6465278135
 20
160.1729510451
 30
0.0
 11
119.6465278135
 21
153.8229510451
 31
0.0
  0
LINE
  5
2DA
330
2D3
100
AcDbEntity
  8
FORMAT
100
AcDbLine
 10
119.6465278135
 20
160.1729510451
 30
0.0
 11
119.6465278135
 21
168.1729510451
 31
0.0
  0
LINE
  5
2DB
330
2D3
100
AcDbEntity
  8
FORMAT
100
AcDbLine
 10
119.6465278135
 20
168.1729510451
 30
0.0
 11
119.6465278135
 21
174.5229510451
 31
0.0
  0
MTEXT
  5
2DC
330
2D3
100
AcDbEntity
  8
FORMAT
100
AcDbMText
 10
115.1347904914
 20
162.8361455227
 30
0.0
 40
3.5
 41
0.0
 46
0.0
 71
     1
 72
     1
  1
8
  7
SLDTEXTSTYLE0
 11
6.123233995736766E-17
 21
1.0
 31
0.0
 73
     1
 44
1.0
  0
ENDBLK
  5
2D5
330
2D3
100
AcDbEntity
  8
0
100
AcDbBlockEnd
  0
BLOCK
  5
2DF
330
2DE
100
AcDbEntity
  8
0
100
AcDbBlockBegin
  2
_D_11
 70
     0
 10
0.0
 20
0.0
 30
0.0
  3
_D_11
  1

  0
SOLID
  5
2E1
330
2DE
100
AcDbEntity
  8
FORMAT
100
AcDbTrace
 10
106.8673061088
 20
74.1729510451
 30
0.0
 11
110.1693061088
 21
73.6649510451
 31
0.0
 12
110.1693061088
 22
74.6809510451
 32
0.0
 13
110.1693061088
 23
74.6809510451
 33
0.0
  0
SOLID
  5
2E2
330
2DE
100
AcDbEntity
  8
FORMAT
100
AcDbTrace
 10
134.8673061088
 20
74.1729510451
 30
0.0
 11
131.5653061088
 21
74.6809510451
 31
0.0
 12
131.5653061088
 22
73.6649510451
 32
0.0
 13
131.5653061088
 23
73.6649510451
 33
0.0
  0
LINE
  5
2E3
330
2DE
100
AcDbEntity
  8
FORMAT
100
AcDbLine
 10
106.8673061088
 20
94.1906357155
 30
0.0
 11
106.8673061088
 21
73.1729510451
 31
0.0
  0
LINE
  5
2E4
330
2DE
100
AcDbEntity
  8
FORMAT
100
AcDbLine
 10
134.8673061088
 20
87.6729510451
 30
0.0
 11
134.8673061088
 21
73.1729510451
 31
0.0
  0
LINE
  5
2E5
330
2DE
100
AcDbEntity
  8
FORMAT
100
AcDbLine
 10
106.8673061088
 20
74.1729510451
 30
0.0
 11
134.8673061088
 21
74.1729510451
 31
0.0
  0
MTEXT
  5
2E6
330
2DE
100
AcDbEntity
  8
FORMAT
100
AcDbMText
 10
118.1936950639
 20
78.6846883671
 30
0.0
 40
3.5
 41
0.0
 46
0.0
 71
     1
 72
     1
  1
28
  7
SLDTEXTSTYLE0
 73
     1
 44
1.0
  0
ENDBLK
  5
2E0
330
2DE
100
AcDbEntity
  8
0
100
AcDbBlockEnd
  0
BLOCK
  5
2E9
330
2E8
100
AcDbEntity
  8
0
100
AcDbBlockBegin
  2
_D_12
 70
     0
 10
0.0
 20
0.0
 30
0.0
  3
_D_12
  1

  0
SOLID
  5
2EB
330
2E8
100
AcDbEntity
  8
FORMAT
100
AcDbTrace
 10
106.8673061088
 20
74.1729510451
 30
0.0
 11
103.5653061088
 21
74.6809510451
 31
0.0
 12
103.5653061088
 22
73.6649510451
 32
0.0
 13
103.5653061088
 23
73.6649510451
 33
0.0
  0
SOLID
  5
2EC
330
2E8
100
AcDbEntity
  8
FORMAT
100
AcDbTrace
 10
78.8673061088
 20
74.1729510451
 30
0.0
 11
82.1693061088
 21
73.6649510451
 31
0.0
 12
82.1693061088
 22
74.6809510451
 32
0.0
 13
82.1693061088
 23
74.6809510451
 33
0.0
  0
LINE
  5
2ED
330
2E8
100
AcDbEntity
  8
FORMAT
100
AcDbLine
 10
106.8673061088
 20
94.1906357155
 30
0.0
 11
106.8673061088
 21
73.1729510451
 31
0.0
  0
LINE
  5
2EE
330
2E8
100
AcDbEntity
  8
FORMAT
100
AcDbLine
 10
78.8673061088
 20
87.6729510451
 30
0.0
 11
78.8673061088
 21
73.1729510451
 31
0.0
  0
LINE
  5
2EF
330
2E8
100
AcDbEntity
  8
FORMAT
100
AcDbLine
 10
106.8673061088
 20
74.1729510451
 30
0.0
 11
78.8673061088
 21
74.1729510451
 31
0.0
  0
MTEXT
  5
2F0
330
2E8
100
AcDbEntity
  8
FORMAT
100
AcDbMText
 10
90.1936950639
 20
78.6846883671
 30
0.0
 40
3.5
 41
0.0
 46
0.0
 71
     1
 72
     1
  1
28
  7
SLDTEXTSTYLE0
 73
     1
 44
1.0
  0
ENDBLK
  5
2EA
330
2E8
100
AcDbEntity
  8
0
100
AcDbBlockEnd
  0
BLOCK
  5
2F2
330
2F1
100
AcDbEntity
  8
0
100
AcDbBlockBegin
  2
SW_CENTERMARKSYMBOL_0
 70
     0
 10
0.0
 20
0.0
 30
0.0
  3
SW_CENTERMARKSYMBOL_0
  1

  0
LINE
  5
2F4
330
2F1
100
AcDbEntity
  8
FORMAT
 62
     0
100
AcDbLine
 10
0.0
 20
0.0
 30
0.0
 11
0.0
 21
2.5
 31
0.0
  0
LINE
  5
2F5
330
2F1
100
AcDbEntity
  8
FORMAT
 62
     0
100
AcDbLine
 10
0.0
 20
0.0
 30
0.0
 11
-2.5
 21
0.0
 31
0.0
  0
LINE
  5
2F6
330
2F1
100
AcDbEntity
  8
FORMAT
 62
     0
100
AcDbLine
 10
0.0
 20
0.0
 30
0.0
 11
0.0
 21
-2.5
 31
0.0
  0
LINE
  5
2F7
330
2F1
100
AcDbEntity
  8
FORMAT
 62
     0
100
AcDbLine
 10
0.0
 20
0.0
 30
0.0
 11
2.5
 21
0.0
 31
0.0
  0
LINE
  5
2F8
330
2F1
100
AcDbEntity
  8
FORMAT
 62
     0
100
AcDbLine
 10
0.0
 20
5.0
 30
0.0
 11
0.0
 21
8.0
 31
0.0
  0
LINE
  5
2F9
330
2F1
100
AcDbEntity
  8
FORMAT
 62
     0
100
AcDbLine
 10
-5.0
 20
0.0
 30
0.0
 11
-8.0
 21
0.0
 31
0.0
  0
LINE
  5
2FA
330
2F1
100
AcDbEntity
  8
FORMAT
 62
     0
100
AcDbLine
 10
0.0
 20
-5.0
 30
0.0
 11
0.0
 21
-8.0
 31
0.0
  0
LINE
  5
2FB
330
2F1
100
AcDbEntity
  8
FORMAT
 62
     0
100
AcDbLine
 10
5.0
 20
0.0
 30
0.0
 11
8.0
 21
0.0
 31
0.0
  0
ENDBLK
  5
2F3
330
2F1
100
AcDbEntity
  8
0
100
AcDbBlockEnd
  0
BLOCK
  5
2FE
330
2FD
100
AcDbEntity
  8
0
100
AcDbBlockBegin
  2
SW_CENTERMARKSYMBOL_1
 70
     0
 10
0.0
 20
0.0
 30
0.0
  3
SW_CENTERMARKSYMBOL_1
  1

  0
LINE
  5
300
330
2FD
100
AcDbEntity
  8
FORMAT
 62
     0
100
AcDbLine
 10
0.0
 20
0.0
 30
0.0
 11
0.0
 21
2.5
 31
0.0
  0
LINE
  5
301
330
2FD
100
AcDbEntity
  8
FORMAT
 62
     0
100
AcDbLine
 10
0.0
 20
0.0
 30
0.0
 11
-2.5
 21
0.0
 31
0.0
  0
LINE
  5
302
330
2FD
100
AcDbEntity
  8
FORMAT
 62
     0
100
AcDbLine
 10
0.0
 20
0.0
 30
0.0
 11
0.0
 21
-2.5
 31
0.0
  0
LINE
  5
303
330
2FD
100
AcDbEntity
  8
FORMAT
 62
     0
100
AcDbLine
 10
0.0
 20
0.0
 30
0.0
 11
2.5
 21
0.0
 31
0.0
  0
LINE
  5
304
330
2FD
100
AcDbEntity
  8
FORMAT
 62
     0
100
AcDbLine
 10
0.0
 20
5.0
 30
0.0
 11
0.0
 21
8.0
 31
0.0
  0
LINE
  5
305
330
2FD
100
AcDbEntity
  8
FORMAT
 62
     0
100
AcDbLine
 10
-5.0
 20
0.0
 30
0.0
 11
-8.0
 21
0.0
 31
0.0
  0
LINE
  5
306
330
2FD
100
AcDbEntity
  8
FORMAT
 62
     0
100
AcDbLine
 10
0.0
 20
-5.0
 30
0.0
 11
0.0
 21
-8.0
 31
0.0
  0
LINE
  5
307
330
2FD
100
AcDbEntity
  8
FORMAT
 62
     0
100
AcDbLine
 10
5.0
 20
0.0
 30
0.0
 11
8.0
 21
0.0
 31
0.0
  0
ENDBLK
  5
2FF
330
2FD
100
AcDbEntity
  8
0
100
AcDbBlockEnd
  0
BLOCK
  5
30A
330
309
100
AcDbEntity
  8
0
100
AcDbBlockBegin
  2
SW_CENTERMARKSYMBOL_2
 70
     0
 10
0.0
 20
0.0
 30
0.0
  3
SW_CENTERMARKSYMBOL_2
  1

  0
LINE
  5
30C
330
309
100
AcDbEntity
  8
FORMAT
 62
     0
100
AcDbLine
 10
0.0
 20
0.0
 30
0.0
 11
0.0
 21
2.5
 31
0.0
  0
LINE
  5
30D
330
309
100
AcDbEntity
  8
FORMAT
 62
     0
100
AcDbLine
 10
0.0
 20
0.0
 30
0.0
 11
-2.5
 21
0.0
 31
0.0
  0
LINE
  5
30E
330
309
100
AcDbEntity
  8
FORMAT
 62
     0
100
AcDbLine
 10
0.0
 20
0.0
 30
0.0
 11
0.0
 21
-2.5
 31
0.0
  0
LINE
  5
30F
330
309
100
AcDbEntity
  8
FORMAT
 62
     0
100
AcDbLine
 10
0.0
 20
0.0
 30
0.0
 11
2.5
 21
0.0
 31
0.0
  0
LINE
  5
310
330
309
100
AcDbEntity
  8
FORMAT
 62
     0
100
AcDbLine
 10
0.0
 20
5.0
 30
0.0
 11
0.0
 21
8.0
 31
0.0
  0
LINE
  5
311
330
309
100
AcDbEntity
  8
FORMAT
 62
     0
100
AcDbLine
 10
-5.0
 20
0.0
 30
0.0
 11
-8.0
 21
0.0
 31
0.0
  0
LINE
  5
312
330
309
100
AcDbEntity
  8
FORMAT
 62
     0
100
AcDbLine
 10
0.0
 20
-5.0
 30
0.0
 11
0.0
 21
-64.9823153296
 31
0.0
  0
LINE
  5
313
330
309
100
AcDbEntity
  8
FORMAT
 62
     0
100
AcDbLine
 10
5.0
 20
0.0
 30
0.0
 11
8.0
 21
0.0
 31
0.0
  0
ENDBLK
  5
30B
330
309
100
AcDbEntity
  8
0
100
AcDbBlockEnd
  0
BLOCK
  5
316
330
315
100
AcDbEntity
  8
0
100
AcDbBlockBegin
  2
SW_CENTERMARKSYMBOL_3
 70
     0
 10
0.0
 20
0.0
 30
0.0
  3
SW_CENTERMARKSYMBOL_3
  1

  0
LINE
  5
318
330
315
100
AcDbEntity
  8
FORMAT
 62
     0
100
AcDbLine
 10
0.0
 20
0.0
 30
0.0
 11
0.0
 21
2.5
 31
0.0
  0
LINE
  5
319
330
315
100
AcDbEntity
  8
FORMAT
 62
     0
100
AcDbLine
 10
0.0
 20
0.0
 30
0.0
 11
-2.5
 21
0.0
 31
0.0
  0
LINE
  5
31A
330
315
100
AcDbEntity
  8
FORMAT
 62
     0
100
AcDbLine
 10
0.0
 20
0.0
 30
0.0
 11
0.0
 21
-2.5
 31
0.0
  0
LINE
  5
31B
330
315
100
AcDbEntity
  8
FORMAT
 62
     0
100
AcDbLine
 10
0.0
 20
0.0
 30
0.0
 11
2.5
 21
0.0
 31
0.0
  0
LINE
  5
31C
330
315
100
AcDbEntity
  8
FORMAT
 62
     0
100
AcDbLine
 10
0.0
 20
5.0
 30
0.0
 11
0.0
 21
8.0
 31
0.0
  0
LINE
  5
31D
330
315
100
AcDbEntity
  8
FORMAT
 62
     0
100
AcDbLine
 10
-5.0
 20
0.0
 30
0.0
 11
-8.0
 21
0.0
 31
0.0
  0
LINE
  5
31E
330
315
100
AcDbEntity
  8
FORMAT
 62
     0
100
AcDbLine
 10
0.0
 20
-5.0
 30
0.0
 11
0.0
 21
-8.0
 31
0.0
  0
LINE
  5
31F
330
315
100
AcDbEntity
  8
FORMAT
 62
     0
100
AcDbLine
 10
5.0
 20
0.0
 30
0.0
 11
8.0
 21
0.0
 31
0.0
  0
ENDBLK
  5
317
330
315
100
AcDbEntity
  8
0
100
AcDbBlockEnd
  0
BLOCK
  5
322
330
321
100
AcDbEntity
  8
0
100
AcDbBlockBegin
  2
SW_CENTERMARKSYMBOL_4
 70
     0
 10
0.0
 20
0.0
 30
0.0
  3
SW_CENTERMARKSYMBOL_4
  1

  0
LINE
  5
324
330
321
100
AcDbEntity
  8
FORMAT
 62
     0
100
AcDbLine
 10
0.0
 20
0.0
 30
0.0
 11
0.0
 21
2.5
 31
0.0
  0
LINE
  5
325
330
321
100
AcDbEntity
  8
FORMAT
 62
     0
100
AcDbLine
 10
0.0
 20
0.0
 30
0.0
 11
-2.5
 21
0.0
 31
0.0
  0
LINE
  5
326
330
321
100
AcDbEntity
  8
FORMAT
 62
     0
100
AcDbLine
 10
0.0
 20
0.0
 30
0.0
 11
0.0
 21
-2.5
 31
0.0
  0
LINE
  5
327
330
321
100
AcDbEntity
  8
FORMAT
 62
     0
100
AcDbLine
 10
0.0
 20
0.0
 30
0.0
 11
2.5
 21
0.0
 31
0.0
  0
LINE
  5
328
330
321
100
AcDbEntity
  8
FORMAT
 62
     0
100
AcDbLine
 10
0.0
 20
5.0
 30
0.0
 11
0.0
 21
8.0
 31
0.0
  0
LINE
  5
329
330
321
100
AcDbEntity
  8
FORMAT
 62
     0
100
AcDbLine
 10
-5.0
 20
0.0
 30
0.0
 11
-8.0
 21
0.0
 31
0.0
  0
LINE
  5
32A
330
321
100
AcDbEntity
  8
FORMAT
 62
     0
100
AcDbLine
 10
0.0
 20
-5.0
 30
0.0
 11
0.0
 21
-8.0
 31
0.0
  0
LINE
  5
32B
330
321
100
AcDbEntity
  8
FORMAT
 62
     0
100
AcDbLine
 10
5.0
 20
0.0
 30
0.0
 11
8.0
 21
0.0
 31
0.0
  0
ENDBLK
  5
323
330
321
100
AcDbEntity
  8
0
100
AcDbBlockEnd
  0
BLOCK
  5
35C
330
35B
100
AcDbEntity
  8
0
100
AcDbBlockBegin
  2
_D_13
 70
     0
 10
0.0
 20
0.0
 30
0.0
  3
_D_13
  1

  0
SOLID
  5
35E
330
35B
100
AcDbEntity
  8
FORMAT
100
AcDbTrace
 10
218.4605812529
 20
165.6729510451
 30
0.0
 11
218.9685812529
 21
168.9749510451
 31
0.0
 12
217.9525812529
 22
168.9749510451
 32
0.0
 13
217.9525812529
 23
168.9749510451
 33
0.0
  0
SOLID
  5
35F
330
35B
100
AcDbEntity
  8
FORMAT
100
AcDbTrace
 10
218.4605812529
 20
154.6729510451
 30
0.0
 11
217.9525812529
 21
151.3709510451
 31
0.0
 12
218.9685812529
 22
151.3709510451
 32
0.0
 13
218.9685812529
 23
151.3709510451
 33
0.0
  0
LINE
  5
360
330
35B
100
AcDbEntity
  8
FORMAT
100
AcDbLine
 10
210.3047720134
 20
165.6729510451
 30
0.0
 11
219.4605812529
 21
165.6729510451
 31
0.0
  0
LINE
  5
361
330
35B
100
AcDbEntity
  8
FORMAT
100
AcDbLine
 10
210.3047720134
 20
154.6729510451
 30
0.0
 11
219.4605812529
 21
154.6729510451
 31
0.0
  0
LINE
  5
362
330
35B
100
AcDbEntity
  8
FORMAT
100
AcDbLine
 10
218.4605812529
 20
165.6729510451
 30
0.0
 11
218.4605812529
 21
172.0229510451
 31
0.0
  0
LINE
  5
363
330
35B
100
AcDbEntity
  8
FORMAT
100
AcDbLine
 10
218.4605812529
 20
165.6729510451
 30
0.0
 11
218.4605812529
 21
154.6729510451
 31
0.0
  0
LINE
  5
364
330
35B
100
AcDbEntity
  8
FORMAT
100
AcDbLine
 10
218.4605812529
 20
154.6729510451
 30
0.0
 11
218.4605812529
 21
148.3229510451
 31
0.0
  0
MTEXT
  5
365
330
35B
100
AcDbEntity
  8
FORMAT
100
AcDbMText
 10
213.9488441637
 20
154.9478644604
 30
0.0
 40
3.5
 41
0.0
 46
0.0
 71
     1
 72
     1
  1
%%c
  7
SLDTEXTSTYLE0
 11
-1.148508711614426E-14
 21
1.0
 31
0.0
 73
     1
 44
1.0
  0
MTEXT
  5
366
330
35B
100
AcDbEntity
  8
FORMAT
100
AcDbMText
 10
213.9391218545
 20
160.0508160057
 30
0.0
 40
3.5
 41
0.0
 46
0.0
 71
     1
 72
     1
  1
11
  7
SLDTEXTSTYLE0
 11
-1.148508711614426E-14
 21
1.0
 31
0.0
 73
     1
 44
1.0
  0
ENDBLK
  5
35D
330
35B
100
AcDbEntity
  8
0
100
AcDbBlockEnd
  0
BLOCK
  5
36A
330
369
100
AcDbEntity
  8
0
100
AcDbBlockBegin
  2
_D_14
 70
     0
 10
0.0
 20
0.0
 30
0.0
  3
_D_14
  1

  0
ARC
  5
36C
330
369
100
AcDbEntity
  8
FORMAT
100
AcDbCircle
 10
203.8047720134
 20
160.1729510451
 30
0.0
 40
25.50238386112885
100
AcDbArc
 50
315.0
 51
45.0
  0
SOLID
  5
36D
330
369
100
AcDbEntity
  8
FORMAT
100
AcDbTrace
 10
221.8376805781
 20
142.1400424805
 30
0.0
 11
224.3990693883
 21
144.2849330052
 31
0.0
 12
223.6359166844
 22
144.9556445308
 32
0.0
 13
223.6359166844
 23
144.9556445308
 33
0.0
  0
SOLID
  5
36E
330
369
100
AcDbEntity
  8
FORMAT
100
AcDbTrace
 10
221.8376805781
 20
178.2058596097
 30
0.0
 11
223.6359166844
 21
175.3902575594
 31
0.0
 12
224.3990693883
 22
176.060969085
 32
0.0
 13
224.3990693883
 23
176.060969085
 33
0.0
  0
LINE
  5
36F
330
369
100
AcDbEntity
  8
FORMAT
100
AcDbLine
 10
210.0118787946
 20
153.9658442639
 30
0.0
 11
222.5447873593
 21
141.4329356993
 31
0.0
  0
LINE
  5
370
330
369
100
AcDbEntity
  8
FORMAT
100
AcDbLine
 10
210.0118787946
 20
166.3800578263
 30
0.0
 11
222.5447873593
 21
178.9129663909
 31
0.0
  0
MTEXT
  5
371
330
369
100
AcDbEntity
  8
FORMAT
100
AcDbMText
 10
224.7954185525
 20
156.5368400054
 30
0.0
 40
3.5
 41
0.0
 46
0.0
 71
     1
 72
     1
  1
90°
  7
SLDTEXTSTYLE0
 11
-7.932373437343760E-15
 21
1.0
 31
0.0
 73
     1
 44
1.0
  0
ENDBLK
  5
36B
330
369
100
AcDbEntity
  8
0
100
AcDbBlockEnd
  0
BLOCK
  5
374
330
373
100
AcDbEntity
  8
0
100
AcDbBlockBegin
  2
_D_15
 70
     0
 10
0.0
 20
0.0
 30
0.0
  3
_D_15
  1

  0
SOLID
  5
376
330
373
100
AcDbEntity
  8
FORMAT
100
AcDbTrace
 10
199.52310095
 20
163.4229510451
 30
0.0
 11
200.03110095
 21
166.7249510451
 31
0.0
 12
199.01510095
 22
166.7249510451
 32
0.0
 13
199.01510095
 23
166.7249510451
 33
0.0
  0
SOLID
  5
377
330
373
100
AcDbEntity
  8
FORMAT
100
AcDbTrace
 10
199.52310095
 20
156.9229510451
 30
0.0
 11
199.01510095
 21
153.6209510451
 31
0.0
 12
200.03110095
 22
153.6209510451
 32
0.0
 13
200.03110095
 23
153.6209510451
 33
0.0
  0
LINE
  5
378
330
373
100
AcDbEntity
  8
FORMAT
100
AcDbLine
 10
205.3047720134
 20
163.4229510451
 30
0.0
 11
198.52310095
 21
163.4229510451
 31
0.0
  0
LINE
  5
379
330
373
100
AcDbEntity
  8
FORMAT
100
AcDbLine
 10
205.3047720134
 20
156.9229510451
 30
0.0
 11
198.52310095
 21
156.9229510451
 31
0.0
  0
LINE
  5
37A
330
373
100
AcDbEntity
  8
FORMAT
100
AcDbLine
 10
199.52310095
 20
163.4229510451
 30
0.0
 11
199.52310095
 21
169.7729510451
 31
0.0
  0
LINE
  5
37B
330
373
100
AcDbEntity
  8
FORMAT
100
AcDbLine
 10
199.52310095
 20
163.4229510451
 30
0.0
 11
199.52310095
 21
156.9229510451
 31
0.0
  0
LINE
  5
37C
330
373
100
AcDbEntity
  8
FORMAT
100
AcDbLine
 10
199.52310095
 20
156.9229510451
 30
0.0
 11
199.52310095
 21
144.8352456225
 31
0.0
  0
MTEXT
  5
37D
330
373
100
AcDbEntity
  8
FORMAT
100
AcDbMText
 10
195.0113638608
 20
144.8352456225
 30
0.0
 40
3.5
 41
0.0
 46
0.0
 71
     1
 72
     1
  1
%%c
  7
SLDTEXTSTYLE0
 11
3.914108280676288E-14
 21
1.0
 31
0.0
 73
     1
 44
1.0
  0
MTEXT
  5
37E
330
373
100
AcDbEntity
  8
FORMAT
100
AcDbMText
 10
195.0016415516
 20
149.9381971677
 30
0.0
 40
3.5
 41
0.0
 46
0.0
 71
     1
 72
     1
  1
6,5
  7
SLDTEXTSTYLE0
 11
3.914108280676288E-14
 21
1.0
 31
0.0
 73
     1
 44
1.0
  0
ENDBLK
  5
375
330
373
100
AcDbEntity
  8
0
100
AcDbBlockEnd
  0
BLOCK
  5
381
330
380
100
AcDbEntity
  8
0
100
AcDbBlockBegin
  2
_D_16
 70
     0
 10
0.0
 20
0.0
 30
0.0
  3
_D_16
  1

  0
SOLID
  5
383
330
380
100
AcDbEntity
  8
FORMAT
100
AcDbTrace
 10
192.153735517
 20
168.1729510451
 30
0.0
 11
191.645735517
 21
164.8709510451
 31
0.0
 12
192.661735517
 22
164.8709510451
 32
0.0
 13
192.661735517
 23
164.8709510451
 33
0.0
  0
SOLID
  5
384
330
380
100
AcDbEntity
  8
FORMAT
100
AcDbTrace
 10
192.153735517
 20
123.1729510451
 30
0.0
 11
192.661735517
 21
126.4749510451
 31
0.0
 12
191.645735517
 22
126.4749510451
 32
0.0
 13
191.645735517
 23
126.4749510451
 33
0.0
  0
LINE
  5
385
330
380
100
AcDbEntity
  8
FORMAT
100
AcDbLine
 10
205.3047720134
 20
168.1729510451
 30
0.0
 11
201.02310095
 21
168.1729510451
 31
0.0
  0
LINE
  5
386
330
380
100
AcDbEntity
  8
FORMAT
100
AcDbLine
 10
198.02310095
 20
168.1729510451
 30
0.0
 11
191.153735517
 21
168.1729510451
 31
0.0
  0
LINE
  5
387
330
380
100
AcDbEntity
  8
FORMAT
100
AcDbLine
 10
202.8047720134
 20
123.1729510451
 30
0.0
 11
191.153735517
 21
123.1729510451
 31
0.0
  0
LINE
  5
388
330
380
100
AcDbEntity
  8
FORMAT
100
AcDbLine
 10
192.153735517
 20
168.1729510451
 30
0.0
 11
192.153735517
 21
123.1729510451
 31
0.0
  0
MTEXT
  5
389
330
380
100
AcDbEntity
  8
FORMAT
100
AcDbMText
 10
187.641998195
 20
142.9993400002
 30
0.0
 40
3.5
 41
0.0
 46
0.0
 71
     1
 72
     1
  1
45
  7
SLDTEXTSTYLE0
 11
-7.044195017643634E-15
 21
1.0
 31
0.0
 73
     1
 44
1.0
  0
ENDBLK
  5
382
330
380
100
AcDbEntity
  8
0
100
AcDbBlockEnd
  0
BLOCK
  5
38B
330
38A
100
AcDbEntity
  8
0
100
AcDbBlockBegin
  2
SW_CENTERMARKSYMBOL_5
 70
     0
 10
0.0
 20
0.0
 30
0.0
  3
SW_CENTERMARKSYMBOL_5
  1

  0
LINE
  5
38D
330
38A
100
AcDbEntity
  8
FORMAT
 62
     0
100
AcDbLine
 10
0.0
 20
0.0
 30
0.0
 11
0.0
 21
2.5
 31
0.0
  0
LINE
  5
38E
330
38A
100
AcDbEntity
  8
FORMAT
 62
     0
100
AcDbLine
 10
0.0
 20
0.0
 30
0.0
 11
-2.5
 21
0.0
 31
0.0
  0
LINE
  5
38F
330
38A
100
AcDbEntity
  8
FORMAT
 62
     0
100
AcDbLine
 10
0.0
 20
0.0
 30
0.0
 11
0.0
 21
-2.5
 31
0.0
  0
LINE
  5
390
330
38A
100
AcDbEntity
  8
FORMAT
 62
     0
100
AcDbLine
 10
0.0
 20
0.0
 30
0.0
 11
2.5
 21
0.0
 31
0.0
  0
LINE
  5
391
330
38A
100
AcDbEntity
  8
FORMAT
 62
     0
100
AcDbLine
 10
0.0
 20
5.0
 30
0.0
 11
0.0
 21
11.5
 31
0.0
  0
LINE
  5
392
330
38A
100
AcDbEntity
  8
FORMAT
 62
     0
100
AcDbLine
 10
-5.0
 20
0.0
 30
0.0
 11
-11.5
 21
0.0
 31
0.0
  0
LINE
  5
393
330
38A
100
AcDbEntity
  8
FORMAT
 62
     0
100
AcDbLine
 10
0.0
 20
-5.0
 30
0.0
 11
0.0
 21
-11.5
 31
0.0
  0
LINE
  5
394
330
38A
100
AcDbEntity
  8
FORMAT
 62
     0
100
AcDbLine
 10
5.0
 20
0.0
 30
0.0
 11
11.5
 21
0.0
 31
0.0
  0
ENDBLK
  5
38C
330
38A
100
AcDbEntity
  8
0
100
AcDbBlockEnd
  0
BLOCK
  5
3B7
330
3B6
100
AcDbEntity
  8
0
100
AcDbBlockBegin
  2
_D_17
 70
     0
 10
0.0
 20
0.0
 30
0.0
  3
_D_17
  1

  0
SOLID
  5
3B9
330
3B6
100
AcDbEntity
  8
FORMAT
100
AcDbTrace
 10
251.4767078112
 20
190.1729510451
 30
0.0
 11
254.7787078112
 21
189.6649510451
 31
0.0
 12
254.7787078112
 22
190.6809510451
 32
0.0
 13
254.7787078112
 23
190.6809510451
 33
0.0
  0
SOLID
  5
3BA
330
3B6
100
AcDbEntity
  8
FORMAT
100
AcDbTrace
 10
265.4767078112
 20
190.1729510451
 30
0.0
 11
262.1747078112
 21
190.6809510451
 31
0.0
 12
262.1747078112
 22
189.6649510451
 32
0.0
 13
262.1747078112
 23
189.6649510451
 33
0.0
  0
LINE
  5
3BB
330
3B6
100
AcDbEntity
  8
FORMAT
100
AcDbLine
 10
251.4767078112
 20
169.1729510451
 30
0.0
 11
251.4767078112
 21
191.1729510451
 31
0.0
  0
LINE
  5
3BC
330
3B6
100
AcDbEntity
  8
FORMAT
100
AcDbLine
 10
265.4767078112
 20
163.1729510451
 30
0.0
 11
265.4767078112
 21
191.1729510451
 31
0.0
  0
LINE
  5
3BD
330
3B6
100
AcDbEntity
  8
FORMAT
100
AcDbLine
 10
251.4767078112
 20
190.1729510451
 30
0.0
 11
265.4767078112
 21
190.1729510451
 31
0.0
  0
MTEXT
  5
3BE
330
3B6
100
AcDbEntity
  8
FORMAT
100
AcDbMText
 10
255.8030967663
 20
194.6846883671
 30
0.0
 40
3.5
 41
0.0
 46
0.0
 71
     1
 72
     1
  1
14
  7
SLDTEXTSTYLE0
 73
     1
 44
1.0
  0
ENDBLK
  5
3B8
330
3B6
100
AcDbEntity
  8
0
100
AcDbBlockEnd
  0
BLOCK
  5
3C1
330
3C0
100
AcDbEntity
  8
0
100
AcDbBlockBegin
  2
_D_18
 70
     0
 10
0.0
 20
0.0
 30
0.0
  3
_D_18
  1

  0
SOLID
  5
3C3
330
3C0
100
AcDbEntity
  8
FORMAT
100
AcDbTrace
 10
248.4767078112
 20
178.1729510451
 30
0.0
 11
245.1747078112
 21
178.6809510451
 31
0.0
 12
245.1747078112
 22
177.6649510451
 32
0.0
 13
245.1747078112
 23
177.6649510451
 33
0.0
  0
SOLID
  5
3C4
330
3C0
100
AcDbEntity
  8
FORMAT
100
AcDbTrace
 10
251.4767078112
 20
178.1729510451
 30
0.0
 11
254.7787078112
 21
177.6649510451
 31
0.0
 12
254.7787078112
 22
178.6809510451
 32
0.0
 13
254.7787078112
 23
178.6809510451
 33
0.0
  0
LINE
  5
3C5
330
3C0
100
AcDbEntity
  8
FORMAT
100
AcDbLine
 10
248.4767078112
 20
169.1729510451
 30
0.0
 11
248.4767078112
 21
179.1729510451
 31
0.0
  0
LINE
  5
3C6
330
3C0
100
AcDbEntity
  8
FORMAT
100
AcDbLine
 10
251.4767078112
 20
169.1729510451
 30
0.0
 11
251.4767078112
 21
179.1729510451
 31
0.0
  0
LINE
  5
3C7
330
3C0
100
AcDbEntity
  8
FORMAT
100
AcDbLine
 10
248.4767078112
 20
178.1729510451
 30
0.0
 11
241.4796009003
 21
178.1729510451
 31
0.0
  0
LINE
  5
3C8
330
3C0
100
AcDbEntity
  8
FORMAT
100
AcDbLine
 10
248.4767078112
 20
178.1729510451
 30
0.0
 11
251.4767078112
 21
178.1729510451
 31
0.0
  0
LINE
  5
3C9
330
3C0
100
AcDbEntity
  8
FORMAT
100
AcDbLine
 10
251.4767078112
 20
178.1729510451
 30
0.0
 11
257.8267078112
 21
178.1729510451
 31
0.0
  0
MTEXT
  5
3CA
330
3C0
100
AcDbEntity
  8
FORMAT
100
AcDbMText
 10
241.4796009003
 20
182.6846883671
 30
0.0
 40
3.5
 41
0.0
 46
0.0
 71
     1
 72
     1
  1
3
  7
SLDTEXTSTYLE0
 73
     1
 44
1.0
  0
ENDBLK
  5
3C2
330
3C0
100
AcDbEntity
  8
0
100
AcDbBlockEnd
  0
BLOCK
  5
3CD
330
3CC
100
AcDbEntity
  8
0
100
AcDbBlockBegin
  2
_D_19
 70
     0
 10
0.0
 20
0.0
 30
0.0
  3
_D_19
  1

  0
SOLID
  5
3CF
330
3CC
100
AcDbEntity
  8
FORMAT
100
AcDbTrace
 10
265.4767078112
 20
184.1729510451
 30
0.0
 11
262.1747078112
 21
184.6809510451
 31
0.0
 12
262.1747078112
 22
183.6649510451
 32
0.0
 13
262.1747078112
 23
183.6649510451
 33
0.0
  0
SOLID
  5
3D0
330
3CC
100
AcDbEntity
  8
FORMAT
100
AcDbTrace
 10
268.4767078112
 20
184.1729510451
 30
0.0
 11
271.7787078112
 21
183.6649510451
 31
0.0
 12
271.7787078112
 22
184.6809510451
 32
0.0
 13
271.7787078112
 23
184.6809510451
 33
0.0
  0
LINE
  5
3D1
330
3CC
100
AcDbEntity
  8
FORMAT
100
AcDbLine
 10
265.4767078112
 20
163.1729510451
 30
0.0
 11
265.4767078112
 21
185.1729510451
 31
0.0
  0
LINE
  5
3D2
330
3CC
100
AcDbEntity
  8
FORMAT
100
AcDbLine
 10
268.4767078112
 20
163.1729510451
 30
0.0
 11
268.4767078112
 21
185.1729510451
 31
0.0
  0
LINE
  5
3D3
330
3CC
100
AcDbEntity
  8
FORMAT
100
AcDbLine
 10
265.4767078112
 20
184.1729510451
 30
0.0
 11
259.1267078112
 21
184.1729510451
 31
0.0
  0
LINE
  5
3D4
330
3CC
100
AcDbEntity
  8
FORMAT
100
AcDbLine
 10
265.4767078112
 20
184.1729510451
 30
0.0
 11
268.4767078112
 21
184.1729510451
 31
0.0
  0
LINE
  5
3D5
330
3CC
100
AcDbEntity
  8
FORMAT
100
AcDbLine
 10
268.4767078112
 20
184.1729510451
 30
0.0
 11
275.1926513977
 21
184.1729510451
 31
0.0
  0
MTEXT
  5
3D6
330
3CC
100
AcDbEntity
  8
FORMAT
100
AcDbMText
 10
272.5190403528
 20
188.6846883671
 30
0.0
 40
3.5
 41
0.0
 46
0.0
 71
     1
 72
     1
  1
3
  7
SLDTEXTSTYLE0
 73
     1
 44
1.0
  0
ENDBLK
  5
3CE
330
3CC
100
AcDbEntity
  8
0
100
AcDbBlockEnd
  0
BLOCK
  5
3D9
330
3D8
100
AcDbEntity
  8
0
100
AcDbBlockBegin
  2
_D_20
 70
     0
 10
0.0
 20
0.0
 30
0.0
  3
_D_20
  1

  0
SOLID
  5
3DB
330
3D8
100
AcDbEntity
  8
FORMAT
100
AcDbTrace
 10
278.5210818504
 20
123.1729510451
 30
0.0
 11
279.0290818504
 21
126.4749510451
 31
0.0
 12
278.0130818504
 22
126.4749510451
 32
0.0
 13
278.0130818504
 23
126.4749510451
 33
0.0
  0
SOLID
  5
3DC
330
3D8
100
AcDbEntity
  8
FORMAT
100
AcDbTrace
 10
278.5210818504
 20
162.1729510451
 30
0.0
 11
278.0130818504
 21
158.8709510451
 31
0.0
 12
279.0290818504
 22
158.8709510451
 32
0.0
 13
279.0290818504
 23
158.8709510451
 33
0.0
  0
LINE
  5
3DD
330
3D8
100
AcDbEntity
  8
FORMAT
100
AcDbLine
 10
269.9767078112
 20
123.1729510451
 30
0.0
 11
279.5210818504
 21
123.1729510451
 31
0.0
  0
LINE
  5
3DE
330
3D8
100
AcDbEntity
  8
FORMAT
100
AcDbLine
 10
269.4767078112
 20
162.1729510451
 30
0.0
 11
279.5210818504
 21
162.1729510451
 31
0.0
  0
LINE
  5
3DF
330
3D8
100
AcDbEntity
  8
FORMAT
100
AcDbLine
 10
278.5210818504
 20
123.1729510451
 30
0.0
 11
278.5210818504
 21
162.1729510451
 31
0.0
  0
MTEXT
  5
3E0
330
3D8
100
AcDbEntity
  8
FORMAT
100
AcDbMText
 10
274.0093445283
 20
139.9993400002
 30
0.0
 40
3.5
 41
0.0
 46
0.0
 71
     1
 72
     1
  1
39
  7
SLDTEXTSTYLE0
 11
6.944615092633338E-15
 21
1.0
 31
0.0
 73
     1
 44
1.0
  0
ENDBLK
  5
3DA
330
3D8
100
AcDbEntity
  8
0
100
AcDbBlockEnd
  0
BLOCK
  5
3E2
330
3E1
100
AcDbEntity
  8
0
100
AcDbBlockBegin
  2
SW_CENTERMARKSYMBOL_6
 70
     0
 10
0.0
 20
0.0
 30
0.0
  3
SW_CENTERMARKSYMBOL_6
  1

  0
LINE
  5
3E4
330
3E1
100
AcDbEntity
  8
FORMAT
 62
     0
100
AcDbLine
 10
0.0
 20
0.0
 30
0.0
 11
0.0
 21
-2.5
 31
0.0
  0
LINE
  5
3E5
330
3E1
100
AcDbEntity
  8
FORMAT
 62
     0
100
AcDbLine
 10
0.0
 20
0.0
 30
0.0
 11
2.5
 21
0.0
 31
0.0
  0
LINE
  5
3E6
330
3E1
100
AcDbEntity
  8
FORMAT
 62
     0
100
AcDbLine
 10
0.0
 20
0.0
 30
0.0
 11
0.0
 21
2.5
 31
0.0
  0
LINE
  5
3E7
330
3E1
100
AcDbEntity
  8
FORMAT
 62
     0
100
AcDbLine
 10
0.0
 20
0.0
 30
0.0
 11
-2.5
 21
0.0
 31
0.0
  0
LINE
  5
3E8
330
3E1
100
AcDbEntity
  8
FORMAT
 62
     0
100
AcDbLine
 10
0.0
 20
-5.0
 30
0.0
 11
0.0
 21
-11.5
 31
0.0
  0
LINE
  5
3E9
330
3E1
100
AcDbEntity
  8
FORMAT
 62
     0
100
AcDbLine
 10
5.0
 20
0.0
 30
0.0
 11
11.5
 21
0.0
 31
0.0
  0
LINE
  5
3EA
330
3E1
100
AcDbEntity
  8
FORMAT
 62
     0
100
AcDbLine
 10
0.0
 20
5.0
 30
0.0
 11
0.0
 21
11.5
 31
0.0
  0
LINE
  5
3EB
330
3E1
100
AcDbEntity
  8
FORMAT
 62
     0
100
AcDbLine
 10
-5.0
 20
0.0
 30
0.0
 11
-11.5
 21
0.0
 31
0.0
  0
ENDBLK
  5
3E3
330
3E1
100
AcDbEntity
  8
0
100
AcDbBlockEnd
  0
ENDSEC
  0
SECTION
  2
ENTITIES
  0
LINE
  5
123
330
1F
100
AcDbEntity
  8
FORMAT
  6
Continuous
 62
     7
370
    18
100
AcDbLine
 10
255.3923879518
 20
35.6464717326
 30
0.0
 11
180.9851741751
 21
35.6464717326
 31
0.0
  0
LINE
  5
124
330
1F
100
AcDbEntity
  8
FORMAT
  6
Continuous
 62
     7
370
    18
100
AcDbLine
 10
255.3923879518
 20
48.7420674192
 30
0.0
 11
286.9438597858
 21
48.7420674192
 31
0.0
  0
LINE
  5
125
330
1F
100
AcDbEntity
  8
FORMAT
  6
Continuous
 62
     7
370
    18
100
AcDbLine
 10
241.7100609089
 20
35.6464717326
 30
0.0
 11
241.7100609089
 21
25.9765524102
 31
0.0
  0
LINE
  5
126
330
1F
100
AcDbEntity
  8
FORMAT
100
AcDbLine
 10
286.9438597858
 20
200.0
 30
0.0
 11
9.9438597858
 21
200.0
 31
0.0
  0
LINE
  5
127
330
1F
100
AcDbEntity
  8
FORMAT
100
AcDbLine
 10
9.9438597858
 20
200.0
 30
0.0
 11
9.9438597858
 21
10.0
 31
0.0
  0
LINE
  5
128
330
1F
100
AcDbEntity
  8
BEMASSUNG
  6
Continuous
 62
     7
370
    18
100
AcDbLine
 10
255.3923879518
 20
40.5638075942
 30
0.0
 11
286.9438597858
 21
40.5638075942
 31
0.0
  0
LINE
  5
129
330
1F
100
AcDbEntity
  8
FORMAT
 62
     7
370
    18
100
AcDbLine
 10
180.9851741751
 20
52.6404959572
 30
0.0
 11
180.9851741751
 21
10.0
 31
0.0
  0
LINE
  5
12A
330
1F
100
AcDbEntity
  8
FORMAT
 62
     7
100
AcDbLine
 10
272.1993193029
 20
10.0
 30
0.0
 11
272.1993193029
 21
19.3470401503
 31
0.0
  0
LINE
  5
12B
330
1F
100
AcDbEntity
  8
FORMAT
 62
     7
100
AcDbLine
 10
180.9851741751
 20
25.9765524102
 30
0.0
 11
286.9438597858
 21
25.9765524102
 31
0.0
  0
LINE
  5
12C
330
1F
100
AcDbEntity
  8
FORMAT
100
AcDbLine
 10
9.9438597858
 20
10.0
 30
0.0
 11
286.9438597858
 21
10.0
 31
0.0
  0
LINE
  5
12D
330
1F
100
AcDbEntity
  8
FORMAT
 62
     7
100
AcDbLine
 10
255.3923879518
 20
19.3470401503
 30
0.0
 11
286.9438597858
 21
19.3470401503
 31
0.0
  0
LINE
  5
12E
330
1F
100
AcDbEntity
  8
FORMAT
 62
     7
100
AcDbLine
 10
180.9851741751
 20
52.6404959572
 30
0.0
 11
286.9572416722
 21
52.6404959572
 31
0.0
  0
LINE
  5
12F
330
1F
100
AcDbEntity
  8
FORMAT
 62
     7
100
AcDbLine
 10
255.3923879518
 20
10.0
 30
0.0
 11
255.3923879518
 21
52.6404959572
 31
0.0
  0
LINE
  5
130
330
1F
100
AcDbEntity
  8
FORMAT
100
AcDbLine
 10
286.9438597858
 20
10.0
 30
0.0
 11
286.9438597858
 21
200.0
 31
0.0
  0
INSERT
  5
131
330
1F
100
AcDbEntity
  8
FORMAT
100
AcDbBlockReference
  2
Block2_2
 10
-49.4796720125
 20
-37.2714257085
 30
0.0
  0
INSERT
  5
132
330
1F
100
AcDbEntity
  8
FORMAT
100
AcDbBlockReference
  2
Block1_2
 10
262.8019335354
 20
27.0956685316
 30
0.0
  0
MTEXT
  5
133
330
1F
100
AcDbEntity
  8
BEMASSUNG
 62
     7
100
AcDbMText
 10
256.196469587
 20
47.9363931555
 30
0.0
 40
2.0
 41
0.0
 46
0.0
 71
     1
 72
     1
  1
Ausführung:
  7
SLDTEXTSTYLE0
 73
     1
 44
1.0
  0
MTEXT
  5
134
330
1F
100
AcDbEntity
  8
FORMAT
100
AcDbMText
 10
244.8335352583
 20
34.4345411691
 30
0.0
 40
2.0
 41
0.0
 46
0.0
 71
     1
 72
     1
  1
Index:
  7
SLDTEXTSTYLE0
 73
     1
 44
1.0
  0
MTEXT
  5
135
330
1F
100
AcDbEntity
  8
FORMAT
100
AcDbMText
 10
257.9461905645
 20
51.6009600552
 30
0.0
 40
1.8
 41
0.0
 46
0.0
 71
     1
 72
     1
  1
KATALOGZEICHNUNG
  7
SLDTEXTSTYLE0
 73
     1
 44
1.0
  0
MTEXT
  5
136
330
1F
100
AcDbEntity
  8
FORMAT
100
AcDbMText
 10
182.9061937187
 20
34.8216251945
 30
0.0
 40
2.0
 41
0.0
 46
0.0
 71
     1
 72
     1
  1
Zeichnungsnummer:
  7
SLDTEXTSTYLE0
 73
     1
 44
1.0
  0
MTEXT
  5
137
330
1F
100
AcDbEntity
  8
FORMAT
100
AcDbMText
 10
265.9344367942
 20
14.2806067945
 30
0.0
 40
2.1166666667
 41
0.0
 46
0.0
 71
     1
 72
     1
  1
3
  7
SLDTEXTSTYLE0
 73
     1
 44
1.0
  0
MTEXT
  5
138
330
1F
100
AcDbEntity
  8
FORMAT
100
AcDbMText
 10
259.8619150727
 20
14.2806067945
 30
0.0
 40
2.1166666667
 41
0.0
 46
0.0
 71
     1
 72
     1
  1
2
  7
SLDTEXTSTYLE0
 73
     1
 44
1.0
  0
MTEXT
  5
139
330
1F
100
AcDbEntity
  8
FORMAT
100
AcDbMText
 10
277.535567047
 20
14.1724992936
 30
0.0
 40
2.1166666667
 41
0.0
 46
0.0
 71
     1
 72
     1
  1
A4
  7
SLDTEXTSTYLE0
 73
     1
 44
1.0
  0
MTEXT
  5
13A
330
1F
100
AcDbEntity
  8
FORMAT
100
AcDbMText
 10
270.2136096579
 20
23.7012230636
 30
0.0
 40
2.1166666667
 41
0.0
 46
0.0
 71
     1
 72
     1
  1
1:1
  7
SLDTEXTSTYLE0
 73
     1
 44
1.0
  0
MTEXT
  5
13B
330
1F
100
AcDbEntity
  8
FORMAT
100
AcDbMText
 10
185.855694094
 20
31.2946896474
 30
0.0
 40
3.175
 41
0.0
 46
0.0
 71
     1
 72
     1
  1
D042-24262
  7
SLDTEXTSTYLE0
 73
     1
 44
1.0
  0
MTEXT
  5
13C
330
1F
100
AcDbEntity
  8
FORMAT
100
AcDbMText
 10
263.6389415355
 20
14.3853488894
 30
0.0
 40
2.5
 41
0.0
 46
0.0
 71
     2
 72
     1
  1
/
  7
SLDTEXTSTYLE0
 73
     1
 44
1.0
  0
MTEXT
  5
13D
330
1F
100
AcDbEntity
  8
FORMAT
100
AcDbMText
 10
257.6429342273
 20
17.8898077508
 30
0.0
 40
2.0
 41
0.0
 46
0.0
 71
     1
 72
     1
  1
Blatt / von
  7
SLDTEXTSTYLE0
 73
     1
 44
1.0
  0
MTEXT
  5
13E
330
1F
100
AcDbEntity
  8
FORMAT
100
AcDbMText
 10
182.596993557
 20
51.3045969115
 30
0.0
 40
2.0
 41
0.0
 46
0.0
 71
     1
 72
     1
  1
Benennung:
  7
SLDTEXTSTYLE0
 73
     1
 44
1.0
  0
MTEXT
  5
13F
330
1F
100
AcDbEntity
  8
FORMAT
100
AcDbMText
 10
274.992897395
 20
17.8898077508
 30
0.0
 40
2.0
 41
0.0
 46
0.0
 71
     1
 72
     1
  1
Format
  7
SLDTEXTSTYLE0
 73
     1
 44
1.0
  0
MTEXT
  5
140
330
1F
100
AcDbEntity
  8
FORMAT
100
AcDbMText
 10
256.3213642251
 20
23.5727761737
 30
0.0
 40
2.0
 41
0.0
 46
0.0
 71
     1
 72
     1
  1
Maßstab:
  7
SLDTEXTSTYLE0
 73
     1
 44
1.0
  0
MTEXT
  5
141
330
1F
100
AcDbEntity
  8
FORMAT
100
AcDbMText
 10
182.8009845203
 20
40.0864163817
 30
0.0
 40
2.5
 41
0.0
 46
0.0
 71
     1
 72
     1
  1
Lasergeschweißte Objektbänder
  7
SLDTEXTSTYLE0
 73
     1
 44
1.0
  0
MTEXT
  5
142
330
1F
100
AcDbEntity
  8
FORMAT
100
AcDbMText
 10
182.8290795751
 20
43.5216266319
 30
0.0
 40
2.5
 41
0.0
 46
0.0
 71
     1
 72
     1
  1
OBX-18-2541/120-LG
  7
SLDTEXTSTYLE0
 73
     1
 44
1.0
  0
MTEXT
  5
143
330
1F
100
AcDbEntity
  8
FORMAT
100
AcDbMText
 10
182.8205662367
 20
47.7853851366
 30
0.0
 40
3.5
 41
0.0
 46
0.0
 71
     1
 72
     1
  1
Zusammenbau
  7
SLDTEXTSTYLE0
 73
     1
 44
1.0
  0
INSERT
  5
14E
330
1F
100
AcDbEntity
  8
FORMAT
100
AcDbBlockReference
  2
SW_NOTE_5
 10
13.3538297872
 20
34.2427660478
 30
0.0
  0
LINE
  5
14F
330
1F
100
AcDbEntity
  8
0
  6
Continuous
 62
     7
370
    25
100
AcDbLine
 10
84.8673061088
 20
114.1729510451
 30
0.0
 11
128.8673061088
 21
114.1729510451
 31
0.0
  0
LINE
  5
150
330
1F
100
AcDbEntity
  8
0
  6
Continuous
 62
     7
370
    25
100
AcDbLine
 10
128.8673061088
 20
132.1729510451
 30
0.0
 11
84.8673061088
 21
132.1729510451
 31
0.0
  0
LINE
  5
151
330
1F
100
AcDbEntity
  8
0
  6
Continuous
 62
     7
370
    25
100
AcDbLine
 10
128.8673061088
 20
117.4229510451
 30
0.0
 11
129.8673061088
 21
117.4229510451
 31
0.0
  0
LINE
  5
152
330
1F
100
AcDbEntity
  8
0
  6
Continuous
 62
     7
370
    25
100
AcDbLine
 10
129.8673061088
 20
128.9229510451
 30
0.0
 11
128.8673061088
 21
128.9229510451
 31
0.0
  0
LINE
  5
153
330
1F
100
AcDbEntity
  8
0
  6
Continuous
 62
     7
370
    25
100
AcDbLine
 10
83.8673061088
 20
117.4229510451
 30
0.0
 11
84.8673061088
 21
117.4229510451
 31
0.0
  0
LINE
  5
154
330
1F
100
AcDbEntity
  8
0
  6
Continuous
 62
     7
370
    25
100
AcDbLine
 10
84.8673061088
 20
128.9229510451
 30
0.0
 11
83.8673061088
 21
128.9229510451
 31
0.0
  0
LINE
  5
155
330
1F
100
AcDbEntity
  8
0
  6
Continuous
 62
     7
370
    25
100
AcDbLine
 10
129.8673061088
 20
114.1729510451
 30
0.0
 11
166.6673061088
 21
114.1729510451
 31
0.0
  0
LINE
  5
156
330
1F
100
AcDbEntity
  8
0
  6
Continuous
 62
     7
370
    25
100
AcDbLine
 10
166.6673061088
 20
132.1729510451
 30
0.0
 11
129.8673061088
 21
132.1729510451
 31
0.0
  0
LINE
  5
157
330
1F
100
AcDbEntity
  8
0
  6
Continuous
 62
     7
370
    25
100
AcDbLine
 10
166.6673061088
 20
114.1729510451
 30
0.0
 11
166.8673061088
 21
114.3729510451
 31
0.0
  0
LINE
  5
158
330
1F
100
AcDbEntity
  8
0
  6
Continuous
 62
     7
370
    25
100
AcDbLine
 10
166.8673061088
 20
131.9729510451
 30
0.0
 11
166.6673061088
 21
132.1729510451
 31
0.0
  0
LINE
  5
159
330
1F
100
AcDbEntity
  8
0
  6
Continuous
 62
     7
370
    25
100
AcDbLine
 10
83.8673061088
 20
132.1729510451
 30
0.0
 11
47.0673061088
 21
132.1729510451
 31
0.0
  0
LINE
  5
15A
330
1F
100
AcDbEntity
  8
0
  6
Continuous
 62
     7
370
    25
100
AcDbLine
 10
47.0673061088
 20
114.1729510451
 30
0.0
 11
83.8673061088
 21
114.1729510451
 31
0.0
  0
LINE
  5
15B
330
1F
100
AcDbEntity
  8
0
  6
Continuous
 62
     7
370
    25
100
AcDbLine
 10
47.0673061088
 20
132.1729510451
 30
0.0
 11
46.8673061088
 21
131.9729510451
 31
0.0
  0
LINE
  5
15C
330
1F
100
AcDbEntity
  8
0
  6
Continuous
 62
     7
370
    25
100
AcDbLine
 10
46.8673061088
 20
114.3729510451
 30
0.0
 11
47.0673061088
 21
114.1729510451
 31
0.0
  0
LINE
  5
15D
330
1F
100
AcDbEntity
  8
0
  6
Continuous
 62
     7
370
    25
100
AcDbLine
 10
166.8673061088
 20
131.9729510451
 30
0.0
 11
166.8673061088
 21
135.0487785875
 31
0.0
  0
LINE
  5
15E
330
1F
100
AcDbEntity
  8
0
  6
Continuous
 62
     7
370
    25
100
AcDbLine
 10
129.8673061088
 20
132.1729510451
 30
0.0
 11
129.8673061088
 21
135.0487785875
 31
0.0
  0
LINE
  5
15F
330
1F
100
AcDbEntity
  8
0
  6
Continuous
 62
     7
370
    25
100
AcDbLine
 10
46.8673061088
 20
131.9729510451
 30
0.0
 11
46.8673061088
 21
135.0487785875
 31
0.0
  0
LINE
  5
160
330
1F
100
AcDbEntity
  8
0
  6
Continuous
 62
     7
370
    25
100
AcDbLine
 10
83.8673061088
 20
135.0487785875
 30
0.0
 11
83.8673061088
 21
132.1729510451
 31
0.0
  0
LINE
  5
161
330
1F
100
AcDbEntity
  8
0
  6
Continuous
 62
     7
370
    25
100
AcDbLine
 10
166.8673061088
 20
135.0487785875
 30
0.0
 11
166.8673061088
 21
135.320983448
 31
0.0
  0
LINE
  5
162
330
1F
100
AcDbEntity
  8
0
  6
Continuous
 62
     7
370
    25
100
AcDbLine
 10
129.8673061088
 20
135.0487785875
 30
0.0
 11
129.8673061088
 21
135.320983448
 31
0.0
  0
LINE
  5
163
330
1F
100
AcDbEntity
  8
0
  6
Continuous
 62
     7
370
    25
100
AcDbLine
 10
46.8673061088
 20
135.0487785875
 30
0.0
 11
46.8673061088
 21
135.320983448
 31
0.0
  0
LINE
  5
164
330
1F
100
AcDbEntity
  8
0
  6
Continuous
 62
     7
370
    25
100
AcDbLine
 10
83.8673061088
 20
135.320983448
 30
0.0
 11
83.8673061088
 21
135.0487785875
 31
0.0
  0
LINE
  5
165
330
1F
100
AcDbEntity
  8
0
  6
Continuous
 62
     7
370
    25
100
AcDbLine
 10
90.0467932883
 20
144.2184193454
 30
0.0
 11
90.4057676473
 21
144.2184193454
 31
0.0
  0
LINE
  5
166
330
1F
100
AcDbEntity
  8
0
  6
Continuous
 62
     7
370
    25
100
AcDbLine
 10
90.0467932883
 20
143.7697013967
 30
0.0
 11
90.0467932883
 21
144.2184193454
 31
0.0
  0
LINE
  5
167
330
1F
100
AcDbEntity
  8
0
  6
Continuous
 62
     7
370
    25
100
AcDbLine
 10
90.4057676473
 20
143.7697013967
 30
0.0
 11
90.0467932883
 21
143.7697013967
 31
0.0
  0
LINE
  5
168
330
1F
100
AcDbEntity
  8
0
  6
Continuous
 62
     7
370
    25
100
AcDbLine
 10
90.4057676473
 20
141.6158552429
 30
0.0
 11
90.4057676473
 21
143.7697013967
 31
0.0
  0
LINE
  5
169
330
1F
100
AcDbEntity
  8
0
  6
Continuous
 62
     7
370
    25
100
AcDbLine
 10
90.6749984165
 20
141.6158552429
 30
0.0
 11
90.4057676473
 21
141.6158552429
 31
0.0
  0
LINE
  5
16A
330
1F
100
AcDbEntity
  8
0
  6
Continuous
 62
     7
370
    25
100
AcDbLine
 10
91.9762804678
 20
143.7697013967
 30
0.0
 11
90.6749984165
 21
141.6158552429
 31
0.0
  0
LINE
  5
16B
330
1F
100
AcDbEntity
  8
0
  6
Continuous
 62
     7
370
    25
100
AcDbLine
 10
91.9762804678
 20
144.2184193454
 30
0.0
 11
91.9762804678
 21
143.7697013967
 31
0.0
  0
LINE
  5
16C
330
1F
100
AcDbEntity
  8
0
  6
Continuous
 62
     7
370
    25
100
AcDbLine
 10
90.7647420063
 20
144.2184193454
 30
0.0
 11
91.9762804678
 21
144.2184193454
 31
0.0
  0
LINE
  5
16D
330
1F
100
AcDbEntity
  8
0
  6
Continuous
 62
     7
370
    25
100
AcDbLine
 10
90.7647420063
 20
145.070983448
 30
0.0
 11
90.7647420063
 21
144.2184193454
 31
0.0
  0
LINE
  5
16E
330
1F
100
AcDbEntity
  8
0
  6
Continuous
 62
     7
370
    25
100
AcDbLine
 10
90.4057676473
 20
145.070983448
 30
0.0
 11
90.7647420063
 21
145.070983448
 31
0.0
  0
LINE
  5
16F
330
1F
100
AcDbEntity
  8
0
  6
Continuous
 62
     7
370
    25
100
AcDbLine
 10
90.4057676473
 20
144.2184193454
 30
0.0
 11
90.4057676473
 21
145.070983448
 31
0.0
  0
SPLINE
  5
170
330
1F
100
AcDbEntity
  8
0
  6
Continuous
 62
     7
370
    25
100
AcDbSpline
210
0.0
220
0.0
230
1.0
 70
     8
 71
     3
 72
     9
 73
     5
 74
     0
 42
0.000000001
 43
0.00000001
 40
0.0
 40
0.0
 40
0.0
 40
0.0
 40
0.5600397777264198
 40
1.0
 40
1.0
 40
1.0
 40
1.0
 10
104.7647420062513
 20
142.445983447979
 30
0.0
 10
104.577915302304
 20
142.3155557254937
 30
0.0
 10
104.2443198839469
 20
142.0826656207677
 30
0.0
 10
104.049690224666
 20
141.7273209627182
 30
0.0
 10
103.9640609165077
 20
141.570983447979
 30
0.0
  0
LINE
  5
171
330
1F
100
AcDbEntity
  8
0
  6
Continuous
 62
     7
370
    25
100
AcDbLine
 10
104.7647420063
 20
142.859645307
 30
0.0
 11
104.7647420063
 21
142.445983448
 31
0.0
  0
SPLINE
  5
172
330
1F
100
AcDbEntity
  8
0
  6
Continuous
 62
     7
370
    25
100
AcDbSpline
210
0.0
220
0.0
230
1.0
 70
     8
 71
     3
 72
     9
 73
     5
 74
     0
 42
0.000000001
 43
0.00000001
 40
0.0
 40
0.0
 40
0.0
 40
0.0
 40
0.559710093500814
 40
1.0
 40
1.0
 40
1.0
 40
1.0
 10
104.0916650831744
 20
142.3436196659278
 30
0.0
 10
104.2042688849062
 20
142.4572182049265
 30
0.0
 10
104.4054512524197
 20
142.6601778090464
 30
0.0
 10
104.6549084986382
 20
142.7986690232158
 30
0.0
 10
104.7647420062513
 20
142.8596453069534
 30
0.0
  0
LINE
  5
173
330
1F
100
AcDbEntity
  8
0
  6
Continuous
 62
     7
370
    25
100
AcDbLine
 10
104.0916650832
 20
145.070983448
 30
0.0
 11
104.0916650832
 21
142.3436196659
 31
0.0
  0
LINE
  5
174
330
1F
100
AcDbEntity
  8
0
  6
Continuous
 62
     7
370
    25
100
AcDbLine
 10
103.7326907242
 20
145.070983448
 30
0.0
 11
104.0916650832
 21
145.070983448
 31
0.0
  0
LINE
  5
175
330
1F
100
AcDbEntity
  8
0
  6
Continuous
 62
     7
370
    25
100
AcDbLine
 10
103.7326907242
 20
141.570983448
 30
0.0
 11
103.7326907242
 21
145.070983448
 31
0.0
  0
LINE
  5
176
330
1F
100
AcDbEntity
  8
0
  6
Continuous
 62
     7
370
    25
100
AcDbLine
 10
103.9640609165
 20
141.570983448
 30
0.0
 11
103.7326907242
 21
141.570983448
 31
0.0
  0
LINE
  5
177
330
1F
100
AcDbEntity
  8
0
  6
Continuous
 62
     7
370
    25
100
AcDbLine
 10
106.9424263011
 20
145.070983448
 30
0.0
 11
108.354485596
 21
142.35694098
 31
0.0
  0
LINE
  5
178
330
1F
100
AcDbEntity
  8
0
  6
Continuous
 62
     7
370
    25
100
AcDbLine
 10
106.5596138011
 20
145.070983448
 30
0.0
 11
106.9424263011
 21
145.070983448
 31
0.0
  0
LINE
  5
179
330
1F
100
AcDbEntity
  8
0
  6
Continuous
 62
     7
370
    25
100
AcDbLine
 10
106.5596138011
 20
141.570983448
 30
0.0
 11
106.5596138011
 21
145.070983448
 31
0.0
  0
LINE
  5
17A
330
1F
100
AcDbEntity
  8
0
  6
Continuous
 62
     7
370
    25
100
AcDbLine
 10
106.9185881601
 20
141.570983448
 30
0.0
 11
106.5596138011
 21
141.570983448
 31
0.0
  0
LINE
  5
17B
330
1F
100
AcDbEntity
  8
0
  6
Continuous
 62
     7
370
    25
100
AcDbLine
 10
106.9185881601
 20
144.2850259159
 30
0.0
 11
106.9185881601
 21
141.570983448
 31
0.0
  0
LINE
  5
17C
330
1F
100
AcDbEntity
  8
0
  6
Continuous
 62
     7
370
    25
100
AcDbLine
 10
108.330647455
 20
141.570983448
 30
0.0
 11
106.9185881601
 21
144.2850259159
 31
0.0
  0
LINE
  5
17D
330
1F
100
AcDbEntity
  8
0
  6
Continuous
 62
     7
370
    25
100
AcDbLine
 10
108.713459955
 20
141.570983448
 30
0.0
 11
108.330647455
 21
141.570983448
 31
0.0
  0
LINE
  5
17E
330
1F
100
AcDbEntity
  8
0
  6
Continuous
 62
     7
370
    25
100
AcDbLine
 10
108.713459955
 20
145.070983448
 30
0.0
 11
108.713459955
 21
141.570983448
 31
0.0
  0
LINE
  5
17F
330
1F
100
AcDbEntity
  8
0
  6
Continuous
 62
     7
370
    25
100
AcDbLine
 10
108.354485596
 20
145.070983448
 30
0.0
 11
108.713459955
 21
145.070983448
 31
0.0
  0
LINE
  5
180
330
1F
100
AcDbEntity
  8
0
  6
Continuous
 62
     7
370
    25
100
AcDbLine
 10
108.354485596
 20
142.35694098
 30
0.0
 11
108.354485596
 21
145.070983448
 31
0.0
  0
LINE
  5
181
330
1F
100
AcDbEntity
  8
0
  6
Continuous
 62
     7
370
    25
100
AcDbLine
 10
110.9121779037
 20
144.6671372941
 30
0.0
 11
109.2519214934
 21
144.6671372941
 31
0.0
  0
LINE
  5
182
330
1F
100
AcDbEntity
  8
0
  6
Continuous
 62
     7
370
    25
100
AcDbLine
 10
110.9121779037
 20
143.4555988326
 30
0.0
 11
110.9121779037
 21
144.6671372941
 31
0.0
  0
LINE
  5
183
330
1F
100
AcDbEntity
  8
0
  6
Continuous
 62
     7
370
    25
100
AcDbLine
 10
109.386536878
 20
143.4555988326
 30
0.0
 11
110.9121779037
 21
143.4555988326
 31
0.0
  0
LINE
  5
184
330
1F
100
AcDbEntity
  8
0
  6
Continuous
 62
     7
370
    25
100
AcDbLine
 10
109.386536878
 20
143.0517526787
 30
0.0
 11
109.386536878
 21
143.4555988326
 31
0.0
  0
LINE
  5
185
330
1F
100
AcDbEntity
  8
0
  6
Continuous
 62
     7
370
    25
100
AcDbLine
 10
110.9121779037
 20
143.0517526787
 30
0.0
 11
109.386536878
 21
143.0517526787
 31
0.0
  0
LINE
  5
186
330
1F
100
AcDbEntity
  8
0
  6
Continuous
 62
     7
370
    25
100
AcDbLine
 10
110.9121779037
 20
141.9748296018
 30
0.0
 11
110.9121779037
 21
143.0517526787
 31
0.0
  0
LINE
  5
187
330
1F
100
AcDbEntity
  8
0
  6
Continuous
 62
     7
370
    25
100
AcDbLine
 10
109.2967932883
 20
141.9748296018
 30
0.0
 11
110.9121779037
 21
141.9748296018
 31
0.0
  0
LINE
  5
188
330
1F
100
AcDbEntity
  8
0
  6
Continuous
 62
     7
370
    25
100
AcDbLine
 10
109.2967932883
 20
141.570983448
 30
0.0
 11
109.2967932883
 21
141.9748296018
 31
0.0
  0
LINE
  5
189
330
1F
100
AcDbEntity
  8
0
  6
Continuous
 62
     7
370
    25
100
AcDbLine
 10
111.2711522627
 20
141.570983448
 30
0.0
 11
109.2967932883
 21
141.570983448
 31
0.0
  0
LINE
  5
18A
330
1F
100
AcDbEntity
  8
0
  6
Continuous
 62
     7
370
    25
100
AcDbLine
 10
111.2711522627
 20
145.070983448
 30
0.0
 11
111.2711522627
 21
141.570983448
 31
0.0
  0
LINE
  5
18B
330
1F
100
AcDbEntity
  8
0
  6
Continuous
 62
     7
370
    25
100
AcDbLine
 10
109.2519214934
 20
145.070983448
 30
0.0
 11
111.2711522627
 21
145.070983448
 31
0.0
  0
LINE
  5
18C
330
1F
100
AcDbEntity
  8
0
  6
Continuous
 62
     7
370
    25
100
AcDbLine
 10
109.2519214934
 20
144.6671372941
 30
0.0
 11
109.2519214934
 21
145.070983448
 31
0.0
  0
LINE
  5
18D
330
1F
100
AcDbEntity
  8
0
  6
Continuous
 62
     7
370
    25
100
AcDbLine
 10
149.6173061088
 20
139.320983448
 30
0.0
 11
144.1173061088
 21
139.320983448
 31
0.0
  0
LINE
  5
18E
330
1F
100
AcDbEntity
  8
0
  6
Continuous
 62
     7
370
    25
100
AcDbLine
 10
149.6173061088
 20
144.820983448
 30
0.0
 11
149.6173061088
 21
139.320983448
 31
0.0
  0
LINE
  5
18F
330
1F
100
AcDbEntity
  8
0
  6
Continuous
 62
     7
370
    25
100
AcDbLine
 10
144.1173061088
 20
144.820983448
 30
0.0
 11
149.6173061088
 21
144.820983448
 31
0.0
  0
LINE
  5
190
330
1F
100
AcDbEntity
  8
0
  6
Continuous
 62
     7
370
    25
100
AcDbLine
 10
144.1173061088
 20
139.320983448
 30
0.0
 11
144.1173061088
 21
144.820983448
 31
0.0
  0
ARC
  5
191
330
1F
100
AcDbEntity
  8
0
  6
Continuous
 62
     7
370
    25
100
AcDbCircle
 10
154.8673061088
 20
156.1729510451
 30
0.0
 40
12.00000000000003
100
AcDbArc
 50
0.0
 51
90.0
  0
LINE
  5
192
330
1F
100
AcDbEntity
  8
0
  6
Continuous
 62
     7
370
    25
100
AcDbLine
 10
166.8673061088
 20
135.320983448
 30
0.0
 11
166.8673061088
 21
156.1729510451
 31
0.0
  0
LINE
  5
193
330
1F
100
AcDbEntity
  8
0
  6
Continuous
 62
     7
370
    25
100
AcDbLine
 10
129.8673061088
 20
135.320983448
 30
0.0
 11
83.8673061088
 21
135.320983448
 31
0.0
  0
LINE
  5
194
330
1F
100
AcDbEntity
  8
0
  6
Continuous
 62
     7
370
    25
100
AcDbLine
 10
46.8673061088
 20
135.320983448
 30
0.0
 11
46.8673061088
 21
156.1729510451
 31
0.0
  0
ARC
  5
195
330
1F
100
AcDbEntity
  8
0
  6
Continuous
 62
     7
370
    25
100
AcDbCircle
 10
58.8673061088
 20
156.1729510451
 30
0.0
 40
12.0
100
AcDbArc
 50
90.0
 51
180.0
  0
LINE
  5
196
330
1F
100
AcDbEntity
  8
0
  6
Continuous
 62
     7
370
    25
100
AcDbLine
 10
154.8673061088
 20
168.1729510451
 30
0.0
 11
58.8673061088
 21
168.1729510451
 31
0.0
  0
CIRCLE
  5
197
330
1F
100
AcDbEntity
  8
0
  6
Continuous
 62
     7
370
    25
100
AcDbCircle
 10
145.1173061088
 20
146.320983448
 30
0.0
 40
1.000000000000028
  0
ARC
  5
198
330
1F
100
AcDbEntity
  8
0
  6
Continuous
 62
     7
370
    25
100
AcDbCircle
 10
147.0673061088
 20
146.320983448
 30
0.0
 40
1.000000000000062
100
AcDbArc
 50
216.8698976458
 51
143.1301023542
  0
LINE
  5
199
330
1F
100
AcDbEntity
  8
0
  6
Continuous
 62
     7
370
    25
100
AcDbLine
 10
146.2673061088
 20
146.920983448
 30
0.0
 11
146.5010685262
 21
146.920983448
 31
0.0
  0
ARC
  5
19A
330
1F
100
AcDbEntity
  8
0
  6
Continuous
 62
     7
370
    25
100
AcDbCircle
 10
147.0673061088
 20
146.320983448
 30
0.0
 40
0.8250000000000837
100
AcDbArc
 50
226.6582417728
 51
133.3417582272
  0
LINE
  5
19B
330
1F
100
AcDbEntity
  8
0
  6
Continuous
 62
     7
370
    25
100
AcDbLine
 10
146.5010685262
 20
145.720983448
 30
0.0
 11
146.2673061088
 21
145.720983448
 31
0.0
  0
LINE
  5
19C
330
1F
100
AcDbEntity
  8
0
  6
Continuous
 62
     7
370
    25
100
AcDbLine
 10
148.3173061088
 20
145.495983448
 30
0.0
 11
148.3173061088
 21
145.320983448
 31
0.0
  0
LINE
  5
19D
330
1F
100
AcDbEntity
  8
0
  6
Continuous
 62
     7
370
    25
100
AcDbLine
 10
148.3173061088
 20
145.320983448
 30
0.0
 11
149.6173061088
 21
145.320983448
 31
0.0
  0
LINE
  5
19E
330
1F
100
AcDbEntity
  8
0
  6
Continuous
 62
     7
370
    25
100
AcDbLine
 10
149.6173061088
 20
145.320983448
 30
0.0
 11
149.6173061088
 21
147.320983448
 31
0.0
  0
LINE
  5
19F
330
1F
100
AcDbEntity
  8
0
  6
Continuous
 62
     7
370
    25
100
AcDbLine
 10
149.6173061088
 20
147.320983448
 30
0.0
 11
148.3173061088
 21
147.320983448
 31
0.0
  0
LINE
  5
1A0
330
1F
100
AcDbEntity
  8
0
  6
Continuous
 62
     7
370
    25
100
AcDbLine
 10
148.3173061088
 20
147.320983448
 30
0.0
 11
148.3173061088
 21
147.145983448
 31
0.0
  0
LINE
  5
1A1
330
1F
100
AcDbEntity
  8
0
  6
Continuous
 62
     7
370
    25
100
AcDbLine
 10
148.3173061088
 20
147.145983448
 30
0.0
 11
149.4423061088
 21
147.145983448
 31
0.0
  0
LINE
  5
1A2
330
1F
100
AcDbEntity
  8
0
  6
Continuous
 62
     7
370
    25
100
AcDbLine
 10
149.4423061088
 20
147.145983448
 30
0.0
 11
149.4423061088
 21
146.408483448
 31
0.0
  0
LINE
  5
1A3
330
1F
100
AcDbEntity
  8
0
  6
Continuous
 62
     7
370
    25
100
AcDbLine
 10
149.4423061088
 20
146.408483448
 30
0.0
 11
148.3173061088
 21
146.408483448
 31
0.0
  0
LINE
  5
1A4
330
1F
100
AcDbEntity
  8
0
  6
Continuous
 62
     7
370
    25
100
AcDbLine
 10
148.3173061088
 20
146.408483448
 30
0.0
 11
148.3173061088
 21
146.233483448
 31
0.0
  0
LINE
  5
1A5
330
1F
100
AcDbEntity
  8
0
  6
Continuous
 62
     7
370
    25
100
AcDbLine
 10
148.3173061088
 20
146.233483448
 30
0.0
 11
149.4423061088
 21
146.233483448
 31
0.0
  0
LINE
  5
1A6
330
1F
100
AcDbEntity
  8
0
  6
Continuous
 62
     7
370
    25
100
AcDbLine
 10
149.4423061088
 20
146.233483448
 30
0.0
 11
149.4423061088
 21
145.495983448
 31
0.0
  0
LINE
  5
1A7
330
1F
100
AcDbEntity
  8
0
  6
Continuous
 62
     7
370
    25
100
AcDbLine
 10
149.4423061088
 20
145.495983448
 30
0.0
 11
148.3173061088
 21
145.495983448
 31
0.0
  0
LINE
  5
1A8
330
1F
100
AcDbEntity
  8
0
  6
Continuous
 62
     7
370
    25
100
AcDbLine
 10
114.6673061088
 20
146.3059457593
 30
0.0
 11
114.6673061088
 21
145.3994444171
 31
0.0
  0
ARC
  5
1A9
330
1F
100
AcDbEntity
  8
0
  6
Continuous
 62
     7
370
    25
100
AcDbCircle
 10
114.9673061088
 20
143.320983448
 30
0.0
 40
2.100000000000048
100
AcDbArc
 50
12.3736251162
 51
98.2132107017
  0
LINE
  5
1AA
330
1F
100
AcDbEntity
  8
0
  6
Continuous
 62
     7
370
    25
100
AcDbLine
 10
117.0185252585
 20
143.770983448
 30
0.0
 11
115.2673061088
 21
143.770983448
 31
0.0
  0
LINE
  5
1AB
330
1F
100
AcDbEntity
  8
0
  6
Continuous
 62
     7
370
    25
100
AcDbLine
 10
115.2673061088
 20
143.770983448
 30
0.0
 11
115.2673061088
 21
142.870983448
 31
0.0
  0
LINE
  5
1AC
330
1F
100
AcDbEntity
  8
0
  6
Continuous
 62
     7
370
    25
100
AcDbLine
 10
115.2673061088
 20
142.870983448
 30
0.0
 11
117.0185252585
 21
142.870983448
 31
0.0
  0
ARC
  5
1AD
330
1F
100
AcDbEntity
  8
0
  6
Continuous
 62
     7
370
    25
100
AcDbCircle
 10
114.9673061088
 20
143.320983448
 30
0.0
 40
2.099999999999996
100
AcDbArc
 50
261.7867892983
 51
347.6263748838
  0
LINE
  5
1AE
330
1F
100
AcDbEntity
  8
0
  6
Continuous
 62
     7
370
    25
100
AcDbLine
 10
114.6673061088
 20
141.2425224789
 30
0.0
 11
114.6673061088
 21
140.3360211367
 31
0.0
  0
ARC
  5
1AF
330
1F
100
AcDbEntity
  8
0
  6
Continuous
 62
     7
370
    25
100
AcDbCircle
 10
114.9673061088
 20
143.320983448
 30
0.0
 40
3.000000000000034
100
AcDbArc
 50
264.2608295227
 51
95.7391704773
  0
LINE
  5
1B0
330
1F
100
AcDbEntity
  8
0
  6
Continuous
 62
     7
370
    25
100
AcDbLine
 10
119.7673061088
 20
141.2425224789
 30
0.0
 11
119.7673061088
 21
140.3360211367
 31
0.0
  0
ARC
  5
1B1
330
1F
100
AcDbEntity
  8
0
  6
Continuous
 62
     7
370
    25
100
AcDbCircle
 10
120.0673061088
 20
143.320983448
 30
0.0
 40
3.000000000000033
100
AcDbArc
 50
264.2608295227
 51
95.7391704773
  0
LINE
  5
1B2
330
1F
100
AcDbEntity
  8
0
  6
Continuous
 62
     7
370
    25
100
AcDbLine
 10
119.7673061088
 20
146.3059457593
 30
0.0
 11
119.7673061088
 21
145.3994444171
 31
0.0
  0
ARC
  5
1B3
330
1F
100
AcDbEntity
  8
0
  6
Continuous
 62
     7
370
    25
100
AcDbCircle
 10
120.0673061088
 20
143.320983448
 30
0.0
 40
2.100000000000021
100
AcDbArc
 50
261.7867892983
 51
98.2132107017
  0
SPLINE
  5
1B4
330
1F
100
AcDbEntity
  8
0
  6
Continuous
 62
     7
370
    25
100
AcDbSpline
210
0.0
220
0.0
230
1.0
 70
     8
 71
     3
 72
    12
 73
     8
 74
     0
 42
0.000000001
 43
0.00000001
 40
0.0
 40
0.0
 40
0.0
 40
0.0
 40
0.1248960905844617
 40
0.2499541202374972
 40
0.4986009887610902
 40
0.748971693891902
 40
1.0
 40
1.0
 40
1.0
 40
1.0
 10
101.9770817498411
 20
141.570983447979
 30
0.0
 10
101.8876152387162
 20
141.5804591859975
 30
0.0
 10
101.7085662150495
 20
141.5994229481852
 30
0.0
 10
101.4003225037817
 20
141.7956769194596
 30
0.0
 10
101.1499729091891
 20
142.1838188387104
 30
0.0
 10
101.0511669437105
 20
142.7147971102521
 30
0.0
 10
101.0439808107801
 20
143.0715565007324
 30
0.0
 10
101.0403830318923
 20
143.2501701466969
 30
0.0
  0
SPLINE
  5
1B5
330
1F
100
AcDbEntity
  8
0
  6
Continuous
 62
     7
370
    25
100
AcDbSpline
210
0.0
220
0.0
230
1.0
 70
     8
 71
     3
 72
    11
 73
     7
 74
     0
 42
0.000000001
 43
0.00000001
 40
0.0
 40
0.0
 40
0.0
 40
0.0
 40
0.2809941396084627
 40
0.560923164248028
 40
0.7807537021943326
 40
1.0
 40
1.0
 40
1.0
 40
1.0
 10
102.8352548267641
 20
142.7327422620816
 30
0.0
 10
102.8270199941865
 20
142.5816848976001
 30
0.0
 10
102.8105815433599
 20
142.2801427551696
 30
0.0
 10
102.6253714040999
 20
141.8961382508708
 30
0.0
 10
102.333752151039
 20
141.6183949237518
 30
0.0
 10
102.0958663724882
 20
141.5867732478612
 30
0.0
 10
101.9770817498411
 20
141.570983447979
 30
0.0
  0
SPLINE
  5
1B6
330
1F
100
AcDbEntity
  8
0
  6
Continuous
 62
     7
370
    25
100
AcDbSpline
210
0.0
220
0.0
230
1.0
 70
     8
 71
     3
 72
    11
 73
     7
 74
     0
 42
0.000000001
 43
0.00000001
 40
0.0
 40
0.0
 40
0.0
 40
0.0
 40
0.1864419688404373
 40
0.3733241488554881
 40
0.5607159179139548
 40
1.0
 40
1.0
 40
1.0
 40
1.0
 10
102.0401827113795
 20
143.8594449864405
 30
0.0
 10
102.1359351632701
 20
143.8474024885271
 30
0.0
 10
102.3276661497276
 20
143.8232890589618
 30
0.0
 10
102.5538815405311
 20
143.6323913435614
 30
0.0
 10
102.789217947605
 20
143.2862310361949
 30
0.0
 10
102.8162829427626
 20
142.9608360210509
 30
0.0
 10
102.8352548267641
 20
142.7327422620816
 30
0.0
  0
SPLINE
  5
1B7
330
1F
100
AcDbEntity
  8
0
  6
Continuous
 62
     7
370
    25
100
AcDbSpline
210
0.0
220
0.0
230
1.0
 70
     8
 71
     3
 72
    10
 73
     6
 74
     0
 42
0.000000001
 43
0.00000001
 40
0.0
 40
0.0
 40
0.0
 40
0.0
 40
0.557911971532674
 40
0.779046561931779
 40
1.0
 40
1.0
 40
1.0
 40
1.0
 10
101.3993573908667
 20
143.4023135761841
 30
0.0
 10
101.4856776356964
 20
143.53298879612
 30
0.0
 10
101.6062118658097
 20
143.7154585870819
 30
0.0
 10
101.8577610142906
 20
143.8435390248923
 30
0.0
 10
101.9793920924147
 20
143.8541444478359
 30
0.0
 10
102.0401827113795
 20
143.8594449864405
 30
0.0
  0
SPLINE
  5
1B8
330
1F
100
AcDbEntity
  8
0
  6
Continuous
 62
     7
370
    25
100
AcDbSpline
210
0.0
220
0.0
230
1.0
 70
     8
 71
     3
 72
     9
 73
     5
 74
     0
 42
0.000000001
 43
0.00000001
 40
0.0
 40
0.0
 40
0.0
 40
0.0
 40
0.5599975499223976
 40
0.9999999999999999
 40
0.9999999999999999
 40
0.9999999999999999
 40
0.9999999999999999
 10
101.3972540254821
 20
143.4878504351585
 30
0.0
 10
101.3975513325831
 20
143.4718812333066
 30
0.0
 10
101.3980822404434
 20
143.4433646766643
 30
0.0
 10
101.398967760064
 20
143.4148570165017
 30
0.0
 10
101.3993573908667
 20
143.4023135761841
 30
0.0
  0
SPLINE
  5
1B9
330
1F
100
AcDbEntity
  8
0
  6
Continuous
 62
     7
370
    25
100
AcDbSpline
210
0.0
220
0.0
230
1.0
 70
     8
 71
     3
 72
    11
 73
     7
 74
     0
 42
0.000000001
 43
0.00000001
 40
0.0
 40
0.0
 40
0.0
 40
0.0
 40
0.1249983239951172
 40
0.2500382592050887
 40
0.4986520657614175
 40
1.0
 40
1.0
 40
1.0
 40
1.0
 10
102.0023221344564
 20
144.7120090890047
 30
0.0
 10
101.9394282129275
 20
144.7046249745365
 30
0.0
 10
101.813619432849
 20
144.6898542874715
 30
0.0
 10
101.6023962117237
 20
144.5367620783719
 30
0.0
 10
101.4389913862125
 20
144.1111171721549
 30
0.0
 10
101.4139764563881
 20
143.7375675893589
 30
0.0
 10
101.3972540254821
 20
143.4878504351585
 30
0.0
  0
SPLINE
  5
1BA
330
1F
100
AcDbEntity
  8
0
  6
Continuous
 62
     7
370
    25
100
AcDbSpline
210
0.0
220
0.0
230
1.0
 70
     8
 71
     3
 72
    11
 73
     7
 74
     0
 42
0.000000001
 43
0.00000001
 40
0.0
 40
0.0
 40
0.0
 40
0.0
 40
0.2811153302809986
 40
0.5610410816283435
 40
0.7804693953178554
 40
1.0
 40
1.0
 40
1.0
 40
1.0
 10
102.431408672918
 20
144.1735475505431
 30
0.0
 10
102.419528272578
 20
144.2435640538001
 30
0.0
 10
102.3958177454777
 20
144.3833007756639
 30
0.0
 10
102.3147720546045
 20
144.5668684135474
 30
0.0
 10
102.1707108737232
 20
144.6925914827783
 30
0.0
 10
102.0584604334858
 20
144.7055355481401
 30
0.0
 10
102.0023221344564
 20
144.7120090890047
 30
0.0
  0
LINE
  5
1BB
330
1F
100
AcDbEntity
  8
0
  6
Continuous
 62
     7
370
    25
100
AcDbLine
 10
102.7903830319
 20
144.2184193454
 30
0.0
 11
102.4314086729
 21
144.1735475505
 31
0.0
  0
SPLINE
  5
1BC
330
1F
100
AcDbEntity
  8
0
  6
Continuous
 62
     7
370
    25
100
AcDbSpline
210
0.0
220
0.0
230
1.0
 70
     8
 71
     3
 72
    10
 73
     6
 74
     0
 42
0.000000001
 43
0.00000001
 40
0.0
 40
0.0
 40
0.0
 40
0.0
 40
0.2794223385335535
 40
0.5593267849722784
 40
1.0
 40
1.0
 40
1.0
 40
1.0
 10
102.021252422918
 20
145.1158552428508
 30
0.0
 10
102.1443950204287
 20
145.0992703723185
 30
0.0
 10
102.3908926824277
 20
145.0660720161575
 30
0.0
 10
102.704141927751
 20
144.721281472488
 30
0.0
 10
102.7576561290337
 20
144.409246215593
 30
0.0
 10
102.7903830318923
 20
144.2184193454149
 30
0.0
  0
SPLINE
  5
1BD
330
1F
100
AcDbEntity
  8
0
  6
Continuous
 62
     7
370
    25
100
AcDbSpline
210
0.0
220
0.0
230
1.0
 70
     8
 71
     3
 72
    12
 73
     8
 74
     0
 42
0.000000001
 43
0.00000001
 40
0.0
 40
0.0
 40
0.0
 40
0.0
 40
0.2510360062665096
 40
0.5016172568683112
 40
0.7503230732287137
 40
0.8751670252274256
 40
1.0
 40
1.0
 40
1.0
 40
1.0
 10
101.0403830318923
 20
143.2501701466969
 30
0.0
 10
101.0446542137259
 20
143.4457985989922
 30
0.0
 10
101.0531888400802
 20
143.8367011195713
 30
0.0
 10
101.1540098623983
 20
144.4155646541632
 30
0.0
 10
101.394083190048
 20
144.8602608194315
 30
0.0
 10
101.7271797643964
 20
145.0858266044691
 30
0.0
 10
101.9232310765899
 20
145.1058459901125
 30
0.0
 10
102.021252422918
 20
145.1158552428508
 30
0.0
  0
SPLINE
  5
1BE
330
1F
100
AcDbEntity
  8
0
  6
Continuous
 62
     7
370
    25
100
AcDbSpline
210
0.0
220
0.0
230
1.0
 70
     8
 71
     3
 72
    10
 73
     6
 74
     0
 42
0.000000001
 43
0.00000001
 40
0.0
 40
0.0
 40
0.0
 40
0.0
 40
0.2794961125810981
 40
0.55970047255243
 40
1.0
 40
1.0
 40
1.0
 40
1.0
 10
99.40186139727696
 20
143.1548175825944
 30
0.0
 10
99.30867037554269
 20
143.1963281173912
 30
0.0
 10
99.12205218461104
 20
143.2794543753098
 30
0.0
 10
98.92032584942645
 20
143.5989855159752
 30
0.0
 10
98.89935323259955
 20
143.8590023614802
 30
0.0
 10
98.88653687804619
 20
144.0178985120816
 30
0.0
  0
SPLINE
  5
1BF
330
1F
100
AcDbEntity
  8
0
  6
Continuous
 62
     7
370
    25
100
AcDbSpline
210
0.0
220
0.0
230
1.0
 70
     8
 71
     3
 72
     9
 73
     5
 74
     0
 42
0.000000001
 43
0.00000001
 40
0.0
 40
0.0
 40
0.0
 40
0.0
 40
0.5594974386229451
 40
0.9999999999999999
 40
0.9999999999999999
 40
0.9999999999999999
 40
0.9999999999999999
 10
99.02115226266157
 20
142.4607070056713
 30
0.0
 10
99.04079197673188
 20
142.6206044003472
 30
0.0
 10
99.0758943967155
 20
142.9063919368718
 30
0.0
 10
99.30218139494885
 20
143.0788495585265
 30
0.0
 10
99.40186139727696
 20
143.1548175825944
 30
0.0
  0
SPLINE
  5
1C0
330
1F
100
AcDbEntity
  8
0
  6
Continuous
 62
     7
370
    25
100
AcDbSpline
210
0.0
220
0.0
230
1.0
 70
     8
 71
     3
 72
    11
 73
     7
 74
     0
 42
0.000000001
 43
0.00000001
 40
0.0
 40
0.0
 40
0.0
 40
0.0
 40
0.2791638454916918
 40
0.5584627625551623
 40
0.7791667984106626
 40
0.9999999999999999
 40
0.9999999999999999
 40
0.9999999999999999
 40
0.9999999999999999
 10
99.81762662163592
 20
141.570983447979
 30
0.0
 10
99.69327631145205
 20
141.5888794374383
 30
0.0
 10
99.44451552501293
 20
141.6246800752125
 30
0.0
 10
99.18126979835908
 20
141.8749033413784
 30
0.0
 10
99.0446069701266
 20
142.1676083779995
 30
0.0
 10
99.02897202308053
 20
142.3629884111873
 30
0.0
 10
99.02115226266157
 20
142.4607070056713
 30
0.0
  0
SPLINE
  5
1C1
330
1F
100
AcDbEntity
  8
0
  6
Continuous
 62
     7
370
    25
100
AcDbSpline
210
0.0
220
0.0
230
1.0
 70
     8
 71
     3
 72
    11
 73
     7
 74
     0
 42
0.000000001
 43
0.00000001
 40
0.0
 40
0.0
 40
0.0
 40
0.0
 40
0.2808112547864869
 40
0.5605820443775037
 40
0.7802435256461602
 40
1.0
 40
1.0
 40
1.0
 40
1.0
 10
100.6365368780462
 20
142.4684193454149
 30
0.0
 10
100.6125907456302
 20
142.3455415674777
 30
0.0
 10
100.5647872062923
 20
142.1002412998053
 30
0.0
 10
100.3804895522299
 20
141.7972463200221
 30
0.0
 10
100.1130801271293
 20
141.6006963635543
 30
0.0
 10
99.91612531598766
 20
141.580889180472
 30
0.0
 10
99.81762662163592
 20
141.570983447979
 30
0.0
  0
LINE
  5
1C2
330
1F
100
AcDbEntity
  8
0
  6
Continuous
 62
     7
370
    25
100
AcDbLine
 10
100.2775625191
 20
142.5132911403
 30
0.0
 11
100.636536878
 21
142.4684193454
 31
0.0
  0
SPLINE
  5
1C3
330
1F
100
AcDbEntity
  8
0
  6
Continuous
 62
     7
370
    25
100
AcDbSpline
210
0.0
220
0.0
230
1.0
 70
     8
 71
     3
 72
    10
 73
     6
 74
     0
 42
0.000000001
 43
0.00000001
 40
0.0
 40
0.0
 40
0.0
 40
0.0
 40
0.2794237428054906
 40
0.5592854110801813
 40
1.0
 40
1.0
 40
1.0
 40
1.0
 10
99.80640867291798
 20
141.9748296018252
 30
0.0
 10
99.88056578831947
 20
141.9851017200899
 30
0.0
 10
100.0289962414922
 20
142.0056620555457
 30
0.0
 10
100.2189967130841
 20
142.2115475501381
 30
0.0
 10
100.2553365580243
 20
142.3987782232715
 30
0.0
 10
100.2775625190718
 20
142.5132911402867
 30
0.0
  0
SPLINE
  5
1C4
330
1F
100
AcDbEntity
  8
0
  6
Continuous
 62
     7
370
    25
100
AcDbSpline
210
0.0
220
0.0
230
1.0
 70
     8
 71
     3
 72
    11
 73
     7
 74
     0
 42
0.000000001
 43
0.00000001
 40
0.0
 40
0.0
 40
0.0
 40
0.0
 40
0.280395945409562
 40
0.5601470245439315
 40
0.7799843196506562
 40
1.0
 40
1.0
 40
1.0
 40
1.0
 10
99.38012662163594
 20
142.4754305633636
 30
0.0
 10
99.38556787017515
 20
142.4065653716846
 30
0.0
 10
99.39643785324355
 20
142.2689933673628
 30
0.0
 10
99.49750707240398
 20
142.1000861544568
 30
0.0
 10
99.64369295830618
 20
141.9911682977805
 30
0.0
 10
99.75215543882528
 20
141.9802773061145
 30
0.0
 10
99.80640867291798
 20
141.9748296018252
 30
0.0
  0
SPLINE
  5
1C5
330
1F
100
AcDbEntity
  8
0
  6
Continuous
 62
     7
370
    25
100
AcDbSpline
210
0.0
220
0.0
230
1.0
 70
     8
 71
     3
 72
    11
 73
     7
 74
     0
 42
0.000000001
 43
0.00000001
 40
0.0
 40
0.0
 40
0.0
 40
0.0
 40
0.2800196243051997
 40
0.5595219210441271
 40
0.7792628526056474
 40
0.9999999999999999
 40
0.9999999999999999
 40
0.9999999999999999
 40
0.9999999999999999
 10
99.91368030753337
 20
143.0117887364405
 30
0.0
 10
99.83440545560606
 20
143.0022208649007
 30
0.0
 10
99.67600220958029
 20
142.9831027981668
 30
0.0
 10
99.48588777261634
 20
142.8506350552501
 30
0.0
 10
99.39042726772509
 20
142.6633295643785
 30
0.0
 10
99.38356534346724
 20
142.5381579293247
 30
0.0
 10
99.38012662163594
 20
142.4754305633636
 30
0.0
  0
SPLINE
  5
1C6
330
1F
100
AcDbEntity
  8
0
  6
Continuous
 62
     7
370
    25
100
AcDbSpline
210
0.0
220
0.0
230
1.0
 70
     8
 71
     3
 72
     9
 73
     5
 74
     0
 42
0.000000001
 43
0.00000001
 40
0.0
 40
0.0
 40
0.0
 40
0.0
 40
0.5599958333728963
 40
1.0
 40
1.0
 40
1.0
 40
1.0
 10
99.9655633203539
 20
143.0068808838764
 30
0.0
 10
99.95591714278883
 20
143.0082213637365
 30
0.0
 10
99.93869169754406
 20
143.0106150955826
 30
0.0
 10
99.92132272696027
 20
143.0114301215979
 30
0.0
 10
99.91368030753337
 20
143.0117887364405
 30
0.0
  0
LINE
  5
1C7
330
1F
100
AcDbEntity
  8
0
  6
Continuous
 62
     7
370
    25
100
AcDbLine
 10
100.0027227755
 20
143.4107270377
 30
0.0
 11
99.9655633204
 21
143.0068808839
 31
0.0
  0
SPLINE
  5
1C8
330
1F
100
AcDbEntity
  8
0
  6
Continuous
 62
     7
370
    25
100
AcDbSpline
210
0.0
220
0.0
230
1.0
 70
     8
 71
     3
 72
     9
 73
     5
 74
     0
 42
0.000000001
 43
0.00000001
 40
0.0
 40
0.0
 40
0.0
 40
0.0
 40
0.5596395021257737
 40
0.9999999999999999
 40
0.9999999999999999
 40
0.9999999999999999
 40
0.9999999999999999
 10
99.76995033958465
 20
143.3630507556713
 30
0.0
 10
99.81440097593003
 20
143.367150576605
 30
0.0
 10
99.89382824326289
 20
143.3744764013871
 30
0.0
 10
99.96943051948465
 20
143.3996441537581
 30
0.0
 10
100.0027227754821
 20
143.4107270377226
 30
0.0
  0
SPLINE
  5
1C9
330
1F
100
AcDbEntity
  8
0
  6
Continuous
 62
     7
370
    25
100
AcDbSpline
210
0.0
220
0.0
230
1.0
 70
     8
 71
     3
 72
    11
 73
     7
 74
     0
 42
0.000000001
 43
0.00000001
 40
0.0
 40
0.0
 40
0.0
 40
0.0
 40
0.2806740785481132
 40
0.5605447264982378
 40
0.7803560724615399
 40
1.0
 40
1.0
 40
1.0
 40
1.0
 10
99.24551123702055
 20
144.0143929031072
 30
0.0
 10
99.25167487841871
 20
143.9268877721718
 30
0.0
 10
99.26398451776852
 20
143.752127994065
 30
0.0
 10
99.38452982890036
 20
143.5346473494645
 30
0.0
 10
99.56327814342731
 20
143.3864698622832
 30
0.0
 10
99.70107710653362
 20
143.3708551416386
 30
0.0
 10
99.76995033958465
 20
143.3630507556713
 30
0.0
  0
SPLINE
  5
1CA
330
1F
100
AcDbEntity
  8
0
  6
Continuous
 62
     7
370
    25
100
AcDbSpline
210
0.0
220
0.0
230
1.0
 70
     8
 71
     3
 72
    10
 73
     6
 74
     0
 42
0.000000001
 43
0.00000001
 40
0.0
 40
0.0
 40
0.0
 40
0.0
 40
0.2795431338269902
 40
0.559824604149221
 40
1.0
 40
1.0
 40
1.0
 40
1.0
 10
99.79799521137953
 20
144.7120090890047
 30
0.0
 10
99.70429171374951
 20
144.6987503122235
 30
0.0
 10
99.51663722640812
 20
144.6721977392398
 30
0.0
 10
99.28817691303453
 20
144.3994373892413
 30
0.0
 10
99.26169240089406
 20
144.1604228857726
 30
0.0
 10
99.24551123702055
 20
144.0143929031072
 30
0.0
  0
SPLINE
  5
1CB
330
1F
100
AcDbEntity
  8
0
  6
Continuous
 62
     7
370
    25
100
AcDbSpline
210
0.0
220
0.0
230
1.0
 70
     8
 71
     3
 72
    10
 73
     6
 74
     0
 42
0.000000001
 43
0.00000001
 40
0.0
 40
0.0
 40
0.0
 40
0.0
 40
0.559685137890338
 40
0.7794766326367177
 40
1.0
 40
1.0
 40
1.0
 40
1.0
 10
100.3224343139436
 20
144.0838039607995
 30
0.0
 10
100.2895411839
 20
144.2548689503768
 30
0.0
 10
100.2437307370835
 20
144.4931121214216
 30
0.0
 10
99.99862463582284
 20
144.6943702233605
 30
0.0
 10
99.86494575131073
 20
144.7061229554929
 30
0.0
 10
99.79799521137953
 20
144.7120090890047
 30
0.0
  0
LINE
  5
1CC
330
1F
100
AcDbEntity
  8
0
  6
Continuous
 62
     7
370
    25
100
AcDbLine
 10
100.6814086729
 20
144.1286757557
 30
0.0
 11
100.3224343139
 21
144.0838039608
 31
0.0
  0
SPLINE
  5
1CD
330
1F
100
AcDbEntity
  8
0
  6
Continuous
 62
     7
370
    25
100
AcDbSpline
210
0.0
220
0.0
230
1.0
 70
     8
 71
     3
 72
    10
 73
     6
 74
     0
 42
0.000000001
 43
0.00000001
 40
0.0
 40
0.0
 40
0.0
 40
0.0
 40
0.2797109157205484
 40
0.5601768895292064
 40
1.0
 40
1.0
 40
1.0
 40
1.0
 10
99.80991428189235
 20
145.1158552428508
 30
0.0
 10
99.94625155484671
 20
145.0966563956031
 30
0.0
 10
100.2192941327301
 20
145.0582068752973
 30
0.0
 10
100.5764200581122
 20
144.6860769602023
 30
0.0
 10
100.6416052648193
 20
144.3399983610765
 30
0.0
 10
100.681408672918
 20
144.1286757556713
 30
0.0
  0
SPLINE
  5
1CE
330
1F
100
AcDbEntity
  8
0
  6
Continuous
 62
     7
370
    25
100
AcDbSpline
210
0.0
220
0.0
230
1.0
 70
     8
 71
     3
 72
    11
 73
     7
 74
     0
 42
0.000000001
 43
0.00000001
 40
0.0
 40
0.0
 40
0.0
 40
0.0
 40
0.2804109599175292
 40
0.5603449525685124
 40
0.780210068986617
 40
1.0
 40
1.0
 40
1.0
 40
1.0
 10
98.88653687804619
 20
144.0178985120816
 30
0.0
 10
98.89887884159603
 20
144.167756220923
 30
0.0
 10
98.923541775534
 20
144.4672167369367
 30
0.0
 10
99.14535106389236
 20
144.8315092013601
 30
0.0
 10
99.45585884674288
 20
145.0777663609089
 30
0.0
 10
99.69190925916864
 20
145.1031603964148
 30
0.0
 10
99.80991428189235
 20
145.1158552428508
 30
0.0
  0
SPLINE
  5
1CF
330
1F
100
AcDbEntity
  8
0
  6
Continuous
 62
     7
370
    25
100
AcDbSpline
210
0.0
220
0.0
230
1.0
 70
     8
 71
     3
 72
     9
 73
     5
 74
     0
 42
0.000000001
 43
0.00000001
 40
0.0
 40
0.0
 40
0.0
 40
0.0
 40
0.5599857520694694
 40
0.9999999999999999
 40
0.9999999999999999
 40
0.9999999999999999
 40
0.9999999999999999
 10
96.73269072420004
 20
143.8706629351585
 30
0.0
 10
96.74161760668704
 20
144.032491353024
 30
0.0
 10
96.75755887386038
 20
144.3214780232518
 30
0.0
 10
96.88927640362998
 20
144.5780709093553
 30
0.0
 10
96.9472339934308
 20
144.6909754351585
 30
0.0
  0
SPLINE
  5
1D0
330
1F
100
AcDbEntity
  8
0
  6
Continuous
 62
     7
370
    25
100
AcDbSpline
210
0.0
220
0.0
230
1.0
 70
     8
 71
     3
 72
    11
 73
     7
 74
     0
 42
0.000000001
 43
0.00000001
 40
0.0
 40
0.0
 40
0.0
 40
0.0
 40
0.1865668980853749
 40
0.3734565372456787
 40
0.5609216796211741
 40
1.0
 40
1.0
 40
1.0
 40
1.0
 10
97.55089985881541
 20
142.7376501146457
 30
0.0
 10
97.45381033493169
 20
142.7493279892214
 30
0.0
 10
97.25946333251834
 20
142.7727039398654
 30
0.0
 10
97.02872919574564
 20
142.9637499948623
 30
0.0
 10
96.78441021388657
 20
143.3102251014756
 30
0.0
 10
96.75400119947547
 20
143.6397403821616
 30
0.0
 10
96.73269072420004
 20
143.8706629351585
 30
0.0
  0
SPLINE
  5
1D1
330
1F
100
AcDbEntity
  8
0
  6
Continuous
 62
     7
370
    25
100
AcDbSpline
210
0.0
220
0.0
230
1.0
 70
     8
 71
     3
 72
     9
 73
     5
 74
     0
 42
0.000000001
 43
0.00000001
 40
0.0
 40
0.0
 40
0.0
 40
0.0
 40
0.5603857846641868
 40
1.0
 40
1.0
 40
1.0
 40
1.0
 10
98.04799521137953
 20
142.971123672338
 30
0.0
 10
97.96730461127507
 20
142.8998563479355
 30
0.0
 10
97.8233134496277
 20
142.7726808799762
 30
0.0
 10
97.63408664989876
 20
142.7483474405329
 30
0.0
 10
97.55089985881541
 20
142.7376501146457
 30
0.0
  0
LINE
  5
1D2
330
1F
100
AcDbEntity
  8
0
  6
Continuous
 62
     7
370
    25
100
AcDbLine
 10
97.9154831921
 20
142.0645731916
 30
0.0
 11
98.0479952114
 21
142.9711236723
 31
0.0
  0
LINE
  5
1D3
330
1F
100
AcDbEntity
  8
0
  6
Continuous
 62
     7
370
    25
100
AcDbLine
 10
96.8673061088
 20
142.0645731916
 30
0.0
 11
97.9154831921
 21
142.0645731916
 31
0.0
  0
LINE
  5
1D4
330
1F
100
AcDbEntity
  8
0
  6
Continuous
 62
     7
370
    25
100
AcDbLine
 10
96.8673061088
 20
141.6158552429
 30
0.0
 11
96.8673061088
 21
142.0645731916
 31
0.0
  0
LINE
  5
1D5
330
1F
100
AcDbEntity
  8
0
  6
Continuous
 62
     7
370
    25
100
AcDbLine
 10
98.213459955
 20
141.6158552429
 30
0.0
 11
96.8673061088
 21
141.6158552429
 31
0.0
  0
LINE
  5
1D6
330
1F
100
AcDbEntity
  8
0
  6
Continuous
 62
     7
370
    25
100
AcDbLine
 10
98.4826907242
 20
143.4107270377
 30
0.0
 11
98.213459955
 21
141.6158552429
 31
0.0
  0
LINE
  5
1D7
330
1F
100
AcDbEntity
  8
0
  6
Continuous
 62
     7
370
    25
100
AcDbLine
 10
98.1237163652
 20
143.4555988326
 30
0.0
 11
98.4826907242
 21
143.4107270377
 31
0.0
  0
SPLINE
  5
1D8
330
1F
100
AcDbEntity
  8
0
  6
Continuous
 62
     7
370
    25
100
AcDbSpline
210
0.0
220
0.0
230
1.0
 70
     8
 71
     3
 72
    10
 73
     6
 74
     0
 42
0.000000001
 43
0.00000001
 40
0.0
 40
0.0
 40
0.0
 40
0.0
 40
0.2806584419687483
 40
0.5603706115568562
 40
1.0
 40
1.0
 40
1.0
 40
1.0
 10
97.64835578830261
 20
143.1414962684918
 30
0.0
 10
97.70500149584727
 20
143.1449491964455
 30
0.0
 10
97.81810192338547
 20
143.1518434104072
 30
0.0
 10
97.99787909227182
 20
143.2572232348384
 30
0.0
 10
98.07598284479504
 20
143.3803495409803
 30
0.0
 10
98.12371636522569
 20
143.4555988325944
 30
0.0
  0
SPLINE
  5
1D9
330
1F
100
AcDbEntity
  8
0
  6
Continuous
 62
     7
370
    25
100
AcDbSpline
210
0.0
220
0.0
230
1.0
 70
     8
 71
     3
 72
    11
 73
     7
 74
     0
 42
0.000000001
 43
0.00000001
 40
0.0
 40
0.0
 40
0.0
 40
0.0
 40
0.498702662880555
 40
0.6244375154068036
 40
0.750126831197733
 40
1.0
 40
1.0
 40
1.0
 40
1.0
 10
97.0916650831744
 20
143.8973055633636
 30
0.0
 10
97.10476699304418
 20
143.7158421488047
 30
0.0
 10
97.12117220732341
 20
143.4886274732905
 30
0.0
 10
97.27879095215356
 20
143.2720534085738
 30
0.0
 10
97.42339259600188
 20
143.1631046431063
 30
0.0
 10
97.55847881148031
 20
143.1501292157955
 30
0.0
 10
97.64835578830261
 20
143.1414962684918
 30
0.0
  0
SPLINE
  5
1DA
330
1F
100
AcDbEntity
  8
0
  6
Continuous
 62
     7
370
    25
100
AcDbSpline
210
0.0
220
0.0
230
1.0
 70
     8
 71
     3
 72
    11
 73
     7
 74
     0
 42
0.000000001
 43
0.00000001
 40
0.0
 40
0.0
 40
0.0
 40
0.0
 40
0.2490416637622602
 40
0.3747651878191401
 40
0.5006512042968146
 40
1.0
 40
1.0
 40
1.0
 40
1.0
 10
97.65536700625132
 20
144.7120090890047
 30
0.0
 10
97.56165407521264
 20
144.699509349006
 30
0.0
 10
97.42063211257701
 20
144.680699374251
 30
0.0
 10
97.27991518634491
 20
144.5543128147637
 30
0.0
 10
97.12515145341422
 20
144.3224221156566
 30
0.0
 10
97.10653403425503
 20
144.0860700419962
 30
0.0
 10
97.0916650831744
 20
143.8973055633636
 30
0.0
  0
SPLINE
  5
1DB
330
1F
100
AcDbEntity
  8
0
  6
Continuous
 62
     7
370
    25
100
AcDbSpline
210
0.0
220
0.0
230
1.0
 70
     8
 71
     3
 72
    11
 73
     7
 74
     0
 42
0.000000001
 43
0.00000001
 40
0.0
 40
0.0
 40
0.0
 40
0.0
 40
0.2811298979633657
 40
0.5610657941952255
 40
0.7802726505913672
 40
0.9999999999999999
 40
0.9999999999999999
 40
0.9999999999999999
 40
0.9999999999999999
 10
98.16858816009747
 20
144.0838039607995
 30
0.0
 10
98.15531328373945
 20
144.1668336411774
 30
0.0
 10
98.12881991145629
 20
144.3325403621648
 30
0.0
 10
98.02870996392137
 20
144.5483735153756
 30
0.0
 10
97.85505797700789
 20
144.6932195697817
 30
0.0
 10
97.72198326365678
 20
144.7057409665936
 30
0.0
 10
97.65536700625132
 20
144.7120090890047
 30
0.0
  0
LINE
  5
1DC
330
1F
100
AcDbEntity
  8
0
  6
Continuous
 62
     7
370
    25
100
AcDbLine
 10
98.5275625191
 20
144.1286757557
 30
0.0
 11
98.1685881601
 21
144.0838039608
 31
0.0
  0
SPLINE
  5
1DD
330
1F
100
AcDbEntity
  8
0
  6
Continuous
 62
     7
370
    25
100
AcDbSpline
210
0.0
220
0.0
230
1.0
 70
     8
 71
     3
 72
    10
 73
     6
 74
     0
 42
0.000000001
 43
0.00000001
 40
0.0
 40
0.0
 40
0.0
 40
0.0
 40
0.2798446652292037
 40
0.5600657290497028
 40
1.0
 40
1.0
 40
1.0
 40
1.0
 10
97.65817149343081
 20
145.1158552428508
 30
0.0
 10
97.79523688496371
 20
145.0981692693223
 30
0.0
 10
98.06955202466273
 20
145.0627735341558
 30
0.0
 10
98.4293838238405
 20
144.6895831465492
 30
0.0
 10
98.49033076344153
 20
144.3413855177962
 30
0.0
 10
98.52756251907182
 20
144.1286757556713
 30
0.0
  0
SPLINE
  5
1DE
330
1F
100
AcDbEntity
  8
0
  6
Continuous
 62
     7
370
    25
100
AcDbSpline
210
0.0
220
0.0
230
1.0
 70
     8
 71
     3
 72
     9
 73
     5
 74
     0
 42
0.000000001
 43
0.00000001
 40
0.0
 40
0.0
 40
0.0
 40
0.0
 40
0.5595280413513911
 40
1.0
 40
1.0
 40
1.0
 40
1.0
 10
96.9472339934308
 20
144.6909754351585
 30
0.0
 10
97.04961094933503
 20
144.8248501386521
 30
0.0
 10
97.23258114624774
 20
145.064113756558
 30
0.0
 10
97.52803316433655
 20
145.1000335715757
 30
0.0
 10
97.65817149343081
 20
145.1158552428508
 30
0.0
  0
LINE
  5
1DF
330
1F
100
AcDbEntity
  8
0
  6
Continuous
 62
     7
370
    25
100
AcDbLine
 10
95.386536878
 20
143.6350860121
 30
0.0
 11
94.3096138011
 21
143.6350860121
 31
0.0
  0
LINE
  5
1E0
330
1F
100
AcDbEntity
  8
0
  6
Continuous
 62
     7
370
    25
100
AcDbLine
 10
95.386536878
 20
144.0389321659
 30
0.0
 11
95.386536878
 21
143.6350860121
 31
0.0
  0
LINE
  5
1E1
330
1F
100
AcDbEntity
  8
0
  6
Continuous
 62
     7
370
    25
100
AcDbLine
 10
94.3096138011
 20
144.0389321659
 30
0.0
 11
95.386536878
 21
144.0389321659
 31
0.0
  0
LINE
  5
1E2
330
1F
100
AcDbEntity
  8
0
  6
Continuous
 62
     7
370
    25
100
AcDbLine
 10
94.3096138011
 20
143.6350860121
 30
0.0
 11
94.3096138011
 21
144.0389321659
 31
0.0
  0
SPLINE
  5
1E3
330
1F
100
AcDbEntity
  8
0
  6
Continuous
 62
     7
370
    25
100
AcDbSpline
210
0.0
220
0.0
230
1.0
 70
     8
 71
     3
 72
     9
 73
     5
 74
     0
 42
0.000000001
 43
0.00000001
 40
0.0
 40
0.0
 40
0.0
 40
0.0
 40
0.5600397777264208
 40
1.0
 40
1.0
 40
1.0
 40
1.0
 10
93.77115226266157
 20
142.445983447979
 30
0.0
 10
93.58432555871428
 20
142.3155557254936
 30
0.0
 10
93.25073014035713
 20
142.0826656207677
 30
0.0
 10
93.05610048107624
 20
141.7273209627182
 30
0.0
 10
92.97047117291798
 20
141.570983447979
 30
0.0
  0
LINE
  5
1E4
330
1F
100
AcDbEntity
  8
0
  6
Continuous
 62
     7
370
    25
100
AcDbLine
 10
93.7711522627
 20
142.859645307
 30
0.0
 11
93.7711522627
 21
142.445983448
 31
0.0
  0
SPLINE
  5
1E5
330
1F
100
AcDbEntity
  8
0
  6
Continuous
 62
     7
370
    25
100
AcDbSpline
210
0.0
220
0.0
230
1.0
 70
     8
 71
     3
 72
     9
 73
     5
 74
     0
 42
0.000000001
 43
0.00000001
 40
0.0
 40
0.0
 40
0.0
 40
0.0
 40
0.5597100935008165
 40
0.9999999999999999
 40
0.9999999999999999
 40
0.9999999999999999
 40
0.9999999999999999
 10
93.09807533958465
 20
142.3436196659277
 30
0.0
 10
93.2106791413164
 20
142.4572182049265
 30
0.0
 10
93.41186150882999
 20
142.6601778090463
 30
0.0
 10
93.66131875504848
 20
142.7986690232158
 30
0.0
 10
93.77115226266157
 20
142.8596453069534
 30
0.0
  0
LINE
  5
1E6
330
1F
100
AcDbEntity
  8
0
  6
Continuous
 62
     7
370
    25
100
AcDbLine
 10
93.0980753396
 20
145.070983448
 30
0.0
 11
93.0980753396
 21
142.3436196659
 31
0.0
  0
LINE
  5
1E7
330
1F
100
AcDbEntity
  8
0
  6
Continuous
 62
     7
370
    25
100
AcDbLine
 10
92.7391009806
 20
145.070983448
 30
0.0
 11
93.0980753396
 21
145.070983448
 31
0.0
  0
LINE
  5
1E8
330
1F
100
AcDbEntity
  8
0
  6
Continuous
 62
     7
370
    25
100
AcDbLine
 10
92.7391009806
 20
141.570983448
 30
0.0
 11
92.7391009806
 21
145.070983448
 31
0.0
  0
LINE
  5
1E9
330
1F
100
AcDbEntity
  8
0
  6
Continuous
 62
     7
370
    25
100
AcDbLine
 10
92.9704711729
 20
141.570983448
 30
0.0
 11
92.7391009806
 21
141.570983448
 31
0.0
  0
CIRCLE
  5
1EA
330
1F
100
AcDbEntity
  8
0
  6
Continuous
 62
     7
370
    25
100
AcDbCircle
 10
58.8673061088
 20
156.1729510451
 30
0.0
 40
5.500000000000028
  0
CIRCLE
  5
1EB
330
1F
100
AcDbEntity
  8
0
  6
Continuous
 62
     7
370
    25
100
AcDbCircle
 10
82.8673061088
 20
146.1729510451
 30
0.0
 40
5.500000000000028
  0
CIRCLE
  5
1EC
330
1F
100
AcDbEntity
  8
0
  6
Continuous
 62
     7
370
    25
100
AcDbCircle
 10
106.8673061088
 20
160.1729510451
 30
0.0
 40
5.500000000000028
  0
CIRCLE
  5
1ED
330
1F
100
AcDbEntity
  8
0
  6
Continuous
 62
     7
370
    25
100
AcDbCircle
 10
130.8673061088
 20
146.1729510451
 30
0.0
 40
5.500000000000028
  0
CIRCLE
  5
1EE
330
1F
100
AcDbEntity
  8
0
  6
Continuous
 62
     7
370
    25
100
AcDbCircle
 10
154.8673061088
 20
156.1729510451
 30
0.0
 40
5.500000000000028
  0
LINE
  5
1EF
330
1F
100
AcDbEntity
  8
0
  6
Continuous
 62
     7
370
    25
100
AcDbLine
 10
90.7647420063
 20
143.7697013967
 30
0.0
 11
90.7647420063
 21
142.5083832877
 31
0.0
  0
LINE
  5
1F0
330
1F
100
AcDbEntity
  8
0
  6
Continuous
 62
     7
370
    25
100
AcDbLine
 10
91.5261602755
 20
143.7697013967
 30
0.0
 11
90.7647420063
 21
143.7697013967
 31
0.0
  0
LINE
  5
1F1
330
1F
100
AcDbEntity
  8
0
  6
Continuous
 62
     7
370
    25
100
AcDbLine
 10
90.7647420063
 20
142.5083832877
 30
0.0
 11
91.5261602755
 21
143.7697013967
 31
0.0
  0
CIRCLE
  5
1F2
330
1F
100
AcDbEntity
  8
0
  6
Continuous
 62
     7
370
    25
100
AcDbCircle
 10
58.8673061088
 20
156.1729510451
 30
0.0
 40
3.25
  0
CIRCLE
  5
1F3
330
1F
100
AcDbEntity
  8
0
  6
Continuous
 62
     7
370
    25
100
AcDbCircle
 10
154.8673061088
 20
156.1729510451
 30
0.0
 40
3.25
  0
LINE
  5
1F4
330
1F
100
AcDbEntity
  8
0
  6
Continuous
 62
     7
370
    25
100
AcDbLine
 10
146.9923061088
 20
140.404468309
 30
0.0
 11
146.9923061088
 21
140.6576584899
 31
0.0
  0
ARC
  5
1F5
330
1F
100
AcDbEntity
  8
0
  6
Continuous
 62
     7
370
    25
100
AcDbCircle
 10
146.8673061088
 20
141.320983448
 30
0.0
 40
0.9249999999831989
100
AcDbArc
 50
277.7664341684
 51
43.1362588698
  0
LINE
  5
1F6
330
1F
100
AcDbEntity
  8
0
  6
Continuous
 62
     7
370
    25
100
AcDbLine
 10
147.5423061088
 20
143.070983448
 30
0.0
 11
147.5423061088
 21
141.95343898
 31
0.0
  0
ARC
  5
1F7
330
1F
100
AcDbEntity
  8
0
  6
Continuous
 62
     7
370
    25
100
AcDbCircle
 10
146.8673061088
 20
143.070983448
 30
0.0
 40
0.6750000000000114
100
AcDbArc
 50
0.0
 51
79.3280707142
  0
LINE
  5
1F8
330
1F
100
AcDbEntity
  8
0
  6
Continuous
 62
     7
370
    25
100
AcDbLine
 10
146.9923061088
 20
143.4771853682
 30
0.0
 11
146.9923061088
 21
143.734308406
 31
0.0
  0
ARC
  5
1F9
330
1F
100
AcDbEntity
  8
0
  6
Continuous
 62
     7
370
    25
100
AcDbCircle
 10
146.8673061088
 20
143.070983448
 30
0.0
 40
0.424999999999784
100
AcDbArc
 50
0.0000000001
 51
72.8953648241
  0
LINE
  5
1FA
330
1F
100
AcDbEntity
  8
0
  6
Continuous
 62
     7
370
    25
100
AcDbLine
 10
147.2923061088
 20
141.8453878721
 30
0.0
 11
147.2923061088
 21
143.070983448
 31
0.0
  0
ARC
  5
1FB
330
1F
100
AcDbEntity
  8
0
  6
Continuous
 62
     7
370
    25
100
AcDbCircle
 10
146.8673061088
 20
142.070983448
 30
0.0
 40
2.250000000000009
100
AcDbArc
 50
273.1847385367
 51
86.8152614633
  0
LINE
  5
1FC
330
1F
100
AcDbEntity
  8
0
  6
Continuous
 62
     7
370
    25
100
AcDbLine
 10
146.9923061088
 20
144.0670733758
 30
0.0
 11
146.9923061088
 21
144.3175085424
 31
0.0
  0
ARC
  5
1FD
330
1F
100
AcDbEntity
  8
0
  6
Continuous
 62
     7
370
    25
100
AcDbCircle
 10
146.8673061088
 20
142.070983448
 30
0.0
 40
2.000000000012066
100
AcDbArc
 50
273.5833216985
 51
86.4166783015
  0
LINE
  5
1FE
330
1F
100
AcDbEntity
  8
0
  6
Continuous
 62
     7
370
    25
100
AcDbLine
 10
146.9923061088
 20
139.8244583535
 30
0.0
 11
146.9923061088
 21
140.0748935201
 31
0.0
  0
ARC
  5
1FF
330
1F
100
AcDbEntity
  8
0
  6
Continuous
 62
     7
370
    25
100
AcDbCircle
 10
146.8673061088
 20
142.070983448
 30
0.0
 40
2.249999999999996
100
AcDbArc
 50
93.1847385367
 51
266.8152614633
  0
LINE
  5
200
330
1F
100
AcDbEntity
  8
0
  6
Continuous
 62
     7
370
    25
100
AcDbLine
 10
146.7423061088
 20
139.8244583535
 30
0.0
 11
146.7423061088
 21
140.0748935201
 31
0.0
  0
LINE
  5
201
330
1F
100
AcDbEntity
  8
0
  6
Continuous
 62
     7
370
    25
100
AcDbLine
 10
146.7423061088
 20
144.0670733758
 30
0.0
 11
146.7423061088
 21
144.3175085424
 31
0.0
  0
ARC
  5
202
330
1F
100
AcDbEntity
  8
0
  6
Continuous
 62
     7
370
    25
100
AcDbCircle
 10
146.8673061088
 20
143.070983448
 30
0.0
 40
0.6750000000002764
100
AcDbArc
 50
100.6719292862
 51
180.0
  0
LINE
  5
203
330
1F
100
AcDbEntity
  8
0
  6
Continuous
 62
     7
370
    25
100
AcDbLine
 10
146.1923061088
 20
143.070983448
 30
0.0
 11
146.1923061088
 21
141.95343898
 31
0.0
  0
ARC
  5
204
330
1F
100
AcDbEntity
  8
0
  6
Continuous
 62
     7
370
    25
100
AcDbCircle
 10
146.8673061088
 20
141.320983448
 30
0.0
 40
0.924999999982733
100
AcDbArc
 50
136.8637411302
 51
262.2335658317
  0
LINE
  5
205
330
1F
100
AcDbEntity
  8
0
  6
Continuous
 62
     7
370
    25
100
AcDbLine
 10
146.7423061088
 20
140.404468309
 30
0.0
 11
146.7423061088
 21
140.6576584899
 31
0.0
  0
ARC
  5
206
330
1F
100
AcDbEntity
  8
0
  6
Continuous
 62
     7
370
    25
100
AcDbCircle
 10
146.8673061088
 20
141.320983448
 30
0.0
 40
0.6750000000213545
100
AcDbArc
 50
129.0228025652
 51
259.3280707147
  0
LINE
  5
207
330
1F
100
AcDbEntity
  8
0
  6
Continuous
 62
     7
370
    25
100
AcDbLine
 10
146.4423061088
 20
141.8453878721
 30
0.0
 11
146.4423061088
 21
143.070983448
 31
0.0
  0
ARC
  5
208
330
1F
100
AcDbEntity
  8
0
  6
Continuous
 62
     7
370
    25
100
AcDbCircle
 10
146.8673061088
 20
143.070983448
 30
0.0
 40
0.425000000000035
100
AcDbArc
 50
107.1046351766
 51
180.0
  0
LINE
  5
209
330
1F
100
AcDbEntity
  8
0
  6
Continuous
 62
     7
370
    25
100
AcDbLine
 10
146.7423061088
 20
143.4771853682
 30
0.0
 11
146.7423061088
 21
143.734308406
 31
0.0
  0
LINE
  5
20A
330
1F
100
AcDbEntity
  8
0
  6
Continuous
 62
     7
370
    25
100
AcDbLine
 10
144.2923061088
 20
139.495983448
 30
0.0
 11
144.2923061088
 21
144.645983448
 31
0.0
  0
LINE
  5
20B
330
1F
100
AcDbEntity
  8
0
  6
Continuous
 62
     7
370
    25
100
AcDbLine
 10
144.2923061088
 20
144.645983448
 30
0.0
 11
149.4423061088
 21
144.645983448
 31
0.0
  0
LINE
  5
20C
330
1F
100
AcDbEntity
  8
0
  6
Continuous
 62
     7
370
    25
100
AcDbLine
 10
149.4423061088
 20
144.645983448
 30
0.0
 11
149.4423061088
 21
139.495983448
 31
0.0
  0
LINE
  5
20D
330
1F
100
AcDbEntity
  8
0
  6
Continuous
 62
     7
370
    25
100
AcDbLine
 10
149.4423061088
 20
139.495983448
 30
0.0
 11
144.2923061088
 21
139.495983448
 31
0.0
  0
ARC
  5
20E
330
1F
100
AcDbEntity
  8
0
  6
Continuous
 62
     7
370
    25
100
AcDbCircle
 10
146.8673061088
 20
141.320983448
 30
0.0
 40
0.6750000000213442
100
AcDbArc
 50
280.6719292854
 51
50.977197435
  0
ARC
  5
20F
330
1F
100
AcDbEntity
  8
0
  6
Continuous
 62
     7
370
    25
100
AcDbCircle
 10
146.8673061088
 20
142.070983448
 30
0.0
 40
2.000000000012063
100
AcDbArc
 50
93.5833216985
 51
266.4166783015
  0
SPLINE
  5
210
330
1F
100
AcDbEntity
  8
0
  6
Continuous
 62
     7
370
    25
100
AcDbSpline
210
0.0
220
0.0
230
1.0
 70
     8
 71
     3
 72
    11
 73
     7
 74
     0
 42
0.000000001
 43
0.00000001
 40
0.0
 40
0.0
 40
0.0
 40
0.0
 40
0.1865676672158219
 40
0.3732188376697966
 40
0.5605857773087239
 40
1.0
 40
1.0
 40
1.0
 40
1.0
 10
101.9216931280462
 20
141.9748296018251
 30
0.0
 10
101.9885545571943
 20
141.9823105821464
 30
0.0
 10
102.1223073410715
 20
141.9972758910973
 30
0.0
 10
102.283254978278
 20
142.1271224669177
 30
0.0
 10
102.4436577383253
 20
142.3714295729249
 30
0.0
 10
102.4628355668728
 20
142.5978470648832
 30
0.0
 10
102.4762804677898
 20
142.7565804031072
 30
0.0
  0
SPLINE
  5
211
330
1F
100
AcDbEntity
  8
0
  6
Continuous
 62
     7
370
    25
100
AcDbSpline
210
0.0
220
0.0
230
1.0
 70
     8
 71
     3
 72
    11
 73
     7
 74
     0
 42
0.000000001
 43
0.00000001
 40
0.0
 40
0.0
 40
0.0
 40
0.0
 40
0.498849290863888
 40
0.748643124648803
 40
0.8742797664125201
 40
1.0
 40
1.0
 40
1.0
 40
1.0
 10
101.3993573908667
 20
142.7229265569534
 30
0.0
 10
101.4129099834634
 20
142.5497322934445
 30
0.0
 10
101.4332489023603
 20
142.2898127205812
 30
0.0
 10
101.6361760615481
 20
142.054147671338
 30
0.0
 10
101.7937371521706
 20
141.9833850125815
 30
0.0
 10
101.8790316808391
 20
141.9776820376088
 30
0.0
 10
101.9216931280462
 20
141.9748296018251
 30
0.0
  0
SPLINE
  5
212
330
1F
100
AcDbEntity
  8
0
  6
Continuous
 62
     7
370
    25
100
AcDbSpline
210
0.0
220
0.0
230
1.0
 70
     8
 71
     3
 72
    11
 73
     7
 74
     0
 42
0.000000001
 43
0.00000001
 40
0.0
 40
0.0
 40
0.0
 40
0.0
 40
0.2808570373012179
 40
0.5606996338753524
 40
0.780193545477635
 40
1.0
 40
1.0
 40
1.0
 40
1.0
 10
102.4762804677898
 20
142.7565804031072
 30
0.0
 10
102.4706464732071
 20
142.8497425365611
 30
0.0
 10
102.4593988337315
 20
143.0357303067824
 30
0.0
 10
102.3437067635726
 20
143.2742726643867
 30
0.0
 10
102.1524633392855
 20
143.4341041160436
 30
0.0
 10
102.0051952601353
 20
143.4484305295394
 30
0.0
 10
101.9315088331744
 20
143.4555988325944
 30
0.0
  0
SPLINE
  5
213
330
1F
100
AcDbEntity
  8
0
  6
Continuous
 62
     7
370
    25
100
AcDbSpline
210
0.0
220
0.0
230
1.0
 70
     8
 71
     3
 72
    11
 73
     7
 74
     0
 42
0.000000001
 43
0.00000001
 40
0.0
 40
0.0
 40
0.0
 40
0.0
 40
0.186711925059707
 40
0.3734668087895344
 40
0.5607165104231213
 40
1.0
 40
1.0
 40
1.0
 40
1.0
 10
101.9315088331744
 20
143.4555988325944
 30
0.0
 10
101.8681071024201
 20
143.4489907208713
 30
0.0
 10
101.7412890534445
 20
143.4357729770312
 30
0.0
 10
101.5841309728293
 20
143.3190137294293
 30
0.0
 10
101.4263515581091
 20
143.0896669658149
 30
0.0
 10
101.4104832178482
 20
142.8740810748715
 30
0.0
 10
101.3993573908667
 20
142.7229265569534
 30
0.0
  0
CIRCLE
  5
214
330
1F
100
AcDbEntity
  8
0
  6
Continuous
 62
     7
370
    25
100
AcDbCircle
 10
130.8673061088
 20
146.1729510451
 30
0.0
 40
3.250000000000028
  0
CIRCLE
  5
215
330
1F
100
AcDbEntity
  8
0
  6
Continuous
 62
     7
370
    25
100
AcDbCircle
 10
145.1173061088
 20
146.320983448
 30
0.0
 40
0.825000000000017
  0
CIRCLE
  5
216
330
1F
100
AcDbEntity
  8
0
  6
Continuous
 62
     7
370
    25
100
AcDbCircle
 10
82.8673061088
 20
146.1729510451
 30
0.0
 40
3.250000000000028
  0
CIRCLE
  5
217
330
1F
100
AcDbEntity
  8
0
  6
Continuous
 62
     7
370
    25
100
AcDbCircle
 10
106.8673061088
 20
160.1729510451
 30
0.0
 40
3.250000000000028
  0
LINE
  5
218
330
1F
100
AcDbEntity
  8
0
  6
Continuous
 62
     7
370
    25
100
AcDbLine
 10
128.2830535371
 20
114.1729510451
 30
0.0
 11
128.7087410649
 21
111.3117594131
 31
0.0
  0
LINE
  5
219
330
1F
100
AcDbEntity
  8
0
  6
Continuous
 62
     7
370
    25
100
AcDbLine
 10
128.5679208807
 20
114.1729510451
 30
0.0
 11
128.7087410649
 21
113.2264503694
 31
0.0
  0
LINE
  5
21A
330
1F
100
AcDbEntity
  8
0
  6
Continuous
 62
     7
370
    25
100
AcDbLine
 10
128.7087410649
 20
113.2264503694
 30
0.0
 11
128.7087410649
 21
111.3117594131
 31
0.0
  0
LINE
  5
21B
330
1F
100
AcDbEntity
  8
0
  6
Continuous
 62
     7
370
    25
100
AcDbLine
 10
85.0258711528
 20
113.2264503694
 30
0.0
 11
85.166691337
 21
114.1729510451
 31
0.0
  0
LINE
  5
21C
330
1F
100
AcDbEntity
  8
0
  6
Continuous
 62
     7
370
    25
100
AcDbLine
 10
85.0258711528
 20
111.3117594131
 30
0.0
 11
85.4515586805
 21
114.1729510451
 31
0.0
  0
LINE
  5
21D
330
1F
100
AcDbEntity
  8
0
  6
Continuous
 62
     7
370
    25
100
AcDbLine
 10
85.0258711528
 20
111.3117594131
 30
0.0
 11
85.0258711528
 21
113.2264503694
 31
0.0
  0
LINE
  5
21E
330
1F
100
AcDbEntity
  8
0
  6
Continuous
 62
     7
370
    25
100
AcDbLine
 10
85.0258711528
 20
111.3117594131
 30
0.0
 11
84.9688099524
 21
111.2070168001
 31
0.0
  0
LINE
  5
21F
330
1F
100
AcDbEntity
  8
0
  6
Continuous
 62
     7
370
    25
100
AcDbLine
 10
84.9688099524
 20
112.4932520785
 30
0.0
 11
84.9688099524
 21
111.2070168001
 31
0.0
  0
LINE
  5
220
330
1F
100
AcDbEntity
  8
0
  6
Continuous
 62
     7
370
    25
100
AcDbLine
 10
85.0258711528
 20
113.2264503694
 30
0.0
 11
84.9688101505
 21
112.4932548128
 31
0.0
  0
LINE
  5
221
330
1F
100
AcDbEntity
  8
0
  6
Continuous
 62
     7
370
    25
100
AcDbLine
 10
128.7658022653
 20
111.2070168001
 30
0.0
 11
128.7087410649
 21
111.3117594131
 31
0.0
  0
LINE
  5
222
330
1F
100
AcDbEntity
  8
0
  6
Continuous
 62
     7
370
    25
100
AcDbLine
 10
128.7658022653
 20
112.4932520785
 30
0.0
 11
128.7087410649
 21
113.2264503694
 31
0.0
  0
LINE
  5
223
330
1F
100
AcDbEntity
  8
0
  6
Continuous
 62
     7
370
    25
100
AcDbLine
 10
128.7658022653
 20
112.4932520785
 30
0.0
 11
128.7658022653
 21
111.2070168001
 31
0.0
  0
SPLINE
  5
224
330
1F
100
AcDbEntity
  8
0
  6
Continuous
 62
     7
370
    25
100
AcDbSpline
210
0.0
220
0.0
230
1.0
 70
     8
 71
     3
 72
    11
 73
     7
 74
     0
 42
0.000000001
 43
0.00000001
 40
0.0
 40
0.0
 40
0.0
 40
0.0
 40
0.6607437149762769
 40
0.8665324982903728
 40
0.9411725756565373
 40
1.0
 40
1.0
 40
1.0
 40
1.0
 10
129.7593041384628
 20
110.992644253726
 30
0.0
 10
129.5313078326988
 20
111.0080650461126
 30
0.0
 10
129.2323020246123
 20
111.0282886478655
 30
0.0
 10
128.9189289405639
 20
111.1135962868243
 30
0.0
 10
128.8128438921465
 20
111.1638245222327
 30
0.0
 10
128.7801933768867
 20
111.193803292554
 30
0.0
 10
128.7658022652557
 20
111.207016800115
 30
0.0
  0
SPLINE
  5
225
330
1F
100
AcDbEntity
  8
0
  6
Continuous
 62
     7
370
    25
100
AcDbSpline
210
0.0
220
0.0
230
1.0
 70
     8
 71
     3
 72
     9
 73
     5
 74
     0
 42
0.000000001
 43
0.00000001
 40
0.0
 40
0.0
 40
0.0
 40
0.0
 40
0.4332716724311779
 40
1.0
 40
1.0
 40
1.0
 40
1.0
 10
84.96880995237517
 20
111.207016800115
 30
0.0
 10
84.8322467031715
 20
111.1488899859757
 30
0.0
 10
84.5170558935869
 20
111.0147320942003
 30
0.0
 10
84.1712713958645
 20
111.0006340274925
 30
0.0
 10
83.97530552577106
 20
110.9926442537252
 30
0.0
  0
SPLINE
  5
226
330
1F
100
AcDbEntity
  8
0
  6
Continuous
 62
     7
370
    25
100
AcDbSpline
210
0.0
220
0.0
230
1.0
 70
     8
 71
     3
 72
    11
 73
     7
 74
     0
 42
0.000000001
 43
0.00000001
 40
0.0
 40
0.0
 40
0.0
 40
0.0
 40
0.2311310850871229
 40
0.4612342843779055
 40
0.7118724128273455
 40
0.9999999999999999
 40
0.9999999999999999
 40
0.9999999999999999
 40
0.9999999999999999
 10
129.7593041384628
 20
110.992644253731
 30
0.0
 10
129.6252002658885
 20
111.0608262030557
 30
0.0
 10
129.3575889072701
 20
111.1968868830479
 30
0.0
 10
129.0556779002198
 20
111.5553353245918
 30
0.0
 10
128.8484425303238
 20
112.0042129851909
 30
0.0
 10
128.7945979274009
 20
112.322848407873
 30
0.0
 10
128.7658022652557
 20
112.4932520784539
 30
0.0
  0
SPLINE
  5
227
330
1F
100
AcDbEntity
  8
0
  6
Continuous
 62
     7
370
    25
100
AcDbSpline
210
0.0
220
0.0
230
1.0
 70
     8
 71
     3
 72
    12
 73
     8
 74
     0
 42
0.000000001
 43
0.00000001
 40
0.0
 40
0.0
 40
0.0
 40
0.0
 40
0.3441607228242793
 40
0.6147537035849343
 40
0.8241699596959025
 40
0.9140179647741039
 40
0.9999999999999999
 40
0.9999999999999999
 40
0.9999999999999999
 40
0.9999999999999999
 10
84.96880995237517
 20
112.4932520784539
 30
0.0
 10
84.91325208008513
 20
112.2935359226892
 30
0.0
 10
84.8140123775609
 20
111.9367949052525
 30
0.0
 10
84.59236555561564
 20
111.4543253717115
 30
0.0
 10
84.35492187153285
 20
111.1649757031044
 30
0.0
 10
84.14069218641896
 20
111.0314965249761
 30
0.0
 10
84.02962036840364
 20
111.0054037773207
 30
0.0
 10
83.97530552577106
 20
110.9926442537252
 30
0.0
  0
ARC
  5
228
330
1F
100
AcDbEntity
  8
0
  6
Continuous
 62
     7
370
    25
100
AcDbCircle
 10
148.3673061088
 20
84.6729510451
 30
0.0
 40
0.5
100
AcDbArc
 50
270.0
 51
0.0
  0
LINE
  5
229
330
1F
100
AcDbEntity
  8
0
  6
Continuous
 62
     7
370
    25
100
AcDbLine
 10
148.3673061088
 20
84.1729510451
 30
0.0
 11
140.257694312
 21
84.1729510451
 31
0.0
  0
ARC
  5
22A
330
1F
100
AcDbEntity
  8
0
  6
Continuous
 62
     7
370
    25
100
AcDbCircle
 10
140.257694312
 20
84.6729510451
 30
0.0
 40
0.500000000000013
100
AcDbArc
 50
194.0362434679
 51
270.0
  0
LINE
  5
22B
330
1F
100
AcDbEntity
  8
0
  6
Continuous
 62
     7
370
    25
100
AcDbLine
 10
139.7726230619
 20
84.5516832326
 30
0.0
 11
138.5226230619
 21
89.5516832326
 31
0.0
  0
ARC
  5
22C
330
1F
100
AcDbEntity
  8
0
  6
Continuous
 62
     7
370
    25
100
AcDbCircle
 10
139.007694312
 20
89.6729510451
 30
0.0
 40
0.5000000000000338
100
AcDbArc
 50
90.0
 51
194.0362434679
  0
LINE
  5
22D
330
1F
100
AcDbEntity
  8
0
  6
Continuous
 62
     7
370
    25
100
AcDbLine
 10
139.007694312
 20
90.1729510451
 30
0.0
 11
141.3673061088
 21
90.1729510451
 31
0.0
  0
ARC
  5
22E
330
1F
100
AcDbEntity
  8
0
  6
Continuous
 62
     7
370
    25
100
AcDbCircle
 10
141.3673061088
 20
90.6729510451
 30
0.0
 40
0.5
100
AcDbArc
 50
270.0
 51
0.0
  0
LINE
  5
22F
330
1F
100
AcDbEntity
  8
0
  6
Continuous
 62
     7
370
    25
100
AcDbLine
 10
141.8673061088
 20
90.6729510451
 30
0.0
 11
141.8673061088
 21
100.1729510451
 31
0.0
  0
ARC
  5
230
330
1F
100
AcDbEntity
  8
0
  6
Continuous
 62
     7
370
    25
100
AcDbCircle
 10
139.8673061088
 20
100.1729510451
 30
0.0
 40
2.0
100
AcDbArc
 50
0.0
 51
90.0
  0
LINE
  5
231
330
1F
100
AcDbEntity
  8
0
  6
Continuous
 62
     7
370
    25
100
AcDbLine
 10
139.8673061088
 20
102.1729510451
 30
0.0
 11
129.8673061088
 21
102.1729510451
 31
0.0
  0
ARC
  5
232
330
1F
100
AcDbEntity
  8
0
  6
Continuous
 62
     7
370
    25
100
AcDbCircle
 10
129.8673061088
 20
100.1729510451
 30
0.0
 40
1.999999999999986
100
AcDbArc
 50
90.0
 51
180.0
  0
LINE
  5
233
330
1F
100
AcDbEntity
  8
0
  6
Continuous
 62
     7
370
    25
100
AcDbLine
 10
127.8673061088
 20
100.1729510451
 30
0.0
 11
127.8673061088
 21
90.6729510451
 31
0.0
  0
ARC
  5
234
330
1F
100
AcDbEntity
  8
0
  6
Continuous
 62
     7
370
    25
100
AcDbCircle
 10
128.3673061088
 20
90.6729510451
 30
0.0
 40
0.5
100
AcDbArc
 50
180.0
 51
270.0
  0
LINE
  5
235
330
1F
100
AcDbEntity
  8
0
  6
Continuous
 62
     7
370
    25
100
AcDbLine
 10
128.3673061088
 20
90.1729510451
 30
0.0
 11
130.7269179056
 21
90.1729510451
 31
0.0
  0
ARC
  5
236
330
1F
100
AcDbEntity
  8
0
  6
Continuous
 62
     7
370
    25
100
AcDbCircle
 10
130.7269179056
 20
89.6729510451
 30
0.0
 40
0.5
100
AcDbArc
 50
345.9637565321
 51
90.0
  0
LINE
  5
237
330
1F
100
AcDbEntity
  8
0
  6
Continuous
 62
     7
370
    25
100
AcDbLine
 10
131.2119891557
 20
89.5516832326
 30
0.0
 11
129.9619891557
 21
84.5516832326
 31
0.0
  0
ARC
  5
238
330
1F
100
AcDbEntity
  8
0
  6
Continuous
 62
     7
370
    25
100
AcDbCircle
 10
129.4769179056
 20
84.6729510451
 30
0.0
 40
0.5
100
AcDbArc
 50
270.0
 51
345.9637565321
  0
LINE
  5
239
330
1F
100
AcDbEntity
  8
0
  6
Continuous
 62
     7
370
    25
100
AcDbLine
 10
129.4769179056
 20
84.1729510451
 30
0.0
 11
112.257694312
 21
84.1729510451
 31
0.0
  0
ARC
  5
23A
330
1F
100
AcDbEntity
  8
0
  6
Continuous
 62
     7
370
    25
100
AcDbCircle
 10
112.257694312
 20
84.6729510451
 30
0.0
 40
0.5000000000000027
100
AcDbArc
 50
194.0362434679
 51
270.0
  0
LINE
  5
23B
330
1F
100
AcDbEntity
  8
0
  6
Continuous
 62
     7
370
    25
100
AcDbLine
 10
111.7726230619
 20
84.5516832326
 30
0.0
 11
110.5226230619
 21
89.5516832326
 31
0.0
  0
ARC
  5
23C
330
1F
100
AcDbEntity
  8
0
  6
Continuous
 62
     7
370
    25
100
AcDbCircle
 10
111.007694312
 20
89.6729510451
 30
0.0
 40
0.5
100
AcDbArc
 50
90.0
 51
194.0362434679
  0
LINE
  5
23D
330
1F
100
AcDbEntity
  8
0
  6
Continuous
 62
     7
370
    25
100
AcDbLine
 10
111.007694312
 20
90.1729510451
 30
0.0
 11
113.3673061088
 21
90.1729510451
 31
0.0
  0
ARC
  5
23E
330
1F
100
AcDbEntity
  8
0
  6
Continuous
 62
     7
370
    25
100
AcDbCircle
 10
113.3673061088
 20
90.6729510451
 30
0.0
 40
0.5000000000000142
100
AcDbArc
 50
270.0
 51
0.0
  0
LINE
  5
23F
330
1F
100
AcDbEntity
  8
0
  6
Continuous
 62
     7
370
    25
100
AcDbLine
 10
113.8673061088
 20
90.6729510451
 30
0.0
 11
113.8673061088
 21
100.1729510451
 31
0.0
  0
ARC
  5
240
330
1F
100
AcDbEntity
  8
0
  6
Continuous
 62
     7
370
    25
100
AcDbCircle
 10
111.8673061088
 20
100.1729510451
 30
0.0
 40
1.999999999999986
100
AcDbArc
 50
0.0
 51
90.0
  0
LINE
  5
241
330
1F
100
AcDbEntity
  8
0
  6
Continuous
 62
     7
370
    25
100
AcDbLine
 10
111.8673061088
 20
102.1729510451
 30
0.0
 11
101.8673061088
 21
102.1729510451
 31
0.0
  0
ARC
  5
242
330
1F
100
AcDbEntity
  8
0
  6
Continuous
 62
     7
370
    25
100
AcDbCircle
 10
101.8673061088
 20
100.1729510451
 30
0.0
 40
1.999999999999986
100
AcDbArc
 50
90.0
 51
180.0
  0
LINE
  5
243
330
1F
100
AcDbEntity
  8
0
  6
Continuous
 62
     7
370
    25
100
AcDbLine
 10
99.8673061088
 20
100.1729510451
 30
0.0
 11
99.8673061088
 21
90.6729510451
 31
0.0
  0
ARC
  5
244
330
1F
100
AcDbEntity
  8
0
  6
Continuous
 62
     7
370
    25
100
AcDbCircle
 10
100.3673061088
 20
90.6729510451
 30
0.0
 40
0.5
100
AcDbArc
 50
180.0
 51
270.0
  0
LINE
  5
245
330
1F
100
AcDbEntity
  8
0
  6
Continuous
 62
     7
370
    25
100
AcDbLine
 10
100.3673061088
 20
90.1729510451
 30
0.0
 11
102.7269179056
 21
90.1729510451
 31
0.0
  0
ARC
  5
246
330
1F
100
AcDbEntity
  8
0
  6
Continuous
 62
     7
370
    25
100
AcDbCircle
 10
102.7269179056
 20
89.6729510451
 30
0.0
 40
0.500000000000013
100
AcDbArc
 50
345.9637565321
 51
90.0
  0
LINE
  5
247
330
1F
100
AcDbEntity
  8
0
  6
Continuous
 62
     7
370
    25
100
AcDbLine
 10
103.2119891557
 20
89.5516832326
 30
0.0
 11
101.9619891557
 21
84.5516832326
 31
0.0
  0
ARC
  5
248
330
1F
100
AcDbEntity
  8
0
  6
Continuous
 62
     7
370
    25
100
AcDbCircle
 10
101.4769179056
 20
84.6729510451
 30
0.0
 40
0.5000000000000027
100
AcDbArc
 50
270.0
 51
345.9637565321
  0
LINE
  5
249
330
1F
100
AcDbEntity
  8
0
  6
Continuous
 62
     7
370
    25
100
AcDbLine
 10
101.4769179056
 20
84.1729510451
 30
0.0
 11
84.257694312
 21
84.1729510451
 31
0.0
  0
ARC
  5
24A
330
1F
100
AcDbEntity
  8
0
  6
Continuous
 62
     7
370
    25
100
AcDbCircle
 10
84.257694312
 20
84.6729510451
 30
0.0
 40
0.5000000000000027
100
AcDbArc
 50
194.0362434679
 51
270.0
  0
LINE
  5
24B
330
1F
100
AcDbEntity
  8
0
  6
Continuous
 62
     7
370
    25
100
AcDbLine
 10
83.7726230619
 20
84.5516832326
 30
0.0
 11
82.5226230619
 21
89.5516832326
 31
0.0
  0
ARC
  5
24C
330
1F
100
AcDbEntity
  8
0
  6
Continuous
 62
     7
370
    25
100
AcDbCircle
 10
83.007694312
 20
89.6729510451
 30
0.0
 40
0.5
100
AcDbArc
 50
90.0
 51
194.0362434679
  0
LINE
  5
24D
330
1F
100
AcDbEntity
  8
0
  6
Continuous
 62
     7
370
    25
100
AcDbLine
 10
83.007694312
 20
90.1729510451
 30
0.0
 11
85.3673061088
 21
90.1729510451
 31
0.0
  0
ARC
  5
24E
330
1F
100
AcDbEntity
  8
0
  6
Continuous
 62
     7
370
    25
100
AcDbCircle
 10
85.3673061088
 20
90.6729510451
 30
0.0
 40
0.5
100
AcDbArc
 50
270.0
 51
0.0
  0
LINE
  5
24F
330
1F
100
AcDbEntity
  8
0
  6
Continuous
 62
     7
370
    25
100
AcDbLine
 10
85.8673061088
 20
90.6729510451
 30
0.0
 11
85.8673061088
 21
100.1729510451
 31
0.0
  0
ARC
  5
250
330
1F
100
AcDbEntity
  8
0
  6
Continuous
 62
     7
370
    25
100
AcDbCircle
 10
83.8673061088
 20
100.1729510451
 30
0.0
 40
1.999999999999986
100
AcDbArc
 50
0.0
 51
90.0
  0
LINE
  5
251
330
1F
100
AcDbEntity
  8
0
  6
Continuous
 62
     7
370
    25
100
AcDbLine
 10
83.8673061088
 20
102.1729510451
 30
0.0
 11
73.8673061088
 21
102.1729510451
 31
0.0
  0
ARC
  5
252
330
1F
100
AcDbEntity
  8
0
  6
Continuous
 62
     7
370
    25
100
AcDbCircle
 10
73.8673061088
 20
100.1729510451
 30
0.0
 40
1.999999999999986
100
AcDbArc
 50
90.0
 51
180.0
  0
LINE
  5
253
330
1F
100
AcDbEntity
  8
0
  6
Continuous
 62
     7
370
    25
100
AcDbLine
 10
71.8673061088
 20
100.1729510451
 30
0.0
 11
71.8673061088
 21
90.6729510451
 31
0.0
  0
ARC
  5
254
330
1F
100
AcDbEntity
  8
0
  6
Continuous
 62
     7
370
    25
100
AcDbCircle
 10
72.3673061088
 20
90.6729510451
 30
0.0
 40
0.5
100
AcDbArc
 50
180.0
 51
270.0
  0
LINE
  5
255
330
1F
100
AcDbEntity
  8
0
  6
Continuous
 62
     7
370
    25
100
AcDbLine
 10
72.3673061088
 20
90.1729510451
 30
0.0
 11
74.7269179056
 21
90.1729510451
 31
0.0
  0
ARC
  5
256
330
1F
100
AcDbEntity
  8
0
  6
Continuous
 62
     7
370
    25
100
AcDbCircle
 10
74.7269179056
 20
89.6729510451
 30
0.0
 40
0.500000000000013
100
AcDbArc
 50
345.9637565321
 51
90.0
  0
LINE
  5
257
330
1F
100
AcDbEntity
  8
0
  6
Continuous
 62
     7
370
    25
100
AcDbLine
 10
75.2119891557
 20
89.5516832326
 30
0.0
 11
73.9619891557
 21
84.5516832326
 31
0.0
  0
ARC
  5
258
330
1F
100
AcDbEntity
  8
0
  6
Continuous
 62
     7
370
    25
100
AcDbCircle
 10
73.4769179056
 20
84.6729510451
 30
0.0
 40
0.5000000000000027
100
AcDbArc
 50
270.0
 51
345.9637565321
  0
LINE
  5
259
330
1F
100
AcDbEntity
  8
0
  6
Continuous
 62
     7
370
    25
100
AcDbLine
 10
73.4769179056
 20
84.1729510451
 30
0.0
 11
65.3673061088
 21
84.1729510451
 31
0.0
  0
ARC
  5
25A
330
1F
100
AcDbEntity
  8
0
  6
Continuous
 62
     7
370
    25
100
AcDbCircle
 10
65.3673061088
 20
84.6729510451
 30
0.0
 40
0.5
100
AcDbArc
 50
180.0
 51
270.0
  0
LINE
  5
25B
330
1F
100
AcDbEntity
  8
0
  6
Continuous
 62
     7
370
    25
100
AcDbLine
 10
64.8673061088
 20
84.6729510451
 30
0.0
 11
64.8673061088
 21
109.9926442537
 31
0.0
  0
ARC
  5
25C
330
1F
100
AcDbEntity
  8
0
  6
Continuous
 62
     7
370
    25
100
AcDbCircle
 10
65.8673061088
 20
109.9926442537
 30
0.0
 40
1.0
100
AcDbArc
 50
90.0
 51
180.0
  0
LINE
  5
25D
330
1F
100
AcDbEntity
  8
0
  6
Continuous
 62
     7
370
    25
100
AcDbLine
 10
65.8673061088
 20
110.9926442537
 30
0.0
 11
83.9753055258
 21
110.9926442537
 31
0.0
  0
LINE
  5
25E
330
1F
100
AcDbEntity
  8
0
  6
Continuous
 62
     7
370
    25
100
AcDbLine
 10
147.8673061088
 20
110.9926442537
 30
0.0
 11
129.7593041385
 21
110.9926442537
 31
0.0
  0
ARC
  5
25F
330
1F
100
AcDbEntity
  8
0
  6
Continuous
 62
     7
370
    25
100
AcDbCircle
 10
147.8673061088
 20
109.9926442537
 30
0.0
 40
1.0
100
AcDbArc
 50
0.0
 51
90.0
  0
LINE
  5
260
330
1F
100
AcDbEntity
  8
0
  6
Continuous
 62
     7
370
    25
100
AcDbLine
 10
148.8673061088
 20
84.6729510451
 30
0.0
 11
148.8673061088
 21
109.9926442537
 31
0.0
  0
LINE
  5
261
330
1F
100
AcDbEntity
  8
0
  6
Continuous
 62
     7
370
    25
100
AcDbLine
 10
84.8673061088
 20
123.1729510451
 30
0.0
 11
84.8673061088
 21
132.1729510451
 31
0.0
  0
LINE
  5
262
330
1F
100
AcDbEntity
  8
0
  6
Continuous
 62
     7
370
    25
100
AcDbLine
 10
84.8673061088
 20
114.1729510451
 30
0.0
 11
84.8673061088
 21
123.1729510451
 31
0.0
  0
LINE
  5
263
330
1F
100
AcDbEntity
  8
0
  6
Continuous
 62
     7
370
    25
100
AcDbLine
 10
128.8673061088
 20
123.1729510451
 30
0.0
 11
128.8673061088
 21
132.1729510451
 31
0.0
  0
LINE
  5
264
330
1F
100
AcDbEntity
  8
0
  6
Continuous
 62
     7
370
    25
100
AcDbLine
 10
128.8673061088
 20
114.1729510451
 30
0.0
 11
128.8673061088
 21
123.1729510451
 31
0.0
  0
LINE
  5
265
330
1F
100
AcDbEntity
  8
0
  6
Continuous
 62
     7
370
    25
100
AcDbLine
 10
166.6673061088
 20
114.4876246798
 30
0.0
 11
166.6673061088
 21
132.1729510451
 31
0.0
  0
LINE
  5
266
330
1F
100
AcDbEntity
  8
0
  6
Continuous
 62
     7
370
    25
100
AcDbLine
 10
166.6673061088
 20
114.1729510451
 30
0.0
 11
166.6673061088
 21
114.4876246798
 31
0.0
  0
LINE
  5
267
330
1F
100
AcDbEntity
  8
0
  6
Continuous
 62
     7
370
    25
100
AcDbLine
 10
129.8673061088
 20
114.4876246798
 30
0.0
 11
129.8673061088
 21
132.1729510451
 31
0.0
  0
LINE
  5
268
330
1F
100
AcDbEntity
  8
0
  6
Continuous
 62
     7
370
    25
100
AcDbLine
 10
129.8673061088
 20
114.1729510451
 30
0.0
 11
129.8673061088
 21
114.4876246798
 31
0.0
  0
LINE
  5
269
330
1F
100
AcDbEntity
  8
0
  6
Continuous
 62
     7
370
    25
100
AcDbLine
 10
166.8673061088
 20
114.6806319323
 30
0.0
 11
166.8673061088
 21
131.9729510451
 31
0.0
  0
LINE
  5
26A
330
1F
100
AcDbEntity
  8
0
  6
Continuous
 62
     7
370
    25
100
AcDbLine
 10
166.8673061088
 20
114.3729510451
 30
0.0
 11
166.8673061088
 21
114.6806319323
 31
0.0
  0
LINE
  5
26B
330
1F
100
AcDbEntity
  8
0
  6
Continuous
 62
     7
370
    25
100
AcDbLine
 10
47.0673061088
 20
132.1729510451
 30
0.0
 11
47.0673061088
 21
114.1729510451
 31
0.0
  0
LINE
  5
26C
330
1F
100
AcDbEntity
  8
0
  6
Continuous
 62
     7
370
    25
100
AcDbLine
 10
83.8673061088
 20
132.1729510451
 30
0.0
 11
83.8673061088
 21
114.1729510451
 31
0.0
  0
LINE
  5
26D
330
1F
100
AcDbEntity
  8
0
  6
Continuous
 62
     7
370
    25
100
AcDbLine
 10
46.8673061088
 20
131.9729510451
 30
0.0
 11
46.8673061088
 21
114.3729510451
 31
0.0
  0
DIMENSION
  5
26E
330
1F
100
AcDbEntity
  8
FORMAT
100
AcDbDimension
  2
_D
 10
148.8673061088
 20
65.9643133155
 30
0.0
 11
106.8673061088
 21
65.9643133155
 31
0.0
 70
   160
  1
<>
 71
     2
 42
-1.0
 73
     0
 74
     0
 75
     0
  3
SLDDIMSTYLE0
100
AcDbAlignedDimension
 13
64.8673061088
 23
84.6729510451
 33
0.0
 14
148.8673061088
 24
84.6729510451
 34
0.0
100
AcDbRotatedDimension
  0
DIMENSION
  5
279
330
1F
100
AcDbEntity
  8
FORMAT
100
AcDbDimension
  2
_D_1
 10
36.0673061088
 20
114.1729510451
 30
0.0
 11
36.0673061088
 21
123.1729510451
 31
0.0
 70
   160
  1
%%c<>
 71
     2
 42
-1.0
 73
     0
 74
     0
 75
     0
  3
SLDDIMSTYLE0
100
AcDbAlignedDimension
 13
47.0673061088
 23
132.1729510451
 33
0.0
 14
47.0673061088
 24
114.1729510451
 34
0.0
 50
90.0
100
AcDbRotatedDimension
  0
DIMENSION
  5
284
330
1F
100
AcDbEntity
  8
FORMAT
100
AcDbDimension
  2
_D_2
 10
58.8673061088
 20
156.1729510451
 30
0.0
 11
37.3586385661
 21
171.5454415415
 31
0.0
 70
   164
  1
<>
 71
     1
 42
-1.0
 73
     0
 74
     0
 75
     0
  3
SLDDIMSTYLE1
100
AcDbRadialDimension
 15
49.1044669183
 25
163.1505560023
 35
0.0
 40
0.0
  0
DIMENSION
  5
28C
330
1F
100
AcDbEntity
  8
FORMAT
100
AcDbDimension
  2
_D_3
 10
166.8673061088
 20
184.1729510451
 30
0.0
 11
106.8673061088
 21
184.1729510451
 31
0.0
 70
   160
  1
<>
 71
     2
 42
-1.0
 73
     0
 74
     0
 75
     0
  3
SLDDIMSTYLE0
100
AcDbAlignedDimension
 13
46.8673061088
 23
156.1729510451
 33
0.0
 14
166.8673061088
 24
156.1729510451
 34
0.0
100
AcDbRotatedDimension
  0
DIMENSION
  5
297
330
1F
100
AcDbEntity
  8
FORMAT
100
AcDbDimension
  2
_D_4
 10
82.8673061088
 20
178.1729510451
 30
0.0
 11
70.8673061088
 21
178.1729510451
 31
0.0
 70
   160
  1
<>
 71
     2
 42
-1.0
 73
     0
 74
     0
 75
     0
  3
SLDDIMSTYLE0
100
AcDbAlignedDimension
 13
58.8673061088
 23
156.1729510451
 33
0.0
 14
82.8673061088
 24
146.1729510451
 34
0.0
100
AcDbRotatedDimension
  0
DIMENSION
  5
2A1
330
1F
100
AcDbEntity
  8
FORMAT
100
AcDbDimension
  2
_D_5
 10
106.8673061088
 20
178.1729510451
 30
0.0
 11
94.8673061088
 21
178.1729510451
 31
0.0
 70
   160
  1
<>
 71
     2
 42
-1.0
 73
     0
 74
     0
 75
     0
  3
SLDDIMSTYLE0
100
AcDbAlignedDimension
 13
82.8673061088
 23
146.1729510451
 33
0.0
 14
106.8673061088
 24
160.1729510451
 34
0.0
100
AcDbRotatedDimension
  0
DIMENSION
  5
2AB
330
1F
100
AcDbEntity
  8
FORMAT
100
AcDbDimension
  2
_D_6
 10
130.8673061088
 20
178.1729510451
 30
0.0
 11
118.8673061088
 21
178.1729510451
 31
0.0
 70
   160
  1
<>
 71
     2
 42
-1.0
 73
     0
 74
     0
 75
     0
  3
SLDDIMSTYLE0
100
AcDbAlignedDimension
 13
106.8673061088
 23
160.1729510451
 33
0.0
 14
130.8673061088
 24
146.1729510451
 34
0.0
100
AcDbRotatedDimension
  0
DIMENSION
  5
2B5
330
1F
100
AcDbEntity
  8
FORMAT
100
AcDbDimension
  2
_D_7
 10
154.8673061088
 20
178.1729510451
 30
0.0
 11
142.8673061088
 21
178.1729510451
 31
0.0
 70
   160
  1
<>
 71
     2
 42
-1.0
 73
     0
 74
     0
 75
     0
  3
SLDDIMSTYLE0
100
AcDbAlignedDimension
 13
130.8673061088
 23
146.1729510451
 33
0.0
 14
154.8673061088
 24
156.1729510451
 34
0.0
100
AcDbRotatedDimension
  0
DIMENSION
  5
2BF
330
1F
100
AcDbEntity
  8
FORMAT
100
AcDbDimension
  2
_D_8
 10
73.1379246141
 20
156.1729510451
 30
0.0
 11
73.1379246141
 21
162.1729510451
 31
0.0
 70
   160
  1
<>
 71
     2
 42
-1.0
 73
     0
 74
     0
 75
     0
  3
SLDDIMSTYLE0
100
AcDbAlignedDimension
 13
58.8673061088
 23
168.1729510451
 33
0.0
 14
66.8673061088
 24
156.1729510451
 34
0.0
 50
90.0
100
AcDbRotatedDimension
  0
DIMENSION
  5
2C8
330
1F
100
AcDbEntity
  8
FORMAT
100
AcDbDimension
  2
_D_9
 10
94.8673061088
 20
168.1729510451
 30
0.0
 11
94.8673061088
 21
157.1729510451
 31
0.0
 70
   160
  1
<>
 71
     2
 42
-1.0
 73
     0
 74
     0
 75
     0
  3
SLDDIMSTYLE0
100
AcDbAlignedDimension
 13
90.8673061088
 23
146.1729510451
 33
0.0
 14
58.8673061088
 24
168.1729510451
 34
0.0
 50
90.0
100
AcDbRotatedDimension
  0
DIMENSION
  5
2D1
330
1F
100
AcDbEntity
  8
FORMAT
100
AcDbDimension
  2
_D_10
 10
119.6465278135
 20
168.1729510451
 30
0.0
 11
119.6465278135
 21
164.1729510451
 31
0.0
 70
   160
  1
<>
 71
     2
 42
-1.0
 73
     0
 74
     0
 75
     0
  3
SLDDIMSTYLE2
100
AcDbAlignedDimension
 13
114.8673061088
 23
160.1729510451
 33
0.0
 14
154.8673061088
 24
168.1729510451
 34
0.0
 50
90.0
100
AcDbRotatedDimension
  0
DIMENSION
  5
2DD
330
1F
100
AcDbEntity
  8
FORMAT
100
AcDbDimension
  2
_D_11
 10
134.8673061088
 20
74.1729510451
 30
0.0
 11
120.8673061088
 21
74.1729510451
 31
0.0
 70
   160
  1
<>
 71
     2
 42
-1.0
 73
     0
 74
     0
 75
     0
  3
SLDDIMSTYLE0
100
AcDbAlignedDimension
 13
106.8673061088
 23
95.1906357155
 33
0.0
 14
134.8673061088
 24
88.6729510451
 34
0.0
100
AcDbRotatedDimension
  0
DIMENSION
  5
2E7
330
1F
100
AcDbEntity
  8
FORMAT
100
AcDbDimension
  2
_D_12
 10
78.8673061088
 20
74.1729510451
 30
0.0
 11
92.8673061088
 21
74.1729510451
 31
0.0
 70
   160
  1
<>
 71
     2
 42
-1.0
 73
     0
 74
     0
 75
     0
  3
SLDDIMSTYLE0
100
AcDbAlignedDimension
 13
106.8673061088
 23
95.1906357155
 33
0.0
 14
78.8673061088
 24
88.6729510451
 34
0.0
100
AcDbRotatedDimension
  0
INSERT
  5
2FC
330
1F
100
AcDbEntity
  8
FORMAT
100
AcDbBlockReference
  2
SW_CENTERMARKSYMBOL_0
 10
58.8673061088
 20
156.1729510451
 30
0.0
  0
INSERT
  5
308
330
1F
100
AcDbEntity
  8
FORMAT
100
AcDbBlockReference
  2
SW_CENTERMARKSYMBOL_1
 10
82.8673061088
 20
146.1729510451
 30
0.0
  0
INSERT
  5
314
330
1F
100
AcDbEntity
  8
FORMAT
100
AcDbBlockReference
  2
SW_CENTERMARKSYMBOL_2
 10
106.8673061088
 20
160.1729510451
 30
0.0
  0
INSERT
  5
320
330
1F
100
AcDbEntity
  8
FORMAT
100
AcDbBlockReference
  2
SW_CENTERMARKSYMBOL_3
 10
130.8673061088
 20
146.1729510451
 30
0.0
  0
INSERT
  5
32C
330
1F
100
AcDbEntity
  8
FORMAT
100
AcDbBlockReference
  2
SW_CENTERMARKSYMBOL_4
 10
154.8673061088
 20
156.1729510451
 30
0.0
  0
LINE
  5
32D
330
1F
100
AcDbEntity
  8
FORMAT
  6
CENTERX2
370
    18
100
AcDbLine
 10
78.8673061088
 20
88.6729510451
 30
0.0
 11
78.8673061088
 21
105.1769269568
 31
0.0
  0
LINE
  5
32E
330
1F
100
AcDbEntity
  8
FORMAT
  6
CENTERX2
370
    18
100
AcDbLine
 10
134.8673061088
 20
88.6729510451
 30
0.0
 11
134.8673061088
 21
104.7718043191
 31
0.0
  0
LINE
  5
32F
330
1F
100
AcDbEntity
  8
FORMAT
  6
CENTERX2
370
    18
100
AcDbLine
 10
170.9415649751
 20
123.1729510451
 30
0.0
 11
42.8830960534
 21
123.1729510451
 31
0.0
  0
LINE
  5
330
330
1F
100
AcDbEntity
  8
0
  6
Continuous
 62
     7
370
    25
100
AcDbLine
 10
206.3047720134
 20
135.320983448
 30
0.0
 11
206.3047720105
 21
149.6851286432
 31
0.0
  0
LINE
  5
331
330
1F
100
AcDbEntity
  8
0
  6
Continuous
 62
     7
370
    25
100
AcDbLine
 10
209.3047720134
 20
135.320983448
 30
0.0
 11
209.304772
 21
148.8722057616
 31
0.0
  0
SPLINE
  5
332
330
1F
100
AcDbEntity
  8
0
  6
Continuous
 62
     7
370
    18
100
AcDbSpline
210
0.0
220
0.0
230
1.0
 70
     8
 71
     3
 72
    10
 73
     6
 74
     0
 42
0.000000001
 43
0.00000001
 40
0.0
 40
0.0
 40
0.0
 40
0.0
 40
0.3361759684887791
 40
0.674415359225112
 40
1.0
 40
1.0
 40
1.0
 40
1.0
 10
206.3047720104934
 20
149.6851286432075
 30
0.0
 10
206.6418552899403
 20
149.5968211914105
 30
0.0
 10
207.3180908400865
 20
149.419664263467
 30
0.0
 10
208.3018977785719
 20
149.0897154654186
 30
0.0
 10
208.9747562519629
 20
148.9437816642464
 30
0.0
 10
209.304772000041
 20
148.8722057616335
 30
0.0
  0
ARC
  5
333
330
1F
100
AcDbEntity
  8
0
  6
Continuous
 62
     7
370
    25
100
AcDbCircle
 10
209.8047720134
 20
135.320983448
 30
0.0
 40
0.5000000000000284
100
AcDbArc
 50
180.0
 51
212.9843352476
  0
ARC
  5
334
330
1F
100
AcDbEntity
  8
0
  6
Continuous
 62
     7
370
    25
100
AcDbCircle
 10
209.8047720134
 20
135.320983448
 30
0.0
 40
3.500000000000063
100
AcDbArc
 50
180.0
 51
212.9843352476
  0
LINE
  5
335
330
1F
100
AcDbEntity
  8
0
  6
Continuous
 62
     7
370
    25
100
AcDbLine
 10
209.1468553631
 20
129.9057114394
 30
0.0
 11
211.6633136883
 21
131.538940602
 31
0.0
  0
LINE
  5
336
330
1F
100
AcDbEntity
  8
0
  6
Continuous
 62
     7
370
    25
100
AcDbLine
 10
209.1468553631
 20
129.9057114394
 30
0.0
 11
206.8689039674
 21
133.4155494249
 31
0.0
  0
LINE
  5
337
330
1F
100
AcDbEntity
  8
0
  6
Continuous
 62
     7
370
    25
100
AcDbLine
 10
211.6633136883
 20
131.538940602
 30
0.0
 11
209.3853622926
 21
135.0487785875
 31
0.0
  0
LINE
  5
338
330
1F
100
AcDbEntity
  8
0
  6
Continuous
 62
     7
370
    25
100
AcDbLine
 10
207.0547720134
 20
156.9229510451
 30
0.0
 11
206.3047720134
 21
156.9229510451
 31
0.0
  0
LINE
  5
339
330
1F
100
AcDbEntity
  8
0
  6
Continuous
 62
     7
370
    25
100
AcDbLine
 10
209.3047720134
 20
154.6729510451
 30
0.0
 11
207.0547720134
 21
156.9229510451
 31
0.0
  0
LINE
  5
33A
330
1F
100
AcDbEntity
  8
0
  6
Continuous
 62
     7
370
    25
100
AcDbLine
 10
209.3047720134
 20
154.6729510451
 30
0.0
 11
209.304772
 21
148.8722057616
 31
0.0
  0
LINE
  5
33B
330
1F
100
AcDbEntity
  8
0
  6
Continuous
 62
     7
370
    25
100
AcDbLine
 10
206.3047720134
 20
156.9229510451
 30
0.0
 11
206.3047720105
 21
149.6851286432
 31
0.0
  0
LINE
  5
33C
330
1F
100
AcDbEntity
  8
0
  6
Continuous
 62
     7
370
    25
100
AcDbLine
 10
206.3047720134
 20
163.4229510451
 30
0.0
 11
207.0547720134
 21
163.4229510451
 31
0.0
  0
LINE
  5
33D
330
1F
100
AcDbEntity
  8
0
  6
Continuous
 62
     7
370
    25
100
AcDbLine
 10
207.0547720134
 20
156.9229510451
 30
0.0
 11
207.0547720134
 21
163.4229510451
 31
0.0
  0
LINE
  5
33E
330
1F
100
AcDbEntity
  8
0
  6
Continuous
 62
     7
370
    25
100
AcDbLine
 10
206.3047720134
 20
156.9229510451
 30
0.0
 11
206.3047720134
 21
163.4229510451
 31
0.0
  0
LINE
  5
33F
330
1F
100
AcDbEntity
  8
0
  6
Continuous
 62
     7
370
    25
100
AcDbLine
 10
206.3047720134
 20
168.1729510451
 30
0.0
 11
209.3047720134
 21
168.1729510451
 31
0.0
  0
LINE
  5
340
330
1F
100
AcDbEntity
  8
0
  6
Continuous
 62
     7
370
    25
100
AcDbLine
 10
207.0547720134
 20
163.4229510451
 30
0.0
 11
209.3047720134
 21
165.6729510451
 31
0.0
  0
LINE
  5
341
330
1F
100
AcDbEntity
  8
0
  6
Continuous
 62
     7
370
    25
100
AcDbLine
 10
209.3047720134
 20
168.1729510451
 30
0.0
 11
209.3047720134
 21
165.6729510451
 31
0.0
  0
LINE
  5
342
330
1F
100
AcDbEntity
  8
0
  6
Continuous
 62
     7
370
    25
100
AcDbLine
 10
206.3047720134
 20
168.1729510451
 30
0.0
 11
206.3047720134
 21
163.4229510451
 31
0.0
  0
LINE
  5
343
330
1F
100
AcDbEntity
  8
0
  6
Continuous
 62
     7
370
    25
100
AcDbLine
 10
209.3047720134
 20
154.6729510451
 30
0.0
 11
209.3047720134
 21
165.6729510451
 31
0.0
  0
LINE
  5
344
330
1F
100
AcDbEntity
  8
0
  6
Continuous
 62
     7
370
    25
100
AcDbLine
 10
207.3047720134
 20
84.6729510451
 30
0.0
 11
207.3047720134
 21
109.9926442537
 31
0.0
  0
LINE
  5
345
330
1F
100
AcDbEntity
  8
0
  6
Continuous
 62
     7
370
    25
100
AcDbLine
 10
204.3047720134
 20
84.6729510451
 30
0.0
 11
204.3047720134
 21
109.9926442537
 31
0.0
  0
LINE
  5
346
330
1F
100
AcDbEntity
  8
0
  6
Continuous
 62
     7
370
    25
100
AcDbLine
 10
207.3047720134
 20
84.6729510451
 30
0.0
 11
207.3047720134
 21
84.1729510451
 31
0.0
  0
LINE
  5
347
330
1F
100
AcDbEntity
  8
0
  6
Continuous
 62
     7
370
    25
100
AcDbLine
 10
207.3047720134
 20
84.1729510451
 30
0.0
 11
204.3047720134
 21
84.1729510451
 31
0.0
  0
LINE
  5
348
330
1F
100
AcDbEntity
  8
0
  6
Continuous
 62
     7
370
    25
100
AcDbLine
 10
204.3047720134
 20
84.1729510451
 30
0.0
 11
204.3047720134
 21
84.6729510451
 31
0.0
  0
LINE
  5
349
330
1F
100
AcDbEntity
  8
0
  6
Continuous
 62
     7
370
    25
100
AcDbLine
 10
204.3047720134
 20
110.9926442537
 30
0.0
 11
207.3047720134
 21
110.9926442537
 31
0.0
  0
LINE
  5
34A
330
1F
100
AcDbEntity
  8
0
  6
Continuous
 62
     7
370
    25
100
AcDbLine
 10
207.3047720134
 20
110.9926442537
 30
0.0
 11
207.3047720134
 21
109.9926442537
 31
0.0
  0
LINE
  5
34B
330
1F
100
AcDbEntity
  8
0
  6
Continuous
 62
     7
370
    25
100
AcDbLine
 10
204.3047720134
 20
109.9926442537
 30
0.0
 11
204.3047720134
 21
110.9926442537
 31
0.0
  0
SPLINE
  5
34C
330
1F
100
AcDbEntity
  8
0
  6
Continuous
 62
     7
370
    25
100
AcDbSpline
210
0.0
220
0.0
230
1.0
 70
     8
 71
     3
 72
     9
 73
     5
 74
     0
 42
0.000000001
 43
0.00000001
 40
0.0
 40
0.0
 40
0.0
 40
0.0
 40
0.4332716724311779
 40
1.0
 40
1.0
 40
1.0
 40
1.0
 10
207.3530592602998
 20
111.207016800115
 30
0.0
 10
207.3352852517812
 20
111.1488899859757
 30
0.0
 10
207.2942624717347
 20
111.0147320942003
 30
0.0
 10
207.3009704258361
 20
111.0006340274925
 30
0.0
 10
207.3047720134453
 20
110.9926442537252
 30
0.0
  0
SPLINE
  5
34D
330
1F
100
AcDbEntity
  8
0
  6
Continuous
 62
     7
370
    25
100
AcDbSpline
210
0.0
220
0.0
230
1.0
 70
     8
 71
     3
 72
    12
 73
     8
 74
     0
 42
0.000000001
 43
0.00000001
 40
0.0
 40
0.0
 40
0.0
 40
0.0
 40
0.3441607228242793
 40
0.6147537035849343
 40
0.8241699596959025
 40
0.9140179647741039
 40
0.9999999999999999
 40
0.9999999999999999
 40
0.9999999999999999
 40
0.9999999999999999
 10
204.6427827414264
 20
112.4932520784539
 30
0.0
 10
204.5607846234635
 20
112.2935359226892
 30
0.0
 10
204.4143162923564
 20
111.9367949052525
 30
0.0
 10
204.328329395688
 20
111.4543253717115
 30
0.0
 10
204.3073665755342
 20
111.1649757031044
 30
0.0
 10
204.3048099720149
 20
111.0314965249761
 30
0.0
 10
204.3047844794672
 20
111.0054037773207
 30
0.0
 10
204.3047720134454
 20
110.9926442537252
 30
0.0
  0
LINE
  5
34E
330
1F
100
AcDbEntity
  8
0
  6
Continuous
 62
     7
370
    25
100
AcDbLine
 10
204.6427827414
 20
112.4932520785
 30
0.0
 11
207.3530592603
 21
111.2070168001
 31
0.0
  0
LINE
  5
34F
330
1F
100
AcDbEntity
  8
0
  6
Continuous
 62
     7
370
    25
100
AcDbLine
 10
207.4198492744
 20
111.3117594131
 30
0.0
 11
205.11031284
 21
113.2264503694
 31
0.0
  0
LINE
  5
350
330
1F
100
AcDbEntity
  8
0
  6
Continuous
 62
     7
370
    25
100
AcDbLine
 10
205.11031284
 20
113.2264503694
 30
0.0
 11
204.6427840391
 21
112.4932548128
 31
0.0
  0
LINE
  5
351
330
1F
100
AcDbEntity
  8
0
  6
Continuous
 62
     7
370
    25
100
AcDbLine
 10
207.4198492744
 20
111.3117594131
 30
0.0
 11
207.3530592603
 21
111.2070168001
 31
0.0
  0
LINE
  5
352
330
1F
100
AcDbEntity
  8
0
  6
Continuous
 62
     7
370
    25
100
AcDbLine
 10
205.11031284
 20
113.2264503694
 30
0.0
 11
208.4059309274
 21
117.20168722
 31
0.0
  0
LINE
  5
353
330
1F
100
AcDbEntity
  8
0
  6
Continuous
 62
     7
370
    25
100
AcDbLine
 10
208.4059309274
 20
117.20168722
 30
0.0
 11
210.7154673618
 21
115.2869962637
 31
0.0
  0
LINE
  5
354
330
1F
100
AcDbEntity
  8
0
  6
Continuous
 62
     7
370
    25
100
AcDbLine
 10
207.4198492744
 20
111.3117594131
 30
0.0
 11
210.7154673618
 21
115.2869962637
 31
0.0
  0
CIRCLE
  5
355
330
1F
100
AcDbEntity
  8
0
  6
Continuous
 62
     7
370
    25
100
AcDbCircle
 10
215.3047720134
 20
123.1729510451
 30
0.0
 40
8.80000000000004
  0
CIRCLE
  5
356
330
1F
100
AcDbEntity
  8
0
  6
Continuous
 62
     7
370
    25
100
AcDbCircle
 10
215.3047720134
 20
123.1729510451
 30
0.0
 40
9.0
  0
HATCH
  5
357
330
1F
100
AcDbEntity
  8
0
  6
Continuous
 62
     7
370
    18
100
AcDbHatch
 10
0.0
 20
0.0
 30
0.0
210
0.0
220
0.0
230
1.0
  2
ANSI31
 70
     0
 71
     0
 91
        1
 92
        0
 93
        5
 72
     1
 10
206.3047720134453
 20
168.1729510450932
 11
206.3047720134453
 21
163.4229510450932
 72
     1
 10
206.3047720134453
 20
163.4229510450932
 11
207.0547720134453
 21
163.4229510450932
 72
     1
 10
207.0547720134453
 20
163.4229510450932
 11
209.3047720134452
 21
165.6729510450932
 72
     1
 10
209.3047720134452
 20
165.6729510450932
 11
209.3047720134453
 21
168.1729510450932
 72
     1
 10
209.3047720134453
 20
168.1729510450932
 11
206.3047720134453
 21
168.1729510450932
 97
        0
 75
     0
 76
     1
 52
0.0
 41
1.0
 77
     0
 78
     1
 53
45.0
 43
0.0
 44
0.0
 45
-2.245064030267288
 46
2.245064030267288
 79
     0
 98
        1
 10
0.0
 20
0.0
  0
HATCH
  5
358
330
1F
100
AcDbEntity
  8
0
  6
Continuous
 62
     7
370
    18
100
AcDbHatch
 10
0.0
 20
0.0
 30
0.0
210
0.0
220
0.0
230
1.0
  2
ANSI31
 70
     0
 71
     0
 91
        1
 92
        0
 93
        5
 72
     4
 94
        3
 73
     1
 74
     0
 95
       10
 96
        6
 40
0.5290536053631127
 40
0.5290536053631127
 40
0.5290536053631127
 40
0.5290536053631127
 40
0.5602359700061239
 40
0.5829548775345388
 40
0.5881795678386625
 40
0.5881795678386625
 40
0.5881795678386625
 40
0.5881795678386625
 10
206.3047720104936
 20
149.6851286432075
 42
1.0
 10
206.8178231034644
 20
149.5284924680347
 42
1.0
 10
207.7824275130727
 20
149.3150935299481
 42
1.0
 10
208.7460294353941
 20
148.943659086882
 42
1.0
 10
209.2161801029841
 20
148.8809984666215
 42
1.0
 10
209.3047720000412
 20
148.8722057616335
 42
1.0
 72
     1
 10
209.3047720000412
 20
148.8722057616335
 11
209.3047720134454
 21
148.8722057603031
 72
     4
 94
        3
 73
     1
 74
     0
 95
       20
 96
       16
 40
0.0
 40
0.0
 40
0.0
 40
0.0
 40
0.002131967266308
 40
0.002131967266308
 40
0.002131967266308
 40
0.0043004872703271
 40
0.0043004872703271
 40
0.0043004872703271
 40
0.0059710808535571
 40
0.0059710808535571
 40
0.0059710808535571
 40
0.0076120720383791
 40
0.0076120720383791
 40
0.0076120720383791
 40
0.0108193208519385
 40
0.0108193208519385
 40
0.0108193208519385
 40
0.0108193208519385
 10
209.3047720134454
 20
148.8722057603031
 42
1.0
 10
208.8515436569521
 20
148.9171884644382
 42
1.0
 10
208.4477923558331
 20
149.0627169870803
 42
1.0
 10
208.0958581289247
 20
149.1783059372156
 42
1.0
 10
207.7393163903112
 20
149.2954081742097
 42
1.0
 10
207.4171373134802
 20
149.3813067847322
 42
1.0
 10
207.239721034191
 20
149.4284332506203
 42
1.0
 10
207.1036455043
 20
149.4645785178038
 42
1.0
 10
207.0622922045593
 20
149.4753290628831
 42
1.0
 10
207.1349400100187
 20
149.4561604245031
 42
1.0
 10
207.2067743582838
 20
149.4372064225694
 42
1.0
 10
207.3833587203693
 20
149.3915542606783
 42
1.0
 10
207.6065617612307
 20
149.3282780749847
 42
1.0
 10
208.0423443306205
 20
149.2047373800357
 42
1.0
 10
208.6248925584989
 20
148.9396834808191
 42
1.0
 10
209.3047720134454
 20
148.8722057603031
 42
1.0
 72
     1
 10
209.3047720134454
 20
148.8722057603031
 11
209.304772000041
 21
148.8722057616335
 72
     4
 94
        3
 73
     1
 74
     0
 95
       10
 96
        6
 40
0.4118204321613416
 40
0.4118204321613416
 40
0.4118204321613416
 40
0.4118204321613416
 40
0.4170451224654612
 40
0.4397640299938761
 40
0.4709463946368913
 40
0.4709463946368913
 40
0.4709463946368913
 40
0.4709463946368913
 10
209.304772000041
 20
148.8722057616335
 42
1.0
 10
209.216180102984
 20
148.8809984666215
 42
1.0
 10
208.746029435394
 20
148.943659086882
 42
1.0
 10
207.7824275130726
 20
149.3150935299481
 42
1.0
 10
206.8178231034643
 20
149.5284924680347
 42
1.0
 10
206.3047720104934
 20
149.6851286432075
 42
1.0
 97
        0
 75
     0
 76
     1
 52
0.0
 41
1.0
 77
     0
 78
     1
 53
45.0
 43
0.0
 44
0.0
 45
-2.245064030267288
 46
2.245064030267288
 79
     0
 98
        1
 10
0.0
 20
0.0
  0
HATCH
  5
359
330
1F
100
AcDbEntity
  8
0
  6
Continuous
 62
     7
370
    18
100
AcDbHatch
 10
0.0
 20
0.0
 30
0.0
210
0.0
220
0.0
230
1.0
  2
ANSI31
 70
     0
 71
     0
 91
        1
 92
        0
 93
        5
 72
     1
 10
209.3047720134453
 20
154.6729510450931
 11
207.0547720134453
 21
156.9229510450931
 72
     1
 10
207.0547720134453
 20
156.9229510450931
 11
206.3047720134453
 21
156.9229510450931
 72
     1
 10
206.3047720134453
 20
156.9229510450931
 11
206.3047720104934
 21
149.6851286432075
 72
     4
 94
        3
 73
     1
 74
     0
 95
       10
 96
        6
 40
0.5290536053631083
 40
0.5290536053631083
 40
0.5290536053631083
 40
0.5290536053631083
 40
0.5602359700061239
 40
0.5829548775345388
 40
0.5881795678386584
 40
0.5881795678386584
 40
0.5881795678386584
 40
0.5881795678386584
 10
206.3047720104934
 20
149.6851286432075
 42
1.0
 10
206.8178231034643
 20
149.5284924680347
 42
1.0
 10
207.7824275130726
 20
149.3150935299481
 42
1.0
 10
208.746029435394
 20
148.943659086882
 42
1.0
 10
209.216180102984
 20
148.8809984666215
 42
1.0
 10
209.304772000041
 20
148.8722057616335
 42
1.0
 72
     1
 10
209.304772000041
 20
148.8722057616335
 11
209.3047720134453
 21
154.6729510450931
 97
        0
 75
     0
 76
     1
 52
0.0
 41
1.0
 77
     0
 78
     1
 53
45.0
 43
0.0
 44
0.0
 45
-2.245064030267288
 46
2.245064030267288
 79
     0
 98
        1
 10
0.0
 20
0.0
  0
DIMENSION
  5
35A
330
1F
100
AcDbEntity
  8
FORMAT
100
AcDbDimension
  2
_D_13
 10
218.4605812529
 20
154.6729510451
 30
0.0
 11
218.4605812529
 21
160.1729510451
 31
0.0
 70
   160
  1
%%c<>
 71
     2
 42
-1.0
 73
     0
 74
     0
 75
     0
  3
SLDDIMSTYLE2
100
AcDbAlignedDimension
 13
209.3047720134
 23
165.6729510451
 33
0.0
 14
209.3047720134
 24
154.6729510451
 34
0.0
 50
90.0
100
AcDbRotatedDimension
  0
DIMENSION
  5
367
330
1F
100
AcDbEntity
  8
FORMAT
100
AcDbDimension
  2
_D_14
 10
209.3047720134
 20
165.6729510451
 30
0.0
 11
229.3071558746
 21
160.1729510451
 31
0.0
 70
   162
  1
<>
 71
     1
 42
-1.0
 73
     0
 74
     0
 75
     0
  3
SLDDIMSTYLE3
100
AcDb2LineAngularDimension
 13
209.3047720134
 23
154.6729510451
 33
0.0
 14
207.0547720134
 24
156.9229510451
 34
0.0
 15
207.0547720134
 25
163.4229510451
 35
0.0
 16
229.3071558746
 26
160.1729510451
 36
0.0
  0
DIMENSION
  5
372
330
1F
100
AcDbEntity
  8
FORMAT
100
AcDbDimension
  2
_D_15
 10
199.52310095
 20
156.9229510451
 30
0.0
 11
199.52310095
 21
150.7287349684
 31
0.0
 70
   160
  1
%%c<>
 71
     2
 42
-1.0
 73
     0
 74
     0
 75
     0
  3
SLDDIMSTYLE2
100
AcDbAlignedDimension
 13
206.3047720134
 23
163.4229510451
 33
0.0
 14
206.3047720134
 24
156.9229510451
 34
0.0
 50
90.0
100
AcDbRotatedDimension
  0
DIMENSION
  5
37F
330
1F
100
AcDbEntity
  8
FORMAT
100
AcDbDimension
  2
_D_16
 10
192.153735517
 20
123.1729510451
 30
0.0
 11
192.153735517
 21
145.6729510451
 31
0.0
 70
   160
  1
<>
 71
     2
 42
-1.0
 73
     0
 74
     0
 75
     0
  3
SLDDIMSTYLE0
100
AcDbAlignedDimension
 13
206.3047720134
 23
168.1729510451
 33
0.0
 14
203.8047720134
 24
123.1729510451
 34
0.0
 50
90.0
100
AcDbRotatedDimension
  0
INSERT
  5
395
330
1F
100
AcDbEntity
  8
FORMAT
100
AcDbBlockReference
  2
SW_CENTERMARKSYMBOL_5
 10
215.3047720134
 20
123.1729510451
 30
0.0
  0
LINE
  5
396
330
1F
100
AcDbEntity
  8
FORMAT
  6
CENTERX2
370
    18
100
AcDbLine
 10
204.3047720134
 20
160.1729510451
 30
0.0
 11
207.0547720134
 21
160.1729510451
 31
0.0
  0
LINE
  5
397
330
1F
100
AcDbEntity
  8
FORMAT
  6
CENTERX2
370
    18
100
AcDbLine
 10
211.3047720134
 20
160.1729510451
 30
0.0
 11
207.0547720134
 21
160.1729510451
 31
0.0
  0
LINE
  5
398
330
1F
100
AcDbEntity
  8
0
  6
Continuous
 62
     7
370
    25
100
AcDbLine
 10
248.4767078112
 20
156.1729510451
 30
0.0
 11
248.4767078112
 21
168.1729510451
 31
0.0
  0
LINE
  5
399
330
1F
100
AcDbEntity
  8
0
  6
Continuous
 62
     7
370
    25
100
AcDbLine
 10
248.4767078112
 20
168.1729510451
 30
0.0
 11
251.4767078112
 21
168.1729510451
 31
0.0
  0
LINE
  5
39A
330
1F
100
AcDbEntity
  8
0
  6
Continuous
 62
     7
370
    25
100
AcDbLine
 10
251.4767078112
 20
168.1729510451
 30
0.0
 11
251.4767078112
 21
156.1729510451
 31
0.0
  0
LINE
  5
39B
330
1F
100
AcDbEntity
  8
0
  6
Continuous
 62
     7
370
    25
100
AcDbLine
 10
251.3187911608
 20
129.9057114394
 30
0.0
 11
249.0408397651
 21
133.4155494249
 31
0.0
  0
LINE
  5
39C
330
1F
100
AcDbEntity
  8
0
  6
Continuous
 62
     7
370
    25
100
AcDbLine
 10
253.835249486
 20
131.538940602
 30
0.0
 11
251.5572980903
 21
135.0487785875
 31
0.0
  0
LINE
  5
39D
330
1F
100
AcDbEntity
  8
0
  6
Continuous
 62
     7
370
    25
100
AcDbLine
 10
251.3187911608
 20
129.9057114394
 30
0.0
 11
253.835249486
 21
131.538940602
 31
0.0
  0
ARC
  5
39E
330
1F
100
AcDbEntity
  8
0
  6
Continuous
 62
     7
370
    25
100
AcDbCircle
 10
251.9767078112
 20
135.320983448
 30
0.0
 40
3.500000000000039
100
AcDbArc
 50
180.0
 51
212.9843352476
  0
ARC
  5
39F
330
1F
100
AcDbEntity
  8
0
  6
Continuous
 62
     7
370
    25
100
AcDbCircle
 10
251.9767078112
 20
135.320983448
 30
0.0
 40
0.5000000000000001
100
AcDbArc
 50
180.0
 51
212.9843352476
  0
LINE
  5
3A0
330
1F
100
AcDbEntity
  8
0
  6
Continuous
 62
     7
370
    25
100
AcDbLine
 10
248.4767078112
 20
135.320983448
 30
0.0
 11
248.4767078112
 21
156.1729510451
 31
0.0
  0
LINE
  5
3A1
330
1F
100
AcDbEntity
  8
0
  6
Continuous
 62
     7
370
    25
100
AcDbLine
 10
251.4767078112
 20
135.320983448
 30
0.0
 11
251.4767078112
 21
156.1729510451
 31
0.0
  0
LINE
  5
3A2
330
1F
100
AcDbEntity
  8
0
  6
Continuous
 62
     7
370
    25
100
AcDbLine
 10
265.4767078112
 20
161.6729510451
 30
0.0
 11
265.4767078112
 21
162.1729510451
 31
0.0
  0
LINE
  5
3A3
330
1F
100
AcDbEntity
  8
0
  6
Continuous
 62
     7
370
    25
100
AcDbLine
 10
265.4767078112
 20
162.1729510451
 30
0.0
 11
268.4767078112
 21
162.1729510451
 31
0.0
  0
LINE
  5
3A4
330
1F
100
AcDbEntity
  8
0
  6
Continuous
 62
     7
370
    25
100
AcDbLine
 10
268.4767078112
 20
162.1729510451
 30
0.0
 11
268.4767078112
 21
161.6729510451
 31
0.0
  0
LINE
  5
3A5
330
1F
100
AcDbEntity
  8
0
  6
Continuous
 62
     7
370
    25
100
AcDbLine
 10
265.4767078112
 20
161.6729510451
 30
0.0
 11
265.4767078112
 21
136.3532578365
 31
0.0
  0
LINE
  5
3A6
330
1F
100
AcDbEntity
  8
0
  6
Continuous
 62
     7
370
    25
100
AcDbLine
 10
268.4767078112
 20
161.6729510451
 30
0.0
 11
268.4767078112
 21
136.3532578365
 31
0.0
  0
LINE
  5
3A7
330
1F
100
AcDbEntity
  8
0
  6
Continuous
 62
     7
370
    25
100
AcDbLine
 10
268.4767078112
 20
135.3532578365
 30
0.0
 11
265.4767078112
 21
135.3532578365
 31
0.0
  0
LINE
  5
3A8
330
1F
100
AcDbEntity
  8
0
  6
Continuous
 62
     7
370
    25
100
AcDbLine
 10
265.4767078112
 20
135.3532578365
 30
0.0
 11
265.4767078112
 21
136.3532578365
 31
0.0
  0
LINE
  5
3A9
330
1F
100
AcDbEntity
  8
0
  6
Continuous
 62
     7
370
    25
100
AcDbLine
 10
268.4767078112
 20
136.3532578365
 30
0.0
 11
268.4767078112
 21
135.3532578365
 31
0.0
  0
SPLINE
  5
3AA
330
1F
100
AcDbEntity
  8
0
  6
Continuous
 62
     7
370
    25
100
AcDbSpline
210
0.0
220
0.0
230
1.0
 70
     8
 71
     3
 72
     9
 73
     5
 74
     0
 42
0.000000001
 43
0.00000001
 40
0.0
 40
0.0
 40
0.0
 40
0.0
 40
0.4332716724311779
 40
1.0
 40
1.0
 40
1.0
 40
1.0
 10
265.4284205643064
 20
135.138885290071
 30
0.0
 10
265.446194572825
 20
135.1970121042103
 30
0.0
 10
265.4872173528715
 20
135.3311699959857
 30
0.0
 10
265.4805093987702
 20
135.3452680626935
 30
0.0
 10
265.4767078111608
 20
135.3532578364608
 30
0.0
  0
SPLINE
  5
3AB
330
1F
100
AcDbEntity
  8
0
  6
Continuous
 62
     7
370
    25
100
AcDbSpline
210
0.0
220
0.0
230
1.0
 70
     8
 71
     3
 72
    12
 73
     8
 74
     0
 42
0.000000001
 43
0.00000001
 40
0.0
 40
0.0
 40
0.0
 40
0.0
 40
0.3441607228242793
 40
0.6147537035849343
 40
0.8241699596959025
 40
0.9140179647741039
 40
0.9999999999999999
 40
0.9999999999999999
 40
0.9999999999999999
 40
0.9999999999999999
 10
268.1386970831798
 20
133.8526500117321
 30
0.0
 10
268.2206952011427
 20
134.0523661674968
 30
0.0
 10
268.3671635322498
 20
134.4091071849334
 30
0.0
 10
268.4531504289182
 20
134.8915767184745
 30
0.0
 10
268.474113249072
 20
135.1809263870815
 30
0.0
 10
268.4766698525913
 20
135.3144055652099
 30
0.0
 10
268.476695345139
 20
135.3404983128653
 30
0.0
 10
268.4767078111608
 20
135.3532578364607
 30
0.0
  0
LINE
  5
3AC
330
1F
100
AcDbEntity
  8
0
  6
Continuous
 62
     7
370
    25
100
AcDbLine
 10
268.1386970832
 20
133.8526500117
 30
0.0
 11
265.4284205643
 21
135.1388852901
 31
0.0
  0
LINE
  5
3AD
330
1F
100
AcDbEntity
  8
0
  6
Continuous
 62
     7
370
    25
100
AcDbLine
 10
265.3616305502
 20
135.0341426771
 30
0.0
 11
267.6711669847
 21
133.1194517208
 31
0.0
  0
LINE
  5
3AE
330
1F
100
AcDbEntity
  8
0
  6
Continuous
 62
     7
370
    25
100
AcDbLine
 10
267.6711669847
 20
133.1194517208
 30
0.0
 11
268.1386957855
 21
133.8526472774
 31
0.0
  0
LINE
  5
3AF
330
1F
100
AcDbEntity
  8
0
  6
Continuous
 62
     7
370
    25
100
AcDbLine
 10
265.3616305502
 20
135.0341426771
 30
0.0
 11
265.4284205643
 21
135.1388852901
 31
0.0
  0
LINE
  5
3B0
330
1F
100
AcDbEntity
  8
0
  6
Continuous
 62
     7
370
    25
100
AcDbLine
 10
267.6711669847
 20
133.1194517208
 30
0.0
 11
264.3755488972
 21
129.1442148702
 31
0.0
  0
LINE
  5
3B1
330
1F
100
AcDbEntity
  8
0
  6
Continuous
 62
     7
370
    25
100
AcDbLine
 10
264.3755488972
 20
129.1442148702
 30
0.0
 11
262.0660124628
 21
131.0589058265
 31
0.0
  0
LINE
  5
3B2
330
1F
100
AcDbEntity
  8
0
  6
Continuous
 62
     7
370
    25
100
AcDbLine
 10
265.3616305502
 20
135.0341426771
 30
0.0
 11
262.0660124628
 21
131.0589058265
 31
0.0
  0
CIRCLE
  5
3B3
330
1F
100
AcDbEntity
  8
0
  6
Continuous
 62
     7
370
    25
100
AcDbCircle
 10
257.4767078112
 20
123.1729510451
 30
0.0
 40
8.800000000000011
  0
CIRCLE
  5
3B4
330
1F
100
AcDbEntity
  8
0
  6
Continuous
 62
     7
370
    25
100
AcDbCircle
 10
257.4767078112
 20
123.1729510451
 30
0.0
 40
9.0
  0
DIMENSION
  5
3B5
330
1F
100
AcDbEntity
  8
FORMAT
100
AcDbDimension
  2
_D_17
 10
265.4767078112
 20
190.1729510451
 30
0.0
 11
258.4767078112
 21
190.1729510451
 31
0.0
 70
   160
  1
<>
 71
     2
 42
-1.0
 73
     0
 74
     0
 75
     0
  3
SLDDIMSTYLE0
100
AcDbAlignedDimension
 13
251.4767078112
 23
168.1729510451
 33
0.0
 14
265.4767078112
 24
162.1729510451
 34
0.0
 50
0.0
100
AcDbRotatedDimension
  0
DIMENSION
  5
3BF
330
1F
100
AcDbEntity
  8
FORMAT
100
AcDbDimension
  2
_D_18
 10
251.4767078112
 20
178.1729510451
 30
0.0
 11
242.8164064227
 21
178.1729510451
 31
0.0
 70
   160
  1
<>
 71
     2
 42
-1.0
 73
     0
 74
     0
 75
     0
  3
SLDDIMSTYLE2
100
AcDbAlignedDimension
 13
248.4767078112
 23
168.1729510451
 33
0.0
 14
251.4767078112
 24
168.1729510451
 34
0.0
 50
0.0
100
AcDbRotatedDimension
  0
DIMENSION
  5
3CB
330
1F
100
AcDbEntity
  8
FORMAT
100
AcDbDimension
  2
_D_19
 10
268.4767078112
 20
184.1729510451
 30
0.0
 11
273.8558458753
 21
184.1729510451
 31
0.0
 70
   160
  1
<>
 71
     2
 42
-1.0
 73
     0
 74
     0
 75
     0
  3
SLDDIMSTYLE2
100
AcDbAlignedDimension
 13
265.4767078112
 23
162.1729510451
 33
0.0
 14
268.4767078112
 24
162.1729510451
 34
0.0
 50
0.0
100
AcDbRotatedDimension
  0
DIMENSION
  5
3D7
330
1F
100
AcDbEntity
  8
FORMAT
100
AcDbDimension
  2
_D_20
 10
278.5210818504
 20
162.1729510451
 30
0.0
 11
278.5210818504
 21
142.6729510451
 31
0.0
 70
   160
  1
<>
 71
     2
 42
-1.0
 73
     0
 74
     0
 75
     0
  3
SLDDIMSTYLE0
100
AcDbAlignedDimension
 13
268.9767078112
 23
123.1729510451
 33
0.0
 14
268.4767078112
 24
162.1729510451
 34
0.0
 50
90.0
100
AcDbRotatedDimension
  0
INSERT
  5
3EC
330
1F
100
AcDbEntity
  8
FORMAT
100
AcDbBlockReference
  2
SW_CENTERMARKSYMBOL_6
 10
257.4767078112
 20
123.1729510451
 30
0.0
  0
ENDSEC
  0
SECTION
  2
OBJECTS
  0
DICTIONARY
  5
C
330
0
100
AcDbDictionary
281
     1
  3
ACAD_DETAILVIEWSTYLE
350
3F5
  3
ACAD_GROUP
350
D
  3
ACAD_LAYOUT
350
1A
  3
ACAD_MATERIAL
350
43
  3
ACAD_MLEADERSTYLE
350
6B
  3
ACAD_MLINESTYLE
350
17
  3
ACAD_PLOTSETTINGS
350
19
  3
ACAD_PLOTSTYLENAME
350
E
  3
ACAD_SCALELIST
350
47
  3
ACAD_SECTIONVIEWSTYLE
350
3F6
  3
ACAD_TABLESTYLE
350
69
  3
ACAD_VISUALSTYLE
350
2A
  3
ACDB_RECOMPOSE_DATA
350
3F2
  3
AcDbVariableDictionary
350
3ED
  0
SUN
  5
6D
330
29
100
AcDbSun
 90
        1
290
     0
 63
     7
421
 16777215
 40
1.0
291
     1
 91
  2455826
 92
 54000000
292
     0
 70
     2
 71
   256
280
     1
  0
DICTIONARY
  5
3F5
102
{ACAD_REACTORS
330
C
102
}
330
C
100
AcDbDictionary
281
     1
  0
DICTIONARY
  5
D
102
{ACAD_REACTORS
330
C
102
}
330
C
100
AcDbDictionary
281
     1
  0
DICTIONARY
  5
1A
102
{ACAD_REACTORS
330
C
102
}
330
C
100
AcDbDictionary
281
     1
  3
Layout1
350
1E
  3
Layout2
350
26
  3
Model
350
22
  0
DICTIONARY
  5
43
102
{ACAD_REACTORS
330
C
102
}
330
C
100
AcDbDictionary
281
     1
  3
ByBlock
350
45
  3
ByLayer
350
44
  3
Global
350
46
  0
DICTIONARY
  5
6B
102
{ACAD_REACTORS
330
C
102
}
330
C
100
AcDbDictionary
281
     1
  3
Standard
350
6C
  0
DICTIONARY
  5
17
102
{ACAD_REACTORS
330
C
102
}
330
C
100
AcDbDictionary
281
     1
  3
Standard
350
18
  0
DICTIONARY
  5
19
102
{ACAD_REACTORS
330
C
102
}
330
C
100
AcDbDictionary
281
     1
  0
ACDBDICTIONARYWDFLT
  5
E
102
{ACAD_REACTORS
330
C
102
}
330
C
100
AcDbDictionary
281
     1
  3
Normal
350
F
100
AcDbDictionaryWithDefault
340
F
  0
DICTIONARY
  5
47
102
{ACAD_REACTORS
330
C
102
}
330
C
100
AcDbDictionary
281
     1
  3
A0
350
48
  3
A1
350
49
  3
A2
350
4A
  3
A3
350
4B
  3
A4
350
4C
  3
A5
350
4D
  3
A6
350
4E
  3
A7
350
4F
  3
A8
350
50
  3
A9
350
51
  3
B0
350
52
  3
B1
350
53
  3
B2
350
54
  3
B3
350
55
  3
B4
350
56
  3
B5
350
57
  3
B6
350
58
  3
B7
350
59
  3
B8
350
5A
  3
B9
350
5B
  3
C0
350
5C
  3
C1
350
5D
  3
C2
350
5E
  3
C3
350
5F
  3
C4
350
60
  3
C5
350
61
  3
C6
350
62
  3
C7
350
63
  3
C8
350
64
  3
C9
350
65
  3
D0
350
66
  3
D1
350
67
  3
D2
350
68
  0
DICTIONARY
  5
3F6
102
{ACAD_REACTORS
330
C
102
}
330
C
100
AcDbDictionary
281
     1
  0
DICTIONARY
  5
69
102
{ACAD_REACTORS
330
C
102
}
330
C
100
AcDbDictionary
281
     1
  3
Standard
350
6A
  0
DICTIONARY
  5
2A
102
{ACAD_REACTORS
330
C
102
}
330
C
100
AcDbDictionary
281
     1
  3
2dWireframe
350
2F
  3
Basic
350
32
  3
Brighten
350
36
  3
ColorChange
350
3A
  3
Conceptual
350
34
  3
Dim
350
35
  3
EdgeColorOff
350
3D
  3
Facepattern
350
39
  3
Flat
350
2B
  3
FlatWithEdges
350
2C
  3
Gouraud
350
2D
  3
GouraudWithEdges
350
2E
  3
Hidden
350
31
  3
JitterOff
350
3B
  3
Linepattern
350
38
  3
OverhangOff
350
3C
  3
Realistic
350
33
  3
Shaded
350
42
  3
Shaded with edges
350
41
  3
Shades of Gray
350
3E
  3
Sketchy
350
3F
  3
Thicken
350
37
  3
Wireframe
350
30
  3
X-Ray
350
40
  0
XRECORD
  5
3F2
102
{ACAD_REACTORS
330
C
102
}
330
C
100
AcDbXrecord
280
     1
 90
        1
330
6A
  0
DICTIONARY
  5
3ED
102
{ACAD_REACTORS
330
C
102
}
330
C
100
AcDbDictionary
281
     1
  3
CANNOSCALE
350
3EE
  3
CMLEADERSTYLE
350
3F4
  3
CTABLESTYLE
350
3F3
  0
LAYOUT
  5
1E
102
{ACAD_REACTORS
330
1A
102
}
330
1A
100
AcDbPlotSettings
  1

  2
none_device
  4

  6

 40
0.0
 41
0.0
 42
0.0
 43
0.0
 44
0.0
 45
0.0
 46
0.0
 47
0.0
 48
0.0
 49
0.0
140
0.0
141
0.0
142
1.0
143
1.0
 70
   688
 72
     1
 73
     0
 74
     5
  7

 75
    16
 76
     0
 77
     2
 78
   300
147
1.0
148
0.0
149
0.0
100
AcDbLayout
  1
Layout1
 70
     1
 71
     1
 10
0.0
 20
0.0
 11
420.0
 21
297.0
 12
0.0
 22
0.0
 32
0.0
 14
1.0000000000E+20
 24
1.0000000000E+20
 34
1.0000000000E+20
 15
-1.0000000000E+20
 25
-1.0000000000E+20
 35
-1.0000000000E+20
146
0.0
 13
0.0
 23
0.0
 33
0.0
 16
1.0
 26
0.0
 36
0.0
 17
0.0
 27
1.0
 37
0.0
 76
     0
330
1B
  0
LAYOUT
  5
26
102
{ACAD_REACTORS
330
1A
102
}
330
1A
100
AcDbPlotSettings
  1

  2
none_device
  4

  6

 40
0.0
 41
0.0
 42
0.0
 43
0.0
 44
0.0
 45
0.0
 46
0.0
 47
0.0
 48
0.0
 49
0.0
140
0.0
141
0.0
142
1.0
143
1.0
 70
   688
 72
     1
 73
     0
 74
     5
  7

 75
    16
 76
     0
 77
     2
 78
   300
147
1.0
148
0.0
149
0.0
100
AcDbLayout
  1
Layout2
 70
     1
 71
     2
 10
0.0
 20
0.0
 11
0.0
 21
0.0
 12
0.0
 22
0.0
 32
0.0
 14
0.0
 24
0.0
 34
0.0
 15
0.0
 25
0.0
 35
0.0
146
0.0
 13
0.0
 23
0.0
 33
0.0
 16
1.0
 26
0.0
 36
0.0
 17
0.0
 27
1.0
 37
0.0
 76
     0
330
23
  0
LAYOUT
  5
22
102
{ACAD_REACTORS
330
1A
102
}
330
1A
100
AcDbPlotSettings
  1

  2
none_device
  4
Letter_(8.50_x_11.00_Inches)
  6

 40
6.35
 41
6.35
 42
6.35000508
 43
6.35000508
 44
215.9
 45
279.4
 46
0.0
 47
0.0
 48
0.0
 49
0.0
140
0.0
141
0.0
142
1.0
143
1.0
 70
  1712
 72
     1
 73
     0
 74
     0
  7

 75
     0
 76
     0
 77
     2
 78
   300
147
1.0
148
0.0
149
0.0
100
AcDbLayout
  1
Model
 70
     1
 71
     0
 10
0.0
 20
0.0
 11
297.0
 21
210.0
 12
0.0
 22
0.0
 32
0.0
 14
0.0
 24
0.0
 34
0.0
 15
297.0
 25
210.0
 35
0.0
146
0.0
 13
0.0
 23
0.0
 33
0.0
 16
1.0
 26
0.0
 36
0.0
 17
0.0
 27
1.0
 37
0.0
 76
     0
330
1F
331
29
  0
MATERIAL
  5
45
102
{ACAD_REACTORS
330
43
102
}
330
43
100
AcDbMaterial
  1
ByBlock
 72
     1
 94
      127
  0
MATERIAL
  5
44
102
{ACAD_REACTORS
330
43
102
}
330
43
100
AcDbMaterial
  1
ByLayer
 72
     1
 94
      127
  0
MATERIAL
  5
46
102
{ACAD_REACTORS
330
43
102
}
330
43
100
AcDbMaterial
  1
Global
 72
     1
 94
      127
  0
MLEADERSTYLE
  5
6C
102
{ACAD_REACTORS
330
6B
102
}
330
6B
100
AcDbMLeaderStyle
170
     2
171
     1
172
     0
 90
        2
 40
0.0
 41
0.0
173
     1
 91
-1056964608
340
14
 92
       -2
290
     1
 42
2.0
291
     1
 43
8.0
  3
Standard
341
0
 44
4.0
300

342
11
174
     1
178
     6
175
     1
176
     0
 93
-1056964608
 45
4.0
292
     0
297
     0
 46
4.0
343
0
 94
-1056964608
 47
1.0
 49
1.0
140
1.0
293
     1
141
0.0
294
     1
177
     0
142
1.0
295
     0
296
     0
143
3.75
1001
ACAD_MLEADERVER
1070
     2
  0
MLINESTYLE
  5
18
102
{ACAD_REACTORS
330
17
102
}
330
17
100
AcDbMlineStyle
  2
Standard
 70
     0
  3

 62
   256
 51
90.0
 52
90.0
 71
     2
 49
0.5
 62
   256
  6
BYLAYER
 49
-0.5
 62
   256
  6
BYLAYER
  0
ACDBPLACEHOLDER
  5
F
102
{ACAD_REACTORS
330
E
102
}
330
E
  0
SCALE
  5
48
102
{ACAD_REACTORS
330
47
102
}
330
47
100
AcDbScale
 70
     0
300
1:1
140
1.0
141
1.0
290
     1
  0
SCALE
  5
49
102
{ACAD_REACTORS
330
47
102
}
330
47
100
AcDbScale
 70
     0
300
1:2
140
1.0
141
2.0
290
     0
  0
SCALE
  5
4A
102
{ACAD_REACTORS
330
47
102
}
330
47
100
AcDbScale
 70
     0
300
1:4
140
1.0
141
4.0
290
     0
  0
SCALE
  5
4B
102
{ACAD_REACTORS
330
47
102
}
330
47
100
AcDbScale
 70
     0
300
1:5
140
1.0
141
5.0
290
     0
  0
SCALE
  5
4C
102
{ACAD_REACTORS
330
47
102
}
330
47
100
AcDbScale
 70
     0
300
1:8
140
1.0
141
8.0
290
     0
  0
SCALE
  5
4D
102
{ACAD_REACTORS
330
47
102
}
330
47
100
AcDbScale
 70
     0
300
1:10
140
1.0
141
10.0
290
     0
  0
SCALE
  5
4E
102
{ACAD_REACTORS
330
47
102
}
330
47
100
AcDbScale
 70
     0
300
1:16
140
1.0
141
16.0
290
     0
  0
SCALE
  5
4F
102
{ACAD_REACTORS
330
47
102
}
330
47
100
AcDbScale
 70
     0
300
1:20
140
1.0
141
20.0
290
     0
  0
SCALE
  5
50
102
{ACAD_REACTORS
330
47
102
}
330
47
100
AcDbScale
 70
     0
300
1:30
140
1.0
141
30.0
290
     0
  0
SCALE
  5
51
102
{ACAD_REACTORS
330
47
102
}
330
47
100
AcDbScale
 70
     0
300
1:40
140
1.0
141
40.0
290
     0
  0
SCALE
  5
52
102
{ACAD_REACTORS
330
47
102
}
330
47
100
AcDbScale
 70
     0
300
1:50
140
1.0
141
50.0
290
     0
  0
SCALE
  5
53
102
{ACAD_REACTORS
330
47
102
}
330
47
100
AcDbScale
 70
     0
300
1:100
140
1.0
141
100.0
290
     0
  0
SCALE
  5
54
102
{ACAD_REACTORS
330
47
102
}
330
47
100
AcDbScale
 70
     0
300
2:1
140
2.0
141
1.0
290
     0
  0
SCALE
  5
55
102
{ACAD_REACTORS
330
47
102
}
330
47
100
AcDbScale
 70
     0
300
4:1
140
4.0
141
1.0
290
     0
  0
SCALE
  5
56
102
{ACAD_REACTORS
330
47
102
}
330
47
100
AcDbScale
 70
     0
300
8:1
140
8.0
141
1.0
290
     0
  0
SCALE
  5
57
102
{ACAD_REACTORS
330
47
102
}
330
47
100
AcDbScale
 70
     0
300
10:1
140
10.0
141
1.0
290
     0
  0
SCALE
  5
58
102
{ACAD_REACTORS
330
47
102
}
330
47
100
AcDbScale
 70
     0
300
100:1
140
100.0
141
1.0
290
     0
  0
SCALE
  5
59
102
{ACAD_REACTORS
330
47
102
}
330
47
100
AcDbScale
 70
     0
300
1/128" = 1'-0"
140
0.0078125
141
12.0
290
     0
  0
SCALE
  5
5A
102
{ACAD_REACTORS
330
47
102
}
330
47
100
AcDbScale
 70
     0
300
1/64" = 1'-0"
140
0.015625
141
12.0
290
     0
  0
SCALE
  5
5B
102
{ACAD_REACTORS
330
47
102
}
330
47
100
AcDbScale
 70
     0
300
1/32" = 1'-0"
140
0.03125
141
12.0
290
     0
  0
SCALE
  5
5C
102
{ACAD_REACTORS
330
47
102
}
330
47
100
AcDbScale
 70
     0
300
1/16" = 1'-0"
140
0.0625
141
12.0
290
     0
  0
SCALE
  5
5D
102
{ACAD_REACTORS
330
47
102
}
330
47
100
AcDbScale
 70
     0
300
3/32" = 1'-0"
140
0.09375
141
12.0
290
     0
  0
SCALE
  5
5E
102
{ACAD_REACTORS
330
47
102
}
330
47
100
AcDbScale
 70
     0
300
1/8" = 1'-0"
140
0.125
141
12.0
290
     0
  0
SCALE
  5
5F
102
{ACAD_REACTORS
330
47
102
}
330
47
100
AcDbScale
 70
     0
300
3/16" = 1'-0"
140
0.1875
141
12.0
290
     0
  0
SCALE
  5
60
102
{ACAD_REACTORS
330
47
102
}
330
47
100
AcDbScale
 70
     0
300
1/4" = 1'-0"
140
0.25
141
12.0
290
     0
  0
SCALE
  5
61
102
{ACAD_REACTORS
330
47
102
}
330
47
100
AcDbScale
 70
     0
300
3/8" = 1'-0"
140
0.375
141
12.0
290
     0
  0
SCALE
  5
62
102
{ACAD_REACTORS
330
47
102
}
330
47
100
AcDbScale
 70
     0
300
1/2" = 1'-0"
140
0.5
141
12.0
290
     0
  0
SCALE
  5
63
102
{ACAD_REACTORS
330
47
102
}
330
47
100
AcDbScale
 70
     0
300
3/4" = 1'-0"
140
0.75
141
12.0
290
     0
  0
SCALE
  5
64
102
{ACAD_REACTORS
330
47
102
}
330
47
100
AcDbScale
 70
     0
300
1" = 1'-0"
140
1.0
141
12.0
290
     0
  0
SCALE
  5
65
102
{ACAD_REACTORS
330
47
102
}
330
47
100
AcDbScale
 70
     0
300
1-1/2" = 1'-0"
140
1.5
141
12.0
290
     0
  0
SCALE
  5
66
102
{ACAD_REACTORS
330
47
102
}
330
47
100
AcDbScale
 70
     0
300
3" = 1'-0"
140
3.0
141
12.0
290
     0
  0
SCALE
  5
67
102
{ACAD_REACTORS
330
47
102
}
330
47
100
AcDbScale
 70
     0
300
6" = 1'-0"
140
6.0
141
12.0
290
     0
  0
SCALE
  5
68
102
{ACAD_REACTORS
330
47
102
}
330
47
100
AcDbScale
 70
     0
300
1'-0" = 1'-0"
140
12.0
141
12.0
290
     0
  0
TABLESTYLE
  5
6A
102
{ACAD_REACTORS
330
69
102
}
102
{ACAD_XDICTIONARY
360
3EF
102
}
330
69
100
AcDbTableStyle
  3
Standard
 70
     0
 71
     0
 40
0.06
 41
0.06
280
     0
281
     0
  7
Standard
140
4.5
170
     2
 62
     0
 63
   257
283
     0
 90
        4
 91
        0
  1

274
    -2
284
     1
 64
     0
275
    -2
285
     1
 65
     0
276
    -2
286
     1
 66
     0
277
    -2
287
     1
 67
     0
278
    -2
288
     1
 68
     0
279
    -2
289
     1
 69
     0
  7
Standard
140
6.0
170
     5
 62
     0
 63
   257
283
     0
 90
        4
 91
        0
  1

274
    -2
284
     1
 64
     0
275
    -2
285
     1
 65
     0
276
    -2
286
     1
 66
     0
277
    -2
287
     1
 67
     0
278
    -2
288
     1
 68
     0
279
    -2
289
     1
 69
     0
  7
Standard
140
4.5
170
     5
 62
     0
 63
   257
283
     0
 90
        4
 91
        0
  1

274
    -2
284
     1
 64
     0
275
    -2
285
     1
 65
     0
276
    -2
286
     1
 66
     0
277
    -2
287
     1
 67
     0
278
    -2
288
     1
 68
     0
279
    -2
289
     1
 69
     0
  0
VISUALSTYLE
  5
2F
102
{ACAD_REACTORS
330
2A
102
}
330
2A
100
AcDbVisualStyle
  2
2dWireframe
 70
     4
 71
     0
 72
     2
 73
     0
 90
        0
 40
0.6
 41
30.0
 62
     5
 63
     7
421
 16777215
 74
     1
 91
        4
 64
     7
 65
   257
 75
     1
175
     1
 42
1.0
 92
        0
 66
   257
 43
1.0
 76
     1
 77
     6
 78
     2
 67
     7
 79
     5
170
     0
171
     0
290
     0
174
     0
 93
        1
 44
0.0
173
     0
291
     0
 45
0.0
  0
VISUALSTYLE
  5
32
102
{ACAD_REACTORS
330
2A
102
}
330
2A
100
AcDbVisualStyle
  2
Basic
 70
     7
 71
     1
 72
     0
 73
     1
 90
        0
 40
0.6
 41
30.0
 62
     5
 63
     7
421
 16777215
 74
     0
 91
        4
 64
     7
 65
   257
 75
     1
175
     1
 42
1.0
 92
        8
 66
     7
 43
1.0
 76
     1
 77
     6
 78
     2
 67
     7
 79
     5
170
     0
171
     0
290
     0
174
     0
 93
        1
 44
0.0
173
     0
291
     1
 45
0.0
  0
VISUALSTYLE
  5
36
102
{ACAD_REACTORS
330
2A
102
}
330
2A
100
AcDbVisualStyle
  2
Brighten
 70
    12
 71
     2
 72
     2
 73
     0
 90
        0
 40
0.6
 41
30.0
 62
     5
 63
     7
421
 16777215
 74
     1
 91
        4
 64
     7
 65
   257
 75
     1
175
     1
 42
1.0
 92
        8
 66
     7
 43
1.0
 76
     1
 77
     6
 78
     2
 67
     7
 79
     5
170
     0
171
     0
290
     0
174
     0
 93
        1
 44
50.0
173
     0
291
     1
 45
0.0
  0
VISUALSTYLE
  5
3A
102
{ACAD_REACTORS
330
2A
102
}
330
2A
100
AcDbVisualStyle
  2
ColorChange
 70
    16
 71
     2
 72
     2
 73
     3
 90
        0
 40
0.6
 41
30.0
 62
     5
 63
     8
421
  8421504
 74
     1
 91
        4
 64
     7
 65
   257
 75
     1
175
     1
 42
1.0
 92
        8
 66
     8
424
  8421504
 43
1.0
 76
     1
 77
     6
 78
     2
 67
     7
 79
     5
170
     0
171
     0
290
     0
174
     0
 93
        1
 44
0.0
173
     0
291
     1
 45
0.0
  0
VISUALSTYLE
  5
34
102
{ACAD_REACTORS
330
2A
102
}
330
2A
100
AcDbVisualStyle
  2
Conceptual
 70
     9
 71
     3
 72
     2
 73
     0
 90
        0
 40
0.6
 41
30.0
 62
     5
 63
     7
421
 16777215
 74
     2
 91
        2
 64
     7
 65
   257
 75
     1
175
     1
 42
179.0
 92
        8
 66
     7
 43
1.0
 76
     1
 77
     6
 78
     2
 67
     7
 79
     3
170
     0
171
     0
290
     0
174
     0
 93
        1
 44
0.0
173
     0
291
     0
 45
0.0
  0
VISUALSTYLE
  5
35
102
{ACAD_REACTORS
330
2A
102
}
330
2A
100
AcDbVisualStyle
  2
Dim
 70
    11
 71
     2
 72
     2
 73
     0
 90
        0
 40
0.6
 41
30.0
 62
     5
 63
     7
421
 16777215
 74
     1
 91
        4
 64
     7
 65
   257
 75
     1
175
     1
 42
1.0
 92
        8
 66
     7
 43
1.0
 76
     1
 77
     6
 78
     2
 67
     7
 79
     5
170
     0
171
     0
290
     0
174
     0
 93
        1
 44
-50.0
173
     0
291
     1
 45
0.0
  0
VISUALSTYLE
  5
3D
102
{ACAD_REACTORS
330
2A
102
}
330
2A
100
AcDbVisualStyle
  2
EdgeColorOff
 70
    22
 71
     2
 72
     2
 73
     0
 90
        0
 40
0.6
 41
30.0
 62
     5
 63
     7
421
 16777215
 74
     1
 91
        4
 64
     7
 65
   257
 75
     1
175
     1
 42
1.0
 92
        8
 66
     7
 43
1.0
 76
     1
 77
     6
 78
     2
 67
     7
 79
     5
170
     0
171
     0
290
     0
174
     0
 93
        1
 44
0.0
173
     0
291
     1
 45
0.0
  0
VISUALSTYLE
  5
39
102
{ACAD_REACTORS
330
2A
102
}
330
2A
100
AcDbVisualStyle
  2
Facepattern
 70
    15
 71
     2
 72
     2
 73
     0
 90
        0
 40
0.6
 41
30.0
 62
     5
 63
     7
421
 16777215
 74
     1
 91
        4
 64
     7
 65
   257
 75
     1
175
     1
 42
1.0
 92
        8
 66
     7
 43
1.0
 76
     1
 77
     6
 78
     2
 67
     7
 79
     5
170
     0
171
     0
290
     0
174
     0
 93
        1
 44
0.0
173
     0
291
     1
 45
0.0
  0
VISUALSTYLE
  5
2B
102
{ACAD_REACTORS
330
2A
102
}
330
2A
100
AcDbVisualStyle
  2
Flat
 70
     0
 71
     2
 72
     1
 73
     1
 90
        2
 40
0.6
 41
30.0
 62
     5
 63
     7
421
 16777215
 74
     0
 91
        0
 64
     7
 65
   257
 75
     1
175
     1
 42
1.0
 92
        8
 66
     7
 43
1.0
 76
     1
 77
     6
 78
     2
 67
     7
 79
     5
170
     0
171
     0
290
     0
174
     0
 93
       13
 44
0.0
173
     0
291
     1
 45
0.0
  0
VISUALSTYLE
  5
2C
102
{ACAD_REACTORS
330
2A
102
}
330
2A
100
AcDbVisualStyle
  2
FlatWithEdges
 70
     1
 71
     2
 72
     1
 73
     1
 90
        2
 40
0.6
 41
30.0
 62
     5
 63
     7
421
 16777215
 74
     1
 91
        0
 64
     7
 65
   257
 75
     1
175
     1
 42
1.0
 92
        0
 66
   257
 43
1.0
 76
     1
 77
     6
 78
     2
 67
     7
 79
     5
170
     0
171
     0
290
     0
174
     0
 93
       13
 44
0.0
173
     0
291
     1
 45
0.0
  0
VISUALSTYLE
  5
2D
102
{ACAD_REACTORS
330
2A
102
}
330
2A
100
AcDbVisualStyle
  2
Gouraud
 70
     2
 71
     2
 72
     2
 73
     1
 90
        2
 40
0.6
 41
30.0
 62
     5
 63
     7
421
 16777215
 74
     0
 91
        0
 64
     7
 65
   257
 75
     1
175
     1
 42
1.0
 92
        0
 66
     7
 43
1.0
 76
     1
 77
     6
 78
     2
 67
     7
 79
     5
170
     0
171
     0
290
     0
174
     0
 93
       13
 44
0.0
173
     0
291
     1
 45
0.0
  0
VISUALSTYLE
  5
2E
102
{ACAD_REACTORS
330
2A
102
}
330
2A
100
AcDbVisualStyle
  2
GouraudWithEdges
 70
     3
 71
     2
 72
     2
 73
     1
 90
        2
 40
0.6
 41
30.0
 62
     5
 63
     7
421
 16777215
 74
     1
 91
        0
 64
     7
 65
   257
 75
     1
175
     1
 42
1.0
 92
        0
 66
   257
 43
1.0
 76
     1
 77
     6
 78
     2
 67
     7
 79
     5
170
     0
171
     0
290
     0
174
     0
 93
       13
 44
0.0
173
     0
291
     1
 45
0.0
  0
VISUALSTYLE
  5
31
102
{ACAD_REACTORS
330
2A
102
}
330
2A
100
AcDbVisualStyle
  2
Hidden
 70
     6
 71
     1
 72
     2
 73
     2
 90
        0
 40
0.6
 41
30.0
 62
     5
 63
     7
421
 16777215
 74
     2
 91
        2
 64
     7
 65
   257
 75
     2
175
     1
 42
40.0
 92
        0
 66
   257
 43
1.0
 76
     1
 77
     6
 78
     2
 67
     7
 79
     3
170
     0
171
     0
290
     0
174
     0
 93
        1
 44
0.0
173
     0
291
     0
 45
0.0
  0
VISUALSTYLE
  5
3B
102
{ACAD_REACTORS
330
2A
102
}
330
2A
100
AcDbVisualStyle
  2
JitterOff
 70
    20
 71
     2
 72
     2
 73
     0
 90
        0
 40
0.6
 41
30.0
 62
     5
 63
     7
421
 16777215
 74
     1
 91
        4
 64
     7
 65
   257
 75
     1
175
     1
 42
1.0
 92
       10
 66
     7
 43
1.0
 76
     1
 77
     6
 78
     2
 67
     7
 79
     5
170
     0
171
     0
290
     0
174
     0
 93
        1
 44
0.0
173
     0
291
     1
 45
0.0
  0
VISUALSTYLE
  5
38
102
{ACAD_REACTORS
330
2A
102
}
330
2A
100
AcDbVisualStyle
  2
Linepattern
 70
    14
 71
     2
 72
     2
 73
     0
 90
        0
 40
0.6
 41
30.0
 62
     5
 63
     7
421
 16777215
 74
     1
 91
        4
 64
     7
 65
   257
 75
     7
175
     7
 42
1.0
 92
        8
 66
     7
 43
1.0
 76
     1
 77
     6
 78
     2
 67
     7
 79
     5
170
     0
171
     0
290
     0
174
     0
 93
        1
 44
0.0
173
     0
291
     1
 45
0.0
  0
VISUALSTYLE
  5
3C
102
{ACAD_REACTORS
330
2A
102
}
330
2A
100
AcDbVisualStyle
  2
OverhangOff
 70
    21
 71
     2
 72
     2
 73
     0
 90
        0
 40
0.6
 41
30.0
 62
     5
 63
     7
421
 16777215
 74
     1
 91
        4
 64
     7
 65
   257
 75
     1
175
     1
 42
1.0
 92
        9
 66
     7
 43
1.0
 76
     1
 77
     6
 78
     2
 67
     7
 79
     5
170
     0
171
     0
290
     0
174
     0
 93
        1
 44
0.0
173
     0
291
     1
 45
0.0
  0
VISUALSTYLE
  5
33
102
{ACAD_REACTORS
330
2A
102
}
330
2A
100
AcDbVisualStyle
  2
Realistic
 70
     8
 71
     2
 72
     3
 73
     0
 90
        2
 40
0.6
 41
30.0
 62
     5
 63
     7
421
 16777215
 74
     0
 91
        0
 64
     7
 65
   257
 75
     1
175
     1
 42
1.0
 92
        8
 66
   257
 43
1.0
 76
     1
 77
     6
 78
     2
 67
     7
 79
     3
170
     0
171
     0
290
     0
174
     0
 93
       13
 44
0.0
173
     0
291
     0
 45
0.0
  0
VISUALSTYLE
  5
42
102
{ACAD_REACTORS
330
2A
102
}
330
2A
100
AcDbVisualStyle
  2
Shaded
 70
    27
 71
     2
 72
     2
 73
     1
 90
        2
 40
0.6
 41
30.0
 62
     5
 63
     7
421
 16777215
 74
     0
 91
        4
 64
     7
 65
   257
 75
     1
175
     1
 42
1.0
 92
        8
 66
   257
 43
1.0
 76
     1
 77
     6
 78
     2
 67
     8
425
  7895160
 79
     3
170
     0
171
     0
290
     0
174
     0
 93
        5
 44
0.0
173
     0
291
     0
 45
0.0
  0
VISUALSTYLE
  5
41
102
{ACAD_REACTORS
330
2A
102
}
330
2A
100
AcDbVisualStyle
  2
Shaded with edges
 70
    26
 71
     2
 72
     2
 73
     1
 90
        2
 40
0.6
 41
30.0
 62
     5
 63
     7
421
 16777215
 74
     1
 91
       10
 64
     7
 65
   257
 75
     2
175
     1
 42
1.0
 92
        8
 66
   257
 43
1.0
 76
     1
 77
     6
 78
     2
 67
     7
 79
     3
170
     0
171
     0
290
     0
174
     0
 93
        5
 44
0.0
173
     0
291
     0
 45
0.0
  0
VISUALSTYLE
  5
3E
102
{ACAD_REACTORS
330
2A
102
}
330
2A
100
AcDbVisualStyle
  2
Shades of Gray
 70
    23
 71
     2
 72
     2
 73
     3
 90
        0
 40
0.6
 41
30.0
 62
     5
 63
     7
421
 16777215
 74
     2
 91
        2
 64
     7
 65
     7
 75
     1
175
     1
 42
40.0
 92
        8
 66
     7
 43
1.0
 76
     1
 77
     6
 78
     2
 67
     7
 79
     3
170
     0
171
     0
290
     0
174
     0
 93
        1
 44
0.0
173
     0
291
     0
 45
0.0
  0
VISUALSTYLE
  5
3F
102
{ACAD_REACTORS
330
2A
102
}
330
2A
100
AcDbVisualStyle
  2
Sketchy
 70
    24
 71
     1
 72
     2
 73
     2
 90
        0
 40
0.6
 41
30.0
 62
     5
 63
     7
421
 16777215
 74
     2
 91
        2
 64
     7
 65
     7
 75
     1
175
     1
 42
40.0
 92
       11
 66
     7
 43
1.0
 76
     1
 77
     6
 78
     2
 67
     7
 79
     6
170
     0
171
     0
290
     0
174
     0
 93
        1
 44
0.0
173
     0
291
     0
 45
0.0
  0
VISUALSTYLE
  5
37
102
{ACAD_REACTORS
330
2A
102
}
330
2A
100
AcDbVisualStyle
  2
Thicken
 70
    13
 71
     2
 72
     2
 73
     0
 90
        0
 40
0.6
 41
30.0
 62
     5
 63
     7
421
 16777215
 74
     1
 91
        4
 64
     7
 65
   257
 75
     1
175
     1
 42
1.0
 92
       12
 66
     7
 43
1.0
 76
     1
 77
     6
 78
     2
 67
     7
 79
     5
170
     0
171
     0
290
     0
174
     0
 93
        1
 44
0.0
173
     0
291
     1
 45
0.0
  0
VISUALSTYLE
  5
30
102
{ACAD_REACTORS
330
2A
102
}
330
2A
100
AcDbVisualStyle
  2
Wireframe
 70
     5
 71
     0
 72
     2
 73
     0
 90
        0
 40
0.6
 41
30.0
 62
     5
 63
     7
421
 16777215
 74
     1
 91
        4
 64
     7
 65
   257
 75
     1
175
     1
 42
1.0
 92
        0
 66
   257
 43
1.0
 76
     1
 77
     6
 78
     2
 67
     7
 79
     3
170
     0
171
     0
290
     0
174
     0
 93
        1
 44
0.0
173
     0
291
     0
 45
0.0
  0
VISUALSTYLE
  5
40
102
{ACAD_REACTORS
330
2A
102
}
330
2A
100
AcDbVisualStyle
  2
X-Ray
 70
    25
 71
     2
 72
     2
 73
     1
 90
        1
 40
0.5
 41
30.0
 62
     5
 63
     7
421
 16777215
 74
     1
 91
        0
 64
     7
 65
   257
 75
     1
175
     1
 42
1.0
 92
        8
 66
     7
 43
1.0
 76
     1
 77
     6
 78
     2
 67
     7
 79
     3
170
     0
171
     0
290
     0
174
     0
 93
       13
 44
0.0
173
     0
291
     0
 45
0.0
  0
DICTIONARYVAR
  5
3EE
102
{ACAD_REACTORS
330
3ED
102
}
330
3ED
100
DictionaryVariables
280
     0
  1
1:1
  0
DICTIONARYVAR
  5
3F4
102
{ACAD_REACTORS
330
3ED
102
}
330
3ED
100
DictionaryVariables
280
     0
  1
Standard
  0
DICTIONARYVAR
  5
3F3
102
{ACAD_REACTORS
330
3ED
102
}
330
3ED
100
DictionaryVariables
280
     0
  1
Standard
  0
DICTIONARY
  5
3EF
330
6A
100
AcDbDictionary
280
     1
281
     1
  3
ACAD_ROUNDTRIP_2008_TABLESTYLE_CELLSTYLEMAP
360
3F0
  0
CELLSTYLEMAP
  5
3F0
102
{ACAD_REACTORS
330
3EF
102
}
330
3EF
100
AcDbCellStyleMap
 90
        3
300
CELLSTYLE
  1
TABLEFORMAT_BEGIN
 90
        5
170
     1
 91
        0
 92
    32768
 62
   257
 93
        1
300
CONTENTFORMAT
  1
CONTENTFORMAT_BEGIN
 90
        0
 91
        0
 92
        4
 93
        0
300

 40
0.0
140
1.0
 94
        5
 62
     0
340
11
144
6.0
309
CONTENTFORMAT_END
171
     1
301
MARGIN
  1
CELLMARGIN_BEGIN
 40
1.5
 40
1.5
 40
1.5
 40
1.5
 40
1.5
 40
1.5
309
CELLMARGIN_END
 94
        6
 95
        1
302
GRIDFORMAT
  1
GRIDFORMAT_BEGIN
 90
        0
 91
        1
 62
     0
 92
       -2
340
14
 93
        0
 40
0.045
309
GRIDFORMAT_END
 95
        2
302
GRIDFORMAT
  1
GRIDFORMAT_BEGIN
 90
        0
 91
        1
 62
     0
 92
       -2
340
14
 93
        0
 40
0.045
309
GRIDFORMAT_END
 95
        4
302
GRIDFORMAT
  1
GRIDFORMAT_BEGIN
 90
        0
 91
        1
 62
     0
 92
       -2
340
14
 93
        0
 40
0.045
309
GRIDFORMAT_END
 95
        8
302
GRIDFORMAT
  1
GRIDFORMAT_BEGIN
 90
        0
 91
        1
 62
     0
 92
       -2
340
14
 93
        0
 40
0.045
309
GRIDFORMAT_END
 95
       16
302
GRIDFORMAT
  1
GRIDFORMAT_BEGIN
 90
        0
 91
        1
 62
     0
 92
       -2
340
14
 93
        0
 40
0.045
309
GRIDFORMAT_END
 95
       32
302
GRIDFORMAT
  1
GRIDFORMAT_BEGIN
 90
        0
 91
        1
 62
     0
 92
       -2
340
14
 93
        0
 40
0.045
309
GRIDFORMAT_END
309
TABLEFORMAT_END
  1
CELLSTYLE_BEGIN
 90
        1
 91
        1
300
_TITLE
309
CELLSTYLE_END
300
CELLSTYLE
  1
TABLEFORMAT_BEGIN
 90
        5
170
     1
 91
        0
 92
        0
 62
   257
 93
        1
300
CONTENTFORMAT
  1
CONTENTFORMAT_BEGIN
 90
        0
 91
        0
 92
        4
 93
        0
300

 40
0.0
140
1.0
 94
        5
 62
     0
340
11
144
4.5
309
CONTENTFORMAT_END
171
     1
301
MARGIN
  1
CELLMARGIN_BEGIN
 40
1.5
 40
1.5
 40
1.5
 40
1.5
 40
1.5
 40
1.5
309
CELLMARGIN_END
 94
        6
 95
        1
302
GRIDFORMAT
  1
GRIDFORMAT_BEGIN
 90
        0
 91
        1
 62
     0
 92
       -2
340
14
 93
        0
 40
0.045
309
GRIDFORMAT_END
 95
        2
302
GRIDFORMAT
  1
GRIDFORMAT_BEGIN
 90
        0
 91
        1
 62
     0
 92
       -2
340
14
 93
        0
 40
0.045
309
GRIDFORMAT_END
 95
        4
302
GRIDFORMAT
  1
GRIDFORMAT_BEGIN
 90
        0
 91
        1
 62
     0
 92
       -2
340
14
 93
        0
 40
0.045
309
GRIDFORMAT_END
 95
        8
302
GRIDFORMAT
  1
GRIDFORMAT_BEGIN
 90
        0
 91
        1
 62
     0
 92
       -2
340
14
 93
        0
 40
0.045
309
GRIDFORMAT_END
 95
       16
302
GRIDFORMAT
  1
GRIDFORMAT_BEGIN
 90
        0
 91
        1
 62
     0
 92
       -2
340
14
 93
        0
 40
0.045
309
GRIDFORMAT_END
 95
       32
302
GRIDFORMAT
  1
GRIDFORMAT_BEGIN
 90
        0
 91
        1
 62
     0
 92
       -2
340
14
 93
        0
 40
0.045
309
GRIDFORMAT_END
309
TABLEFORMAT_END
  1
CELLSTYLE_BEGIN
 90
        2
 91
        1
300
_HEADER
309
CELLSTYLE_END
300
CELLSTYLE
  1
TABLEFORMAT_BEGIN
 90
        5
170
     1
 91
        0
 92
        0
 62
   257
 93
        1
300
CONTENTFORMAT
  1
CONTENTFORMAT_BEGIN
 90
        0
 91
        0
 92
        4
 93
        0
300

 40
0.0
140
1.0
 94
        2
 62
     0
340
11
144
4.5
309
CONTENTFORMAT_END
171
     1
301
MARGIN
  1
CELLMARGIN_BEGIN
 40
1.5
 40
1.5
 40
1.5
 40
1.5
 40
1.5
 40
1.5
309
CELLMARGIN_END
 94
        6
 95
        1
302
GRIDFORMAT
  1
GRIDFORMAT_BEGIN
 90
        0
 91
        1
 62
     0
 92
       -2
340
14
 93
        0
 40
0.045
309
GRIDFORMAT_END
 95
        2
302
GRIDFORMAT
  1
GRIDFORMAT_BEGIN
 90
        0
 91
        1
 62
     0
 92
       -2
340
14
 93
        0
 40
0.045
309
GRIDFORMAT_END
 95
        4
302
GRIDFORMAT
  1
GRIDFORMAT_BEGIN
 90
        0
 91
        1
 62
     0
 92
       -2
340
14
 93
        0
 40
0.045
309
GRIDFORMAT_END
 95
        8
302
GRIDFORMAT
  1
GRIDFORMAT_BEGIN
 90
        0
 91
        1
 62
     0
 92
       -2
340
14
 93
        0
 40
0.045
309
GRIDFORMAT_END
 95
       16
302
GRIDFORMAT
  1
GRIDFORMAT_BEGIN
 90
        0
 91
        1
 62
     0
 92
       -2
340
14
 93
        0
 40
0.045
309
GRIDFORMAT_END
 95
       32
302
GRIDFORMAT
  1
GRIDFORMAT_BEGIN
 90
        0
 91
        1
 62
     0
 92
       -2
340
14
 93
        0
 40
0.045
309
GRIDFORMAT_END
309
TABLEFORMAT_END
  1
CELLSTYLE_BEGIN
 90
        3
 91
        2
300
_DATA
309
CELLSTYLE_END
  0
ENDSEC
  0
EOF
