  0
SECTION
  2
HEADER
  9
$ACADVER
  1
AC1015
  9
$ACADMAINTVER
 70
     6
  9
$DWGCODEPAGE
  3
ANSI_1252
  9
$INSBASE
 10
0.0
 20
0.0
 30
0.0
  9
$EXTMIN
 10
0.0
 20
0.0
 30
0.0
  9
$EXTMAX
 10
297.0
 20
210.0
 30
0.0
  9
$LIMMIN
 10
0.0
 20
0.0
  9
$LIMMAX
 10
297.0
 20
210.0
  9
$ORTHOMODE
 70
     0
  9
$REGENMODE
 70
     1
  9
$FILLMODE
 70
     1
  9
$QTEXTMODE
 70
     0
  9
$MIRRTEXT
 70
     1
  9
$LTSCALE
 40
1.0
  9
$ATTMODE
 70
     1
  9
$TEXTSIZE
 40
3.5
  9
$TRACEWID
 40
1.0
  9
$TEXTSTYLE
  7
STANDARD
  9
$CLAYER
  8
0
  9
$CELTYPE
  6
ByLayer
  9
$CECOLOR
 62
   256
  9
$CELTSCALE
 40
1.0
  9
$DISPSILH
 70
     0
  9
$DIMSCALE
 40
1.0
  9
$DIMASZ
 40
3.302
  9
$DIMEXO
 40
1.0
  9
$DIMDLI
 40
3.75
  9
$DIMRND
 40
0.0
  9
$DIMDLE
 40
0.0
  9
$DIMEXE
 40
1.0
  9
$DIMTP
 40
0.0
  9
$DIMTM
 40
0.0
  9
$DIMTXT
 40
3.5
  9
$DIMCEN
 40
2.5
  9
$DIMTSZ
 40
0.0
  9
$DIMTOL
 70
     0
  9
$DIMLIM
 70
     0
  9
$DIMTIH
 70
     1
  9
$DIMTOH
 70
     1
  9
$DIMSE1
 70
     0
  9
$DIMSE2
 70
     0
  9
$DIMTAD
 70
     1
  9
$DIMZIN
 70
     0
  9
$DIMBLK
  1

  9
$DIMASO
 70
     1
  9
$DIMSHO
 70
     1
  9
$DIMPOST
  1

  9
$DIMAPOST
  1

  9
$DIMALT
 70
     0
  9
$DIMALTD
 70
     3
  9
$DIMALTF
 40
0.0393700787
  9
$DIMLFAC
 40
1.0
  9
$DIMTOFL
 70
     1
  9
$DIMTVP
 40
0.0
  9
$DIMTIX
 70
     0
  9
$DIMSOXD
 70
     0
  9
$DIMSAH
 70
     0
  9
$DIMBLK1
  1

  9
$DIMBLK2
  1

  9
$DIMSTYLE
  2
ISO-25
  9
$DIMCLRD
 70
     0
  9
$DIMCLRE
 70
     0
  9
$DIMCLRT
 70
     0
  9
$DIMTFAC
 40
1.0
  9
$DIMGAP
 40
3.0
  9
$DIMJUST
 70
     0
  9
$DIMSD1
 70
     0
  9
$DIMSD2
 70
     0
  9
$DIMTOLJ
 70
     0
  9
$DIMTZIN
 70
     0
  9
$DIMALTZ
 70
     0
  9
$DIMALTTZ
 70
     0
  9
$DIMUPT
 70
     0
  9
$DIMDEC
 70
     2
  9
$DIMTDEC
 70
     2
  9
$DIMALTU
 70
     2
  9
$DIMALTTD
 70
     3
  9
$DIMTXSTY
  7
STANDARD
  9
$DIMAUNIT
 70
     0
  9
$DIMADEC
 70
     2
  9
$DIMALTRND
 40
0.0
  9
$DIMAZIN
 70
     0
  9
$DIMDSEP
 70
    44
  9
$DIMATFIT
 70
     3
  9
$DIMFRAC
 70
     0
  9
$DIMLDRBLK
  1

  9
$DIMLUNIT
 70
     2
  9
$DIMLWD
 70
    -2
  9
$DIMLWE
 70
    -2
  9
$DIMTMOVE
 70
     0
  9
$LUNITS
 70
     2
  9
$LUPREC
 70
     2
  9
$SKETCHINC
 40
1.0
  9
$FILLETRAD
 40
10.0
  9
$AUNITS
 70
     0
  9
$AUPREC
 70
     2
  9
$MENU
  1
.
  9
$ELEVATION
 40
0.0
  9
$PELEVATION
 40
0.0
  9
$THICKNESS
 40
0.0
  9
$LIMCHECK
 70
     0
  9
$CHAMFERA
 40
0.0
  9
$CHAMFERB
 40
0.0
  9
$CHAMFERC
 40
0.0
  9
$CHAMFERD
 40
0.0
  9
$SKPOLY
 70
     0
  9
$TDCREATE
 40
2459704.402070636
  9
$TDUCREATE
 40
2459704.318737303
  9
$TDUPDATE
 40
2459704.40207544
  9
$TDUUPDATE
 40
2459704.318742107
  9
$TDINDWG
 40
0.0000000116
  9
$TDUSRTIMER
 40
0.0000000116
  9
$USRTIMER
 70
     1
  9
$ANGBASE
 50
0.0
  9
$ANGDIR
 70
     0
  9
$PDMODE
 70
     0
  9
$PDSIZE
 40
-1.0
  9
$PLINEWID
 40
0.0
  9
$SPLFRAME
 70
     0
  9
$SPLINETYPE
 70
     6
  9
$SPLINESEGS
 70
     8
  9
$HANDSEED
  5
417
  9
$SURFTAB1
 70
     6
  9
$SURFTAB2
 70
     6
  9
$SURFTYPE
 70
     6
  9
$SURFU
 70
     6
  9
$SURFV
 70
     6
  9
$UCSBASE
  2

  9
$UCSNAME
  2

  9
$UCSORG
 10
0.0
 20
0.0
 30
0.0
  9
$UCSXDIR
 10
1.0
 20
0.0
 30
0.0
  9
$UCSYDIR
 10
0.0
 20
1.0
 30
0.0
  9
$UCSORTHOREF
  2

  9
$UCSORTHOVIEW
 70
     0
  9
$UCSORGTOP
 10
0.0
 20
0.0
 30
0.0
  9
$UCSORGBOTTOM
 10
0.0
 20
0.0
 30
0.0
  9
$UCSORGLEFT
 10
0.0
 20
0.0
 30
0.0
  9
$UCSORGRIGHT
 10
0.0
 20
0.0
 30
0.0
  9
$UCSORGFRONT
 10
0.0
 20
0.0
 30
0.0
  9
$UCSORGBACK
 10
0.0
 20
0.0
 30
0.0
  9
$PUCSBASE
  2

  9
$PUCSNAME
  2

  9
$PUCSORG
 10
0.0
 20
0.0
 30
0.0
  9
$PUCSXDIR
 10
1.0
 20
0.0
 30
0.0
  9
$PUCSYDIR
 10
0.0
 20
1.0
 30
0.0
  9
$PUCSORTHOREF
  2

  9
$PUCSORTHOVIEW
 70
     0
  9
$PUCSORGTOP
 10
0.0
 20
0.0
 30
0.0
  9
$PUCSORGBOTTOM
 10
0.0
 20
0.0
 30
0.0
  9
$PUCSORGLEFT
 10
0.0
 20
0.0
 30
0.0
  9
$PUCSORGRIGHT
 10
0.0
 20
0.0
 30
0.0
  9
$PUCSORGFRONT
 10
0.0
 20
0.0
 30
0.0
  9
$PUCSORGBACK
 10
0.0
 20
0.0
 30
0.0
  9
$USERI1
 70
     0
  9
$USERI2
 70
     0
  9
$USERI3
 70
     0
  9
$USERI4
 70
     0
  9
$USERI5
 70
     0
  9
$USERR1
 40
0.0
  9
$USERR2
 40
0.0
  9
$USERR3
 40
0.0
  9
$USERR4
 40
0.0
  9
$USERR5
 40
0.0
  9
$WORLDVIEW
 70
     1
  9
$SHADEDGE
 70
     3
  9
$SHADEDIF
 70
    70
  9
$TILEMODE
 70
     1
  9
$MAXACTVP
 70
    64
  9
$PINSBASE
 10
0.0
 20
0.0
 30
0.0
  9
$PLIMCHECK
 70
     0
  9
$PEXTMIN
 10
1.0000000000E+20
 20
1.0000000000E+20
 30
1.0000000000E+20
  9
$PEXTMAX
 10
-1.0000000000E+20
 20
-1.0000000000E+20
 30
-1.0000000000E+20
  9
$PLIMMIN
 10
0.0
 20
0.0
  9
$PLIMMAX
 10
420.0
 20
297.0
  9
$UNITMODE
 70
     0
  9
$VISRETAIN
 70
     1
  9
$PLINEGEN
 70
     0
  9
$PSLTSCALE
 70
     1
  9
$TREEDEPTH
 70
  3020
  9
$CMLSTYLE
  2
Standard
  9
$CMLJUST
 70
     0
  9
$CMLSCALE
 40
20.0
  9
$PROXYGRAPHICS
 70
     1
  9
$MEASUREMENT
 70
     1
  9
$CELWEIGHT
370
    -1
  9
$ENDCAPS
280
     0
  9
$JOINSTYLE
280
     0
  9
$LWDISPLAY
290
     1
  9
$INSUNITS
 70
     4
  9
$HYPERLINKBASE
  1

  9
$STYLESHEET
  1

  9
$XEDIT
290
     1
  9
$CEPSNTYPE
380
     0
  9
$PSTYLEMODE
290
     1
  9
$FINGERPRINTGUID
  2
{600643fc-6aec-4f0a-8613-2d400f10a86d}
  9
$VERSIONGUID
  2
{FAEB1C32-E019-11D5-929B-00C0DF256EC4}
  9
$EXTNAMES
290
     1
  9
$PSVPSCALE
 40
0.0
  9
$OLESTARTUP
290
     0
  0
ENDSEC
  0
SECTION
  2
CLASSES
  0
CLASS
  1
ACDBDICTIONARYWDFLT
  2
AcDbDictionaryWithDefault
  3
ObjectDBX Classes
 90
        0
280
     0
281
     0
  0
CLASS
  1
VISUALSTYLE
  2
AcDbVisualStyle
  3
ObjectDBX Classes
 90
     4095
280
     0
281
     0
  0
CLASS
  1
MATERIAL
  2
AcDbMaterial
  3
ObjectDBX Classes
 90
     1153
280
     0
281
     0
  0
CLASS
  1
SCALE
  2
AcDbScale
  3
ObjectDBX Classes
 90
     1153
280
     0
281
     0
  0
CLASS
  1
TABLESTYLE
  2
AcDbTableStyle
  3
ObjectDBX Classes
 90
     4095
280
     0
281
     0
  0
CLASS
  1
MLEADERSTYLE
  2
AcDbMLeaderStyle
  3
ACDB_MLEADERSTYLE_CLASS
 90
     4095
280
     0
281
     0
  0
CLASS
  1
SUN
  2
AcDbSun
  3
SCENEOE
 90
     1153
280
     0
281
     0
  0
CLASS
  1
ACDBPLACEHOLDER
  2
AcDbPlaceHolder
  3
ObjectDBX Classes
 90
        0
280
     0
281
     0
  0
CLASS
  1
LAYOUT
  2
AcDbLayout
  3
ObjectDBX Classes
 90
        0
280
     0
281
     0
  0
ENDSEC
  0
SECTION
  2
TABLES
  0
TABLE
  2
VPORT
  5
8
330
0
100
AcDbSymbolTable
 70
     1
  0
VPORT
  5
29
330
8
100
AcDbSymbolTableRecord
100
AcDbViewportTableRecord
  2
*Active
 70
     0
 10
0.0
 20
0.0
 11
1.0
 21
1.0
 12
148.5
 22
105.0
 13
0.0
 23
0.0
 14
10.0
 24
10.0
 15
10.0
 25
10.0
 16
0.0
 26
0.0
 36
1.0
 17
0.0
 27
0.0
 37
0.0
 40
210.0
 41
1.4142857143
 42
50.0
 43
0.0
 44
0.0
 50
0.0
 51
0.0
 71
     0
 72
  2000
 73
     1
 74
     3
 75
     0
 76
     0
 77
     0
 78
     0
281
     0
 65
     1
110
0.0
120
0.0
130
0.0
111
1.0
121
0.0
131
0.0
112
0.0
122
1.0
132
0.0
 79
     0
146
0.0
  0
ENDTAB
  0
TABLE
  2
LTYPE
  5
5
330
0
100
AcDbSymbolTable
 70
     6
  0
LTYPE
  5
14
330
5
100
AcDbSymbolTableRecord
100
AcDbLinetypeTableRecord
  2
ByBlock
 70
     0
  3

 72
    65
 73
     0
 40
0.0
  0
LTYPE
  5
15
330
5
100
AcDbSymbolTableRecord
100
AcDbLinetypeTableRecord
  2
ByLayer
 70
     0
  3

 72
    65
 73
     0
 40
0.0
  0
LTYPE
  5
16
330
5
100
AcDbSymbolTableRecord
100
AcDbLinetypeTableRecord
  2
Continuous
 70
     0
  3
Solid line
 72
    65
 73
     0
 40
0.0
  0
LTYPE
  5
6E
330
5
100
AcDbSymbolTableRecord
100
AcDbLinetypeTableRecord
  2
HIDDEN
 70
     0
  3
Hidden __ __ __ __ __ __ __ __ __ __ __ __ __ __
 72
    65
 73
     2
 40
1.905
 49
1.27
 74
     0
 49
-0.635
 74
     0
  0
LTYPE
  5
6F
330
5
100
AcDbSymbolTableRecord
100
AcDbLinetypeTableRecord
  2
PHANTOM
 70
     0
  3
Phantom ______  __  __  ______  __  __  ______
 72
    65
 73
     6
 40
12.7
 49
6.35
 74
     0
 49
-1.27
 74
     0
 49
1.27
 74
     0
 49
-1.27
 74
     0
 49
1.27
 74
     0
 49
-1.27
 74
     0
  0
LTYPE
  5
70
330
5
100
AcDbSymbolTableRecord
100
AcDbLinetypeTableRecord
  2
CENTER
 70
     0
  3
Center ____ _ ____ _ ____ _ ____ _ ____ _ ____
 72
    65
 73
     4
 40
10.16
 49
6.35
 74
     0
 49
-1.27
 74
     0
 49
1.27
 74
     0
 49
-1.27
 74
     0
  0
LTYPE
  5
71
330
5
100
AcDbSymbolTableRecord
100
AcDbLinetypeTableRecord
  2
CENTERX2
 70
     0
  3
Center (2x) ________  __  ________  __  _____
 72
    65
 73
     4
 40
20.32
 49
12.7
 74
     0
 49
-2.54
 74
     0
 49
2.54
 74
     0
 49
-2.54
 74
     0
  0
LTYPE
  5
72
330
5
100
AcDbSymbolTableRecord
100
AcDbLinetypeTableRecord
  2
DOT2
 70
     0
  3
Dot (.5x) ........................................
 72
    65
 73
     2
 40
0.635
 49
0.0
 74
     0
 49
-0.635
 74
     0
  0
ENDTAB
  0
TABLE
  2
LAYER
  5
2
330
0
100
AcDbSymbolTable
 70
     8
  0
LAYER
  5
10
330
2
100
AcDbSymbolTableRecord
100
AcDbLayerTableRecord
  2
0
 70
     0
 62
     7
  6
Continuous
370
    -3
390
F
  0
LAYER
  5
73
330
2
100
AcDbSymbolTableRecord
100
AcDbLayerTableRecord
  2
FORMAT
 70
     0
 62
     7
  6
Continuous
370
    -3
390
F
  0
LAYER
  5
74
330
2
100
AcDbSymbolTableRecord
100
AcDbLayerTableRecord
  2
VORLAGE
 70
     0
 62
     7
  6
Continuous
370
    -3
390
F
  0
LAYER
  5
75
330
2
100
AcDbSymbolTableRecord
100
AcDbLayerTableRecord
  2
1
 70
     0
 62
   179
  6
Continuous
370
    -3
390
F
  0
LAYER
  5
76
330
2
100
AcDbSymbolTableRecord
100
AcDbLayerTableRecord
  2
LAYER0
 70
     0
 62
     7
  6
Continuous
370
    -3
390
F
  0
LAYER
  5
77
330
2
100
AcDbSymbolTableRecord
100
AcDbLayerTableRecord
  2
BEMASSUNG
 70
     0
 62
     1
  6
Continuous
370
    -3
390
F
  0
LAYER
  5
78
330
2
100
AcDbSymbolTableRecord
100
AcDbLayerTableRecord
  2
ÄNDERUNG
 70
     0
 62
     1
  6
Continuous
370
    -3
390
F
  0
LAYER
  5
79
330
2
100
AcDbSymbolTableRecord
100
AcDbLayerTableRecord
  2
KENNZEICHNUNG
 70
     0
 62
     7
  6
Continuous
370
    -3
390
F
  0
ENDTAB
  0
TABLE
  2
STYLE
  5
3
330
0
100
AcDbSymbolTable
 70
     5
  0
STYLE
  5
11
330
3
100
AcDbSymbolTableRecord
100
AcDbTextStyleTableRecord
  2
STANDARD
 70
     0
 40
0.0
 41
1.0
 50
0.0
 71
     0
 42
3.5
  3
ARIAL.TTF
  4

1001
ACAD
1000
ARIAL
1071
       34
  0
STYLE
  5
92
330
3
100
AcDbSymbolTableRecord
100
AcDbTextStyleTableRecord
  2
SLDTEXTSTYLE0
 70
     0
 40
0.0
 41
0.948
 50
0.0
 71
     0
 42
3.5
  3
ARIAL.TTF
  4

1001
ACAD
1000
Arial
1071
      290
  0
STYLE
  5
DD
330
3
100
AcDbSymbolTableRecord
100
AcDbTextStyleTableRecord
  2
SLDTEXTSTYLE1
 70
     0
 40
0.0
 41
1.0
 50
0.0
 71
     0
 42
3.5
  3
ARIALUNI.TTF
  4

1001
ACAD
1000
Arial Unicode MS
1071
 33554722
  0
STYLE
  5
E3
330
3
100
AcDbSymbolTableRecord
100
AcDbTextStyleTableRecord
  2
SLDTEXTSTYLE2
 70
     0
 40
0.0
 41
0.87
 50
0.0
 71
     0
 42
3.5
  3
ARIALN.TTF
  4

1001
ACAD
1000
Arial Narrow
1071
      290
  0
STYLE
  5
146
330
3
100
AcDbSymbolTableRecord
100
AcDbTextStyleTableRecord
  2
SLDTEXTSTYLE3
 70
     0
 40
0.0
 41
0.948
 50
0.0
 71
     0
 42
3.5
  3
ARIALBD.TTF
  4

1001
ACAD
1000
Arial
1071
 33554722
  0
ENDTAB
  0
TABLE
  2
VIEW
  5
6
330
0
100
AcDbSymbolTable
 70
     0
  0
ENDTAB
  0
TABLE
  2
UCS
  5
7
330
0
100
AcDbSymbolTable
 70
     0
  0
ENDTAB
  0
TABLE
  2
APPID
  5
9
330
0
100
AcDbSymbolTable
 70
     1
  0
APPID
  5
12
330
9
100
AcDbSymbolTableRecord
100
AcDbRegAppTableRecord
  2
ACAD
 70
     0
  0
ENDTAB
  0
TABLE
  2
DIMSTYLE
  5
A
330
0
100
AcDbSymbolTable
 70
     6
100
AcDbDimStyleTable
  0
DIMSTYLE
105
27
330
A
100
AcDbSymbolTableRecord
100
AcDbDimStyleTableRecord
  2
ISO-25
 70
     0
 41
2.5
 42
0.625
 43
3.75
 44
1.25
 73
     0
 74
     0
 77
     1
 78
     8
140
2.5
141
2.5
143
0.0393700787
147
0.625
171
     3
172
     1
178
     0
271
     2
272
     2
274
     3
278
    44
283
     0
284
     8
340
11
  0
DIMSTYLE
105
1EF
102
{ACAD_REACTORS
330
1EE
330
1FA
330
204
330
20E
330
218
330
225
330
22F
330
239
330
252
330
26E
330
277
330
282
330
28D
330
32F
330
347
330
3BC
330
3C6
330
3D0
330
3E7
102
}
330
A
100
AcDbSymbolTableRecord
100
AcDbDimStyleTableRecord
  2
SLDDIMSTYLE0
 70
     0
 41
3.302
 44
0.0
 45
0.000000001
 73
     0
 74
     0
 77
     1
 78
    12
 79
     3
140
3.5
147
0.875
173
     1
178
     0
271
     2
272
     2
276
     2
284
    12
340
92
  0
DIMSTYLE
105
244
102
{ACAD_REACTORS
330
243
330
25B
330
33A
330
3A4
330
3B0
330
3DA
102
}
330
A
100
AcDbSymbolTableRecord
100
AcDbDimStyleTableRecord
  2
SLDDIMSTYLE1
 70
     0
 41
3.302
 44
0.0
 45
0.000000001
 73
     0
 74
     0
 77
     1
 78
    12
 79
     3
140
3.5
147
0.875
172
     1
173
     1
178
     0
271
     2
272
     2
276
     2
284
    12
289
     0
340
92
  0
DIMSTYLE
105
267
102
{ACAD_REACTORS
330
266
102
}
330
A
100
AcDbSymbolTableRecord
100
AcDbDimStyleTableRecord
  2
SLDDIMSTYLE2
 70
     0
 41
3.302
 44
0.0
 45
0.000000001
 73
     0
 74
     0
 77
     1
 78
    12
 79
     3
140
3.5
141
0.0
147
0.875
173
     1
178
     0
271
     2
272
     2
276
     2
284
    12
340
92
  0
DIMSTYLE
105
353
102
{ACAD_REACTORS
330
352
330
3F2
102
}
330
A
100
AcDbSymbolTableRecord
100
AcDbDimStyleTableRecord
  2
SLDDIMSTYLE3
 70
     0
 41
3.302
 44
0.0
 73
     0
 74
     0
 77
     1
 78
    12
 79
     3
140
3.5
147
0.875
173
     1
178
     0
179
     2
272
     2
276
     2
284
    12
340
92
  0
DIMSTYLE
105
402
330
A
100
AcDbSymbolTableRecord
100
AcDbDimStyleTableRecord
  2
SLDDIMSTYLE4
 70
     0
 41
1.016
 44
0.0
 45
0.000000001
146
1.016
147
0.0
173
     1
178
     0
271
     0
272
     0
276
     2
340
11
341
403
343
403
344
403
  0
ENDTAB
  0
TABLE
  2
BLOCK_RECORD
  5
1
330
0
100
AcDbSymbolTable
 70
    58
  0
BLOCK_RECORD
  5
1F
330
1
100
AcDbSymbolTableRecord
100
AcDbBlockTableRecord
  2
*Model_Space
340
22
  0
BLOCK_RECORD
  5
1B
330
1
100
AcDbSymbolTableRecord
100
AcDbBlockTableRecord
  2
*Paper_Space
340
1E
  0
BLOCK_RECORD
  5
23
330
1
100
AcDbSymbolTableRecord
100
AcDbBlockTableRecord
  2
*Paper_Space0
340
26
  0
BLOCK_RECORD
  5
7A
330
1
100
AcDbSymbolTableRecord
100
AcDbBlockTableRecord
  2
Schleifrichtungspfeil senkrecht
340
0
  0
BLOCK_RECORD
  5
82
330
1
100
AcDbSymbolTableRecord
100
AcDbBlockTableRecord
  2
Schleifrichtung+mattiert
340
0
  0
BLOCK_RECORD
  5
8F
330
1
100
AcDbSymbolTableRecord
100
AcDbBlockTableRecord
  2
SW_NOTE_0
340
0
102
{BLKREFS
331
94
102
}
  0
BLOCK_RECORD
  5
95
330
1
100
AcDbSymbolTableRecord
100
AcDbBlockTableRecord
  2
SW_NOTE_0_1
340
0
102
{BLKREFS
331
99
102
}
  0
BLOCK_RECORD
  5
9A
330
1
100
AcDbSymbolTableRecord
100
AcDbBlockTableRecord
  2
Schleifrichtungspfeil waagerecht
340
0
  0
BLOCK_RECORD
  5
A6
330
1
100
AcDbSymbolTableRecord
100
AcDbBlockTableRecord
  2
Block1_2
340
0
102
{BLKREFS
331
143
102
}
  0
BLOCK_RECORD
  5
B4
330
1
100
AcDbSymbolTableRecord
100
AcDbBlockTableRecord
  2
SW_NOTE_0_2
340
0
102
{BLKREFS
331
B9
102
}
  0
BLOCK_RECORD
  5
BA
330
1
100
AcDbSymbolTableRecord
100
AcDbBlockTableRecord
  2
Block2_2
340
0
102
{BLKREFS
331
142
102
}
  0
BLOCK_RECORD
  5
DA
330
1
100
AcDbSymbolTableRecord
100
AcDbBlockTableRecord
  2
SW_NOTE_0_3
340
0
102
{BLKREFS
331
DF
102
}
  0
BLOCK_RECORD
  5
E0
330
1
100
AcDbSymbolTableRecord
100
AcDbBlockTableRecord
  2
SW_NOTE_0_4
340
0
102
{BLKREFS
331
E7
102
}
  0
BLOCK_RECORD
  5
E8
330
1
100
AcDbSymbolTableRecord
100
AcDbBlockTableRecord
  2
Block1_3_1_1
340
0
  0
BLOCK_RECORD
  5
F6
330
1
100
AcDbSymbolTableRecord
100
AcDbBlockTableRecord
  2
SW_NOTE_0_5
340
0
102
{BLKREFS
331
FB
102
}
  0
BLOCK_RECORD
  5
FC
330
1
100
AcDbSymbolTableRecord
100
AcDbBlockTableRecord
  2
Block2_3_1_1
340
0
  0
BLOCK_RECORD
  5
11C
330
1
100
AcDbSymbolTableRecord
100
AcDbBlockTableRecord
  2
SW_NOTE_0_6
340
0
102
{BLKREFS
331
120
102
}
  0
BLOCK_RECORD
  5
121
330
1
100
AcDbSymbolTableRecord
100
AcDbBlockTableRecord
  2
SW_NOTE_0_7
340
0
102
{BLKREFS
331
127
102
}
  0
BLOCK_RECORD
  5
128
330
1
100
AcDbSymbolTableRecord
100
AcDbBlockTableRecord
  2
rechtlicher_Hinweis_Katalogzeichnungen_1_1
340
0
  0
BLOCK_RECORD
  5
12B
330
1
100
AcDbSymbolTableRecord
100
AcDbBlockTableRecord
  2
SW_NOTE_0_8
340
0
102
{BLKREFS
331
133
102
}
  0
BLOCK_RECORD
  5
157
330
1
100
AcDbSymbolTableRecord
100
AcDbBlockTableRecord
  2
SW_NOTE_0_9
340
0
102
{BLKREFS
331
161
102
}
  0
BLOCK_RECORD
  5
1F0
330
1
100
AcDbSymbolTableRecord
100
AcDbBlockTableRecord
  2
_D
340
0
  0
BLOCK_RECORD
  5
1FB
330
1
100
AcDbSymbolTableRecord
100
AcDbBlockTableRecord
  2
_D_1
340
0
  0
BLOCK_RECORD
  5
205
330
1
100
AcDbSymbolTableRecord
100
AcDbBlockTableRecord
  2
_D_2
340
0
  0
BLOCK_RECORD
  5
20F
330
1
100
AcDbSymbolTableRecord
100
AcDbBlockTableRecord
  2
_D_3
340
0
  0
BLOCK_RECORD
  5
219
330
1
100
AcDbSymbolTableRecord
100
AcDbBlockTableRecord
  2
_D_4
340
0
  0
BLOCK_RECORD
  5
226
330
1
100
AcDbSymbolTableRecord
100
AcDbBlockTableRecord
  2
_D_5
340
0
  0
BLOCK_RECORD
  5
230
330
1
100
AcDbSymbolTableRecord
100
AcDbBlockTableRecord
  2
_D_6
340
0
  0
BLOCK_RECORD
  5
23A
330
1
100
AcDbSymbolTableRecord
100
AcDbBlockTableRecord
  2
_D_7
340
0
  0
BLOCK_RECORD
  5
245
330
1
100
AcDbSymbolTableRecord
100
AcDbBlockTableRecord
  2
_D_8
340
0
  0
BLOCK_RECORD
  5
253
330
1
100
AcDbSymbolTableRecord
100
AcDbBlockTableRecord
  2
_D_9
340
0
  0
BLOCK_RECORD
  5
25C
330
1
100
AcDbSymbolTableRecord
100
AcDbBlockTableRecord
  2
_D_10
340
0
  0
BLOCK_RECORD
  5
268
330
1
100
AcDbSymbolTableRecord
100
AcDbBlockTableRecord
  2
_D_11
340
0
  0
BLOCK_RECORD
  5
26F
330
1
100
AcDbSymbolTableRecord
100
AcDbBlockTableRecord
  2
_D_12
340
0
  0
BLOCK_RECORD
  5
278
330
1
100
AcDbSymbolTableRecord
100
AcDbBlockTableRecord
  2
_D_13
340
0
  0
BLOCK_RECORD
  5
283
330
1
100
AcDbSymbolTableRecord
100
AcDbBlockTableRecord
  2
_D_14
340
0
  0
BLOCK_RECORD
  5
28E
330
1
100
AcDbSymbolTableRecord
100
AcDbBlockTableRecord
  2
_D_15
340
0
  0
BLOCK_RECORD
  5
298
330
1
100
AcDbSymbolTableRecord
100
AcDbBlockTableRecord
  2
SW_CENTERMARKSYMBOL_0
340
0
102
{BLKREFS
331
2A3
102
}
  0
BLOCK_RECORD
  5
2A4
330
1
100
AcDbSymbolTableRecord
100
AcDbBlockTableRecord
  2
SW_CENTERMARKSYMBOL_1
340
0
102
{BLKREFS
331
2AF
102
}
  0
BLOCK_RECORD
  5
2B0
330
1
100
AcDbSymbolTableRecord
100
AcDbBlockTableRecord
  2
SW_CENTERMARKSYMBOL_2
340
0
102
{BLKREFS
331
2BB
102
}
  0
BLOCK_RECORD
  5
2BC
330
1
100
AcDbSymbolTableRecord
100
AcDbBlockTableRecord
  2
SW_CENTERMARKSYMBOL_3
340
0
102
{BLKREFS
331
2C7
102
}
  0
BLOCK_RECORD
  5
2C8
330
1
100
AcDbSymbolTableRecord
100
AcDbBlockTableRecord
  2
SW_CENTERMARKSYMBOL_4
340
0
102
{BLKREFS
331
2D3
102
}
  0
BLOCK_RECORD
  5
2D4
330
1
100
AcDbSymbolTableRecord
100
AcDbBlockTableRecord
  2
SW_CENTERMARKSYMBOL_5
340
0
102
{BLKREFS
331
2DF
102
}
  0
BLOCK_RECORD
  5
2E0
330
1
100
AcDbSymbolTableRecord
100
AcDbBlockTableRecord
  2
SW_CENTERMARKSYMBOL_6
340
0
102
{BLKREFS
331
2EB
102
}
  0
BLOCK_RECORD
  5
330
330
1
100
AcDbSymbolTableRecord
100
AcDbBlockTableRecord
  2
_D_16
340
0
  0
BLOCK_RECORD
  5
33B
330
1
100
AcDbSymbolTableRecord
100
AcDbBlockTableRecord
  2
_D_17
340
0
  0
BLOCK_RECORD
  5
348
330
1
100
AcDbSymbolTableRecord
100
AcDbBlockTableRecord
  2
_D_18
340
0
  0
BLOCK_RECORD
  5
354
330
1
100
AcDbSymbolTableRecord
100
AcDbBlockTableRecord
  2
_D_19
340
0
  0
BLOCK_RECORD
  5
35D
330
1
100
AcDbSymbolTableRecord
100
AcDbBlockTableRecord
  2
SW_CENTERMARKSYMBOL_7
340
0
102
{BLKREFS
331
368
102
}
  0
BLOCK_RECORD
  5
3A5
330
1
100
AcDbSymbolTableRecord
100
AcDbBlockTableRecord
  2
_D_20
340
0
  0
BLOCK_RECORD
  5
3B1
330
1
100
AcDbSymbolTableRecord
100
AcDbBlockTableRecord
  2
_D_21
340
0
  0
BLOCK_RECORD
  5
3BD
330
1
100
AcDbSymbolTableRecord
100
AcDbBlockTableRecord
  2
_D_22
340
0
  0
BLOCK_RECORD
  5
3C7
330
1
100
AcDbSymbolTableRecord
100
AcDbBlockTableRecord
  2
_D_23
340
0
  0
BLOCK_RECORD
  5
3D1
330
1
100
AcDbSymbolTableRecord
100
AcDbBlockTableRecord
  2
_D_24
340
0
  0
BLOCK_RECORD
  5
3DB
330
1
100
AcDbSymbolTableRecord
100
AcDbBlockTableRecord
  2
_D_25
340
0
  0
BLOCK_RECORD
  5
3E8
330
1
100
AcDbSymbolTableRecord
100
AcDbBlockTableRecord
  2
_D_26
340
0
  0
BLOCK_RECORD
  5
3F3
330
1
100
AcDbSymbolTableRecord
100
AcDbBlockTableRecord
  2
_D_27
340
0
  0
BLOCK_RECORD
  5
3FC
330
1
100
AcDbSymbolTableRecord
100
AcDbBlockTableRecord
  2
SW_NOTE_0_10
340
0
102
{BLKREFS
331
401
102
}
  0
BLOCK_RECORD
  5
403
330
1
100
AcDbSymbolTableRecord
100
AcDbBlockTableRecord
  2
_Dot
340
0
  0
BLOCK_RECORD
  5
409
330
1
100
AcDbSymbolTableRecord
100
AcDbBlockTableRecord
  2
SW_CENTERMARKSYMBOL_8
340
0
102
{BLKREFS
331
414
102
}
  0
ENDTAB
  0
ENDSEC
  0
SECTION
  2
BLOCKS
  0
BLOCK
  5
20
330
1F
100
AcDbEntity
  8
0
100
AcDbBlockBegin
  2
*Model_Space
 70
     0
 10
0.0
 20
0.0
 30
0.0
  3
*Model_Space
  1

  0
ENDBLK
  5
21
330
1F
100
AcDbEntity
  8
0
100
AcDbBlockEnd
  0
BLOCK
  5
1C
330
1B
100
AcDbEntity
 67
     1
  8
0
100
AcDbBlockBegin
  2
*Paper_Space
 70
     0
 10
0.0
 20
0.0
 30
0.0
  3
*Paper_Space
  1

  0
ENDBLK
  5
1D
330
1B
100
AcDbEntity
 67
     1
  8
0
100
AcDbBlockEnd
  0
BLOCK
  5
24
330
23
100
AcDbEntity
  8
0
100
AcDbBlockBegin
  2
*Paper_Space0
 70
     0
 10
0.0
 20
0.0
 30
0.0
  3
*Paper_Space0
  1

  0
ENDBLK
  5
25
330
23
100
AcDbEntity
  8
0
100
AcDbBlockEnd
  0
BLOCK
  5
7B
330
7A
100
AcDbEntity
  8
0
100
AcDbBlockBegin
  2
Schleifrichtungspfeil senkrecht
 70
     0
 10
0.0
 20
0.0
 30
0.0
  3
Schleifrichtungspfeil senkrecht
  1

  0
LINE
  5
7D
330
7A
100
AcDbEntity
  8
0
  6
Continuous
 62
     7
370
    18
100
AcDbLine
 10
-180.2961675747
 20
161.707847149
 30
0.0
 11
-180.2961675747
 21
153.5890355268
 31
0.0
  0
HATCH
  5
7E
330
7A
100
AcDbEntity
  8
FORMAT
100
AcDbHatch
 10
0.0
 20
0.0
 30
0.0
210
0.0
220
0.0
230
1.0
  2
SOLID
 70
     1
 71
     0
 91
        1
 92
        0
 93
        3
 72
     1
 10
-180.2797164503988
 20
165.1487704095346
 11
-180.7405001919547
 21
161.6487704095346
 72
     1
 10
-180.7405001919547
 20
161.6487704095346
 11
-180.2797164503988
 21
161.6487704095346
 72
     1
 10
-180.2797164503988
 20
161.6487704095346
 11
-180.2797164503988
 21
165.1487704095346
 97
        0
 75
     0
 76
     1
 98
        1
 10
0.0
 20
0.0
  0
HATCH
  5
7F
330
7A
100
AcDbEntity
  8
FORMAT
100
AcDbHatch
 10
0.0
 20
0.0
 30
0.0
210
0.0
220
0.0
230
1.0
  2
SOLID
 70
     1
 71
     0
 91
        1
 92
        0
 93
        3
 72
     1
 10
-180.2797164503988
 20
161.6487704095346
 11
-179.818932708843
 21
161.6487704095346
 72
     1
 10
-179.818932708843
 20
161.6487704095346
 11
-180.2797164503988
 21
165.1487704095346
 72
     1
 10
-180.2797164503988
 20
165.1487704095346
 11
-180.2797164503988
 21
161.6487704095346
 97
        0
 75
     0
 76
     1
 98
        1
 10
0.0
 20
0.0
  0
HATCH
  5
80
330
7A
100
AcDbEntity
  8
FORMAT
100
AcDbHatch
 10
0.0
 20
0.0
 30
0.0
210
0.0
220
0.0
230
1.0
  2
SOLID
 70
     1
 71
     0
 91
        1
 92
        0
 93
        3
 72
     1
 10
-180.2797164503988
 20
153.6487704095346
 11
-180.7405001919547
 21
153.6487704095346
 72
     1
 10
-180.7405001919547
 20
153.6487704095346
 11
-180.2797164503988
 21
150.1487704095346
 72
     1
 10
-180.2797164503988
 20
150.1487704095346
 11
-180.2797164503988
 21
153.6487704095346
 97
        0
 75
     0
 76
     1
 98
        1
 10
0.0
 20
0.0
  0
HATCH
  5
81
330
7A
100
AcDbEntity
  8
FORMAT
100
AcDbHatch
 10
0.0
 20
0.0
 30
0.0
210
0.0
220
0.0
230
1.0
  2
SOLID
 70
     1
 71
     0
 91
        1
 92
        0
 93
        3
 72
     1
 10
-180.2797164503988
 20
150.1487704095346
 11
-179.8189327088429
 21
153.6487704095346
 72
     1
 10
-179.8189327088429
 20
153.6487704095346
 11
-180.2797164503988
 21
153.6487704095346
 72
     1
 10
-180.2797164503988
 20
153.6487704095346
 11
-180.2797164503988
 21
150.1487704095346
 97
        0
 75
     0
 76
     1
 98
        1
 10
0.0
 20
0.0
  0
ENDBLK
  5
7C
330
7A
100
AcDbEntity
  8
0
100
AcDbBlockEnd
  0
BLOCK
  5
83
330
82
100
AcDbEntity
  8
0
100
AcDbBlockBegin
  2
Schleifrichtung+mattiert
 70
     0
 10
0.0
 20
0.0
 30
0.0
  3
Schleifrichtung+mattiert
  1

  0
LINE
  5
85
330
82
100
AcDbEntity
  8
0
  6
CENTER
 62
     7
370
    25
100
AcDbLine
 10
257.5643835569
 20
128.8441861289
 30
0.0
 11
277.114664664
 21
128.8441861289
 31
0.0
  0
LINE
  5
86
330
82
100
AcDbEntity
  8
FORMAT
370
    18
100
AcDbLine
 10
204.5055437613
 20
129.9367184644
 30
0.0
 11
212.5055437613
 21
129.9367184644
 31
0.0
  0
LINE
  5
87
330
82
100
AcDbEntity
  8
FORMAT
370
    25
100
AcDbLine
 10
201.0055437613
 20
129.9367184644
 30
0.0
 11
204.5055437613
 21
130.3975022059
 31
0.0
  0
LINE
  5
88
330
82
100
AcDbEntity
  8
FORMAT
370
    25
100
AcDbLine
 10
204.5055437613
 20
130.3975022059
 30
0.0
 11
204.5055437613
 21
129.4759347228
 31
0.0
  0
LINE
  5
89
330
82
100
AcDbEntity
  8
FORMAT
370
    25
100
AcDbLine
 10
204.5055437613
 20
129.4759347228
 30
0.0
 11
201.0055437613
 21
129.9367184644
 31
0.0
  0
LINE
  5
8A
330
82
100
AcDbEntity
  8
FORMAT
  6
Continuous
 62
     7
370
    25
100
AcDbLine
 10
212.5055437613
 20
130.3975022059
 30
0.0
 11
212.5055437613
 21
129.4759347228
 31
0.0
  0
LINE
  5
8B
330
82
100
AcDbEntity
  8
FORMAT
  6
Continuous
 62
     7
370
    25
100
AcDbLine
 10
212.5055437613
 20
129.4759347228
 30
0.0
 11
216.0055437613
 21
129.9367184644
 31
0.0
  0
LINE
  5
8C
330
82
100
AcDbEntity
  8
FORMAT
  6
Continuous
 62
     7
370
    25
100
AcDbLine
 10
216.0055437613
 20
129.9367184644
 30
0.0
 11
212.5055437613
 21
130.3975022059
 31
0.0
  0
HATCH
  5
8D
330
82
100
AcDbEntity
  8
0
  6
Continuous
 62
     7
100
AcDbHatch
 10
0.0
 20
0.0
 30
0.0
210
0.0
220
0.0
230
1.0
  2
SOLID
 70
     1
 71
     0
 91
        1
 92
        0
 93
        3
 72
     1
 10
201.0055437612864
 20
129.9367184643777
 11
204.5055437612864
 21
129.4759347228218
 72
     1
 10
204.5055437612864
 20
129.4759347228218
 11
204.5055437612864
 21
130.3975022059335
 72
     1
 10
204.5055437612864
 20
130.3975022059335
 11
201.0055437612864
 21
129.9367184643777
 97
        0
 75
     0
 76
     1
 98
        1
 10
0.0
 20
0.0
  0
HATCH
  5
8E
330
82
100
AcDbEntity
  8
0
  6
Continuous
 62
     7
100
AcDbHatch
 10
0.0
 20
0.0
 30
0.0
210
0.0
220
0.0
230
1.0
  2
SOLID
 70
     1
 71
     0
 91
        1
 92
        0
 93
        3
 72
     1
 10
212.5055437612864
 20
129.4759347228218
 11
216.0055437612864
 21
129.9367184643776
 72
     1
 10
216.0055437612864
 20
129.9367184643776
 11
212.5055437612864
 21
130.3975022059335
 72
     1
 10
212.5055437612864
 20
130.3975022059335
 11
212.5055437612864
 21
129.4759347228218
 97
        0
 75
     0
 76
     1
 98
        1
 10
0.0
 20
0.0
  0
INSERT
  5
94
330
82
100
AcDbEntity
  8
FORMAT
 62
     7
100
AcDbBlockReference
  2
SW_NOTE_0
 10
279.6337272995
 20
126.8964738875
 30
0.0
  0
INSERT
  5
99
330
82
100
AcDbEntity
  8
0
  6
Continuous
 62
     7
370
     0
100
AcDbBlockReference
  2
SW_NOTE_0_1
 10
218.8952299572
 20
127.4220030224
 30
0.0
  0
ENDBLK
  5
84
330
82
100
AcDbEntity
  8
0
100
AcDbBlockEnd
  0
BLOCK
  5
90
330
8F
100
AcDbEntity
  8
0
100
AcDbBlockBegin
  2
SW_NOTE_0
 70
     0
 10
0.0
 20
0.0
 30
0.0
  3
SW_NOTE_0
  1

  0
MTEXT
  5
93
330
8F
100
AcDbEntity
  8
FORMAT
 62
     0
100
AcDbMText
 10
0.0
 20
4.5117370892
 30
0.0
 40
3.5
 41
0.0
 71
     1
 72
     1
  1
mattiert
  7
SLDTEXTSTYLE0
 73
     1
 44
1.0
  0
ENDBLK
  5
91
330
8F
100
AcDbEntity
  8
0
100
AcDbBlockEnd
  0
BLOCK
  5
96
330
95
100
AcDbEntity
  8
0
100
AcDbBlockBegin
  2
SW_NOTE_0_1
 70
     0
 10
0.0
 20
0.0
 30
0.0
  3
SW_NOTE_0_1
  1

  0
MTEXT
  5
98
330
95
100
AcDbEntity
  8
0
  6
Continuous
 62
     0
370
     0
100
AcDbMText
 10
0.0
 20
4.5117370892
 30
0.0
 40
3.5
 41
0.0
 71
     1
 72
     1
  1
Schleifrichtung
  7
SLDTEXTSTYLE0
 73
     1
 44
1.0
  0
ENDBLK
  5
97
330
95
100
AcDbEntity
  8
0
100
AcDbBlockEnd
  0
BLOCK
  5
9B
330
9A
100
AcDbEntity
  8
0
100
AcDbBlockBegin
  2
Schleifrichtungspfeil waagerecht
 70
     0
 10
0.0
 20
0.0
 30
0.0
  3
Schleifrichtungspfeil waagerecht
  1

  0
LINE
  5
9D
330
9A
100
AcDbEntity
  8
FORMAT
370
    25
100
AcDbLine
 10
236.8560112868
 20
65.9690166542
 30
0.0
 11
240.8560112868
 21
65.9690166542
 31
0.0
  0
LINE
  5
9E
330
9A
100
AcDbEntity
  8
FORMAT
370
    25
100
AcDbLine
 10
235.1060112868
 20
65.9690166542
 30
0.0
 11
236.8560112868
 21
66.199408525
 31
0.0
  0
LINE
  5
9F
330
9A
100
AcDbEntity
  8
FORMAT
370
    25
100
AcDbLine
 10
236.8560112868
 20
66.199408525
 30
0.0
 11
236.8560112868
 21
65.7386247835
 31
0.0
  0
LINE
  5
A0
330
9A
100
AcDbEntity
  8
FORMAT
370
    25
100
AcDbLine
 10
236.8560112868
 20
65.7386247835
 30
0.0
 11
235.1060112868
 21
65.9690166542
 31
0.0
  0
LINE
  5
A1
330
9A
100
AcDbEntity
  8
FORMAT
  6
Continuous
 62
     7
370
    25
100
AcDbLine
 10
240.8560112868
 20
66.199408525
 30
0.0
 11
240.8560112868
 21
65.7386247835
 31
0.0
  0
LINE
  5
A2
330
9A
100
AcDbEntity
  8
FORMAT
  6
Continuous
 62
     7
370
    25
100
AcDbLine
 10
240.8560112868
 20
65.7386247835
 30
0.0
 11
242.6060112868
 21
65.9690166542
 31
0.0
  0
LINE
  5
A3
330
9A
100
AcDbEntity
  8
FORMAT
  6
Continuous
 62
     7
370
    25
100
AcDbLine
 10
242.6060112868
 20
65.9690166542
 30
0.0
 11
240.8560112868
 21
66.199408525
 31
0.0
  0
HATCH
  5
A4
330
9A
100
AcDbEntity
  8
0
  6
Continuous
 62
     7
100
AcDbHatch
 10
0.0
 20
0.0
 30
0.0
210
0.0
220
0.0
230
1.0
  2
SOLID
 70
     1
 71
     0
 91
        1
 92
        0
 93
        3
 72
     1
 10
235.1060112868415
 20
65.96901665423289
 11
236.8560112868416
 21
65.73862478345495
 72
     1
 10
236.8560112868416
 20
65.73862478345495
 11
236.8560112868416
 21
66.19940852501082
 72
     1
 10
236.8560112868416
 20
66.19940852501082
 11
235.1060112868415
 21
65.96901665423289
 97
        0
 75
     0
 76
     1
 98
        1
 10
0.0
 20
0.0
  0
HATCH
  5
A5
330
9A
100
AcDbEntity
  8
0
  6
Continuous
 62
     7
100
AcDbHatch
 10
0.0
 20
0.0
 30
0.0
210
0.0
220
0.0
230
1.0
  2
SOLID
 70
     1
 71
     0
 91
        1
 92
        0
 93
        3
 72
     1
 10
240.8560112868416
 20
65.73862478345495
 11
242.6060112868416
 21
65.96901665423289
 72
     1
 10
242.6060112868416
 20
65.96901665423289
 11
240.8560112868416
 21
66.19940852501081
 72
     1
 10
240.8560112868416
 20
66.19940852501081
 11
240.8560112868416
 21
65.73862478345495
 97
        0
 75
     0
 76
     1
 98
        1
 10
0.0
 20
0.0
  0
ENDBLK
  5
9C
330
9A
100
AcDbEntity
  8
0
100
AcDbBlockEnd
  0
BLOCK
  5
A7
330
A6
100
AcDbEntity
  8
0
100
AcDbBlockBegin
  2
Block1_2
 70
     0
 10
0.0
 20
0.0
 30
0.0
  3
Block1_2
  1

  0
CIRCLE
  5
A9
330
A6
100
AcDbEntity
  8
0
  6
Continuous
 62
     7
370
    18
100
AcDbCircle
 10
11.6137544821
 20
9.0896586992
 30
0.0
 40
1.255909011058753
  0
CIRCLE
  5
AA
330
A6
100
AcDbEntity
  8
0
  6
Continuous
 62
     7
370
    18
100
AcDbCircle
 10
11.6137544821
 20
9.0896586992
 30
0.0
 40
2.216014863655655
  0
LINE
  5
AB
330
A6
100
AcDbEntity
  8
0
  6
CENTERX2
 62
     7
370
    18
100
AcDbLine
 10
11.6137544821
 20
9.0896586992
 30
0.0
 11
7.8977396184
 21
9.0896586992
 31
0.0
  0
LINE
  5
AC
330
A6
100
AcDbEntity
  8
0
  6
Continuous
 62
     7
370
    18
100
AcDbLine
 10
8.165753588
 20
6.8736438356
 30
0.0
 11
8.165753588
 21
11.3071584591
 31
0.0
  0
LINE
  5
AD
330
A6
100
AcDbEntity
  8
0
  6
Continuous
 62
     7
370
    18
100
AcDbLine
 10
2.6797147895
 20
10.3455677103
 30
0.0
 11
2.6797147895
 21
7.8337496881
 31
0.0
  0
LINE
  5
AE
330
A6
100
AcDbEntity
  8
0
  6
Continuous
 62
     7
370
    18
100
AcDbLine
 10
2.6797147895
 20
7.8337496881
 30
0.0
 11
8.165753588
 21
6.8736438356
 31
0.0
  0
LINE
  5
AF
330
A6
100
AcDbEntity
  8
0
  6
CENTERX2
 62
     7
370
    18
100
AcDbLine
 10
9.665753588
 20
9.0896586992
 30
0.0
 11
1.1797147895
 21
9.0896586992
 31
0.0
  0
LINE
  5
B0
330
A6
100
AcDbEntity
  8
0
  6
Continuous
 62
     7
370
    18
100
AcDbLine
 10
8.165753588
 20
11.3071584591
 30
0.0
 11
2.6797147895
 21
10.3455677103
 31
0.0
  0
LINE
  5
B1
330
A6
100
AcDbEntity
  8
0
  6
CENTERX2
 62
     7
370
    18
100
AcDbLine
 10
11.6137544821
 20
9.0896586992
 30
0.0
 11
11.6137544821
 21
5.3736438356
 31
0.0
  0
LINE
  5
B2
330
A6
100
AcDbEntity
  8
0
  6
CENTERX2
 62
     7
370
    18
100
AcDbLine
 10
11.6137544821
 20
9.0896586992
 30
0.0
 11
11.6137544821
 21
12.8056735629
 31
0.0
  0
LINE
  5
B3
330
A6
100
AcDbEntity
  8
0
  6
CENTERX2
 62
     7
370
    18
100
AcDbLine
 10
11.6137544821
 20
9.0896586992
 30
0.0
 11
15.3297693458
 21
9.0896586992
 31
0.0
  0
INSERT
  5
B9
330
A6
100
AcDbEntity
  8
0
  6
Continuous
 62
     7
370
     0
100
AcDbBlockReference
  2
SW_NOTE_0_2
 10
2.1031832889
 20
2.3754472768
 30
0.0
  0
ENDBLK
  5
A8
330
A6
100
AcDbEntity
  8
0
100
AcDbBlockEnd
  0
BLOCK
  5
B5
330
B4
100
AcDbEntity
  8
0
100
AcDbBlockBegin
  2
SW_NOTE_0_2
 70
     0
 10
0.0
 20
0.0
 30
0.0
  3
SW_NOTE_0_2
  1

  0
MTEXT
  5
B7
330
B4
100
AcDbEntity
  8
0
  6
Continuous
 62
     0
370
     0
100
AcDbMText
 10
6.590625
 20
2.4492287056
 30
0.0
 40
1.9
 41
0.0
 71
     2
 72
     1
  1
DIN 6  T1 - 
  7
SLDTEXTSTYLE0
 73
     1
 44
1.0
  0
MTEXT
  5
B8
330
B4
100
AcDbEntity
  8
0
  6
Continuous
 62
     0
370
     0
100
AcDbMText
 10
6.6569262624
 20
0.0003397443
 30
0.0
 40
1.9
 41
0.0
 71
     2
 72
     1
  1
Proj.methode 1
  7
SLDTEXTSTYLE0
 73
     1
 44
1.0
  0
ENDBLK
  5
B6
330
B4
100
AcDbEntity
  8
0
100
AcDbBlockEnd
  0
BLOCK
  5
BB
330
BA
100
AcDbEntity
  8
0
100
AcDbBlockBegin
  2
Block2_2
 70
     0
 10
0.0
 20
0.0
 30
0.0
  3
Block2_2
  1

  0
ARC
  5
BD
330
BA
100
AcDbEntity
  8
FORMAT
100
AcDbCircle
 10
236.7496365382
 20
57.0990600997
 30
0.0
 40
3.75000000000001
100
AcDbArc
 50
93.8225537293
 51
266.1774462707
  0
ARC
  5
BE
330
BA
100
AcDbEntity
  8
FORMAT
100
AcDbCircle
 10
236.7496365382
 20
57.0990600997
 30
0.0
 40
3.000000000000012
100
AcDbArc
 50
94.7801918472
 51
265.2198081528
  0
ARC
  5
BF
330
BA
100
AcDbEntity
  8
FORMAT
100
AcDbCircle
 10
236.7496365382
 20
57.0990600997
 30
0.0
 40
3.75000000000001
100
AcDbArc
 50
273.8225537293
 51
86.1774462707
  0
ARC
  5
C0
330
BA
100
AcDbEntity
  8
FORMAT
100
AcDbCircle
 10
236.7496365382
 20
57.0990600997
 30
0.0
 40
3.000000000000012
100
AcDbArc
 50
274.7801918472
 51
85.2198081528
  0
ARC
  5
C1
330
BA
100
AcDbEntity
  8
FORMAT
100
AcDbCircle
 10
236.7496365382
 20
58.2320416436
 30
0.0
 40
0.8604027828068846
100
AcDbArc
 50
304.8395134495
 51
73.1084194601
  0
ARC
  5
C2
330
BA
100
AcDbEntity
  8
FORMAT
100
AcDbCircle
 10
236.7496365382
 20
58.2320416436
 30
0.0
 40
1.402314431660661
100
AcDbArc
 50
313.8988153445
 51
79.7306010333
  0
ARC
  5
C3
330
BA
100
AcDbEntity
  8
FORMAT
100
AcDbCircle
 10
236.7496365382
 20
55.4979572256
 30
0.0
 40
0.4915306686725103
100
AcDbArc
 50
300.5716370086
 51
0.0
  0
ARC
  5
C4
330
BA
100
AcDbEntity
  8
FORMAT
100
AcDbCircle
 10
236.7496365382
 20
58.2320416436
 30
0.0
 40
1.402314431660661
100
AcDbArc
 50
100.2693989667
 51
226.1011846555
  0
ARC
  5
C5
330
BA
100
AcDbEntity
  8
FORMAT
100
AcDbCircle
 10
236.7496365382
 20
55.4979572256
 30
0.0
 40
0.9723464985416115
100
AcDbArc
 50
180.0
 51
255.1013518888
  0
ARC
  5
C6
330
BA
100
AcDbEntity
  8
FORMAT
100
AcDbCircle
 10
236.7496365382
 20
55.4979572256
 30
0.0
 40
0.9723464985416115
100
AcDbArc
 50
284.8986481112
 51
0.0
  0
ARC
  5
C7
330
BA
100
AcDbEntity
  8
FORMAT
100
AcDbCircle
 10
236.7496365382
 20
55.4979572256
 30
0.0
 40
0.4915306686725099
100
AcDbArc
 50
180.0
 51
239.4283629914
  0
ARC
  5
C8
330
BA
100
AcDbEntity
  8
FORMAT
100
AcDbCircle
 10
236.7496365382
 20
58.2320416436
 30
0.0
 40
0.8604027828068846
100
AcDbArc
 50
106.8915805399
 51
235.1604865505
  0
LINE
  5
C9
330
BA
100
AcDbEntity
  8
FORMAT
100
AcDbLine
 10
232.5312401271
 20
52.8806636887
 30
0.0
 11
240.9680329492
 21
52.8806636887
 31
0.0
  0
LINE
  5
CA
330
BA
100
AcDbEntity
  8
FORMAT
100
AcDbLine
 10
232.5312401271
 20
61.3174565107
 30
0.0
 11
240.9680329492
 21
61.3174565107
 31
0.0
  0
LINE
  5
CB
330
BA
100
AcDbEntity
  8
FORMAT
100
AcDbLine
 10
232.5312401271
 20
61.3174565107
 30
0.0
 11
232.5312401271
 21
52.8806636887
 31
0.0
  0
LINE
  5
CC
330
BA
100
AcDbEntity
  8
FORMAT
100
AcDbLine
 10
240.9680329492
 20
61.3174565107
 30
0.0
 11
240.9680329492
 21
52.8806636887
 31
0.0
  0
LINE
  5
CD
330
BA
100
AcDbEntity
  8
FORMAT
100
AcDbLine
 10
236.4996365382
 20
60.8407174865
 30
0.0
 11
236.4996365382
 21
60.0886252855
 31
0.0
  0
LINE
  5
CE
330
BA
100
AcDbEntity
  8
FORMAT
100
AcDbLine
 10
236.9996365382
 20
60.8407174865
 30
0.0
 11
236.9996365382
 21
60.0886252855
 31
0.0
  0
LINE
  5
CF
330
BA
100
AcDbEntity
  8
FORMAT
100
AcDbLine
 10
236.4996365382
 20
54.1094949139
 30
0.0
 11
236.4996365382
 21
53.3574027129
 31
0.0
  0
LINE
  5
D0
330
BA
100
AcDbEntity
  8
FORMAT
100
AcDbLine
 10
236.9996365382
 20
54.1094949139
 30
0.0
 11
236.9996365382
 21
53.3574027129
 31
0.0
  0
LINE
  5
D1
330
BA
100
AcDbEntity
  8
FORMAT
100
AcDbLine
 10
236.9996365382
 20
59.6118915504
 30
0.0
 11
236.9996365382
 21
59.0553234597
 31
0.0
  0
LINE
  5
D2
330
BA
100
AcDbEntity
  8
FORMAT
100
AcDbLine
 10
236.4996365382
 20
59.6118915504
 30
0.0
 11
236.4996365382
 21
59.0553234597
 31
0.0
  0
LINE
  5
D3
330
BA
100
AcDbEntity
  8
FORMAT
100
AcDbLine
 10
235.7772900396
 20
55.4979572256
 30
0.0
 11
235.7772900396
 21
57.2215823164
 31
0.0
  0
LINE
  5
D4
330
BA
100
AcDbEntity
  8
FORMAT
100
AcDbLine
 10
237.7219830367
 20
55.4979572256
 30
0.0
 11
237.7219830367
 21
57.2215823164
 31
0.0
  0
LINE
  5
D5
330
BA
100
AcDbEntity
  8
FORMAT
100
AcDbLine
 10
237.2411672068
 20
55.4979572256
 30
0.0
 11
237.2411672068
 21
57.5258613901
 31
0.0
  0
LINE
  5
D6
330
BA
100
AcDbEntity
  8
FORMAT
100
AcDbLine
 10
236.2581058695
 20
55.4979572256
 30
0.0
 11
236.2581058695
 21
57.5258613901
 31
0.0
  0
LINE
  5
D7
330
BA
100
AcDbEntity
  8
FORMAT
100
AcDbLine
 10
236.4996365382
 20
55.0747523127
 30
0.0
 11
236.4996365382
 21
54.5582989296
 31
0.0
  0
LINE
  5
D8
330
BA
100
AcDbEntity
  8
FORMAT
100
AcDbLine
 10
236.9996365382
 20
55.0747523127
 30
0.0
 11
236.9996365382
 21
54.5582989296
 31
0.0
  0
HATCH
  5
D9
330
BA
100
AcDbEntity
  8
FORMAT
100
AcDbHatch
 10
0.0
 20
0.0
 30
0.0
210
0.0
220
0.0
230
1.0
  2
SOLID
 70
     1
 71
     0
 91
        5
 92
        0
 93
        4
 72
     1
 10
240.9680329492058
 20
61.31745651073599
 11
240.9680329492058
 21
52.88066368865002
 72
     1
 10
240.9680329492058
 20
52.88066368865002
 11
232.5312401271199
 21
52.88066368865002
 72
     1
 10
232.5312401271199
 20
52.88066368865002
 11
232.5312401271199
 21
61.31745651073599
 72
     1
 10
232.5312401271199
 20
61.31745651073599
 11
240.9680329492058
 21
61.31745651073599
 97
        0
 92
        0
 93
        4
 72
     2
 10
236.7496365381628
 20
57.09906009969301
 40
3.000000000000011
 50
94.78019184719915
 51
265.2198081528016
 73
     0
 72
     1
 10
236.4996365381628
 20
60.08862528546836
 11
236.4996365381628
 21
60.84071748646695
 72
     2
 10
236.7496365381628
 20
57.09906009969301
 40
3.750000000000007
 50
93.82255372927435
 51
266.1774462707265
 73
     1
 72
     1
 10
236.4996365381628
 20
53.35740271291905
 11
236.4996365381628
 21
54.10949491391764
 97
        0
 92
        0
 93
        8
 72
     1
 10
237.7219830367044
 20
55.49795722557887
 11
237.7219830367044
 21
57.22158231636488
 72
     2
 10
236.7496365381628
 20
58.23204164361047
 40
1.402314431660656
 50
313.8988153445118
 51
439.730601033339
 73
     1
 72
     1
 10
236.9996365381628
 20
59.61189155039155
 11
236.9996365381628
 21
59.05532345967459
 72
     2
 10
236.7496365381628
 20
58.23204164361047
 40
0.8604027828068782
 50
286.8915805399266
 51
415.1604865505413
 73
     0
 72
     1
 10
237.2411672068353
 20
57.52586139012261
 11
237.2411672068353
 21
55.49795722557887
 72
     2
 10
236.7496365381628
 20
55.49795722557887
 40
0.4915306686725041
 50
0.0
 51
59.42836299135124
 73
     0
 72
     1
 10
236.9996365381628
 20
55.07475231274628
 11
236.9996365381628
 21
54.55829892958712
 72
     2
 10
236.7496365381628
 20
55.49795722557887
 40
0.9723464985416097
 50
284.8986481111874
 51
360.0000000000008
 73
     1
 97
        0
 92
        0
 93
        8
 72
     2
 10
236.7496365381628
 20
55.49795722557887
 40
0.4915306686725041
 50
120.5716370086484
 51
180.0
 73
     0
 72
     1
 10
236.2581058694904
 20
55.49795722557887
 11
236.2581058694904
 21
57.52586139012261
 72
     2
 10
236.7496365381628
 20
58.23204164361047
 40
0.8604027828068782
 50
124.839513449458
 51
253.108419460075
 73
     0
 72
     1
 10
236.4996365381628
 20
59.05532345967459
 11
236.4996365381628
 21
59.61189155039155
 72
     2
 10
236.7496365381628
 20
58.23204164361047
 40
1.402314431660656
 50
100.2693989666618
 51
226.1011846554898
 73
     1
 72
     1
 10
235.7772900396212
 20
57.22158231636488
 11
235.7772900396212
 21
55.49795722557887
 72
     2
 10
236.7496365381628
 20
55.49795722557887
 40
0.9723464985416097
 50
180.0
 51
255.1013518888143
 73
     1
 72
     1
 10
236.4996365381628
 20
54.55829892958712
 11
236.4996365381628
 21
55.07475231274628
 97
        0
 92
        0
 93
        4
 72
     2
 10
236.7496365381628
 20
57.09906009969301
 40
3.000000000000011
 50
274.7801918471999
 51
445.2198081528016
 73
     0
 72
     1
 10
236.9996365381628
 20
54.10949491391764
 11
236.9996365381628
 21
53.35740271291905
 72
     2
 10
236.7496365381628
 20
57.09906009969301
 40
3.750000000000007
 50
273.8225537292751
 51
446.1774462707265
 73
     1
 72
     1
 10
236.9996365381628
 20
60.84071748646695
 11
236.9996365381628
 21
60.08862528546836
 97
        0
 75
     0
 76
     1
 98
        1
 10
0.0
 20
0.0
  0
INSERT
  5
DF
330
BA
100
AcDbEntity
  8
FORMAT
 62
     7
100
AcDbBlockReference
  2
SW_NOTE_0_3
 10
232.2514665163
 20
47.7232938825
 30
0.0
  0
INSERT
  5
E7
330
BA
100
AcDbEntity
  8
0
  6
Continuous
 62
     7
370
     0
100
AcDbBlockReference
  2
SW_NOTE_0_4
 10
244.0723034979
 20
57.1176018272
 30
0.0
  0
ENDBLK
  5
BC
330
BA
100
AcDbEntity
  8
0
100
AcDbBlockEnd
  0
BLOCK
  5
DB
330
DA
100
AcDbEntity
  8
0
100
AcDbBlockBegin
  2
SW_NOTE_0_3
 70
     0
 10
0.0
 20
0.0
 30
0.0
  3
SW_NOTE_0_3
  1

  0
MTEXT
  5
DE
330
DA
100
AcDbEntity
  8
FORMAT
 62
     0
100
AcDbMText
 10
0.0
 20
3.8651911469
 30
0.0
 40
3.0
 41
0.0
 71
     1
 72
     1
  1
ECO
  7
SLDTEXTSTYLE1
 73
     1
 44
1.0
  0
ENDBLK
  5
DC
330
DA
100
AcDbEntity
  8
0
100
AcDbBlockEnd
  0
BLOCK
  5
E1
330
E0
100
AcDbEntity
  8
0
100
AcDbBlockBegin
  2
SW_NOTE_0_4
 70
     0
 10
0.0
 20
0.0
 30
0.0
  3
SW_NOTE_0_4
  1

  0
MTEXT
  5
E4
330
E0
100
AcDbEntity
  8
0
  6
Continuous
 62
     0
370
     0
100
AcDbMText
 10
0.0
 20
3.2226693494
 30
0.0
 40
2.5
 41
0.0
 71
     1
 72
     1
  1
ECO Schulte GmbH & Co. KG
  7
SLDTEXTSTYLE2
 73
     1
 44
1.0
  0
MTEXT
  5
E5
330
E0
100
AcDbEntity
  8
0
  6
Continuous
 62
     0
370
     0
100
AcDbMText
 10
0.0
 20
-0.2773307586
 30
0.0
 40
2.5
 41
0.0
 71
     1
 72
     1
  1
Postfach 206
  7
SLDTEXTSTYLE2
 73
     1
 44
1.0
  0
MTEXT
  5
E6
330
E0
100
AcDbEntity
  8
0
  6
Continuous
 62
     0
370
     0
100
AcDbMText
 10
0.0
 20
-3.7773308666
 30
0.0
 40
2.5
 41
0.0
 71
     1
 72
     1
  1
58682 Menden
  7
SLDTEXTSTYLE2
 73
     1
 44
1.0
  0
ENDBLK
  5
E2
330
E0
100
AcDbEntity
  8
0
100
AcDbBlockEnd
  0
BLOCK
  5
E9
330
E8
100
AcDbEntity
  8
0
100
AcDbBlockBegin
  2
Block1_3_1_1
 70
     0
 10
0.0
 20
0.0
 30
0.0
  3
Block1_3_1_1
  1

  0
CIRCLE
  5
EB
330
E8
100
AcDbEntity
  8
0
  6
Continuous
 62
     7
370
    18
100
AcDbCircle
 10
11.6137544821
 20
9.0896586992
 30
0.0
 40
1.255909011058753
  0
CIRCLE
  5
EC
330
E8
100
AcDbEntity
  8
0
  6
Continuous
 62
     7
370
    18
100
AcDbCircle
 10
11.6137544821
 20
9.0896586992
 30
0.0
 40
2.216014863655655
  0
LINE
  5
ED
330
E8
100
AcDbEntity
  8
0
  6
CENTERX2
 62
     7
370
    18
100
AcDbLine
 10
11.6137544821
 20
9.0896586992
 30
0.0
 11
7.8977396184
 21
9.0896586992
 31
0.0
  0
LINE
  5
EE
330
E8
100
AcDbEntity
  8
0
  6
Continuous
 62
     7
370
    18
100
AcDbLine
 10
8.165753588
 20
6.8736438356
 30
0.0
 11
8.165753588
 21
11.3071584591
 31
0.0
  0
LINE
  5
EF
330
E8
100
AcDbEntity
  8
0
  6
Continuous
 62
     7
370
    18
100
AcDbLine
 10
2.6797147895
 20
10.3455677103
 30
0.0
 11
2.6797147895
 21
7.8337496881
 31
0.0
  0
LINE
  5
F0
330
E8
100
AcDbEntity
  8
0
  6
Continuous
 62
     7
370
    18
100
AcDbLine
 10
2.6797147895
 20
7.8337496881
 30
0.0
 11
8.165753588
 21
6.8736438356
 31
0.0
  0
LINE
  5
F1
330
E8
100
AcDbEntity
  8
0
  6
CENTERX2
 62
     7
370
    18
100
AcDbLine
 10
9.665753588
 20
9.0896586992
 30
0.0
 11
1.1797147895
 21
9.0896586992
 31
0.0
  0
LINE
  5
F2
330
E8
100
AcDbEntity
  8
0
  6
Continuous
 62
     7
370
    18
100
AcDbLine
 10
8.165753588
 20
11.3071584591
 30
0.0
 11
2.6797147895
 21
10.3455677103
 31
0.0
  0
LINE
  5
F3
330
E8
100
AcDbEntity
  8
0
  6
CENTERX2
 62
     7
370
    18
100
AcDbLine
 10
11.6137544821
 20
9.0896586992
 30
0.0
 11
11.6137544821
 21
5.3736438356
 31
0.0
  0
LINE
  5
F4
330
E8
100
AcDbEntity
  8
0
  6
CENTERX2
 62
     7
370
    18
100
AcDbLine
 10
11.6137544821
 20
9.0896586992
 30
0.0
 11
11.6137544821
 21
12.8056735629
 31
0.0
  0
LINE
  5
F5
330
E8
100
AcDbEntity
  8
0
  6
CENTERX2
 62
     7
370
    18
100
AcDbLine
 10
11.6137544821
 20
9.0896586992
 30
0.0
 11
15.3297693458
 21
9.0896586992
 31
0.0
  0
INSERT
  5
FB
330
E8
100
AcDbEntity
  8
0
  6
Continuous
 62
     7
370
     0
100
AcDbBlockReference
  2
SW_NOTE_0_5
 10
2.1031832889
 20
2.3754472768
 30
0.0
  0
ENDBLK
  5
EA
330
E8
100
AcDbEntity
  8
0
100
AcDbBlockEnd
  0
BLOCK
  5
F7
330
F6
100
AcDbEntity
  8
0
100
AcDbBlockBegin
  2
SW_NOTE_0_5
 70
     0
 10
0.0
 20
0.0
 30
0.0
  3
SW_NOTE_0_5
  1

  0
MTEXT
  5
F9
330
F6
100
AcDbEntity
  8
0
  6
Continuous
 62
     0
370
     0
100
AcDbMText
 10
6.590625
 20
2.4492287056
 30
0.0
 40
1.9
 41
0.0
 71
     2
 72
     1
  1
DIN 6  T1 - 
  7
SLDTEXTSTYLE0
 73
     1
 44
1.0
  0
MTEXT
  5
FA
330
F6
100
AcDbEntity
  8
0
  6
Continuous
 62
     0
370
     0
100
AcDbMText
 10
6.6569262624
 20
0.0003397443
 30
0.0
 40
1.9
 41
0.0
 71
     2
 72
     1
  1
Proj.methode 1
  7
SLDTEXTSTYLE0
 73
     1
 44
1.0
  0
ENDBLK
  5
F8
330
F6
100
AcDbEntity
  8
0
100
AcDbBlockEnd
  0
BLOCK
  5
FD
330
FC
100
AcDbEntity
  8
0
100
AcDbBlockBegin
  2
Block2_3_1_1
 70
     0
 10
0.0
 20
0.0
 30
0.0
  3
Block2_3_1_1
  1

  0
ARC
  5
FF
330
FC
100
AcDbEntity
  8
FORMAT
100
AcDbCircle
 10
236.7496365382
 20
57.0990600997
 30
0.0
 40
3.75000000000001
100
AcDbArc
 50
93.8225537293
 51
266.1774462707
  0
ARC
  5
100
330
FC
100
AcDbEntity
  8
FORMAT
100
AcDbCircle
 10
236.7496365382
 20
57.0990600997
 30
0.0
 40
3.000000000000012
100
AcDbArc
 50
94.7801918472
 51
265.2198081528
  0
ARC
  5
101
330
FC
100
AcDbEntity
  8
FORMAT
100
AcDbCircle
 10
236.7496365382
 20
57.0990600997
 30
0.0
 40
3.75000000000001
100
AcDbArc
 50
273.8225537293
 51
86.1774462707
  0
ARC
  5
102
330
FC
100
AcDbEntity
  8
FORMAT
100
AcDbCircle
 10
236.7496365382
 20
57.0990600997
 30
0.0
 40
3.000000000000012
100
AcDbArc
 50
274.7801918472
 51
85.2198081528
  0
ARC
  5
103
330
FC
100
AcDbEntity
  8
FORMAT
100
AcDbCircle
 10
236.7496365382
 20
58.2320416436
 30
0.0
 40
0.8604027828068846
100
AcDbArc
 50
304.8395134495
 51
73.1084194601
  0
ARC
  5
104
330
FC
100
AcDbEntity
  8
FORMAT
100
AcDbCircle
 10
236.7496365382
 20
58.2320416436
 30
0.0
 40
1.402314431660661
100
AcDbArc
 50
313.8988153445
 51
79.7306010333
  0
ARC
  5
105
330
FC
100
AcDbEntity
  8
FORMAT
100
AcDbCircle
 10
236.7496365382
 20
55.4979572256
 30
0.0
 40
0.4915306686725103
100
AcDbArc
 50
300.5716370086
 51
0.0
  0
ARC
  5
106
330
FC
100
AcDbEntity
  8
FORMAT
100
AcDbCircle
 10
236.7496365382
 20
58.2320416436
 30
0.0
 40
1.402314431660661
100
AcDbArc
 50
100.2693989667
 51
226.1011846555
  0
ARC
  5
107
330
FC
100
AcDbEntity
  8
FORMAT
100
AcDbCircle
 10
236.7496365382
 20
55.4979572256
 30
0.0
 40
0.9723464985416115
100
AcDbArc
 50
180.0
 51
255.1013518888
  0
ARC
  5
108
330
FC
100
AcDbEntity
  8
FORMAT
100
AcDbCircle
 10
236.7496365382
 20
55.4979572256
 30
0.0
 40
0.9723464985416115
100
AcDbArc
 50
284.8986481112
 51
0.0
  0
ARC
  5
109
330
FC
100
AcDbEntity
  8
FORMAT
100
AcDbCircle
 10
236.7496365382
 20
55.4979572256
 30
0.0
 40
0.4915306686725099
100
AcDbArc
 50
180.0
 51
239.4283629914
  0
ARC
  5
10A
330
FC
100
AcDbEntity
  8
FORMAT
100
AcDbCircle
 10
236.7496365382
 20
58.2320416436
 30
0.0
 40
0.8604027828068846
100
AcDbArc
 50
106.8915805399
 51
235.1604865505
  0
LINE
  5
10B
330
FC
100
AcDbEntity
  8
FORMAT
100
AcDbLine
 10
232.5312401271
 20
52.8806636887
 30
0.0
 11
240.9680329492
 21
52.8806636887
 31
0.0
  0
LINE
  5
10C
330
FC
100
AcDbEntity
  8
FORMAT
100
AcDbLine
 10
232.5312401271
 20
61.3174565107
 30
0.0
 11
240.9680329492
 21
61.3174565107
 31
0.0
  0
LINE
  5
10D
330
FC
100
AcDbEntity
  8
FORMAT
100
AcDbLine
 10
232.5312401271
 20
61.3174565107
 30
0.0
 11
232.5312401271
 21
52.8806636887
 31
0.0
  0
LINE
  5
10E
330
FC
100
AcDbEntity
  8
FORMAT
100
AcDbLine
 10
240.9680329492
 20
61.3174565107
 30
0.0
 11
240.9680329492
 21
52.8806636887
 31
0.0
  0
LINE
  5
10F
330
FC
100
AcDbEntity
  8
FORMAT
100
AcDbLine
 10
236.4996365382
 20
60.8407174865
 30
0.0
 11
236.4996365382
 21
60.0886252855
 31
0.0
  0
LINE
  5
110
330
FC
100
AcDbEntity
  8
FORMAT
100
AcDbLine
 10
236.9996365382
 20
60.8407174865
 30
0.0
 11
236.9996365382
 21
60.0886252855
 31
0.0
  0
LINE
  5
111
330
FC
100
AcDbEntity
  8
FORMAT
100
AcDbLine
 10
236.4996365382
 20
54.1094949139
 30
0.0
 11
236.4996365382
 21
53.3574027129
 31
0.0
  0
LINE
  5
112
330
FC
100
AcDbEntity
  8
FORMAT
100
AcDbLine
 10
236.9996365382
 20
54.1094949139
 30
0.0
 11
236.9996365382
 21
53.3574027129
 31
0.0
  0
LINE
  5
113
330
FC
100
AcDbEntity
  8
FORMAT
100
AcDbLine
 10
236.9996365382
 20
59.6118915504
 30
0.0
 11
236.9996365382
 21
59.0553234597
 31
0.0
  0
LINE
  5
114
330
FC
100
AcDbEntity
  8
FORMAT
100
AcDbLine
 10
236.4996365382
 20
59.6118915504
 30
0.0
 11
236.4996365382
 21
59.0553234597
 31
0.0
  0
LINE
  5
115
330
FC
100
AcDbEntity
  8
FORMAT
100
AcDbLine
 10
235.7772900396
 20
55.4979572256
 30
0.0
 11
235.7772900396
 21
57.2215823164
 31
0.0
  0
LINE
  5
116
330
FC
100
AcDbEntity
  8
FORMAT
100
AcDbLine
 10
237.7219830367
 20
55.4979572256
 30
0.0
 11
237.7219830367
 21
57.2215823164
 31
0.0
  0
LINE
  5
117
330
FC
100
AcDbEntity
  8
FORMAT
100
AcDbLine
 10
237.2411672068
 20
55.4979572256
 30
0.0
 11
237.2411672068
 21
57.5258613901
 31
0.0
  0
LINE
  5
118
330
FC
100
AcDbEntity
  8
FORMAT
100
AcDbLine
 10
236.2581058695
 20
55.4979572256
 30
0.0
 11
236.2581058695
 21
57.5258613901
 31
0.0
  0
LINE
  5
119
330
FC
100
AcDbEntity
  8
FORMAT
100
AcDbLine
 10
236.4996365382
 20
55.0747523127
 30
0.0
 11
236.4996365382
 21
54.5582989296
 31
0.0
  0
LINE
  5
11A
330
FC
100
AcDbEntity
  8
FORMAT
100
AcDbLine
 10
236.9996365382
 20
55.0747523127
 30
0.0
 11
236.9996365382
 21
54.5582989296
 31
0.0
  0
HATCH
  5
11B
330
FC
100
AcDbEntity
  8
FORMAT
100
AcDbHatch
 10
0.0
 20
0.0
 30
0.0
210
0.0
220
0.0
230
1.0
  2
SOLID
 70
     1
 71
     0
 91
        5
 92
        0
 93
        4
 72
     1
 10
240.9680329492058
 20
61.31745651073599
 11
240.9680329492058
 21
52.88066368865002
 72
     1
 10
240.9680329492058
 20
52.88066368865002
 11
232.5312401271199
 21
52.88066368865002
 72
     1
 10
232.5312401271199
 20
52.88066368865002
 11
232.5312401271199
 21
61.31745651073599
 72
     1
 10
232.5312401271199
 20
61.31745651073599
 11
240.9680329492058
 21
61.31745651073599
 97
        0
 92
        0
 93
        4
 72
     2
 10
236.7496365381628
 20
57.09906009969301
 40
3.000000000000011
 50
94.78019184719915
 51
265.2198081528016
 73
     0
 72
     1
 10
236.4996365381628
 20
60.08862528546836
 11
236.4996365381628
 21
60.84071748646695
 72
     2
 10
236.7496365381628
 20
57.09906009969301
 40
3.750000000000007
 50
93.82255372927435
 51
266.1774462707265
 73
     1
 72
     1
 10
236.4996365381628
 20
53.35740271291905
 11
236.4996365381628
 21
54.10949491391764
 97
        0
 92
        0
 93
        8
 72
     1
 10
237.7219830367044
 20
55.49795722557887
 11
237.7219830367044
 21
57.22158231636488
 72
     2
 10
236.7496365381628
 20
58.23204164361047
 40
1.402314431660656
 50
313.8988153445118
 51
439.730601033339
 73
     1
 72
     1
 10
236.9996365381628
 20
59.61189155039155
 11
236.9996365381628
 21
59.05532345967459
 72
     2
 10
236.7496365381628
 20
58.23204164361047
 40
0.8604027828068782
 50
286.8915805399266
 51
415.1604865505413
 73
     0
 72
     1
 10
237.2411672068353
 20
57.52586139012261
 11
237.2411672068353
 21
55.49795722557887
 72
     2
 10
236.7496365381628
 20
55.49795722557887
 40
0.4915306686725041
 50
0.0
 51
59.42836299135124
 73
     0
 72
     1
 10
236.9996365381628
 20
55.07475231274628
 11
236.9996365381628
 21
54.55829892958712
 72
     2
 10
236.7496365381628
 20
55.49795722557887
 40
0.9723464985416097
 50
284.8986481111874
 51
360.0000000000008
 73
     1
 97
        0
 92
        0
 93
        8
 72
     2
 10
236.7496365381628
 20
55.49795722557887
 40
0.4915306686725041
 50
120.5716370086484
 51
180.0
 73
     0
 72
     1
 10
236.2581058694904
 20
55.49795722557887
 11
236.2581058694904
 21
57.52586139012261
 72
     2
 10
236.7496365381628
 20
58.23204164361047
 40
0.8604027828068782
 50
124.839513449458
 51
253.108419460075
 73
     0
 72
     1
 10
236.4996365381628
 20
59.05532345967459
 11
236.4996365381628
 21
59.61189155039155
 72
     2
 10
236.7496365381628
 20
58.23204164361047
 40
1.402314431660656
 50
100.2693989666618
 51
226.1011846554898
 73
     1
 72
     1
 10
235.7772900396212
 20
57.22158231636488
 11
235.7772900396212
 21
55.49795722557887
 72
     2
 10
236.7496365381628
 20
55.49795722557887
 40
0.9723464985416097
 50
180.0
 51
255.1013518888143
 73
     1
 72
     1
 10
236.4996365381628
 20
54.55829892958712
 11
236.4996365381628
 21
55.07475231274628
 97
        0
 92
        0
 93
        4
 72
     2
 10
236.7496365381628
 20
57.09906009969301
 40
3.000000000000011
 50
274.7801918471999
 51
445.2198081528016
 73
     0
 72
     1
 10
236.9996365381628
 20
54.10949491391764
 11
236.9996365381628
 21
53.35740271291905
 72
     2
 10
236.7496365381628
 20
57.09906009969301
 40
3.750000000000007
 50
273.8225537292751
 51
446.1774462707265
 73
     1
 72
     1
 10
236.9996365381628
 20
60.84071748646695
 11
236.9996365381628
 21
60.08862528546836
 97
        0
 75
     0
 76
     1
 98
        1
 10
0.0
 20
0.0
  0
INSERT
  5
120
330
FC
100
AcDbEntity
  8
FORMAT
 62
     7
100
AcDbBlockReference
  2
SW_NOTE_0_6
 10
232.2514665163
 20
47.7232938825
 30
0.0
  0
INSERT
  5
127
330
FC
100
AcDbEntity
  8
0
  6
Continuous
 62
     7
370
     0
100
AcDbBlockReference
  2
SW_NOTE_0_7
 10
244.0723034979
 20
57.1176018272
 30
0.0
  0
ENDBLK
  5
FE
330
FC
100
AcDbEntity
  8
0
100
AcDbBlockEnd
  0
BLOCK
  5
11D
330
11C
100
AcDbEntity
  8
0
100
AcDbBlockBegin
  2
SW_NOTE_0_6
 70
     0
 10
0.0
 20
0.0
 30
0.0
  3
SW_NOTE_0_6
  1

  0
MTEXT
  5
11F
330
11C
100
AcDbEntity
  8
FORMAT
 62
     0
100
AcDbMText
 10
0.0
 20
3.8651911469
 30
0.0
 40
3.0
 41
0.0
 71
     1
 72
     1
  1
ECO
  7
SLDTEXTSTYLE1
 73
     1
 44
1.0
  0
ENDBLK
  5
11E
330
11C
100
AcDbEntity
  8
0
100
AcDbBlockEnd
  0
BLOCK
  5
122
330
121
100
AcDbEntity
  8
0
100
AcDbBlockBegin
  2
SW_NOTE_0_7
 70
     0
 10
0.0
 20
0.0
 30
0.0
  3
SW_NOTE_0_7
  1

  0
MTEXT
  5
124
330
121
100
AcDbEntity
  8
0
  6
Continuous
 62
     0
370
     0
100
AcDbMText
 10
0.0
 20
3.2226693494
 30
0.0
 40
2.5
 41
0.0
 71
     1
 72
     1
  1
ECO Schulte GmbH & Co. KG
  7
SLDTEXTSTYLE2
 73
     1
 44
1.0
  0
MTEXT
  5
125
330
121
100
AcDbEntity
  8
0
  6
Continuous
 62
     0
370
     0
100
AcDbMText
 10
0.0
 20
-0.2773307586
 30
0.0
 40
2.5
 41
0.0
 71
     1
 72
     1
  1
Postfach 206
  7
SLDTEXTSTYLE2
 73
     1
 44
1.0
  0
MTEXT
  5
126
330
121
100
AcDbEntity
  8
0
  6
Continuous
 62
     0
370
     0
100
AcDbMText
 10
0.0
 20
-3.7773308666
 30
0.0
 40
2.5
 41
0.0
 71
     1
 72
     1
  1
58682 Menden
  7
SLDTEXTSTYLE2
 73
     1
 44
1.0
  0
ENDBLK
  5
123
330
121
100
AcDbEntity
  8
0
100
AcDbBlockEnd
  0
BLOCK
  5
129
330
128
100
AcDbEntity
  8
0
100
AcDbBlockBegin
  2
rechtlicher_Hinweis_Katalogzeichnungen_1_1
 70
     0
 10
0.0
 20
0.0
 30
0.0
  3
rechtlicher_Hinweis_Katalogzeichnungen_1_1
  1

  0
INSERT
  5
133
330
128
100
AcDbEntity
  8
0
  6
Continuous
 62
     7
370
     0
100
AcDbBlockReference
  2
SW_NOTE_0_8
 10
0.677633552
 20
47.8243897458
 30
0.0
  0
ENDBLK
  5
12A
330
128
100
AcDbEntity
  8
0
100
AcDbBlockEnd
  0
BLOCK
  5
12C
330
12B
100
AcDbEntity
  8
0
100
AcDbBlockBegin
  2
SW_NOTE_0_8
 70
     0
 10
0.0
 20
0.0
 30
0.0
  3
SW_NOTE_0_8
  1

  0
MTEXT
  5
12E
330
12B
100
AcDbEntity
  8
0
  6
Continuous
 62
     0
370
     0
100
AcDbMText
 10
0.0
 20
6.4453386989
 30
0.0
 40
5.0
 41
0.0
 71
     1
 72
     1
  1
Technische Änderungen und Irrtümer vorbehalten. Aus dem Gebrauch der Zeichnung können keinerlei Ansprüche (inkl. 
  7
SLDTEXTSTYLE0
 73
     1
 44
1.0
  0
MTEXT
  5
12F
330
12B
100
AcDbEntity
  8
0
  6
Continuous
 62
     0
370
     0
100
AcDbMText
 10
0.0
 20
-0.5546615172
 30
0.0
 40
5.0
 41
0.0
 71
     1
 72
     1
  1
Schadenersatzansprüche) erhoben und gegen ECO Schulte geltend gemacht werden. Die Zeichnung bleibt unser Eigentum. Sämtliche 
  7
SLDTEXTSTYLE0
 73
     1
 44
1.0
  0
MTEXT
  5
130
330
12B
100
AcDbEntity
  8
0
  6
Continuous
 62
     0
370
     0
100
AcDbMText
 10
0.0
 20
-7.5546617333
 30
0.0
 40
5.0
 41
0.0
 71
     1
 72
     1
  1
sich aus der Zeichnung ergebenden Ansprüche stehen ausschließlich ECO Schulte zu.
  7
SLDTEXTSTYLE0
 73
     1
 44
1.0
  0
MTEXT
  5
131
330
12B
100
AcDbEntity
  8
0
  6
Continuous
 62
     0
370
     0
100
AcDbMText
 10
0.0
 20
-21.5546621654
 30
0.0
 40
5.0
 41
0.0
 71
     1
 72
     1
  1
Technical changes and errors excepted. No claims (including compensation claims) may be raised against ECO Schulte by using of this 
  7
SLDTEXTSTYLE0
 73
     1
 44
1.0
  0
MTEXT
  5
132
330
12B
100
AcDbEntity
  8
0
  6
Continuous
 62
     0
370
     0
100
AcDbMText
 10
0.0
 20
-28.5546623815
 30
0.0
 40
5.0
 41
0.0
 71
     1
 72
     1
  1
drawing. The drawing remains the property of ECO Schulte. All claims resulting from this drawing are solely entitled to ECO Schulte.
  7
SLDTEXTSTYLE0
 73
     1
 44
1.0
  0
ENDBLK
  5
12D
330
12B
100
AcDbEntity
  8
0
100
AcDbBlockEnd
  0
BLOCK
  5
158
330
157
100
AcDbEntity
  8
0
100
AcDbBlockBegin
  2
SW_NOTE_0_9
 70
     0
 10
0.0
 20
0.0
 30
0.0
  3
SW_NOTE_0_9
  1

  0
MTEXT
  5
15A
330
157
100
AcDbEntity
  8
FORMAT
 62
     0
100
AcDbMText
 10
0.0
 20
2.5781354795
 30
0.0
 40
2.0
 41
0.0
 71
     1
 72
     1
  1
Technische Änderungen und Irrtümer vorbehalten. Aus dem Gebrauch der Zeichnung 
  7
SLDTEXTSTYLE0
 73
     1
 44
1.0
  0
MTEXT
  5
15B
330
157
100
AcDbEntity
  8
FORMAT
 62
     0
100
AcDbMText
 10
0.0
 20
-0.4218645465
 30
0.0
 40
2.0
 41
0.0
 71
     1
 72
     1
  1
können keinerlei Ansprüche (inkl. Schadenersatzansprüche) erhoben und gegen ECO 
  7
SLDTEXTSTYLE0
 73
     1
 44
1.0
  0
MTEXT
  5
15C
330
157
100
AcDbEntity
  8
FORMAT
 62
     0
100
AcDbMText
 10
0.0
 20
-3.4218645726
 30
0.0
 40
2.0
 41
0.0
 71
     1
 72
     1
  1
Schulte geltend gemacht werden. Die Zeichnung bleibt unser Eigentum. Sämtliche sich 
  7
SLDTEXTSTYLE0
 73
     1
 44
1.0
  0
MTEXT
  5
15D
330
157
100
AcDbEntity
  8
FORMAT
 62
     0
100
AcDbMText
 10
0.0
 20
-6.4218645987
 30
0.0
 40
2.0
 41
0.0
 71
     1
 72
     1
  1
aus der Zeichnung ergebenden Ansprüche stehen ausschließlich ECO Schulte zu. 
  7
SLDTEXTSTYLE0
 73
     1
 44
1.0
  0
MTEXT
  5
15E
330
157
100
AcDbEntity
  8
FORMAT
 62
     0
100
AcDbMText
 10
0.0
 20
-12.4218646508
 30
0.0
 40
2.0
 41
0.0
 71
     1
 72
     1
  1
Technical changes and errors excepted. No claims (including compensation claims) may 
  7
SLDTEXTSTYLE0
 73
     1
 44
1.0
  0
MTEXT
  5
15F
330
157
100
AcDbEntity
  8
FORMAT
 62
     0
100
AcDbMText
 10
0.0
 20
-15.4218646769
 30
0.0
 40
2.0
 41
0.0
 71
     1
 72
     1
  1
be raised against ECO Schulte by using of this drawing. The drawing remains the property 
  7
SLDTEXTSTYLE0
 73
     1
 44
1.0
  0
MTEXT
  5
160
330
157
100
AcDbEntity
  8
FORMAT
 62
     0
100
AcDbMText
 10
0.0
 20
-18.421864703
 30
0.0
 40
2.0
 41
0.0
 71
     1
 72
     1
  1
of ECO Schulte. All claims resulting from this drawing are solely entitled to ECO Schulte.
  7
SLDTEXTSTYLE0
 73
     1
 44
1.0
  0
ENDBLK
  5
159
330
157
100
AcDbEntity
  8
0
100
AcDbBlockEnd
  0
BLOCK
  5
1F1
330
1F0
100
AcDbEntity
  8
0
100
AcDbBlockBegin
  2
_D
 70
     0
 10
0.0
 20
0.0
 30
0.0
  3
_D
  1

  0
SOLID
  5
1F3
330
1F0
100
AcDbEntity
  8
FORMAT
100
AcDbTrace
 10
25.365483698
 20
125.0761918677
 30
0.0
 11
25.873483698
 21
128.3781918677
 31
0.0
 12
24.857483698
 22
128.3781918677
 32
0.0
 13
24.857483698
 23
128.3781918677
 33
0.0
  0
SOLID
  5
1F4
330
1F0
100
AcDbEntity
  8
FORMAT
100
AcDbTrace
 10
25.365483698
 20
143.0761918677
 30
0.0
 11
24.857483698
 21
139.7741918677
 31
0.0
 12
25.873483698
 22
139.7741918677
 32
0.0
 13
25.873483698
 23
139.7741918677
 33
0.0
  0
LINE
  5
1F5
330
1F0
100
AcDbEntity
  8
FORMAT
100
AcDbLine
 10
35.365483698
 20
125.0761918677
 30
0.0
 11
24.365483698
 21
125.0761918677
 31
0.0
  0
LINE
  5
1F6
330
1F0
100
AcDbEntity
  8
FORMAT
100
AcDbLine
 10
35.365483698
 20
143.0761918677
 30
0.0
 11
24.365483698
 21
143.0761918677
 31
0.0
  0
LINE
  5
1F7
330
1F0
100
AcDbEntity
  8
FORMAT
100
AcDbLine
 10
25.365483698
 20
125.0761918677
 30
0.0
 11
25.365483698
 21
143.0761918677
 31
0.0
  0
MTEXT
  5
1F8
330
1F0
100
AcDbEntity
  8
FORMAT
100
AcDbMText
 10
20.8537466088
 20
128.851105283
 30
0.0
 40
3.5
 41
0.0
 71
     1
 72
     1
  1
%%c
  7
SLDTEXTSTYLE0
 11
6.123233995736766E-17
 21
1.0
 31
0.0
 73
     1
 44
1.0
  0
MTEXT
  5
1F9
330
1F0
100
AcDbEntity
  8
FORMAT
100
AcDbMText
 10
20.8440242996
 20
133.9540568283
 30
0.0
 40
3.5
 41
0.0
 71
     1
 72
     1
  1
18
  7
SLDTEXTSTYLE0
 11
6.123233995736766E-17
 21
1.0
 31
0.0
 73
     1
 44
1.0
  0
ENDBLK
  5
1F2
330
1F0
100
AcDbEntity
  8
0
100
AcDbBlockEnd
  0
BLOCK
  5
1FC
330
1FB
100
AcDbEntity
  8
0
100
AcDbBlockBegin
  2
_D_1
 70
     0
 10
0.0
 20
0.0
 30
0.0
  3
_D_1
  1

  0
SOLID
  5
1FE
330
1FB
100
AcDbEntity
  8
FORMAT
100
AcDbTrace
 10
68.165483698
 20
85.0761918677
 30
0.0
 11
71.467483698
 21
84.5681918677
 31
0.0
 12
71.467483698
 22
85.5841918677
 32
0.0
 13
71.467483698
 23
85.5841918677
 33
0.0
  0
SOLID
  5
1FF
330
1FB
100
AcDbEntity
  8
FORMAT
100
AcDbTrace
 10
96.165483698
 20
85.0761918677
 30
0.0
 11
92.863483698
 21
85.5841918677
 31
0.0
 12
92.863483698
 22
84.5681918677
 32
0.0
 13
92.863483698
 23
84.5681918677
 33
0.0
  0
LINE
  5
200
330
1FB
100
AcDbEntity
  8
FORMAT
100
AcDbLine
 10
68.165483698
 20
98.5761918677
 30
0.0
 11
68.165483698
 21
84.0761918677
 31
0.0
  0
LINE
  5
201
330
1FB
100
AcDbEntity
  8
FORMAT
100
AcDbLine
 10
96.165483698
 20
92.5761918677
 30
0.0
 11
96.165483698
 21
84.0761918677
 31
0.0
  0
LINE
  5
202
330
1FB
100
AcDbEntity
  8
FORMAT
100
AcDbLine
 10
68.165483698
 20
85.0761918677
 30
0.0
 11
96.165483698
 21
85.0761918677
 31
0.0
  0
MTEXT
  5
203
330
1FB
100
AcDbEntity
  8
FORMAT
100
AcDbMText
 10
79.4918726531
 20
89.5879291897
 30
0.0
 40
3.5
 41
0.0
 71
     1
 72
     1
  1
28
  7
SLDTEXTSTYLE0
 73
     1
 44
1.0
  0
ENDBLK
  5
1FD
330
1FB
100
AcDbEntity
  8
0
100
AcDbBlockEnd
  0
BLOCK
  5
206
330
205
100
AcDbEntity
  8
0
100
AcDbBlockBegin
  2
_D_2
 70
     0
 10
0.0
 20
0.0
 30
0.0
  3
_D_2
  1

  0
SOLID
  5
208
330
205
100
AcDbEntity
  8
FORMAT
100
AcDbTrace
 10
124.165483698
 20
85.0761918677
 30
0.0
 11
120.863483698
 21
85.5841918677
 31
0.0
 12
120.863483698
 22
84.5681918677
 32
0.0
 13
120.863483698
 23
84.5681918677
 33
0.0
  0
SOLID
  5
209
330
205
100
AcDbEntity
  8
FORMAT
100
AcDbTrace
 10
96.165483698
 20
85.0761918677
 30
0.0
 11
99.467483698
 21
84.5681918677
 31
0.0
 12
99.467483698
 22
85.5841918677
 32
0.0
 13
99.467483698
 23
85.5841918677
 33
0.0
  0
LINE
  5
20A
330
205
100
AcDbEntity
  8
FORMAT
100
AcDbLine
 10
124.165483698
 20
98.5761918677
 30
0.0
 11
124.165483698
 21
84.0761918677
 31
0.0
  0
LINE
  5
20B
330
205
100
AcDbEntity
  8
FORMAT
100
AcDbLine
 10
96.165483698
 20
92.5761918677
 30
0.0
 11
96.165483698
 21
84.0761918677
 31
0.0
  0
LINE
  5
20C
330
205
100
AcDbEntity
  8
FORMAT
100
AcDbLine
 10
124.165483698
 20
85.0761918677
 30
0.0
 11
96.165483698
 21
85.0761918677
 31
0.0
  0
MTEXT
  5
20D
330
205
100
AcDbEntity
  8
FORMAT
100
AcDbMText
 10
107.4918726531
 20
89.5879291897
 30
0.0
 40
3.5
 41
0.0
 71
     1
 72
     1
  1
28
  7
SLDTEXTSTYLE0
 73
     1
 44
1.0
  0
ENDBLK
  5
207
330
205
100
AcDbEntity
  8
0
100
AcDbBlockEnd
  0
BLOCK
  5
210
330
20F
100
AcDbEntity
  8
0
100
AcDbBlockBegin
  2
_D_3
 70
     0
 10
0.0
 20
0.0
 30
0.0
  3
_D_3
  1

  0
SOLID
  5
212
330
20F
100
AcDbEntity
  8
FORMAT
100
AcDbTrace
 10
54.165483698
 20
73.0761918677
 30
0.0
 11
57.467483698
 21
72.5681918677
 31
0.0
 12
57.467483698
 22
73.5841918677
 32
0.0
 13
57.467483698
 23
73.5841918677
 33
0.0
  0
SOLID
  5
213
330
20F
100
AcDbEntity
  8
FORMAT
100
AcDbTrace
 10
138.165483698
 20
73.0761918677
 30
0.0
 11
134.863483698
 21
73.5841918677
 31
0.0
 12
134.863483698
 22
72.5681918677
 32
0.0
 13
134.863483698
 23
72.5681918677
 33
0.0
  0
LINE
  5
214
330
20F
100
AcDbEntity
  8
FORMAT
100
AcDbLine
 10
54.165483698
 20
94.5761918677
 30
0.0
 11
54.165483698
 21
72.0761918677
 31
0.0
  0
LINE
  5
215
330
20F
100
AcDbEntity
  8
FORMAT
100
AcDbLine
 10
138.165483698
 20
94.5761918677
 30
0.0
 11
138.165483698
 21
72.0761918677
 31
0.0
  0
LINE
  5
216
330
20F
100
AcDbEntity
  8
FORMAT
100
AcDbLine
 10
54.165483698
 20
73.0761918677
 30
0.0
 11
138.165483698
 21
73.0761918677
 31
0.0
  0
MTEXT
  5
217
330
20F
100
AcDbEntity
  8
FORMAT
100
AcDbMText
 10
93.4918726531
 20
77.5879291897
 30
0.0
 40
3.5
 41
0.0
 71
     1
 72
     1
  1
84
  7
SLDTEXTSTYLE0
 73
     1
 44
1.0
  0
ENDBLK
  5
211
330
20F
100
AcDbEntity
  8
0
100
AcDbBlockEnd
  0
BLOCK
  5
21A
330
219
100
AcDbEntity
  8
0
100
AcDbBlockBegin
  2
_D_4
 70
     0
 10
0.0
 20
0.0
 30
0.0
  3
_D_4
  1

  0
SOLID
  5
21C
330
219
100
AcDbEntity
  8
FORMAT
100
AcDbTrace
 10
32.165483698
 20
185.2349410904
 30
0.0
 11
35.467483698
 21
184.7269410904
 31
0.0
 12
35.467483698
 22
185.7429410904
 32
0.0
 13
35.467483698
 23
185.7429410904
 33
0.0
  0
SOLID
  5
21D
330
219
100
AcDbEntity
  8
FORMAT
100
AcDbTrace
 10
160.165483698
 20
185.2349410904
 30
0.0
 11
156.863483698
 21
185.7429410904
 31
0.0
 12
156.863483698
 22
184.7269410904
 32
0.0
 13
156.863483698
 23
184.7269410904
 33
0.0
  0
LINE
  5
21E
330
219
100
AcDbEntity
  8
FORMAT
100
AcDbLine
 10
32.165483698
 20
154.5761918677
 30
0.0
 11
32.165483698
 21
157.0761918677
 31
0.0
  0
LINE
  5
21F
330
219
100
AcDbEntity
  8
FORMAT
100
AcDbLine
 10
32.165483698
 20
160.0761918677
 30
0.0
 11
32.165483698
 21
186.2349410904
 31
0.0
  0
LINE
  5
220
330
219
100
AcDbEntity
  8
FORMAT
100
AcDbLine
 10
160.165483698
 20
154.5761918677
 30
0.0
 11
160.165483698
 21
157.0761918677
 31
0.0
  0
LINE
  5
221
330
219
100
AcDbEntity
  8
FORMAT
100
AcDbLine
 10
160.165483698
 20
160.0761918677
 30
0.0
 11
160.165483698
 21
163.5786652564
 31
0.0
  0
LINE
  5
222
330
219
100
AcDbEntity
  8
FORMAT
100
AcDbLine
 10
160.165483698
 20
166.5786652564
 30
0.0
 11
160.165483698
 21
186.2349410904
 31
0.0
  0
LINE
  5
223
330
219
100
AcDbEntity
  8
FORMAT
100
AcDbLine
 10
32.165483698
 20
185.2349410904
 30
0.0
 11
160.165483698
 21
185.2349410904
 31
0.0
  0
MTEXT
  5
224
330
219
100
AcDbEntity
  8
FORMAT
100
AcDbMText
 10
92.1550671307
 20
189.7466784124
 30
0.0
 40
3.5
 41
0.0
 71
     1
 72
     1
  1
128
  7
SLDTEXTSTYLE0
 73
     1
 44
1.0
  0
ENDBLK
  5
21B
330
219
100
AcDbEntity
  8
0
100
AcDbBlockEnd
  0
BLOCK
  5
227
330
226
100
AcDbEntity
  8
0
100
AcDbBlockBegin
  2
_D_5
 70
     0
 10
0.0
 20
0.0
 30
0.0
  3
_D_5
  1

  0
SOLID
  5
229
330
226
100
AcDbEntity
  8
FORMAT
100
AcDbTrace
 10
44.165483698
 20
173.1293881867
 30
0.0
 11
47.467483698
 21
172.6213881867
 31
0.0
 12
47.467483698
 22
173.6373881867
 32
0.0
 13
47.467483698
 23
173.6373881867
 33
0.0
  0
SOLID
  5
22A
330
226
100
AcDbEntity
  8
FORMAT
100
AcDbTrace
 10
70.165483698
 20
173.1293881867
 30
0.0
 11
66.863483698
 21
173.6373881867
 31
0.0
 12
66.863483698
 22
172.6213881867
 32
0.0
 13
66.863483698
 23
172.6213881867
 33
0.0
  0
LINE
  5
22B
330
226
100
AcDbEntity
  8
FORMAT
100
AcDbLine
 10
44.165483698
 20
167.5761918677
 30
0.0
 11
44.165483698
 21
174.1293881867
 31
0.0
  0
LINE
  5
22C
330
226
100
AcDbEntity
  8
FORMAT
100
AcDbLine
 10
70.165483698
 20
162.5761918677
 30
0.0
 11
70.165483698
 21
174.1293881867
 31
0.0
  0
LINE
  5
22D
330
226
100
AcDbEntity
  8
FORMAT
100
AcDbLine
 10
44.165483698
 20
173.1293881867
 30
0.0
 11
70.165483698
 21
173.1293881867
 31
0.0
  0
MTEXT
  5
22E
330
226
100
AcDbEntity
  8
FORMAT
100
AcDbMText
 10
51.0205832662
 20
177.6411255087
 30
0.0
 40
3.5
 41
0.0
 71
     1
 72
     1
  1
26
  7
SLDTEXTSTYLE0
 73
     1
 44
1.0
  0
ENDBLK
  5
228
330
226
100
AcDbEntity
  8
0
100
AcDbBlockEnd
  0
BLOCK
  5
231
330
230
100
AcDbEntity
  8
0
100
AcDbBlockBegin
  2
_D_6
 70
     0
 10
0.0
 20
0.0
 30
0.0
  3
_D_6
  1

  0
SOLID
  5
233
330
230
100
AcDbEntity
  8
FORMAT
100
AcDbTrace
 10
70.165483698
 20
173.1293881867
 30
0.0
 11
73.467483698
 21
172.6213881867
 31
0.0
 12
73.467483698
 22
173.6373881867
 32
0.0
 13
73.467483698
 23
173.6373881867
 33
0.0
  0
SOLID
  5
234
330
230
100
AcDbEntity
  8
FORMAT
100
AcDbTrace
 10
96.165483698
 20
173.1293881867
 30
0.0
 11
92.863483698
 21
173.6373881867
 31
0.0
 12
92.863483698
 22
172.6213881867
 32
0.0
 13
92.863483698
 23
172.6213881867
 33
0.0
  0
LINE
  5
235
330
230
100
AcDbEntity
  8
FORMAT
100
AcDbLine
 10
70.165483698
 20
162.5761918677
 30
0.0
 11
70.165483698
 21
174.1293881867
 31
0.0
  0
LINE
  5
236
330
230
100
AcDbEntity
  8
FORMAT
100
AcDbLine
 10
96.165483698
 20
167.5761918677
 30
0.0
 11
96.165483698
 21
174.1293881867
 31
0.0
  0
LINE
  5
237
330
230
100
AcDbEntity
  8
FORMAT
100
AcDbLine
 10
70.165483698
 20
173.1293881867
 30
0.0
 11
96.165483698
 21
173.1293881867
 31
0.0
  0
MTEXT
  5
238
330
230
100
AcDbEntity
  8
FORMAT
100
AcDbMText
 10
80.4918726531
 20
177.6411255087
 30
0.0
 40
3.5
 41
0.0
 71
     1
 72
     1
  1
26
  7
SLDTEXTSTYLE0
 73
     1
 44
1.0
  0
ENDBLK
  5
232
330
230
100
AcDbEntity
  8
0
100
AcDbBlockEnd
  0
BLOCK
  5
23B
330
23A
100
AcDbEntity
  8
0
100
AcDbBlockBegin
  2
_D_7
 70
     0
 10
0.0
 20
0.0
 30
0.0
  3
_D_7
  1

  0
SOLID
  5
23D
330
23A
100
AcDbEntity
  8
FORMAT
100
AcDbTrace
 10
96.165483698
 20
173.1293881867
 30
0.0
 11
99.467483698
 21
172.6213881867
 31
0.0
 12
99.467483698
 22
173.6373881867
 32
0.0
 13
99.467483698
 23
173.6373881867
 33
0.0
  0
SOLID
  5
23E
330
23A
100
AcDbEntity
  8
FORMAT
100
AcDbTrace
 10
122.165483698
 20
173.1293881867
 30
0.0
 11
118.863483698
 21
173.6373881867
 31
0.0
 12
118.863483698
 22
172.6213881867
 32
0.0
 13
118.863483698
 23
172.6213881867
 33
0.0
  0
LINE
  5
23F
330
23A
100
AcDbEntity
  8
FORMAT
100
AcDbLine
 10
96.165483698
 20
167.5761918677
 30
0.0
 11
96.165483698
 21
174.1293881867
 31
0.0
  0
LINE
  5
240
330
23A
100
AcDbEntity
  8
FORMAT
100
AcDbLine
 10
122.165483698
 20
162.5761918677
 30
0.0
 11
122.165483698
 21
174.1293881867
 31
0.0
  0
LINE
  5
241
330
23A
100
AcDbEntity
  8
FORMAT
100
AcDbLine
 10
96.165483698
 20
173.1293881867
 30
0.0
 11
122.165483698
 21
173.1293881867
 31
0.0
  0
MTEXT
  5
242
330
23A
100
AcDbEntity
  8
FORMAT
100
AcDbMText
 10
106.4918726531
 20
177.6411255087
 30
0.0
 40
3.5
 41
0.0
 71
     1
 72
     1
  1
26
  7
SLDTEXTSTYLE0
 73
     1
 44
1.0
  0
ENDBLK
  5
23C
330
23A
100
AcDbEntity
  8
0
100
AcDbBlockEnd
  0
BLOCK
  5
246
330
245
100
AcDbEntity
  8
0
100
AcDbBlockBegin
  2
_D_8
 70
     0
 10
0.0
 20
0.0
 30
0.0
  3
_D_8
  1

  0
SOLID
  5
248
330
245
100
AcDbEntity
  8
FORMAT
100
AcDbTrace
 10
25.365483698
 20
165.5761918677
 30
0.0
 11
25.873483698
 21
168.8781918677
 31
0.0
 12
24.857483698
 22
168.8781918677
 32
0.0
 13
24.857483698
 23
168.8781918677
 33
0.0
  0
SOLID
  5
249
330
245
100
AcDbEntity
  8
FORMAT
100
AcDbTrace
 10
25.365483698
 20
158.5761918677
 30
0.0
 11
24.857483698
 21
155.2741918677
 31
0.0
 12
25.873483698
 22
155.2741918677
 32
0.0
 13
25.873483698
 23
155.2741918677
 33
0.0
  0
LINE
  5
24A
330
245
100
AcDbEntity
  8
FORMAT
100
AcDbLine
 10
43.165483698
 20
165.5761918677
 30
0.0
 11
33.665483698
 21
165.5761918677
 31
0.0
  0
LINE
  5
24B
330
245
100
AcDbEntity
  8
FORMAT
100
AcDbLine
 10
30.665483698
 20
165.5761918677
 30
0.0
 11
24.365483698
 21
165.5761918677
 31
0.0
  0
LINE
  5
24C
330
245
100
AcDbEntity
  8
FORMAT
100
AcDbLine
 10
35.165483698
 20
158.5761918677
 30
0.0
 11
33.665483698
 21
158.5761918677
 31
0.0
  0
LINE
  5
24D
330
245
100
AcDbEntity
  8
FORMAT
100
AcDbLine
 10
30.665483698
 20
158.5761918677
 30
0.0
 11
24.365483698
 21
158.5761918677
 31
0.0
  0
LINE
  5
24E
330
245
100
AcDbEntity
  8
FORMAT
100
AcDbLine
 10
25.365483698
 20
165.5761918677
 30
0.0
 11
25.365483698
 21
171.9261918677
 31
0.0
  0
LINE
  5
24F
330
245
100
AcDbEntity
  8
FORMAT
100
AcDbLine
 10
25.365483698
 20
165.5761918677
 30
0.0
 11
25.365483698
 21
158.5761918677
 31
0.0
  0
LINE
  5
250
330
245
100
AcDbEntity
  8
FORMAT
100
AcDbLine
 10
25.365483698
 20
158.5761918677
 30
0.0
 11
25.365483698
 21
152.2261918677
 31
0.0
  0
MTEXT
  5
251
330
245
100
AcDbEntity
  8
FORMAT
100
AcDbMText
 10
20.8537463759
 20
160.7393863453
 30
0.0
 40
3.5
 41
0.0
 71
     1
 72
     1
  1
7
  7
SLDTEXTSTYLE0
 11
-7.044195017643634E-15
 21
1.0
 31
0.0
 73
     1
 44
1.0
  0
ENDBLK
  5
247
330
245
100
AcDbEntity
  8
0
100
AcDbBlockEnd
  0
BLOCK
  5
254
330
253
100
AcDbEntity
  8
0
100
AcDbBlockBegin
  2
_D_9
 70
     0
 10
0.0
 20
0.0
 30
0.0
  3
_D_9
  1

  0
SOLID
  5
256
330
253
100
AcDbEntity
  8
FORMAT
100
AcDbTrace
 10
87.0391240739
 20
153.5761918677
 30
0.0
 11
87.5471240739
 21
156.8781918677
 31
0.0
 12
86.5311240739
 22
156.8781918677
 32
0.0
 13
86.5311240739
 23
156.8781918677
 33
0.0
  0
SOLID
  5
257
330
253
100
AcDbEntity
  8
FORMAT
100
AcDbTrace
 10
87.0391240739
 20
165.5761918677
 30
0.0
 11
86.5311240739
 21
162.2741918677
 31
0.0
 12
87.5471240739
 22
162.2741918677
 32
0.0
 13
87.5471240739
 23
162.2741918677
 33
0.0
  0
LINE
  5
258
330
253
100
AcDbEntity
  8
FORMAT
100
AcDbLine
 10
79.165483698
 20
153.5761918677
 30
0.0
 11
88.0391240739
 21
153.5761918677
 31
0.0
  0
LINE
  5
259
330
253
100
AcDbEntity
  8
FORMAT
100
AcDbLine
 10
87.0391240739
 20
153.5761918677
 30
0.0
 11
87.0391240739
 21
165.5761918677
 31
0.0
  0
MTEXT
  5
25A
330
253
100
AcDbEntity
  8
FORMAT
100
AcDbMText
 10
82.5273867519
 20
156.9025808228
 30
0.0
 40
3.5
 41
0.0
 71
     1
 72
     1
  1
12
  7
SLDTEXTSTYLE0
 11
6.123233995736766E-17
 21
1.0
 31
0.0
 73
     1
 44
1.0
  0
ENDBLK
  5
255
330
253
100
AcDbEntity
  8
0
100
AcDbBlockEnd
  0
BLOCK
  5
25D
330
25C
100
AcDbEntity
  8
0
100
AcDbBlockBegin
  2
_D_10
 70
     0
 10
0.0
 20
0.0
 30
0.0
  3
_D_10
  1

  0
SOLID
  5
25F
330
25C
100
AcDbEntity
  8
FORMAT
100
AcDbTrace
 10
109.9702736647
 20
165.5761918677
 30
0.0
 11
110.4782736647
 21
168.8781918677
 31
0.0
 12
109.4622736647
 22
168.8781918677
 32
0.0
 13
109.4622736647
 23
168.8781918677
 33
0.0
  0
SOLID
  5
260
330
25C
100
AcDbEntity
  8
FORMAT
100
AcDbTrace
 10
109.9702736647
 20
158.5761918677
 30
0.0
 11
109.4622736647
 21
155.2741918677
 31
0.0
 12
110.4782736647
 22
155.2741918677
 32
0.0
 13
110.4782736647
 23
155.2741918677
 33
0.0
  0
LINE
  5
261
330
25C
100
AcDbEntity
  8
FORMAT
100
AcDbLine
 10
105.165483698
 20
158.5761918677
 30
0.0
 11
110.9702736647
 21
158.5761918677
 31
0.0
  0
LINE
  5
262
330
25C
100
AcDbEntity
  8
FORMAT
100
AcDbLine
 10
109.9702736647
 20
165.5761918677
 30
0.0
 11
109.9702736647
 21
171.9261918677
 31
0.0
  0
LINE
  5
263
330
25C
100
AcDbEntity
  8
FORMAT
100
AcDbLine
 10
109.9702736647
 20
165.5761918677
 30
0.0
 11
109.9702736647
 21
158.5761918677
 31
0.0
  0
LINE
  5
264
330
25C
100
AcDbEntity
  8
FORMAT
100
AcDbLine
 10
109.9702736647
 20
158.5761918677
 30
0.0
 11
109.9702736647
 21
152.2261918677
 31
0.0
  0
MTEXT
  5
265
330
25C
100
AcDbEntity
  8
FORMAT
100
AcDbMText
 10
105.4585363426
 20
160.7393863453
 30
0.0
 40
3.5
 41
0.0
 71
     1
 72
     1
  1
7
  7
SLDTEXTSTYLE0
 11
-7.044195017643634E-15
 21
1.0
 31
0.0
 73
     1
 44
1.0
  0
ENDBLK
  5
25E
330
25C
100
AcDbEntity
  8
0
100
AcDbBlockEnd
  0
BLOCK
  5
269
330
268
100
AcDbEntity
  8
0
100
AcDbBlockBegin
  2
_D_11
 70
     0
 10
0.0
 20
0.0
 30
0.0
  3
_D_11
  1

  0
SOLID
  5
26B
330
268
100
AcDbEntity
  8
FORMAT
100
AcDbTrace
 10
156.8284501305
 20
161.8799869392
 30
0.0
 11
159.5637370519
 21
163.798182304
 31
0.0
 12
158.8606824025
 22
164.5316467953
 32
0.0
 13
158.8606824025
 23
164.5316467953
 33
0.0
  0
LINE
  5
26C
330
268
100
AcDbEntity
  8
FORMAT
100
AcDbLine
 10
156.8284501305
 20
161.8799869392
 30
0.0
 11
169.5785805728
 21
174.1014899488
 31
0.0
  0
MTEXT
  5
26D
330
268
100
AcDbEntity
  8
FORMAT
100
AcDbMText
 10
160.1009674892
 20
171.2458773248
 30
0.0
 40
3.5
 41
0.0
 71
     1
 72
     1
  1
R12
  7
SLDTEXTSTYLE0
 11
0.7219138693781816
 21
0.6919829226212318
 31
0.0
 73
     1
 44
1.0
  0
ENDBLK
  5
26A
330
268
100
AcDbEntity
  8
0
100
AcDbBlockEnd
  0
BLOCK
  5
270
330
26F
100
AcDbEntity
  8
0
100
AcDbBlockBegin
  2
_D_12
 70
     0
 10
0.0
 20
0.0
 30
0.0
  3
_D_12
  1

  0
SOLID
  5
272
330
26F
100
AcDbEntity
  8
FORMAT
100
AcDbTrace
 10
79.8056683279
 20
156.5761918677
 30
0.0
 11
80.3136683279
 21
159.8781918677
 31
0.0
 12
79.2976683279
 22
159.8781918677
 32
0.0
 13
79.2976683279
 23
159.8781918677
 33
0.0
  0
SOLID
  5
273
330
26F
100
AcDbEntity
  8
FORMAT
100
AcDbTrace
 10
79.8056683279
 20
165.5761918677
 30
0.0
 11
79.2976683279
 21
162.2741918677
 31
0.0
 12
80.3136683279
 22
162.2741918677
 32
0.0
 13
80.3136683279
 23
162.2741918677
 33
0.0
  0
LINE
  5
274
330
26F
100
AcDbEntity
  8
FORMAT
100
AcDbLine
 10
58.165483698
 20
156.5761918677
 30
0.0
 11
80.8056683279
 21
156.5761918677
 31
0.0
  0
LINE
  5
275
330
26F
100
AcDbEntity
  8
FORMAT
100
AcDbLine
 10
79.8056683279
 20
156.5761918677
 30
0.0
 11
79.8056683279
 21
165.5761918677
 31
0.0
  0
MTEXT
  5
276
330
26F
100
AcDbEntity
  8
FORMAT
100
AcDbMText
 10
75.2939310059
 20
159.7393863453
 30
0.0
 40
3.5
 41
0.0
 71
     1
 72
     1
  1
9
  7
SLDTEXTSTYLE0
 11
6.123233995736766E-17
 21
1.0
 31
0.0
 73
     1
 44
1.0
  0
ENDBLK
  5
271
330
26F
100
AcDbEntity
  8
0
100
AcDbBlockEnd
  0
BLOCK
  5
279
330
278
100
AcDbEntity
  8
0
100
AcDbBlockBegin
  2
_D_13
 70
     0
 10
0.0
 20
0.0
 30
0.0
  3
_D_13
  1

  0
SOLID
  5
27B
330
278
100
AcDbEntity
  8
FORMAT
100
AcDbTrace
 10
57.165483698
 20
179.2221570754
 30
0.0
 11
60.467483698
 21
178.7141570754
 31
0.0
 12
60.467483698
 22
179.7301570754
 32
0.0
 13
60.467483698
 23
179.7301570754
 33
0.0
  0
SOLID
  5
27C
330
278
100
AcDbEntity
  8
FORMAT
100
AcDbTrace
 10
96.165483698
 20
179.2221570754
 30
0.0
 11
92.863483698
 21
179.7301570754
 31
0.0
 12
92.863483698
 22
178.7141570754
 32
0.0
 13
92.863483698
 23
178.7141570754
 33
0.0
  0
LINE
  5
27D
330
278
100
AcDbEntity
  8
FORMAT
100
AcDbLine
 10
57.165483698
 20
157.5761918677
 30
0.0
 11
57.165483698
 21
171.6293881867
 31
0.0
  0
LINE
  5
27E
330
278
100
AcDbEntity
  8
FORMAT
100
AcDbLine
 10
57.165483698
 20
174.6293881867
 30
0.0
 11
57.165483698
 21
180.2221570754
 31
0.0
  0
LINE
  5
27F
330
278
100
AcDbEntity
  8
FORMAT
100
AcDbLine
 10
96.165483698
 20
159.5761918677
 30
0.0
 11
96.165483698
 21
180.2221570754
 31
0.0
  0
LINE
  5
280
330
278
100
AcDbEntity
  8
FORMAT
100
AcDbLine
 10
57.165483698
 20
179.2221570754
 30
0.0
 11
96.165483698
 21
179.2221570754
 31
0.0
  0
MTEXT
  5
281
330
278
100
AcDbEntity
  8
FORMAT
100
AcDbMText
 10
73.9918726531
 20
183.7338943975
 30
0.0
 40
3.5
 41
0.0
 71
     1
 72
     1
  1
39
  7
SLDTEXTSTYLE0
 73
     1
 44
1.0
  0
ENDBLK
  5
27A
330
278
100
AcDbEntity
  8
0
100
AcDbBlockEnd
  0
BLOCK
  5
284
330
283
100
AcDbEntity
  8
0
100
AcDbBlockBegin
  2
_D_14
 70
     0
 10
0.0
 20
0.0
 30
0.0
  3
_D_14
  1

  0
SOLID
  5
286
330
283
100
AcDbEntity
  8
FORMAT
100
AcDbTrace
 10
96.165483698
 20
179.2221570754
 30
0.0
 11
99.467483698
 21
178.7141570754
 31
0.0
 12
99.467483698
 22
179.7301570754
 32
0.0
 13
99.467483698
 23
179.7301570754
 33
0.0
  0
SOLID
  5
287
330
283
100
AcDbEntity
  8
FORMAT
100
AcDbTrace
 10
135.165483698
 20
179.2221570754
 30
0.0
 11
131.863483698
 21
179.7301570754
 31
0.0
 12
131.863483698
 22
178.7141570754
 32
0.0
 13
131.863483698
 23
178.7141570754
 33
0.0
  0
LINE
  5
288
330
283
100
AcDbEntity
  8
FORMAT
100
AcDbLine
 10
96.165483698
 20
159.5761918677
 30
0.0
 11
96.165483698
 21
180.2221570754
 31
0.0
  0
LINE
  5
289
330
283
100
AcDbEntity
  8
FORMAT
100
AcDbLine
 10
135.165483698
 20
160.0761918677
 30
0.0
 11
135.165483698
 21
171.6293881867
 31
0.0
  0
LINE
  5
28A
330
283
100
AcDbEntity
  8
FORMAT
100
AcDbLine
 10
135.165483698
 20
177.0761918677
 30
0.0
 11
135.165483698
 21
180.2221570754
 31
0.0
  0
LINE
  5
28B
330
283
100
AcDbEntity
  8
FORMAT
100
AcDbLine
 10
96.165483698
 20
179.2221570754
 30
0.0
 11
135.165483698
 21
179.2221570754
 31
0.0
  0
MTEXT
  5
28C
330
283
100
AcDbEntity
  8
FORMAT
100
AcDbMText
 10
112.9918726531
 20
183.7338943975
 30
0.0
 40
3.5
 41
0.0
 71
     1
 72
     1
  1
39
  7
SLDTEXTSTYLE0
 73
     1
 44
1.0
  0
ENDBLK
  5
285
330
283
100
AcDbEntity
  8
0
100
AcDbBlockEnd
  0
BLOCK
  5
28F
330
28E
100
AcDbEntity
  8
0
100
AcDbBlockBegin
  2
_D_15
 70
     0
 10
0.0
 20
0.0
 30
0.0
  3
_D_15
  1

  0
SOLID
  5
291
330
28E
100
AcDbEntity
  8
FORMAT
100
AcDbTrace
 10
122.165483698
 20
173.1293881867
 30
0.0
 11
125.467483698
 21
172.6213881867
 31
0.0
 12
125.467483698
 22
173.6373881867
 32
0.0
 13
125.467483698
 23
173.6373881867
 33
0.0
  0
SOLID
  5
292
330
28E
100
AcDbEntity
  8
FORMAT
100
AcDbTrace
 10
148.165483698
 20
173.1293881867
 30
0.0
 11
144.863483698
 21
173.6373881867
 31
0.0
 12
144.863483698
 22
172.6213881867
 32
0.0
 13
144.863483698
 23
172.6213881867
 33
0.0
  0
LINE
  5
293
330
28E
100
AcDbEntity
  8
FORMAT
100
AcDbLine
 10
122.165483698
 20
154.5761918677
 30
0.0
 11
122.165483698
 21
174.1293881867
 31
0.0
  0
LINE
  5
294
330
28E
100
AcDbEntity
  8
FORMAT
100
AcDbLine
 10
148.165483698
 20
159.5761918677
 30
0.0
 11
148.165483698
 21
174.1293881867
 31
0.0
  0
LINE
  5
295
330
28E
100
AcDbEntity
  8
FORMAT
100
AcDbLine
 10
122.165483698
 20
173.1293881867
 30
0.0
 11
148.165483698
 21
173.1293881867
 31
0.0
  0
MTEXT
  5
296
330
28E
100
AcDbEntity
  8
FORMAT
100
AcDbMText
 10
135.8877040373
 20
177.6411255087
 30
0.0
 40
3.5
 41
0.0
 71
     1
 72
     1
  1
26
  7
SLDTEXTSTYLE0
 73
     1
 44
1.0
  0
ENDBLK
  5
290
330
28E
100
AcDbEntity
  8
0
100
AcDbBlockEnd
  0
BLOCK
  5
299
330
298
100
AcDbEntity
  8
0
100
AcDbBlockBegin
  2
SW_CENTERMARKSYMBOL_0
 70
     0
 10
0.0
 20
0.0
 30
0.0
  3
SW_CENTERMARKSYMBOL_0
  1

  0
LINE
  5
29B
330
298
100
AcDbEntity
  8
FORMAT
 62
     0
100
AcDbLine
 10
0.0
 20
0.0
 30
0.0
 11
0.0
 21
2.5
 31
0.0
  0
LINE
  5
29C
330
298
100
AcDbEntity
  8
FORMAT
 62
     0
100
AcDbLine
 10
0.0
 20
0.0
 30
0.0
 11
-2.5
 21
0.0
 31
0.0
  0
LINE
  5
29D
330
298
100
AcDbEntity
  8
FORMAT
 62
     0
100
AcDbLine
 10
0.0
 20
0.0
 30
0.0
 11
0.0
 21
-2.5
 31
0.0
  0
LINE
  5
29E
330
298
100
AcDbEntity
  8
FORMAT
 62
     0
100
AcDbLine
 10
0.0
 20
0.0
 30
0.0
 11
2.5
 21
0.0
 31
0.0
  0
LINE
  5
29F
330
298
100
AcDbEntity
  8
FORMAT
 62
     0
100
AcDbLine
 10
0.0
 20
5.0
 30
0.0
 11
0.0
 21
8.0
 31
0.0
  0
LINE
  5
2A0
330
298
100
AcDbEntity
  8
FORMAT
 62
     0
100
AcDbLine
 10
-5.0
 20
0.0
 30
0.0
 11
-8.0
 21
0.0
 31
0.0
  0
LINE
  5
2A1
330
298
100
AcDbEntity
  8
FORMAT
 62
     0
100
AcDbLine
 10
0.0
 20
-5.0
 30
0.0
 11
0.0
 21
-8.0
 31
0.0
  0
LINE
  5
2A2
330
298
100
AcDbEntity
  8
FORMAT
 62
     0
100
AcDbLine
 10
5.0
 20
0.0
 30
0.0
 11
8.0
 21
0.0
 31
0.0
  0
ENDBLK
  5
29A
330
298
100
AcDbEntity
  8
0
100
AcDbBlockEnd
  0
BLOCK
  5
2A5
330
2A4
100
AcDbEntity
  8
0
100
AcDbBlockBegin
  2
SW_CENTERMARKSYMBOL_1
 70
     0
 10
0.0
 20
0.0
 30
0.0
  3
SW_CENTERMARKSYMBOL_1
  1

  0
LINE
  5
2A7
330
2A4
100
AcDbEntity
  8
FORMAT
 62
     0
100
AcDbLine
 10
0.0
 20
0.0
 30
0.0
 11
0.0
 21
2.5
 31
0.0
  0
LINE
  5
2A8
330
2A4
100
AcDbEntity
  8
FORMAT
 62
     0
100
AcDbLine
 10
0.0
 20
0.0
 30
0.0
 11
-2.5
 21
0.0
 31
0.0
  0
LINE
  5
2A9
330
2A4
100
AcDbEntity
  8
FORMAT
 62
     0
100
AcDbLine
 10
0.0
 20
0.0
 30
0.0
 11
0.0
 21
-2.5
 31
0.0
  0
LINE
  5
2AA
330
2A4
100
AcDbEntity
  8
FORMAT
 62
     0
100
AcDbLine
 10
0.0
 20
0.0
 30
0.0
 11
2.5
 21
0.0
 31
0.0
  0
LINE
  5
2AB
330
2A4
100
AcDbEntity
  8
FORMAT
 62
     0
100
AcDbLine
 10
0.0
 20
5.0
 30
0.0
 11
0.0
 21
8.0
 31
0.0
  0
LINE
  5
2AC
330
2A4
100
AcDbEntity
  8
FORMAT
 62
     0
100
AcDbLine
 10
-5.0
 20
0.0
 30
0.0
 11
-8.0
 21
0.0
 31
0.0
  0
LINE
  5
2AD
330
2A4
100
AcDbEntity
  8
FORMAT
 62
     0
100
AcDbLine
 10
0.0
 20
-5.0
 30
0.0
 11
0.0
 21
-8.0
 31
0.0
  0
LINE
  5
2AE
330
2A4
100
AcDbEntity
  8
FORMAT
 62
     0
100
AcDbLine
 10
5.0
 20
0.0
 30
0.0
 11
8.0
 21
0.0
 31
0.0
  0
ENDBLK
  5
2A6
330
2A4
100
AcDbEntity
  8
0
100
AcDbBlockEnd
  0
BLOCK
  5
2B1
330
2B0
100
AcDbEntity
  8
0
100
AcDbBlockBegin
  2
SW_CENTERMARKSYMBOL_2
 70
     0
 10
0.0
 20
0.0
 30
0.0
  3
SW_CENTERMARKSYMBOL_2
  1

  0
LINE
  5
2B3
330
2B0
100
AcDbEntity
  8
FORMAT
 62
     0
100
AcDbLine
 10
0.0
 20
0.0
 30
0.0
 11
0.0
 21
2.5
 31
0.0
  0
LINE
  5
2B4
330
2B0
100
AcDbEntity
  8
FORMAT
 62
     0
100
AcDbLine
 10
0.0
 20
0.0
 30
0.0
 11
-2.5
 21
0.0
 31
0.0
  0
LINE
  5
2B5
330
2B0
100
AcDbEntity
  8
FORMAT
 62
     0
100
AcDbLine
 10
0.0
 20
0.0
 30
0.0
 11
0.0
 21
-2.5
 31
0.0
  0
LINE
  5
2B6
330
2B0
100
AcDbEntity
  8
FORMAT
 62
     0
100
AcDbLine
 10
0.0
 20
0.0
 30
0.0
 11
2.5
 21
0.0
 31
0.0
  0
LINE
  5
2B7
330
2B0
100
AcDbEntity
  8
FORMAT
 62
     0
100
AcDbLine
 10
0.0
 20
5.0
 30
0.0
 11
0.0
 21
8.0
 31
0.0
  0
LINE
  5
2B8
330
2B0
100
AcDbEntity
  8
FORMAT
 62
     0
100
AcDbLine
 10
-5.0
 20
0.0
 30
0.0
 11
-8.0
 21
0.0
 31
0.0
  0
LINE
  5
2B9
330
2B0
100
AcDbEntity
  8
FORMAT
 62
     0
100
AcDbLine
 10
0.0
 20
-5.0
 30
0.0
 11
0.0
 21
-8.0
 31
0.0
  0
LINE
  5
2BA
330
2B0
100
AcDbEntity
  8
FORMAT
 62
     0
100
AcDbLine
 10
5.0
 20
0.0
 30
0.0
 11
8.0
 21
0.0
 31
0.0
  0
ENDBLK
  5
2B2
330
2B0
100
AcDbEntity
  8
0
100
AcDbBlockEnd
  0
BLOCK
  5
2BD
330
2BC
100
AcDbEntity
  8
0
100
AcDbBlockBegin
  2
SW_CENTERMARKSYMBOL_3
 70
     0
 10
0.0
 20
0.0
 30
0.0
  3
SW_CENTERMARKSYMBOL_3
  1

  0
LINE
  5
2BF
330
2BC
100
AcDbEntity
  8
FORMAT
 62
     0
100
AcDbLine
 10
0.0
 20
0.0
 30
0.0
 11
0.0
 21
2.5
 31
0.0
  0
LINE
  5
2C0
330
2BC
100
AcDbEntity
  8
FORMAT
 62
     0
100
AcDbLine
 10
0.0
 20
0.0
 30
0.0
 11
-2.5
 21
0.0
 31
0.0
  0
LINE
  5
2C1
330
2BC
100
AcDbEntity
  8
FORMAT
 62
     0
100
AcDbLine
 10
0.0
 20
0.0
 30
0.0
 11
0.0
 21
-2.5
 31
0.0
  0
LINE
  5
2C2
330
2BC
100
AcDbEntity
  8
FORMAT
 62
     0
100
AcDbLine
 10
0.0
 20
0.0
 30
0.0
 11
2.5
 21
0.0
 31
0.0
  0
LINE
  5
2C3
330
2BC
100
AcDbEntity
  8
FORMAT
 62
     0
100
AcDbLine
 10
0.0
 20
5.0
 30
0.0
 11
0.0
 21
8.0
 31
0.0
  0
LINE
  5
2C4
330
2BC
100
AcDbEntity
  8
FORMAT
 62
     0
100
AcDbLine
 10
-5.0
 20
0.0
 30
0.0
 11
-8.0
 21
0.0
 31
0.0
  0
LINE
  5
2C5
330
2BC
100
AcDbEntity
  8
FORMAT
 62
     0
100
AcDbLine
 10
0.0
 20
-5.0
 30
0.0
 11
0.0
 21
-8.0
 31
0.0
  0
LINE
  5
2C6
330
2BC
100
AcDbEntity
  8
FORMAT
 62
     0
100
AcDbLine
 10
5.0
 20
0.0
 30
0.0
 11
8.0
 21
0.0
 31
0.0
  0
ENDBLK
  5
2BE
330
2BC
100
AcDbEntity
  8
0
100
AcDbBlockEnd
  0
BLOCK
  5
2C9
330
2C8
100
AcDbEntity
  8
0
100
AcDbBlockBegin
  2
SW_CENTERMARKSYMBOL_4
 70
     0
 10
0.0
 20
0.0
 30
0.0
  3
SW_CENTERMARKSYMBOL_4
  1

  0
LINE
  5
2CB
330
2C8
100
AcDbEntity
  8
FORMAT
 62
     0
100
AcDbLine
 10
0.0
 20
0.0
 30
0.0
 11
0.0
 21
2.5
 31
0.0
  0
LINE
  5
2CC
330
2C8
100
AcDbEntity
  8
FORMAT
 62
     0
100
AcDbLine
 10
0.0
 20
0.0
 30
0.0
 11
-2.5
 21
0.0
 31
0.0
  0
LINE
  5
2CD
330
2C8
100
AcDbEntity
  8
FORMAT
 62
     0
100
AcDbLine
 10
0.0
 20
0.0
 30
0.0
 11
0.0
 21
-2.5
 31
0.0
  0
LINE
  5
2CE
330
2C8
100
AcDbEntity
  8
FORMAT
 62
     0
100
AcDbLine
 10
0.0
 20
0.0
 30
0.0
 11
2.5
 21
0.0
 31
0.0
  0
LINE
  5
2CF
330
2C8
100
AcDbEntity
  8
FORMAT
 62
     0
100
AcDbLine
 10
0.0
 20
5.0
 30
0.0
 11
0.0
 21
8.0
 31
0.0
  0
LINE
  5
2D0
330
2C8
100
AcDbEntity
  8
FORMAT
 62
     0
100
AcDbLine
 10
-5.0
 20
0.0
 30
0.0
 11
-8.0
 21
0.0
 31
0.0
  0
LINE
  5
2D1
330
2C8
100
AcDbEntity
  8
FORMAT
 62
     0
100
AcDbLine
 10
0.0
 20
-5.0
 30
0.0
 11
0.0
 21
-8.0
 31
0.0
  0
LINE
  5
2D2
330
2C8
100
AcDbEntity
  8
FORMAT
 62
     0
100
AcDbLine
 10
5.0
 20
0.0
 30
0.0
 11
8.0
 21
0.0
 31
0.0
  0
ENDBLK
  5
2CA
330
2C8
100
AcDbEntity
  8
0
100
AcDbBlockEnd
  0
BLOCK
  5
2D5
330
2D4
100
AcDbEntity
  8
0
100
AcDbBlockBegin
  2
SW_CENTERMARKSYMBOL_5
 70
     0
 10
0.0
 20
0.0
 30
0.0
  3
SW_CENTERMARKSYMBOL_5
  1

  0
LINE
  5
2D7
330
2D4
100
AcDbEntity
  8
FORMAT
 62
     0
100
AcDbLine
 10
0.0
 20
0.0
 30
0.0
 11
0.0
 21
2.5
 31
0.0
  0
LINE
  5
2D8
330
2D4
100
AcDbEntity
  8
FORMAT
 62
     0
100
AcDbLine
 10
0.0
 20
0.0
 30
0.0
 11
-2.5
 21
0.0
 31
0.0
  0
LINE
  5
2D9
330
2D4
100
AcDbEntity
  8
FORMAT
 62
     0
100
AcDbLine
 10
0.0
 20
0.0
 30
0.0
 11
0.0
 21
-2.5
 31
0.0
  0
LINE
  5
2DA
330
2D4
100
AcDbEntity
  8
FORMAT
 62
     0
100
AcDbLine
 10
0.0
 20
0.0
 30
0.0
 11
2.5
 21
0.0
 31
0.0
  0
LINE
  5
2DB
330
2D4
100
AcDbEntity
  8
FORMAT
 62
     0
100
AcDbLine
 10
0.0
 20
5.0
 30
0.0
 11
0.0
 21
9.0
 31
0.0
  0
LINE
  5
2DC
330
2D4
100
AcDbEntity
  8
FORMAT
 62
     0
100
AcDbLine
 10
-5.0
 20
0.0
 30
0.0
 11
-9.0
 21
0.0
 31
0.0
  0
LINE
  5
2DD
330
2D4
100
AcDbEntity
  8
FORMAT
 62
     0
100
AcDbLine
 10
0.0
 20
-5.0
 30
0.0
 11
0.0
 21
-9.0
 31
0.0
  0
LINE
  5
2DE
330
2D4
100
AcDbEntity
  8
FORMAT
 62
     0
100
AcDbLine
 10
5.0
 20
0.0
 30
0.0
 11
9.0
 21
0.0
 31
0.0
  0
ENDBLK
  5
2D6
330
2D4
100
AcDbEntity
  8
0
100
AcDbBlockEnd
  0
BLOCK
  5
2E1
330
2E0
100
AcDbEntity
  8
0
100
AcDbBlockBegin
  2
SW_CENTERMARKSYMBOL_6
 70
     0
 10
0.0
 20
0.0
 30
0.0
  3
SW_CENTERMARKSYMBOL_6
  1

  0
LINE
  5
2E3
330
2E0
100
AcDbEntity
  8
FORMAT
 62
     0
100
AcDbLine
 10
0.0
 20
0.0
 30
0.0
 11
0.0
 21
2.5
 31
0.0
  0
LINE
  5
2E4
330
2E0
100
AcDbEntity
  8
FORMAT
 62
     0
100
AcDbLine
 10
0.0
 20
0.0
 30
0.0
 11
-2.5
 21
0.0
 31
0.0
  0
LINE
  5
2E5
330
2E0
100
AcDbEntity
  8
FORMAT
 62
     0
100
AcDbLine
 10
0.0
 20
0.0
 30
0.0
 11
0.0
 21
-2.5
 31
0.0
  0
LINE
  5
2E6
330
2E0
100
AcDbEntity
  8
FORMAT
 62
     0
100
AcDbLine
 10
0.0
 20
0.0
 30
0.0
 11
2.5
 21
0.0
 31
0.0
  0
LINE
  5
2E7
330
2E0
100
AcDbEntity
  8
FORMAT
 62
     0
100
AcDbLine
 10
0.0
 20
5.0
 30
0.0
 11
0.0
 21
9.0
 31
0.0
  0
LINE
  5
2E8
330
2E0
100
AcDbEntity
  8
FORMAT
 62
     0
100
AcDbLine
 10
-5.0
 20
0.0
 30
0.0
 11
-9.0
 21
0.0
 31
0.0
  0
LINE
  5
2E9
330
2E0
100
AcDbEntity
  8
FORMAT
 62
     0
100
AcDbLine
 10
0.0
 20
-5.0
 30
0.0
 11
0.0
 21
-9.0
 31
0.0
  0
LINE
  5
2EA
330
2E0
100
AcDbEntity
  8
FORMAT
 62
     0
100
AcDbLine
 10
5.0
 20
0.0
 30
0.0
 11
9.0
 21
0.0
 31
0.0
  0
ENDBLK
  5
2E2
330
2E0
100
AcDbEntity
  8
0
100
AcDbBlockEnd
  0
BLOCK
  5
331
330
330
100
AcDbEntity
  8
0
100
AcDbBlockBegin
  2
_D_16
 70
     0
 10
0.0
 20
0.0
 30
0.0
  3
_D_16
  1

  0
SOLID
  5
333
330
330
100
AcDbEntity
  8
FORMAT
100
AcDbTrace
 10
213.2513032292
 20
165.5761918677
 30
0.0
 11
212.7433032292
 21
162.2741918677
 31
0.0
 12
213.7593032292
 22
162.2741918677
 32
0.0
 13
213.7593032292
 23
162.2741918677
 33
0.0
  0
SOLID
  5
334
330
330
100
AcDbEntity
  8
FORMAT
100
AcDbTrace
 10
213.2513032292
 20
141.5761918677
 30
0.0
 11
213.7593032292
 21
144.8781918677
 31
0.0
 12
212.7433032292
 22
144.8781918677
 32
0.0
 13
212.7433032292
 23
144.8781918677
 33
0.0
  0
LINE
  5
335
330
330
100
AcDbEntity
  8
FORMAT
100
AcDbLine
 10
227.0285824668
 20
165.5761918677
 30
0.0
 11
221.8426550483
 21
165.5761918677
 31
0.0
  0
LINE
  5
336
330
330
100
AcDbEntity
  8
FORMAT
100
AcDbLine
 10
218.8426550483
 20
165.5761918677
 30
0.0
 11
212.2513032292
 21
165.5761918677
 31
0.0
  0
LINE
  5
337
330
330
100
AcDbEntity
  8
FORMAT
100
AcDbLine
 10
230.5285824668
 20
141.5761918677
 30
0.0
 11
212.2513032292
 21
141.5761918677
 31
0.0
  0
LINE
  5
338
330
330
100
AcDbEntity
  8
FORMAT
100
AcDbLine
 10
213.2513032292
 20
165.5761918677
 30
0.0
 11
213.2513032292
 21
141.5761918677
 31
0.0
  0
MTEXT
  5
339
330
330
100
AcDbEntity
  8
FORMAT
100
AcDbMText
 10
208.7395659071
 20
150.9025808228
 30
0.0
 40
3.5
 41
0.0
 71
     1
 72
     1
  1
24
  7
SLDTEXTSTYLE0
 11
-7.932373437343760E-15
 21
1.0
 31
0.0
 73
     1
 44
1.0
  0
ENDBLK
  5
332
330
330
100
AcDbEntity
  8
0
100
AcDbBlockEnd
  0
BLOCK
  5
33C
330
33B
100
AcDbEntity
  8
0
100
AcDbBlockBegin
  2
_D_17
 70
     0
 10
0.0
 20
0.0
 30
0.0
  3
_D_17
  1

  0
SOLID
  5
33E
330
33B
100
AcDbEntity
  8
FORMAT
100
AcDbTrace
 10
220.3426550483
 20
161.8261918677
 30
0.0
 11
220.8506550483
 21
165.1281918677
 31
0.0
 12
219.8346550483
 22
165.1281918677
 32
0.0
 13
219.8346550483
 23
165.1281918677
 33
0.0
  0
SOLID
  5
33F
330
33B
100
AcDbEntity
  8
FORMAT
100
AcDbTrace
 10
220.3426550483
 20
155.3261918677
 30
0.0
 11
219.8346550483
 21
152.0241918677
 31
0.0
 12
220.8506550483
 22
152.0241918677
 32
0.0
 13
220.8506550483
 23
152.0241918677
 33
0.0
  0
LINE
  5
340
330
33B
100
AcDbEntity
  8
FORMAT
100
AcDbLine
 10
227.0285824668
 20
161.8261918677
 30
0.0
 11
219.3426550483
 21
161.8261918677
 31
0.0
  0
LINE
  5
341
330
33B
100
AcDbEntity
  8
FORMAT
100
AcDbLine
 10
227.0285824668
 20
155.3261918677
 30
0.0
 11
219.3426550483
 21
155.3261918677
 31
0.0
  0
LINE
  5
342
330
33B
100
AcDbEntity
  8
FORMAT
100
AcDbLine
 10
220.3426550483
 20
161.8261918677
 30
0.0
 11
220.3426550483
 21
178.8508916451
 31
0.0
  0
LINE
  5
343
330
33B
100
AcDbEntity
  8
FORMAT
100
AcDbLine
 10
220.3426550483
 20
161.8261918677
 30
0.0
 11
220.3426550483
 21
155.3261918677
 31
0.0
  0
LINE
  5
344
330
33B
100
AcDbEntity
  8
FORMAT
100
AcDbLine
 10
220.3426550483
 20
155.3261918677
 30
0.0
 11
220.3426550483
 21
148.9761918677
 31
0.0
  0
MTEXT
  5
345
330
33B
100
AcDbEntity
  8
FORMAT
100
AcDbMText
 10
215.8309179591
 20
167.0639129533
 30
0.0
 40
3.5
 41
0.0
 71
     1
 72
     1
  1
%%c
  7
SLDTEXTSTYLE0
 11
-7.044195017643634E-15
 21
1.0
 31
0.0
 73
     1
 44
1.0
  0
MTEXT
  5
346
330
33B
100
AcDbEntity
  8
FORMAT
100
AcDbMText
 10
215.8211956499
 20
172.1668644985
 30
0.0
 40
3.5
 41
0.0
 71
     1
 72
     1
  1
6,5
  7
SLDTEXTSTYLE0
 11
-7.044195017643634E-15
 21
1.0
 31
0.0
 73
     1
 44
1.0
  0
ENDBLK
  5
33D
330
33B
100
AcDbEntity
  8
0
100
AcDbBlockEnd
  0
BLOCK
  5
349
330
348
100
AcDbEntity
  8
0
100
AcDbBlockBegin
  2
_D_18
 70
     0
 10
0.0
 20
0.0
 30
0.0
  3
_D_18
  1

  0
SOLID
  5
34B
330
348
100
AcDbEntity
  8
FORMAT
100
AcDbTrace
 10
240.8452819493
 20
164.0761918677
 30
0.0
 11
240.3372819493
 21
160.7741918677
 31
0.0
 12
241.3532819493
 22
160.7741918677
 32
0.0
 13
241.3532819493
 23
160.7741918677
 33
0.0
  0
SOLID
  5
34C
330
348
100
AcDbEntity
  8
FORMAT
100
AcDbTrace
 10
240.8452819493
 20
153.0761918677
 30
0.0
 11
241.3532819493
 21
156.3781918677
 31
0.0
 12
240.3372819493
 22
156.3781918677
 32
0.0
 13
240.3372819493
 23
156.3781918677
 33
0.0
  0
LINE
  5
34D
330
348
100
AcDbEntity
  8
FORMAT
100
AcDbLine
 10
232.0285824668
 20
164.0761918677
 30
0.0
 11
241.8452819493
 21
164.0761918677
 31
0.0
  0
LINE
  5
34E
330
348
100
AcDbEntity
  8
FORMAT
100
AcDbLine
 10
232.0285824668
 20
153.0761918677
 30
0.0
 11
241.8452819493
 21
153.0761918677
 31
0.0
  0
LINE
  5
34F
330
348
100
AcDbEntity
  8
FORMAT
100
AcDbLine
 10
240.8452819493
 20
164.0761918677
 30
0.0
 11
240.8452819493
 21
153.0761918677
 31
0.0
  0
MTEXT
  5
350
330
348
100
AcDbEntity
  8
FORMAT
100
AcDbMText
 10
236.3335448601
 20
153.351105283
 30
0.0
 40
3.5
 41
0.0
 71
     1
 72
     1
  1
%%c
  7
SLDTEXTSTYLE0
 11
-7.044195017643634E-15
 21
1.0
 31
0.0
 73
     1
 44
1.0
  0
MTEXT
  5
351
330
348
100
AcDbEntity
  8
FORMAT
100
AcDbMText
 10
236.3238225509
 20
158.4540568283
 30
0.0
 40
3.5
 41
0.0
 71
     1
 72
     1
  1
11
  7
SLDTEXTSTYLE0
 11
-7.044195017643634E-15
 21
1.0
 31
0.0
 73
     1
 44
1.0
  0
ENDBLK
  5
34A
330
348
100
AcDbEntity
  8
0
100
AcDbBlockEnd
  0
BLOCK
  5
355
330
354
100
AcDbEntity
  8
0
100
AcDbBlockBegin
  2
_D_19
 70
     0
 10
0.0
 20
0.0
 30
0.0
  3
_D_19
  1

  0
ARC
  5
357
330
354
100
AcDbEntity
  8
FORMAT
100
AcDbCircle
 10
225.5285824668
 20
158.5761918677
 30
0.0
 40
21.73413792981905
100
AcDbArc
 50
315.0
 51
45.0
  0
SOLID
  5
358
330
354
100
AcDbEntity
  8
FORMAT
100
AcDbTrace
 10
240.8969387802
 20
143.2078355543
 30
0.0
 11
243.4345660886
 21
145.3807864612
 31
0.0
 12
242.664077848
 22
146.0430582113
 32
0.0
 13
242.664077848
 23
146.0430582113
 33
0.0
  0
SOLID
  5
359
330
354
100
AcDbEntity
  8
FORMAT
100
AcDbTrace
 10
240.8969387802
 20
173.9445481811
 30
0.0
 11
242.664077848
 21
171.1093255241
 31
0.0
 12
243.4345660886
 22
171.7715972742
 32
0.0
 13
243.4345660886
 23
171.7715972742
 33
0.0
  0
LINE
  5
35A
330
354
100
AcDbEntity
  8
FORMAT
100
AcDbLine
 10
231.735689248
 20
152.3690850865
 30
0.0
 11
241.6040455614
 21
142.5007287731
 31
0.0
  0
LINE
  5
35B
330
354
100
AcDbEntity
  8
FORMAT
100
AcDbLine
 10
231.735689248
 20
164.7832986489
 30
0.0
 11
241.6040455614
 21
174.6516549623
 31
0.0
  0
MTEXT
  5
35C
330
354
100
AcDbEntity
  8
FORMAT
100
AcDbMText
 10
242.7509830746
 20
154.940080828
 30
0.0
 40
3.5
 41
0.0
 71
     1
 72
     1
  1
90°
  7
SLDTEXTSTYLE0
 11
-3.269436733918102E-15
 21
1.0
 31
0.0
 73
     1
 44
1.0
  0
ENDBLK
  5
356
330
354
100
AcDbEntity
  8
0
100
AcDbBlockEnd
  0
BLOCK
  5
35E
330
35D
100
AcDbEntity
  8
0
100
AcDbBlockBegin
  2
SW_CENTERMARKSYMBOL_7
 70
     0
 10
0.0
 20
0.0
 30
0.0
  3
SW_CENTERMARKSYMBOL_7
  1

  0
LINE
  5
360
330
35D
100
AcDbEntity
  8
FORMAT
 62
     0
100
AcDbLine
 10
0.0
 20
0.0
 30
0.0
 11
0.0
 21
2.5
 31
0.0
  0
LINE
  5
361
330
35D
100
AcDbEntity
  8
FORMAT
 62
     0
100
AcDbLine
 10
0.0
 20
0.0
 30
0.0
 11
-2.5
 21
0.0
 31
0.0
  0
LINE
  5
362
330
35D
100
AcDbEntity
  8
FORMAT
 62
     0
100
AcDbLine
 10
0.0
 20
0.0
 30
0.0
 11
0.0
 21
-2.5
 31
0.0
  0
LINE
  5
363
330
35D
100
AcDbEntity
  8
FORMAT
 62
     0
100
AcDbLine
 10
0.0
 20
0.0
 30
0.0
 11
2.5
 21
0.0
 31
0.0
  0
LINE
  5
364
330
35D
100
AcDbEntity
  8
FORMAT
 62
     0
100
AcDbLine
 10
0.0
 20
5.0
 30
0.0
 11
0.0
 21
11.3
 31
0.0
  0
LINE
  5
365
330
35D
100
AcDbEntity
  8
FORMAT
 62
     0
100
AcDbLine
 10
-5.0
 20
0.0
 30
0.0
 11
-11.3
 21
0.0
 31
0.0
  0
LINE
  5
366
330
35D
100
AcDbEntity
  8
FORMAT
 62
     0
100
AcDbLine
 10
0.0
 20
-5.0
 30
0.0
 11
0.0
 21
-11.3
 31
0.0
  0
LINE
  5
367
330
35D
100
AcDbEntity
  8
FORMAT
 62
     0
100
AcDbLine
 10
5.0
 20
0.0
 30
0.0
 11
11.3
 21
0.0
 31
0.0
  0
ENDBLK
  5
35F
330
35D
100
AcDbEntity
  8
0
100
AcDbBlockEnd
  0
BLOCK
  5
3A6
330
3A5
100
AcDbEntity
  8
0
100
AcDbBlockBegin
  2
_D_20
 70
     0
 10
0.0
 20
0.0
 30
0.0
  3
_D_20
  1

  0
SOLID
  5
3A8
330
3A5
100
AcDbEntity
  8
FORMAT
100
AcDbTrace
 10
228.0285824668
 20
111.8807508557
 30
0.0
 11
224.7265824668
 21
112.3887508557
 31
0.0
 12
224.7265824668
 22
111.3727508557
 32
0.0
 13
224.7265824668
 23
111.3727508557
 33
0.0
  0
SOLID
  5
3A9
330
3A5
100
AcDbEntity
  8
FORMAT
100
AcDbTrace
 10
231.0285824668
 20
111.8807508557
 30
0.0
 11
234.3305824668
 21
111.3727508557
 31
0.0
 12
234.3305824668
 22
112.3887508557
 32
0.0
 13
234.3305824668
 23
112.3887508557
 33
0.0
  0
LINE
  5
3AA
330
3A5
100
AcDbEntity
  8
FORMAT
100
AcDbLine
 10
228.0285824668
 20
99.871111484
 30
0.0
 11
228.0285824668
 21
112.8807508557
 31
0.0
  0
LINE
  5
3AB
330
3A5
100
AcDbEntity
  8
FORMAT
100
AcDbLine
 10
231.0285824668
 20
99.871111484
 30
0.0
 11
231.0285824668
 21
112.8807508557
 31
0.0
  0
LINE
  5
3AC
330
3A5
100
AcDbEntity
  8
FORMAT
100
AcDbLine
 10
228.0285824668
 20
111.8807508557
 30
0.0
 11
220.0167540998
 21
111.8807508557
 31
0.0
  0
LINE
  5
3AD
330
3A5
100
AcDbEntity
  8
FORMAT
100
AcDbLine
 10
228.0285824668
 20
111.8807508557
 30
0.0
 11
231.0285824668
 21
111.8807508557
 31
0.0
  0
LINE
  5
3AE
330
3A5
100
AcDbEntity
  8
FORMAT
100
AcDbLine
 10
231.0285824668
 20
111.8807508557
 30
0.0
 11
237.3785824668
 21
111.8807508557
 31
0.0
  0
MTEXT
  5
3AF
330
3A5
100
AcDbEntity
  8
FORMAT
100
AcDbMText
 10
220.0167540998
 20
116.3924881777
 30
0.0
 40
3.5
 41
0.0
 71
     1
 72
     1
  1
3
  7
SLDTEXTSTYLE0
 73
     1
 44
1.0
  0
ENDBLK
  5
3A7
330
3A5
100
AcDbEntity
  8
0
100
AcDbBlockEnd
  0
BLOCK
  5
3B2
330
3B1
100
AcDbEntity
  8
0
100
AcDbBlockBegin
  2
_D_21
 70
     0
 10
0.0
 20
0.0
 30
0.0
  3
_D_21
  1

  0
SOLID
  5
3B4
330
3B1
100
AcDbEntity
  8
FORMAT
100
AcDbTrace
 10
245.0285824668
 20
116.371111484
 30
0.0
 11
241.7265824668
 21
116.879111484
 31
0.0
 12
241.7265824668
 22
115.863111484
 32
0.0
 13
241.7265824668
 23
115.863111484
 33
0.0
  0
SOLID
  5
3B5
330
3B1
100
AcDbEntity
  8
FORMAT
100
AcDbTrace
 10
248.0285824668
 20
116.371111484
 30
0.0
 11
251.3305824668
 21
115.863111484
 31
0.0
 12
251.3305824668
 22
116.879111484
 32
0.0
 13
251.3305824668
 23
116.879111484
 33
0.0
  0
LINE
  5
3B6
330
3B1
100
AcDbEntity
  8
FORMAT
100
AcDbLine
 10
245.0285824668
 20
107.371111484
 30
0.0
 11
245.0285824668
 21
117.371111484
 31
0.0
  0
LINE
  5
3B7
330
3B1
100
AcDbEntity
  8
FORMAT
100
AcDbLine
 10
248.0285824668
 20
107.371111484
 30
0.0
 11
248.0285824668
 21
117.371111484
 31
0.0
  0
LINE
  5
3B8
330
3B1
100
AcDbEntity
  8
FORMAT
100
AcDbLine
 10
245.0285824668
 20
116.371111484
 30
0.0
 11
238.6785824668
 21
116.371111484
 31
0.0
  0
LINE
  5
3B9
330
3B1
100
AcDbEntity
  8
FORMAT
100
AcDbLine
 10
245.0285824668
 20
116.371111484
 30
0.0
 11
248.0285824668
 21
116.371111484
 31
0.0
  0
LINE
  5
3BA
330
3B1
100
AcDbEntity
  8
FORMAT
100
AcDbLine
 10
248.0285824668
 20
116.371111484
 30
0.0
 11
253.4888699332
 21
116.371111484
 31
0.0
  0
MTEXT
  5
3BB
330
3B1
100
AcDbEntity
  8
FORMAT
100
AcDbMText
 10
250.8152588883
 20
120.882848806
 30
0.0
 40
3.5
 41
0.0
 71
     1
 72
     1
  1
3
  7
SLDTEXTSTYLE0
 73
     1
 44
1.0
  0
ENDBLK
  5
3B3
330
3B1
100
AcDbEntity
  8
0
100
AcDbBlockEnd
  0
BLOCK
  5
3BE
330
3BD
100
AcDbEntity
  8
0
100
AcDbBlockBegin
  2
_D_22
 70
     0
 10
0.0
 20
0.0
 30
0.0
  3
_D_22
  1

  0
SOLID
  5
3C0
330
3BD
100
AcDbEntity
  8
FORMAT
100
AcDbTrace
 10
231.0285824668
 20
122.371111484
 30
0.0
 11
234.3305824668
 21
121.863111484
 31
0.0
 12
234.3305824668
 22
122.879111484
 32
0.0
 13
234.3305824668
 23
122.879111484
 33
0.0
  0
SOLID
  5
3C1
330
3BD
100
AcDbEntity
  8
FORMAT
100
AcDbTrace
 10
245.0285824668
 20
122.371111484
 30
0.0
 11
241.7265824668
 21
122.879111484
 31
0.0
 12
241.7265824668
 22
121.863111484
 32
0.0
 13
241.7265824668
 23
121.863111484
 33
0.0
  0
LINE
  5
3C2
330
3BD
100
AcDbEntity
  8
FORMAT
100
AcDbLine
 10
231.0285824668
 20
99.871111484
 30
0.0
 11
231.0285824668
 21
123.371111484
 31
0.0
  0
LINE
  5
3C3
330
3BD
100
AcDbEntity
  8
FORMAT
100
AcDbLine
 10
245.0285824668
 20
106.871111484
 30
0.0
 11
245.0285824668
 21
123.371111484
 31
0.0
  0
LINE
  5
3C4
330
3BD
100
AcDbEntity
  8
FORMAT
100
AcDbLine
 10
231.0285824668
 20
122.371111484
 30
0.0
 11
245.0285824668
 21
122.371111484
 31
0.0
  0
MTEXT
  5
3C5
330
3BD
100
AcDbEntity
  8
FORMAT
100
AcDbMText
 10
235.3549714219
 20
126.882848806
 30
0.0
 40
3.5
 41
0.0
 71
     1
 72
     1
  1
14
  7
SLDTEXTSTYLE0
 73
     1
 44
1.0
  0
ENDBLK
  5
3BF
330
3BD
100
AcDbEntity
  8
0
100
AcDbBlockEnd
  0
BLOCK
  5
3C8
330
3C7
100
AcDbEntity
  8
0
100
AcDbBlockBegin
  2
_D_23
 70
     0
 10
0.0
 20
0.0
 30
0.0
  3
_D_23
  1

  0
SOLID
  5
3CA
330
3C7
100
AcDbEntity
  8
FORMAT
100
AcDbTrace
 10
259.994602646
 20
106.371111484
 30
0.0
 11
259.486602646
 21
103.069111484
 31
0.0
 12
260.502602646
 22
103.069111484
 32
0.0
 13
260.502602646
 23
103.069111484
 33
0.0
  0
SOLID
  5
3CB
330
3C7
100
AcDbEntity
  8
FORMAT
100
AcDbTrace
 10
259.994602646
 20
67.371111484
 30
0.0
 11
260.502602646
 21
70.673111484
 31
0.0
 12
259.486602646
 22
70.673111484
 32
0.0
 13
259.486602646
 23
70.673111484
 33
0.0
  0
LINE
  5
3CC
330
3C7
100
AcDbEntity
  8
FORMAT
100
AcDbLine
 10
249.0285824668
 20
106.371111484
 30
0.0
 11
260.994602646
 21
106.371111484
 31
0.0
  0
LINE
  5
3CD
330
3C7
100
AcDbEntity
  8
FORMAT
100
AcDbLine
 10
256.0285824668
 20
67.371111484
 30
0.0
 11
260.994602646
 21
67.371111484
 31
0.0
  0
LINE
  5
3CE
330
3C7
100
AcDbEntity
  8
FORMAT
100
AcDbLine
 10
259.994602646
 20
106.371111484
 30
0.0
 11
259.994602646
 21
67.371111484
 31
0.0
  0
MTEXT
  5
3CF
330
3C7
100
AcDbEntity
  8
FORMAT
100
AcDbMText
 10
255.482865324
 20
84.1975004391
 30
0.0
 40
3.5
 41
0.0
 71
     1
 72
     1
  1
39
  7
SLDTEXTSTYLE0
 11
6.123233995736766E-17
 21
1.0
 31
0.0
 73
     1
 44
1.0
  0
ENDBLK
  5
3C9
330
3C7
100
AcDbEntity
  8
0
100
AcDbBlockEnd
  0
BLOCK
  5
3D2
330
3D1
100
AcDbEntity
  8
0
100
AcDbBlockBegin
  2
_D_24
 70
     0
 10
0.0
 20
0.0
 30
0.0
  3
_D_24
  1

  0
SOLID
  5
3D4
330
3D1
100
AcDbEntity
  8
FORMAT
100
AcDbTrace
 10
168.0285824668
 20
67.5814547362
 30
0.0
 11
171.3305824668
 21
67.0734547362
 31
0.0
 12
171.3305824668
 22
68.0894547362
 32
0.0
 13
171.3305824668
 23
68.0894547362
 33
0.0
  0
SOLID
  5
3D5
330
3D1
100
AcDbEntity
  8
FORMAT
100
AcDbTrace
 10
228.0285824668
 20
67.5814547362
 30
0.0
 11
224.7265824668
 21
68.0894547362
 31
0.0
 12
224.7265824668
 22
67.0734547362
 32
0.0
 13
224.7265824668
 23
67.0734547362
 33
0.0
  0
LINE
  5
3D6
330
3D1
100
AcDbEntity
  8
FORMAT
100
AcDbLine
 10
168.0285824668
 20
85.7578628299
 30
0.0
 11
168.0285824668
 21
66.5814547362
 31
0.0
  0
LINE
  5
3D7
330
3D1
100
AcDbEntity
  8
FORMAT
100
AcDbLine
 10
228.0285824668
 20
97.871111484
 30
0.0
 11
228.0285824668
 21
66.5814547362
 31
0.0
  0
LINE
  5
3D8
330
3D1
100
AcDbEntity
  8
FORMAT
100
AcDbLine
 10
168.0285824668
 20
67.5814547362
 30
0.0
 11
228.0285824668
 21
67.5814547362
 31
0.0
  0
MTEXT
  5
3D9
330
3D1
100
AcDbEntity
  8
FORMAT
100
AcDbMText
 10
195.3549714219
 20
72.0931920582
 30
0.0
 40
3.5
 41
0.0
 71
     1
 72
     1
  1
60
  7
SLDTEXTSTYLE0
 73
     1
 44
1.0
  0
ENDBLK
  5
3D3
330
3D1
100
AcDbEntity
  8
0
100
AcDbBlockEnd
  0
BLOCK
  5
3DC
330
3DB
100
AcDbEntity
  8
0
100
AcDbBlockBegin
  2
_D_25
 70
     0
 10
0.0
 20
0.0
 30
0.0
  3
_D_25
  1

  0
SOLID
  5
3DE
330
3DB
100
AcDbEntity
  8
FORMAT
100
AcDbTrace
 10
217.669831372
 20
93.371111484
 30
0.0
 11
218.177831372
 21
96.673111484
 31
0.0
 12
217.161831372
 22
96.673111484
 32
0.0
 13
217.161831372
 23
96.673111484
 33
0.0
  0
SOLID
  5
3DF
330
3DB
100
AcDbEntity
  8
FORMAT
100
AcDbTrace
 10
217.669831372
 20
86.371111484
 30
0.0
 11
217.161831372
 21
83.069111484
 31
0.0
 12
218.177831372
 22
83.069111484
 32
0.0
 13
218.177831372
 23
83.069111484
 33
0.0
  0
LINE
  5
3E0
330
3DB
100
AcDbEntity
  8
FORMAT
100
AcDbLine
 10
227.0285824668
 20
93.371111484
 30
0.0
 11
216.669831372
 21
93.371111484
 31
0.0
  0
LINE
  5
3E1
330
3DB
100
AcDbEntity
  8
FORMAT
100
AcDbLine
 10
227.0285824668
 20
86.371111484
 30
0.0
 11
216.669831372
 21
86.371111484
 31
0.0
  0
LINE
  5
3E2
330
3DB
100
AcDbEntity
  8
FORMAT
100
AcDbLine
 10
217.669831372
 20
93.371111484
 30
0.0
 11
217.669831372
 21
99.721111484
 31
0.0
  0
LINE
  5
3E3
330
3DB
100
AcDbEntity
  8
FORMAT
100
AcDbLine
 10
217.669831372
 20
93.371111484
 30
0.0
 11
217.669831372
 21
86.371111484
 31
0.0
  0
LINE
  5
3E4
330
3DB
100
AcDbEntity
  8
FORMAT
100
AcDbLine
 10
217.669831372
 20
86.371111484
 30
0.0
 11
217.669831372
 21
80.021111484
 31
0.0
  0
MTEXT
  5
3E5
330
3DB
100
AcDbEntity
  8
FORMAT
100
AcDbMText
 10
213.1580942828
 20
85.9828301889
 30
0.0
 40
3.5
 41
0.0
 71
     1
 72
     1
  1
%%c
  7
SLDTEXTSTYLE0
 11
-8.269460797427576E-16
 21
1.0
 31
0.0
 73
     1
 44
1.0
  0
MTEXT
  5
3E6
330
3DB
100
AcDbEntity
  8
FORMAT
100
AcDbMText
 10
213.1483719736
 20
91.0857817342
 30
0.0
 40
3.5
 41
0.0
 71
     1
 72
     1
  1
7
  7
SLDTEXTSTYLE0
 11
-8.269460797427576E-16
 21
1.0
 31
0.0
 73
     1
 44
1.0
  0
ENDBLK
  5
3DD
330
3DB
100
AcDbEntity
  8
0
100
AcDbBlockEnd
  0
BLOCK
  5
3E9
330
3E8
100
AcDbEntity
  8
0
100
AcDbBlockBegin
  2
_D_26
 70
     0
 10
0.0
 20
0.0
 30
0.0
  3
_D_26
  1

  0
SOLID
  5
3EB
330
3E8
100
AcDbEntity
  8
FORMAT
100
AcDbTrace
 10
236.6057542812
 20
96.371111484
 30
0.0
 11
236.0977542812
 21
93.069111484
 31
0.0
 12
237.1137542812
 22
93.069111484
 32
0.0
 13
237.1137542812
 23
93.069111484
 33
0.0
  0
SOLID
  5
3EC
330
3E8
100
AcDbEntity
  8
FORMAT
100
AcDbTrace
 10
236.6057542812
 20
83.371111484
 30
0.0
 11
237.1137542812
 21
86.673111484
 31
0.0
 12
236.0977542812
 22
86.673111484
 32
0.0
 13
236.0977542812
 23
86.673111484
 33
0.0
  0
LINE
  5
3ED
330
3E8
100
AcDbEntity
  8
FORMAT
100
AcDbLine
 10
232.0285824668
 20
96.371111484
 30
0.0
 11
237.6057542812
 21
96.371111484
 31
0.0
  0
LINE
  5
3EE
330
3E8
100
AcDbEntity
  8
FORMAT
100
AcDbLine
 10
232.0285824668
 20
83.371111484
 30
0.0
 11
237.6057542812
 21
83.371111484
 31
0.0
  0
LINE
  5
3EF
330
3E8
100
AcDbEntity
  8
FORMAT
100
AcDbLine
 10
236.6057542812
 20
96.371111484
 30
0.0
 11
236.6057542812
 21
83.371111484
 31
0.0
  0
MTEXT
  5
3F0
330
3E8
100
AcDbEntity
  8
FORMAT
100
AcDbMText
 10
232.094017192
 20
84.6460248993
 30
0.0
 40
3.5
 41
0.0
 71
     1
 72
     1
  1
%%c
  7
SLDTEXTSTYLE0
 11
6.123233995736766E-17
 21
1.0
 31
0.0
 73
     1
 44
1.0
  0
MTEXT
  5
3F1
330
3E8
100
AcDbEntity
  8
FORMAT
100
AcDbMText
 10
232.0842948828
 20
89.7489764446
 30
0.0
 40
3.5
 41
0.0
 71
     1
 72
     1
  1
13
  7
SLDTEXTSTYLE0
 11
6.123233995736766E-17
 21
1.0
 31
0.0
 73
     1
 44
1.0
  0
ENDBLK
  5
3EA
330
3E8
100
AcDbEntity
  8
0
100
AcDbBlockEnd
  0
BLOCK
  5
3F4
330
3F3
100
AcDbEntity
  8
0
100
AcDbBlockBegin
  2
_D_27
 70
     0
 10
0.0
 20
0.0
 30
0.0
  3
_D_27
  1

  0
ARC
  5
3F6
330
3F3
100
AcDbEntity
  8
FORMAT
100
AcDbCircle
 10
224.5285824668
 20
89.871111484
 30
0.0
 40
19.64313549562971
100
AcDbArc
 50
315.0
 51
45.0
  0
SOLID
  5
3F7
330
3F3
100
AcDbEntity
  8
FORMAT
100
AcDbTrace
 10
238.4183767795
 20
75.9813171713
 30
0.0
 11
240.9387933107
 21
78.1742076174
 31
0.0
 12
240.1631075567
 22
78.8303841264
 32
0.0
 13
240.1631075567
 23
78.8303841264
 33
0.0
  0
SOLID
  5
3F8
330
3F3
100
AcDbEntity
  8
FORMAT
100
AcDbTrace
 10
238.4183767795
 20
103.7609057967
 30
0.0
 11
240.1631075567
 21
100.9118388415
 31
0.0
 12
240.9387933107
 22
101.5680153505
 32
0.0
 13
240.9387933107
 23
101.5680153505
 33
0.0
  0
LINE
  5
3F9
330
3F3
100
AcDbEntity
  8
FORMAT
100
AcDbLine
 10
231.735689248
 20
82.6640047028
 30
0.0
 11
239.1254835607
 21
75.2742103901
 31
0.0
  0
LINE
  5
3FA
330
3F3
100
AcDbEntity
  8
FORMAT
100
AcDbLine
 10
231.735689248
 20
97.0782182652
 30
0.0
 11
239.1254835607
 21
104.4680125779
 31
0.0
  0
MTEXT
  5
3FB
330
3F3
100
AcDbEntity
  8
FORMAT
100
AcDbMText
 10
239.6599806404
 20
86.2350004443
 30
0.0
 40
3.5
 41
0.0
 71
     1
 72
     1
  1
90°
  7
SLDTEXTSTYLE0
 11
3.169856808907806E-15
 21
1.0
 31
0.0
 73
     1
 44
1.0
  0
ENDBLK
  5
3F5
330
3F3
100
AcDbEntity
  8
0
100
AcDbBlockEnd
  0
BLOCK
  5
3FD
330
3FC
100
AcDbEntity
  8
0
100
AcDbBlockBegin
  2
SW_NOTE_0_10
 70
     0
 10
0.0
 20
0.0
 30
0.0
  3
SW_NOTE_0_10
  1

  0
MTEXT
  5
3FF
330
3FC
100
AcDbEntity
  8
FORMAT
 62
     0
100
AcDbMText
 10
-0.456704762
 20
10.7915965755
 30
0.0
 40
3.5
 41
0.0
 71
     1
 72
     1
  1
Tragzapfen/Schrauben 
  7
SLDTEXTSTYLE0
 73
     1
 44
1.0
  0
MTEXT
  5
400
330
3FC
100
AcDbEntity
  8
FORMAT
 62
     0
100
AcDbMText
 10
-0.456704762
 20
6.2707630832
 30
0.0
 40
3.5
 41
0.0
 71
     1
 72
     1
  1
sind separat zu bestellen
  7
SLDTEXTSTYLE0
 73
     1
 44
1.0
  0
ENDBLK
  5
3FE
330
3FC
100
AcDbEntity
  8
0
100
AcDbBlockEnd
  0
BLOCK
  5
404
330
403
100
AcDbEntity
  8
0
100
AcDbBlockBegin
  2
_Dot
 70
     0
 10
0.0
 20
0.0
 30
0.0
  3
_Dot
  1

  0
LWPOLYLINE
  5
406
330
403
100
AcDbEntity
  8
0
  6
ByBlock
 62
     0
100
AcDbPolyline
 90
        2
 70
     1
 43
0.5
 10
-0.25
 20
0.0
 42
1.0
 10
0.25
 20
0.0
 42
1.0
  0
LINE
  5
407
330
403
100
AcDbEntity
  8
0
  6
ByBlock
 62
     0
370
    -2
100
AcDbLine
 10
-0.5
 20
0.0
 30
0.0
 11
-1.0
 21
0.0
 31
0.0
  0
ENDBLK
  5
405
330
403
100
AcDbEntity
  8
0
100
AcDbBlockEnd
  0
BLOCK
  5
40A
330
409
100
AcDbEntity
  8
0
100
AcDbBlockBegin
  2
SW_CENTERMARKSYMBOL_8
 70
     0
 10
0.0
 20
0.0
 30
0.0
  3
SW_CENTERMARKSYMBOL_8
  1

  0
LINE
  5
40C
330
409
100
AcDbEntity
  8
FORMAT
 62
     0
100
AcDbLine
 10
0.0
 20
0.0
 30
0.0
 11
0.0
 21
2.5
 31
0.0
  0
LINE
  5
40D
330
409
100
AcDbEntity
  8
FORMAT
 62
     0
100
AcDbLine
 10
0.0
 20
0.0
 30
0.0
 11
-2.5
 21
0.0
 31
0.0
  0
LINE
  5
40E
330
409
100
AcDbEntity
  8
FORMAT
 62
     0
100
AcDbLine
 10
0.0
 20
0.0
 30
0.0
 11
0.0
 21
-2.5
 31
0.0
  0
LINE
  5
40F
330
409
100
AcDbEntity
  8
FORMAT
 62
     0
100
AcDbLine
 10
0.0
 20
0.0
 30
0.0
 11
2.5
 21
0.0
 31
0.0
  0
LINE
  5
410
330
409
100
AcDbEntity
  8
FORMAT
 62
     0
100
AcDbLine
 10
0.0
 20
5.0
 30
0.0
 11
0.0
 21
11.3
 31
0.0
  0
LINE
  5
411
330
409
100
AcDbEntity
  8
FORMAT
 62
     0
100
AcDbLine
 10
-5.0
 20
0.0
 30
0.0
 11
-11.3
 21
0.0
 31
0.0
  0
LINE
  5
412
330
409
100
AcDbEntity
  8
FORMAT
 62
     0
100
AcDbLine
 10
0.0
 20
-5.0
 30
0.0
 11
0.0
 21
-11.3
 31
0.0
  0
LINE
  5
413
330
409
100
AcDbEntity
  8
FORMAT
 62
     0
100
AcDbLine
 10
5.0
 20
0.0
 30
0.0
 11
11.3
 21
0.0
 31
0.0
  0
ENDBLK
  5
40B
330
409
100
AcDbEntity
  8
0
100
AcDbBlockEnd
  0
ENDSEC
  0
SECTION
  2
ENTITIES
  0
LINE
  5
134
330
1F
100
AcDbEntity
  8
FORMAT
  6
Continuous
 62
     7
370
    18
100
AcDbLine
 10
255.3923879518
 20
35.6464717326
 30
0.0
 11
180.9851741751
 21
35.6464717326
 31
0.0
  0
LINE
  5
135
330
1F
100
AcDbEntity
  8
FORMAT
  6
Continuous
 62
     7
370
    18
100
AcDbLine
 10
255.3923879518
 20
48.7420674192
 30
0.0
 11
286.9438597858
 21
48.7420674192
 31
0.0
  0
LINE
  5
136
330
1F
100
AcDbEntity
  8
FORMAT
  6
Continuous
 62
     7
370
    18
100
AcDbLine
 10
241.7100609089
 20
35.6464717326
 30
0.0
 11
241.7100609089
 21
25.9765524102
 31
0.0
  0
LINE
  5
137
330
1F
100
AcDbEntity
  8
FORMAT
100
AcDbLine
 10
286.9438597858
 20
200.0
 30
0.0
 11
9.9438597858
 21
200.0
 31
0.0
  0
LINE
  5
138
330
1F
100
AcDbEntity
  8
FORMAT
100
AcDbLine
 10
9.9438597858
 20
200.0
 30
0.0
 11
9.9438597858
 21
10.0
 31
0.0
  0
LINE
  5
139
330
1F
100
AcDbEntity
  8
BEMASSUNG
  6
Continuous
 62
     7
370
    18
100
AcDbLine
 10
255.3923879518
 20
40.5638075942
 30
0.0
 11
286.9438597858
 21
40.5638075942
 31
0.0
  0
LINE
  5
13A
330
1F
100
AcDbEntity
  8
FORMAT
 62
     7
370
    18
100
AcDbLine
 10
180.9851741751
 20
52.6404959572
 30
0.0
 11
180.9851741751
 21
10.0
 31
0.0
  0
LINE
  5
13B
330
1F
100
AcDbEntity
  8
FORMAT
 62
     7
100
AcDbLine
 10
272.1993193029
 20
10.0
 30
0.0
 11
272.1993193029
 21
19.3470401503
 31
0.0
  0
LINE
  5
13C
330
1F
100
AcDbEntity
  8
FORMAT
 62
     7
100
AcDbLine
 10
180.9851741751
 20
25.9765524102
 30
0.0
 11
286.9438597858
 21
25.9765524102
 31
0.0
  0
LINE
  5
13D
330
1F
100
AcDbEntity
  8
FORMAT
100
AcDbLine
 10
9.9438597858
 20
10.0
 30
0.0
 11
286.9438597858
 21
10.0
 31
0.0
  0
LINE
  5
13E
330
1F
100
AcDbEntity
  8
FORMAT
 62
     7
100
AcDbLine
 10
255.3923879518
 20
19.3470401503
 30
0.0
 11
286.9438597858
 21
19.3470401503
 31
0.0
  0
LINE
  5
13F
330
1F
100
AcDbEntity
  8
FORMAT
 62
     7
100
AcDbLine
 10
180.9851741751
 20
52.6404959572
 30
0.0
 11
286.9572416722
 21
52.6404959572
 31
0.0
  0
LINE
  5
140
330
1F
100
AcDbEntity
  8
FORMAT
 62
     7
100
AcDbLine
 10
255.3923879518
 20
10.0
 30
0.0
 11
255.3923879518
 21
52.6404959572
 31
0.0
  0
LINE
  5
141
330
1F
100
AcDbEntity
  8
FORMAT
100
AcDbLine
 10
286.9438597858
 20
10.0
 30
0.0
 11
286.9438597858
 21
200.0
 31
0.0
  0
INSERT
  5
142
330
1F
100
AcDbEntity
  8
FORMAT
100
AcDbBlockReference
  2
Block2_2
 10
-49.4796720125
 20
-37.2714257085
 30
0.0
  0
INSERT
  5
143
330
1F
100
AcDbEntity
  8
FORMAT
100
AcDbBlockReference
  2
Block1_2
 10
262.8019335354
 20
27.0956685316
 30
0.0
  0
MTEXT
  5
144
330
1F
100
AcDbEntity
  8
BEMASSUNG
 62
     7
100
AcDbMText
 10
256.196469587
 20
47.9363931555
 30
0.0
 40
2.0
 41
0.0
 71
     1
 72
     1
  1
Ausführung:
  7
SLDTEXTSTYLE0
 73
     1
 44
1.0
  0
MTEXT
  5
145
330
1F
100
AcDbEntity
  8
FORMAT
100
AcDbMText
 10
244.8335352583
 20
34.4345411691
 30
0.0
 40
2.0
 41
0.0
 71
     1
 72
     1
  1
Index:
  7
SLDTEXTSTYLE0
 73
     1
 44
1.0
  0
MTEXT
  5
147
330
1F
100
AcDbEntity
  8
FORMAT
100
AcDbMText
 10
257.9461905645
 20
51.6009600552
 30
0.0
 40
1.8
 41
0.0
 71
     1
 72
     1
  1
KATALOGZEICHNUNG
  7
SLDTEXTSTYLE3
 73
     1
 44
1.0
  0
MTEXT
  5
148
330
1F
100
AcDbEntity
  8
FORMAT
100
AcDbMText
 10
182.9061937187
 20
34.8216251945
 30
0.0
 40
2.0
 41
0.0
 71
     1
 72
     1
  1
Zeichnungsnummer:
  7
SLDTEXTSTYLE0
 73
     1
 44
1.0
  0
MTEXT
  5
149
330
1F
100
AcDbEntity
  8
FORMAT
100
AcDbMText
 10
265.9344367942
 20
14.2806067945
 30
0.0
 40
2.1166666667
 41
0.0
 71
     1
 72
     1
  1
3
  7
SLDTEXTSTYLE0
 73
     1
 44
1.0
  0
MTEXT
  5
14A
330
1F
100
AcDbEntity
  8
FORMAT
100
AcDbMText
 10
259.8619150727
 20
14.2806067945
 30
0.0
 40
2.1166666667
 41
0.0
 71
     1
 72
     1
  1
2
  7
SLDTEXTSTYLE0
 73
     1
 44
1.0
  0
MTEXT
  5
14B
330
1F
100
AcDbEntity
  8
FORMAT
100
AcDbMText
 10
277.535567047
 20
14.1724992936
 30
0.0
 40
2.1166666667
 41
0.0
 71
     1
 72
     1
  1
A4
  7
SLDTEXTSTYLE0
 73
     1
 44
1.0
  0
MTEXT
  5
14C
330
1F
100
AcDbEntity
  8
FORMAT
100
AcDbMText
 10
270.2136096579
 20
23.7012230636
 30
0.0
 40
2.1166666667
 41
0.0
 71
     1
 72
     1
  1
1:1
  7
SLDTEXTSTYLE0
 73
     1
 44
1.0
  0
MTEXT
  5
14D
330
1F
100
AcDbEntity
  8
FORMAT
100
AcDbMText
 10
185.855694094
 20
31.2946896474
 30
0.0
 40
3.175
 41
0.0
 71
     1
 72
     1
  1
D042-29437
  7
SLDTEXTSTYLE3
 73
     1
 44
1.0
  0
MTEXT
  5
14E
330
1F
100
AcDbEntity
  8
FORMAT
100
AcDbMText
 10
263.6389415355
 20
14.3853488894
 30
0.0
 40
2.5
 41
0.0
 71
     2
 72
     1
  1
/
  7
SLDTEXTSTYLE0
 73
     1
 44
1.0
  0
MTEXT
  5
14F
330
1F
100
AcDbEntity
  8
FORMAT
100
AcDbMText
 10
257.6429342273
 20
17.8898077508
 30
0.0
 40
2.0
 41
0.0
 71
     1
 72
     1
  1
Blatt / von
  7
SLDTEXTSTYLE0
 73
     1
 44
1.0
  0
MTEXT
  5
150
330
1F
100
AcDbEntity
  8
FORMAT
100
AcDbMText
 10
182.596993557
 20
51.3045969115
 30
0.0
 40
2.0
 41
0.0
 71
     1
 72
     1
  1
Benennung:
  7
SLDTEXTSTYLE0
 73
     1
 44
1.0
  0
MTEXT
  5
151
330
1F
100
AcDbEntity
  8
FORMAT
100
AcDbMText
 10
274.992897395
 20
17.8898077508
 30
0.0
 40
2.0
 41
0.0
 71
     1
 72
     1
  1
Format
  7
SLDTEXTSTYLE0
 73
     1
 44
1.0
  0
MTEXT
  5
152
330
1F
100
AcDbEntity
  8
FORMAT
100
AcDbMText
 10
256.3213642251
 20
23.5727761737
 30
0.0
 40
2.0
 41
0.0
 71
     1
 72
     1
  1
Maßstab:
  7
SLDTEXTSTYLE0
 73
     1
 44
1.0
  0
MTEXT
  5
153
330
1F
100
AcDbEntity
  8
FORMAT
100
AcDbMText
 10
247.5724191773
 20
29.9687085165
 30
0.0
 40
2.5
 41
0.0
 71
     1
 72
     1
  1
b
  7
SLDTEXTSTYLE3
 73
     1
 44
1.0
  0
MTEXT
  5
154
330
1F
100
AcDbEntity
  8
FORMAT
100
AcDbMText
 10
182.8009845203
 20
40.0864163817
 30
0.0
 40
2.5
 41
0.0
 71
     1
 72
     1
  1
Lasergeschweißte Objektbänder
  7
SLDTEXTSTYLE3
 73
     1
 44
1.0
  0
MTEXT
  5
155
330
1F
100
AcDbEntity
  8
FORMAT
100
AcDbMText
 10
182.8290795751
 20
43.5216266319
 30
0.0
 40
2.5
 41
0.0
 71
     1
 72
     1
  1
OBX-18-1531/120-LG-TZ
  7
SLDTEXTSTYLE3
 73
     1
 44
1.0
  0
MTEXT
  5
156
330
1F
100
AcDbEntity
  8
FORMAT
100
AcDbMText
 10
182.8205662367
 20
47.7853851366
 30
0.0
 40
3.5
 41
0.0
 71
     1
 72
     1
  1
Zusammenbau
  7
SLDTEXTSTYLE3
 73
     1
 44
1.0
  0
INSERT
  5
161
330
1F
100
AcDbEntity
  8
FORMAT
100
AcDbBlockReference
  2
SW_NOTE_0_9
 10
13.3538297872
 20
34.2427660478
 30
0.0
  0
LINE
  5
162
330
1F
100
AcDbEntity
  8
0
  6
Continuous
 62
     7
370
    25
100
AcDbLine
 10
119.165483698
 20
125.0761918677
 30
0.0
 11
155.965483698
 21
125.0761918677
 31
0.0
  0
LINE
  5
163
330
1F
100
AcDbEntity
  8
0
  6
Continuous
 62
     7
370
    25
100
AcDbLine
 10
155.965483698
 20
143.0761918677
 30
0.0
 11
119.165483698
 21
143.0761918677
 31
0.0
  0
LINE
  5
164
330
1F
100
AcDbEntity
  8
0
  6
Continuous
 62
     7
370
    25
100
AcDbLine
 10
155.965483698
 20
125.0761918677
 30
0.0
 11
156.165483698
 21
125.2761918677
 31
0.0
  0
LINE
  5
165
330
1F
100
AcDbEntity
  8
0
  6
Continuous
 62
     7
370
    25
100
AcDbLine
 10
156.165483698
 20
142.8761918677
 30
0.0
 11
155.965483698
 21
143.0761918677
 31
0.0
  0
LINE
  5
166
330
1F
100
AcDbEntity
  8
0
  6
Continuous
 62
     7
370
    25
100
AcDbLine
 10
73.165483698
 20
143.0761918677
 30
0.0
 11
36.365483698
 21
143.0761918677
 31
0.0
  0
LINE
  5
167
330
1F
100
AcDbEntity
  8
0
  6
Continuous
 62
     7
370
    25
100
AcDbLine
 10
36.365483698
 20
125.0761918677
 30
0.0
 11
73.165483698
 21
125.0761918677
 31
0.0
  0
LINE
  5
168
330
1F
100
AcDbEntity
  8
0
  6
Continuous
 62
     7
370
    25
100
AcDbLine
 10
36.365483698
 20
143.0761918677
 30
0.0
 11
36.165483698
 21
142.8761918677
 31
0.0
  0
LINE
  5
169
330
1F
100
AcDbEntity
  8
0
  6
Continuous
 62
     7
370
    25
100
AcDbLine
 10
36.165483698
 20
125.2761918677
 30
0.0
 11
36.365483698
 21
125.0761918677
 31
0.0
  0
ARC
  5
16A
330
1F
100
AcDbEntity
  8
0
  6
Continuous
 62
     7
370
    25
100
AcDbCircle
 10
73.1640117889
 20
125.0307753588
 30
0.0
 40
1.156518219259726
100
AcDbArc
 50
278.4687172427
 51
351.8823691807
  0
ARC
  5
16B
330
1F
100
AcDbEntity
  8
0
  6
Continuous
 62
     7
370
    25
100
AcDbCircle
 10
119.0763253188
 20
124.842830404
 30
0.0
 40
0.959038122282138
100
AcDbArc
 50
206.9457149478
 51
265.2897486027
  0
LINE
  5
16C
330
1F
100
AcDbEntity
  8
0
  6
Continuous
 62
     7
370
    25
100
AcDbLine
 10
118.1708636295
 20
124.5092183915
 30
0.0
 11
118.0043213993
 21
124.9276144462
 31
0.0
  0
LINE
  5
16D
330
1F
100
AcDbEntity
  8
0
  6
Continuous
 62
     7
370
    25
100
AcDbLine
 10
117.9590452746
 20
125.1423981532
 30
0.0
 11
117.9113020897
 21
125.431393583
 31
0.0
  0
LINE
  5
16E
330
1F
100
AcDbEntity
  8
0
  6
Continuous
 62
     7
370
    25
100
AcDbLine
 10
74.4266477863
 20
125.4745226323
 30
0.0
 11
74.3724467186
 21
125.1464721675
 31
0.0
  0
LINE
  5
16F
330
1F
100
AcDbEntity
  8
0
  6
Continuous
 62
     7
370
    25
100
AcDbLine
 10
118.165483698
 20
143.0761918677
 30
0.0
 11
74.165483698
 21
143.0761918677
 31
0.0
  0
LINE
  5
170
330
1F
100
AcDbEntity
  8
0
  6
Continuous
 62
     7
370
    25
100
AcDbLine
 10
74.165483698
 20
125.0761918677
 30
0.0
 11
74.3528676491
 21
125.0761918677
 31
0.0
  0
LINE
  5
171
330
1F
100
AcDbEntity
  8
0
  6
Continuous
 62
     7
370
    25
100
AcDbLine
 10
117.9729800512
 20
125.0761918677
 30
0.0
 11
118.165483698
 21
125.0761918677
 31
0.0
  0
LINE
  5
172
330
1F
100
AcDbEntity
  8
0
  6
Continuous
 62
     7
370
    25
100
AcDbLine
 10
119.165483698
 20
139.8261918677
 30
0.0
 11
118.165483698
 21
139.8261918677
 31
0.0
  0
LINE
  5
173
330
1F
100
AcDbEntity
  8
0
  6
Continuous
 62
     7
370
    25
100
AcDbLine
 10
118.165483698
 20
128.3261918677
 30
0.0
 11
119.165483698
 21
128.3261918677
 31
0.0
  0
LINE
  5
174
330
1F
100
AcDbEntity
  8
0
  6
Continuous
 62
     7
370
    25
100
AcDbLine
 10
74.165483698
 20
139.8261918677
 30
0.0
 11
73.165483698
 21
139.8261918677
 31
0.0
  0
LINE
  5
175
330
1F
100
AcDbEntity
  8
0
  6
Continuous
 62
     7
370
    25
100
AcDbLine
 10
73.165483698
 20
128.3261918677
 30
0.0
 11
74.165483698
 21
128.3261918677
 31
0.0
  0
LINE
  5
176
330
1F
100
AcDbEntity
  8
0
  6
Continuous
 62
     7
370
    25
100
AcDbLine
 10
154.165483698
 20
143.7274309502
 30
0.0
 11
154.165483698
 21
143.0761918677
 31
0.0
  0
LINE
  5
177
330
1F
100
AcDbEntity
  8
0
  6
Continuous
 62
     7
370
    25
100
AcDbLine
 10
119.915483698
 20
143.0761918677
 30
0.0
 11
119.915483698
 21
143.7274309502
 31
0.0
  0
LINE
  5
178
330
1F
100
AcDbEntity
  8
0
  6
Continuous
 62
     7
370
    25
100
AcDbLine
 10
72.415483698
 20
143.0761918677
 30
0.0
 11
72.415483698
 21
143.7274309502
 31
0.0
  0
LINE
  5
179
330
1F
100
AcDbEntity
  8
0
  6
Continuous
 62
     7
370
    25
100
AcDbLine
 10
38.165483698
 20
143.7274309502
 30
0.0
 11
38.165483698
 21
143.0761918677
 31
0.0
  0
LINE
  5
17A
330
1F
100
AcDbEntity
  8
0
  6
Continuous
 62
     7
370
    25
100
AcDbLine
 10
118.915483698
 20
144.5761918677
 30
0.0
 11
154.165483698
 21
144.5761918677
 31
0.0
  0
LINE
  5
17B
330
1F
100
AcDbEntity
  8
0
  6
Continuous
 62
     7
370
    25
100
AcDbLine
 10
154.165483698
 20
144.5761918677
 30
0.0
 11
154.165483698
 21
143.7274309502
 31
0.0
  0
LINE
  5
17C
330
1F
100
AcDbEntity
  8
0
  6
Continuous
 62
     7
370
    25
100
AcDbLine
 10
119.915483698
 20
143.7274309502
 30
0.0
 11
119.915483698
 21
144.1477308343
 31
0.0
  0
LWPOLYLINE
  5
17D
330
1F
100
AcDbEntity
  8
0
  6
Continuous
 62
     7
370
    25
100
AcDbPolyline
 90
        5
 70
   128
 43
0.0
 10
119.915483698
 20
144.1477308343
 10
119.815261746
 20
144.3916795977
 10
119.615187762
 20
144.5165527189
 10
119.315261746
 20
144.566048261
 10
118.915483698
 20
144.5761918677
  0
LINE
  5
17E
330
1F
100
AcDbEntity
  8
0
  6
Continuous
 62
     7
370
    25
100
AcDbLine
 10
38.165483698
 20
143.7274309502
 30
0.0
 11
38.165483698
 21
144.5761918677
 31
0.0
  0
LINE
  5
17F
330
1F
100
AcDbEntity
  8
0
  6
Continuous
 62
     7
370
    25
100
AcDbLine
 10
38.165483698
 20
144.5761918677
 30
0.0
 11
73.415483698
 21
144.5761918677
 31
0.0
  0
LWPOLYLINE
  5
180
330
1F
100
AcDbEntity
  8
0
  6
Continuous
 62
     7
370
    25
100
AcDbPolyline
 90
        6
 70
   128
 43
0.0
 10
73.415483698
 20
144.5761918677
 10
73.2365754123
 20
144.5754821367
 10
73.073069494
 20
144.5713913826
 10
72.7922647593
 20
144.5352127982
 10
72.573069494
 20
144.4173974613
 10
72.415483698
 20
144.1477308343
  0
LINE
  5
181
330
1F
100
AcDbEntity
  8
0
  6
Continuous
 62
     7
370
    25
100
AcDbLine
 10
72.415483698
 20
144.1477308343
 30
0.0
 11
72.415483698
 21
143.7274309502
 31
0.0
  0
LINE
  5
182
330
1F
100
AcDbEntity
  8
0
  6
Continuous
 62
     7
370
    25
100
AcDbLine
 10
119.165483698
 20
141.573147767
 30
0.0
 11
118.915483698
 21
141.5761918677
 31
0.0
  0
LINE
  5
183
330
1F
100
AcDbEntity
  8
0
  6
Continuous
 62
     7
370
    25
100
AcDbLine
 10
118.915483698
 20
141.5761918677
 30
0.0
 11
118.915483698
 21
144.5761918677
 31
0.0
  0
LINE
  5
184
330
1F
100
AcDbEntity
  8
0
  6
Continuous
 62
     7
370
    25
100
AcDbLine
 10
73.415483698
 20
141.5761918677
 30
0.0
 11
73.165483698
 21
141.5738435145
 31
0.0
  0
LINE
  5
185
330
1F
100
AcDbEntity
  8
0
  6
Continuous
 62
     7
370
    25
100
AcDbLine
 10
73.415483698
 20
141.5761918677
 30
0.0
 11
73.415483698
 21
144.5761918677
 31
0.0
  0
LINE
  5
186
330
1F
100
AcDbEntity
  8
0
  6
Continuous
 62
     7
370
    25
100
AcDbLine
 10
73.415483698
 20
144.5761918677
 30
0.0
 11
118.915483698
 21
144.5761918677
 31
0.0
  0
LINE
  5
187
330
1F
100
AcDbEntity
  8
0
  6
Continuous
 62
     7
370
    25
100
AcDbLine
 10
73.415483698
 20
141.5761918677
 30
0.0
 11
74.165483698
 21
141.5761918677
 31
0.0
  0
LINE
  5
188
330
1F
100
AcDbEntity
  8
0
  6
Continuous
 62
     7
370
    25
100
AcDbLine
 10
118.165483698
 20
141.5761918677
 30
0.0
 11
118.915483698
 21
141.5761918677
 31
0.0
  0
LINE
  5
189
330
1F
100
AcDbEntity
  8
0
  6
Continuous
 62
     7
370
    25
100
AcDbLine
 10
38.165483698
 20
144.5761918677
 30
0.0
 11
38.165483698
 21
145.0761918677
 31
0.0
  0
LINE
  5
18A
330
1F
100
AcDbEntity
  8
0
  6
Continuous
 62
     7
370
    25
100
AcDbLine
 10
154.165483698
 20
145.0761918677
 30
0.0
 11
154.165483698
 21
144.5761918677
 31
0.0
  0
CIRCLE
  5
18B
330
1F
100
AcDbEntity
  8
0
  6
Continuous
 62
     7
370
    25
100
AcDbCircle
 10
135.165483698
 20
156.5761918677
 30
0.0
 40
6.500000000000028
  0
CIRCLE
  5
18C
330
1F
100
AcDbEntity
  8
0
  6
Continuous
 62
     7
370
    25
100
AcDbCircle
 10
135.165483698
 20
156.5761918677
 30
0.0
 40
3.500000000000028
  0
CIRCLE
  5
18D
330
1F
100
AcDbEntity
  8
0
  6
Continuous
 62
     7
370
    25
100
AcDbCircle
 10
57.165483698
 20
156.5761918677
 30
0.0
 40
6.500000000000028
  0
CIRCLE
  5
18E
330
1F
100
AcDbEntity
  8
0
  6
Continuous
 62
     7
370
    25
100
AcDbCircle
 10
57.165483698
 20
156.5761918677
 30
0.0
 40
3.500000000000028
  0
LINE
  5
18F
330
1F
100
AcDbEntity
  8
0
  6
Continuous
 62
     7
370
    25
100
AcDbLine
 10
44.165483698
 20
165.5761918677
 30
0.0
 11
148.165483698
 21
165.5761918677
 31
0.0
  0
ARC
  5
190
330
1F
100
AcDbEntity
  8
0
  6
Continuous
 62
     7
370
    25
100
AcDbCircle
 10
148.165483698
 20
153.5761918677
 30
0.0
 40
12.00000000000003
100
AcDbArc
 50
314.9005279607
 51
90.0
  0
CIRCLE
  5
191
330
1F
100
AcDbEntity
  8
0
  6
Continuous
 62
     7
370
    25
100
AcDbCircle
 10
148.165483698
 20
158.5761918677
 30
0.0
 40
5.500000000000028
  0
CIRCLE
  5
192
330
1F
100
AcDbEntity
  8
0
  6
Continuous
 62
     7
370
    25
100
AcDbCircle
 10
122.165483698
 20
153.5761918677
 30
0.0
 40
5.5
  0
CIRCLE
  5
193
330
1F
100
AcDbEntity
  8
0
  6
Continuous
 62
     7
370
    25
100
AcDbCircle
 10
96.165483698
 20
158.5761918677
 30
0.0
 40
5.5
  0
CIRCLE
  5
194
330
1F
100
AcDbEntity
  8
0
  6
Continuous
 62
     7
370
    25
100
AcDbCircle
 10
70.165483698
 20
153.5761918677
 30
0.0
 40
5.5
  0
CIRCLE
  5
195
330
1F
100
AcDbEntity
  8
0
  6
Continuous
 62
     7
370
    25
100
AcDbCircle
 10
44.165483698
 20
158.5761918677
 30
0.0
 40
5.500000000000028
  0
LINE
  5
196
330
1F
100
AcDbEntity
  8
0
  6
Continuous
 62
     7
370
    25
100
AcDbLine
 10
154.165483698
 20
145.0761918677
 30
0.0
 11
156.636020871
 21
145.0761918677
 31
0.0
  0
LINE
  5
197
330
1F
100
AcDbEntity
  8
0
  6
Continuous
 62
     7
370
    25
100
AcDbLine
 10
35.6949465249
 20
145.0761918677
 30
0.0
 11
38.165483698
 21
145.0761918677
 31
0.0
  0
ARC
  5
198
330
1F
100
AcDbEntity
  8
0
  6
Continuous
 62
     7
370
    25
100
AcDbCircle
 10
44.165483698
 20
153.5761918677
 30
0.0
 40
12.00000000000001
100
AcDbArc
 50
90.0
 51
225.0994720393
  0
CIRCLE
  5
199
330
1F
100
AcDbEntity
  8
0
  6
Continuous
 62
     7
370
    25
100
AcDbCircle
 10
70.165483698
 20
153.5761918677
 30
0.0
 40
3.25
  0
CIRCLE
  5
19A
330
1F
100
AcDbEntity
  8
0
  6
Continuous
 62
     7
370
    25
100
AcDbCircle
 10
148.165483698
 20
158.5761918677
 30
0.0
 40
3.250000000000028
  0
CIRCLE
  5
19B
330
1F
100
AcDbEntity
  8
0
  6
Continuous
 62
     7
370
    25
100
AcDbCircle
 10
44.165483698
 20
158.5761918677
 30
0.0
 40
3.250000000000028
  0
CIRCLE
  5
19C
330
1F
100
AcDbEntity
  8
0
  6
Continuous
 62
     7
370
    25
100
AcDbCircle
 10
96.165483698
 20
158.5761918677
 30
0.0
 40
3.250000000000028
  0
CIRCLE
  5
19D
330
1F
100
AcDbEntity
  8
0
  6
Continuous
 62
     7
370
    25
100
AcDbCircle
 10
122.165483698
 20
153.5761918677
 30
0.0
 40
3.25
  0
LINE
  5
19E
330
1F
100
AcDbEntity
  8
0
  6
Continuous
 62
     7
370
    25
100
AcDbLine
 10
155.965483698
 20
134.0761918677
 30
0.0
 11
155.965483698
 21
143.0761918677
 31
0.0
  0
LINE
  5
19F
330
1F
100
AcDbEntity
  8
0
  6
Continuous
 62
     7
370
    25
100
AcDbLine
 10
155.965483698
 20
125.0761918677
 30
0.0
 11
155.965483698
 21
134.0761918677
 31
0.0
  0
LINE
  5
1A0
330
1F
100
AcDbEntity
  8
0
  6
Continuous
 62
     7
370
    25
100
AcDbLine
 10
119.165483698
 20
134.0761918677
 30
0.0
 11
119.165483698
 21
143.0761918677
 31
0.0
  0
LINE
  5
1A1
330
1F
100
AcDbEntity
  8
0
  6
Continuous
 62
     7
370
    25
100
AcDbLine
 10
119.165483698
 20
125.0761918677
 30
0.0
 11
119.165483698
 21
134.0761918677
 31
0.0
  0
LINE
  5
1A2
330
1F
100
AcDbEntity
  8
0
  6
Continuous
 62
     7
370
    25
100
AcDbLine
 10
156.165483698
 20
134.0761918677
 30
0.0
 11
156.165483698
 21
142.8761918677
 31
0.0
  0
LINE
  5
1A3
330
1F
100
AcDbEntity
  8
0
  6
Continuous
 62
     7
370
    25
100
AcDbLine
 10
156.165483698
 20
125.2761918677
 30
0.0
 11
156.165483698
 21
134.0761918677
 31
0.0
  0
LINE
  5
1A4
330
1F
100
AcDbEntity
  8
0
  6
Continuous
 62
     7
370
    25
100
AcDbLine
 10
36.365483698
 20
143.0761918677
 30
0.0
 11
36.365483698
 21
125.0761918677
 31
0.0
  0
LINE
  5
1A5
330
1F
100
AcDbEntity
  8
0
  6
Continuous
 62
     7
370
    25
100
AcDbLine
 10
73.165483698
 20
143.0761918677
 30
0.0
 11
73.165483698
 21
125.0761918677
 31
0.0
  0
LINE
  5
1A6
330
1F
100
AcDbEntity
  8
0
  6
Continuous
 62
     7
370
    25
100
AcDbLine
 10
36.165483698
 20
142.8761918677
 30
0.0
 11
36.165483698
 21
125.2761918677
 31
0.0
  0
LINE
  5
1A7
330
1F
100
AcDbEntity
  8
0
  6
Continuous
 62
     7
370
    25
100
AcDbLine
 10
74.3736094276
 20
125.1506457847
 30
0.0
 11
74.2301430526
 21
124.6356642199
 31
0.0
  0
LINE
  5
1A8
330
1F
100
AcDbEntity
  8
0
  6
Continuous
 62
     7
370
    25
100
AcDbLine
 10
74.2301430526
 20
124.6356642199
 30
0.0
 11
74.0533677744
 21
124.2964869402
 31
0.0
  0
LINE
  5
1A9
330
1F
100
AcDbEntity
  8
0
  6
Continuous
 62
     7
370
    25
100
AcDbLine
 10
74.0533677744
 20
124.2964869402
 30
0.0
 11
73.8038382629
 21
124.0243397767
 31
0.0
  0
LWPOLYLINE
  5
1AA
330
1F
100
AcDbEntity
  8
0
  6
Continuous
 62
     7
370
    25
100
AcDbPolyline
 90
        3
 70
   128
 43
0.0
 10
73.803838263
 20
124.0243397767
 10
73.6105722257
 20
123.920632233
 10
73.4060831193
 20
123.8840062823
  0
LINE
  5
1AB
330
1F
100
AcDbEntity
  8
0
  6
Continuous
 62
     7
370
    25
100
AcDbLine
 10
74.5549907554
 20
126.2282613916
 30
0.0
 11
74.3736094276
 21
125.1506457848
 31
0.0
  0
LWPOLYLINE
  5
1AC
330
1F
100
AcDbEntity
  8
0
  6
Continuous
 62
     7
370
    25
100
AcDbPolyline
 90
        3
 70
   128
 43
0.0
 10
117.9573374973
 20
125.1505120684
 10
117.8533963829
 20
125.7774863655
 10
117.7759766408
 20
126.2282613903
  0
ARC
  5
1AD
330
1F
100
AcDbEntity
  8
0
  6
Continuous
 62
     7
370
    25
100
AcDbCircle
 10
120.1559640084
 20
125.4884282333
 30
0.0
 40
2.22444282236964
100
AcDbArc
 50
188.7376576238
 51
212.2911362823
  0
LWPOLYLINE
  5
1AE
330
1F
100
AcDbEntity
  8
0
  6
Continuous
 62
     7
370
    25
100
AcDbPolyline
 90
        3
 70
   128
 43
0.0
 10
118.5219548958
 20
124.0315324044
 10
118.3938289535
 20
124.1476946953
 10
118.2755435297
 20
124.3000828739
  0
LWPOLYLINE
  5
1AF
330
1F
100
AcDbEntity
  8
0
  6
Continuous
 62
     7
370
    25
100
AcDbPolyline
 90
        3
 70
   128
 43
0.0
 10
118.9248427095
 20
123.8840062823
 10
118.7161864862
 20
123.9267830751
 10
118.5219548958
 20
124.0315324044
  0
LINE
  5
1B0
330
1F
100
AcDbEntity
  8
0
  6
Continuous
 62
     7
370
    25
100
AcDbLine
 10
137.665483698
 20
123.8840062823
 30
0.0
 11
118.9248427095
 21
123.8840062823
 31
0.0
  0
ARC
  5
1B1
330
1F
100
AcDbEntity
  8
0
  6
Continuous
 62
     7
370
    25
100
AcDbCircle
 10
137.665483698
 20
123.3840062823
 30
0.0
 40
0.5000000000000426
100
AcDbArc
 50
0.0
 51
90.0
  0
LINE
  5
1B2
330
1F
100
AcDbEntity
  8
0
  6
Continuous
 62
     7
370
    25
100
AcDbLine
 10
138.165483698
 20
95.5761918677
 30
0.0
 11
138.165483698
 21
123.3840062823
 31
0.0
  0
ARC
  5
1B3
330
1F
100
AcDbEntity
  8
0
  6
Continuous
 62
     7
370
    25
100
AcDbCircle
 10
137.665483698
 20
95.5761918677
 30
0.0
 40
0.5
100
AcDbArc
 50
270.0
 51
0.0
  0
LINE
  5
1B4
330
1F
100
AcDbEntity
  8
0
  6
Continuous
 62
     7
370
    25
100
AcDbLine
 10
129.5558719012
 20
95.0761918677
 30
0.0
 11
137.665483698
 21
95.0761918677
 31
0.0
  0
ARC
  5
1B5
330
1F
100
AcDbEntity
  8
0
  6
Continuous
 62
     7
370
    25
100
AcDbCircle
 10
129.5558719012
 20
95.5761918677
 30
0.0
 40
0.500000000000013
100
AcDbArc
 50
194.0362434679
 51
270.0
  0
LINE
  5
1B6
330
1F
100
AcDbEntity
  8
0
  6
Continuous
 62
     7
370
    25
100
AcDbLine
 10
127.8208006511
 20
100.4549240552
 30
0.0
 11
129.0708006511
 21
95.4549240552
 31
0.0
  0
ARC
  5
1B7
330
1F
100
AcDbEntity
  8
0
  6
Continuous
 62
     7
370
    25
100
AcDbCircle
 10
128.3058719012
 20
100.5761918677
 30
0.0
 40
0.5
100
AcDbArc
 50
90.0
 51
194.0362434679
  0
LINE
  5
1B8
330
1F
100
AcDbEntity
  8
0
  6
Continuous
 62
     7
370
    25
100
AcDbLine
 10
130.665483698
 20
101.0761918677
 30
0.0
 11
128.3058719012
 21
101.0761918677
 31
0.0
  0
ARC
  5
1B9
330
1F
100
AcDbEntity
  8
0
  6
Continuous
 62
     7
370
    25
100
AcDbCircle
 10
130.665483698
 20
101.5761918677
 30
0.0
 40
0.5
100
AcDbArc
 50
270.0
 51
0.0
  0
LINE
  5
1BA
330
1F
100
AcDbEntity
  8
0
  6
Continuous
 62
     7
370
    25
100
AcDbLine
 10
131.165483698
 20
110.0761918677
 30
0.0
 11
131.165483698
 21
101.5761918677
 31
0.0
  0
ARC
  5
1BB
330
1F
100
AcDbEntity
  8
0
  6
Continuous
 62
     7
370
    25
100
AcDbCircle
 10
129.165483698
 20
110.0761918677
 30
0.0
 40
2.000000000000014
100
AcDbArc
 50
0.0
 51
90.0
  0
LINE
  5
1BC
330
1F
100
AcDbEntity
  8
0
  6
Continuous
 62
     7
370
    25
100
AcDbLine
 10
119.165483698
 20
112.0761918677
 30
0.0
 11
129.165483698
 21
112.0761918677
 31
0.0
  0
ARC
  5
1BD
330
1F
100
AcDbEntity
  8
0
  6
Continuous
 62
     7
370
    25
100
AcDbCircle
 10
119.165483698
 20
110.0761918677
 30
0.0
 40
2.000000000000028
100
AcDbArc
 50
90.0
 51
180.0
  0
LINE
  5
1BE
330
1F
100
AcDbEntity
  8
0
  6
Continuous
 62
     7
370
    25
100
AcDbLine
 10
117.165483698
 20
101.5761918677
 30
0.0
 11
117.165483698
 21
110.0761918677
 31
0.0
  0
ARC
  5
1BF
330
1F
100
AcDbEntity
  8
0
  6
Continuous
 62
     7
370
    25
100
AcDbCircle
 10
117.665483698
 20
101.5761918677
 30
0.0
 40
0.5000000000000284
100
AcDbArc
 50
180.0
 51
270.0
  0
LINE
  5
1C0
330
1F
100
AcDbEntity
  8
0
  6
Continuous
 62
     7
370
    25
100
AcDbLine
 10
120.0250954948
 20
101.0761918677
 30
0.0
 11
117.665483698
 21
101.0761918677
 31
0.0
  0
ARC
  5
1C1
330
1F
100
AcDbEntity
  8
0
  6
Continuous
 62
     7
370
    25
100
AcDbCircle
 10
120.0250954948
 20
100.5761918677
 30
0.0
 40
0.5000000000000095
100
AcDbArc
 50
345.9637565321
 51
90.0
  0
LINE
  5
1C2
330
1F
100
AcDbEntity
  8
0
  6
Continuous
 62
     7
370
    25
100
AcDbLine
 10
119.2601667448
 20
95.4549240552
 30
0.0
 11
120.5101667448
 21
100.4549240552
 31
0.0
  0
ARC
  5
1C3
330
1F
100
AcDbEntity
  8
0
  6
Continuous
 62
     7
370
    25
100
AcDbCircle
 10
118.7750954948
 20
95.5761918677
 30
0.0
 40
0.5
100
AcDbArc
 50
270.0
 51
345.9637565321
  0
LINE
  5
1C4
330
1F
100
AcDbEntity
  8
0
  6
Continuous
 62
     7
370
    25
100
AcDbLine
 10
101.5558719012
 20
95.0761918677
 30
0.0
 11
118.7750954948
 21
95.0761918677
 31
0.0
  0
ARC
  5
1C5
330
1F
100
AcDbEntity
  8
0
  6
Continuous
 62
     7
370
    25
100
AcDbCircle
 10
101.5558719012
 20
95.5761918677
 30
0.0
 40
0.5
100
AcDbArc
 50
194.0362434679
 51
270.0
  0
LINE
  5
1C6
330
1F
100
AcDbEntity
  8
0
  6
Continuous
 62
     7
370
    25
100
AcDbLine
 10
99.8208006511
 20
100.4549240552
 30
0.0
 11
101.0708006511
 21
95.4549240552
 31
0.0
  0
ARC
  5
1C7
330
1F
100
AcDbEntity
  8
0
  6
Continuous
 62
     7
370
    25
100
AcDbCircle
 10
100.3058719012
 20
100.5761918677
 30
0.0
 40
0.5
100
AcDbArc
 50
90.0
 51
194.0362434679
  0
LINE
  5
1C8
330
1F
100
AcDbEntity
  8
0
  6
Continuous
 62
     7
370
    25
100
AcDbLine
 10
102.665483698
 20
101.0761918677
 30
0.0
 11
100.3058719012
 21
101.0761918677
 31
0.0
  0
ARC
  5
1C9
330
1F
100
AcDbEntity
  8
0
  6
Continuous
 62
     7
370
    25
100
AcDbCircle
 10
102.665483698
 20
101.5761918677
 30
0.0
 40
0.5
100
AcDbArc
 50
270.0
 51
0.0
  0
LINE
  5
1CA
330
1F
100
AcDbEntity
  8
0
  6
Continuous
 62
     7
370
    25
100
AcDbLine
 10
103.165483698
 20
110.0761918677
 30
0.0
 11
103.165483698
 21
101.5761918677
 31
0.0
  0
ARC
  5
1CB
330
1F
100
AcDbEntity
  8
0
  6
Continuous
 62
     7
370
    25
100
AcDbCircle
 10
101.165483698
 20
110.0761918677
 30
0.0
 40
2.000000000000014
100
AcDbArc
 50
0.0
 51
90.0
  0
LINE
  5
1CC
330
1F
100
AcDbEntity
  8
0
  6
Continuous
 62
     7
370
    25
100
AcDbLine
 10
91.165483698
 20
112.0761918677
 30
0.0
 11
101.165483698
 21
112.0761918677
 31
0.0
  0
ARC
  5
1CD
330
1F
100
AcDbEntity
  8
0
  6
Continuous
 62
     7
370
    25
100
AcDbCircle
 10
91.165483698
 20
110.0761918677
 30
0.0
 40
2.000000000000014
100
AcDbArc
 50
90.0
 51
180.0
  0
LINE
  5
1CE
330
1F
100
AcDbEntity
  8
0
  6
Continuous
 62
     7
370
    25
100
AcDbLine
 10
89.165483698
 20
101.5761918677
 30
0.0
 11
89.165483698
 21
110.0761918677
 31
0.0
  0
ARC
  5
1CF
330
1F
100
AcDbEntity
  8
0
  6
Continuous
 62
     7
370
    25
100
AcDbCircle
 10
89.665483698
 20
101.5761918677
 30
0.0
 40
0.5
100
AcDbArc
 50
180.0
 51
270.0
  0
LINE
  5
1D0
330
1F
100
AcDbEntity
  8
0
  6
Continuous
 62
     7
370
    25
100
AcDbLine
 10
92.0250954948
 20
101.0761918677
 30
0.0
 11
89.665483698
 21
101.0761918677
 31
0.0
  0
ARC
  5
1D1
330
1F
100
AcDbEntity
  8
0
  6
Continuous
 62
     7
370
    25
100
AcDbCircle
 10
92.0250954948
 20
100.5761918677
 30
0.0
 40
0.500000000000013
100
AcDbArc
 50
345.9637565321
 51
90.0
  0
LINE
  5
1D2
330
1F
100
AcDbEntity
  8
0
  6
Continuous
 62
     7
370
    25
100
AcDbLine
 10
91.2601667448
 20
95.4549240552
 30
0.0
 11
92.5101667448
 21
100.4549240552
 31
0.0
  0
ARC
  5
1D3
330
1F
100
AcDbEntity
  8
0
  6
Continuous
 62
     7
370
    25
100
AcDbCircle
 10
90.7750954948
 20
95.5761918677
 30
0.0
 40
0.5
100
AcDbArc
 50
270.0
 51
345.9637565321
  0
LINE
  5
1D4
330
1F
100
AcDbEntity
  8
0
  6
Continuous
 62
     7
370
    25
100
AcDbLine
 10
73.5558719012
 20
95.0761918677
 30
0.0
 11
90.7750954948
 21
95.0761918677
 31
0.0
  0
ARC
  5
1D5
330
1F
100
AcDbEntity
  8
0
  6
Continuous
 62
     7
370
    25
100
AcDbCircle
 10
73.5558719012
 20
95.5761918677
 30
0.0
 40
0.5
100
AcDbArc
 50
194.0362434679
 51
270.0
  0
LINE
  5
1D6
330
1F
100
AcDbEntity
  8
0
  6
Continuous
 62
     7
370
    25
100
AcDbLine
 10
71.8208006511
 20
100.4549240552
 30
0.0
 11
73.0708006511
 21
95.4549240552
 31
0.0
  0
ARC
  5
1D7
330
1F
100
AcDbEntity
  8
0
  6
Continuous
 62
     7
370
    25
100
AcDbCircle
 10
72.3058719012
 20
100.5761918677
 30
0.0
 40
0.5
100
AcDbArc
 50
90.0
 51
194.0362434679
  0
LINE
  5
1D8
330
1F
100
AcDbEntity
  8
0
  6
Continuous
 62
     7
370
    25
100
AcDbLine
 10
74.665483698
 20
101.0761918677
 30
0.0
 11
72.3058719012
 21
101.0761918677
 31
0.0
  0
ARC
  5
1D9
330
1F
100
AcDbEntity
  8
0
  6
Continuous
 62
     7
370
    25
100
AcDbCircle
 10
74.665483698
 20
101.5761918677
 30
0.0
 40
0.5
100
AcDbArc
 50
270.0
 51
0.0
  0
LINE
  5
1DA
330
1F
100
AcDbEntity
  8
0
  6
Continuous
 62
     7
370
    25
100
AcDbLine
 10
75.165483698
 20
110.0761918677
 30
0.0
 11
75.165483698
 21
101.5761918677
 31
0.0
  0
ARC
  5
1DB
330
1F
100
AcDbEntity
  8
0
  6
Continuous
 62
     7
370
    25
100
AcDbCircle
 10
73.165483698
 20
110.0761918677
 30
0.0
 40
2.000000000000028
100
AcDbArc
 50
0.0
 51
90.0
  0
LINE
  5
1DC
330
1F
100
AcDbEntity
  8
0
  6
Continuous
 62
     7
370
    25
100
AcDbLine
 10
63.165483698
 20
112.0761918677
 30
0.0
 11
73.165483698
 21
112.0761918677
 31
0.0
  0
ARC
  5
1DD
330
1F
100
AcDbEntity
  8
0
  6
Continuous
 62
     7
370
    25
100
AcDbCircle
 10
63.165483698
 20
110.0761918677
 30
0.0
 40
2.000000000000014
100
AcDbArc
 50
90.0
 51
180.0
  0
LINE
  5
1DE
330
1F
100
AcDbEntity
  8
0
  6
Continuous
 62
     7
370
    25
100
AcDbLine
 10
61.165483698
 20
101.5761918677
 30
0.0
 11
61.165483698
 21
110.0761918677
 31
0.0
  0
ARC
  5
1DF
330
1F
100
AcDbEntity
  8
0
  6
Continuous
 62
     7
370
    25
100
AcDbCircle
 10
61.665483698
 20
101.5761918677
 30
0.0
 40
0.5
100
AcDbArc
 50
180.0
 51
270.0
  0
LINE
  5
1E0
330
1F
100
AcDbEntity
  8
0
  6
Continuous
 62
     7
370
    25
100
AcDbLine
 10
64.0250954948
 20
101.0761918677
 30
0.0
 11
61.665483698
 21
101.0761918677
 31
0.0
  0
ARC
  5
1E1
330
1F
100
AcDbEntity
  8
0
  6
Continuous
 62
     7
370
    25
100
AcDbCircle
 10
64.0250954948
 20
100.5761918677
 30
0.0
 40
0.5
100
AcDbArc
 50
345.9637565321
 51
90.0
  0
LINE
  5
1E2
330
1F
100
AcDbEntity
  8
0
  6
Continuous
 62
     7
370
    25
100
AcDbLine
 10
63.2601667448
 20
95.4549240552
 30
0.0
 11
64.5101667448
 21
100.4549240552
 31
0.0
  0
ARC
  5
1E3
330
1F
100
AcDbEntity
  8
0
  6
Continuous
 62
     7
370
    25
100
AcDbCircle
 10
62.7750954948
 20
95.5761918677
 30
0.0
 40
0.5
100
AcDbArc
 50
270.0
 51
345.9637565321
  0
LINE
  5
1E4
330
1F
100
AcDbEntity
  8
0
  6
Continuous
 62
     7
370
    25
100
AcDbLine
 10
54.665483698
 20
95.0761918677
 30
0.0
 11
62.7750954948
 21
95.0761918677
 31
0.0
  0
ARC
  5
1E5
330
1F
100
AcDbEntity
  8
0
  6
Continuous
 62
     7
370
    25
100
AcDbCircle
 10
54.665483698
 20
95.5761918677
 30
0.0
 40
0.5
100
AcDbArc
 50
180.0
 51
270.0
  0
LINE
  5
1E6
330
1F
100
AcDbEntity
  8
0
  6
Continuous
 62
     7
370
    25
100
AcDbLine
 10
54.165483698
 20
95.5761918677
 30
0.0
 11
54.165483698
 21
123.3840062823
 31
0.0
  0
ARC
  5
1E7
330
1F
100
AcDbEntity
  8
0
  6
Continuous
 62
     7
370
    25
100
AcDbCircle
 10
54.665483698
 20
123.3840062823
 30
0.0
 40
0.5
100
AcDbArc
 50
90.0
 51
180.0
  0
LINE
  5
1E8
330
1F
100
AcDbEntity
  8
0
  6
Continuous
 62
     7
370
    25
100
AcDbLine
 10
54.665483698
 20
123.8840062823
 30
0.0
 11
73.4060831193
 21
123.8840062823
 31
0.0
  0
LINE
  5
1E9
330
1F
100
AcDbEntity
  8
0
  6
Continuous
 62
     7
370
    25
100
AcDbLine
 10
74.915483698
 20
128.3978945893
 30
0.0
 11
74.5549907554
 21
126.2282614181
 31
0.0
  0
LINE
  5
1EA
330
1F
100
AcDbEntity
  8
0
  6
Continuous
 62
     7
370
    25
100
AcDbLine
 10
74.915483698
 20
128.3978945893
 30
0.0
 11
117.415483698
 21
128.3978945893
 31
0.0
  0
LINE
  5
1EB
330
1F
100
AcDbEntity
  8
0
  6
Continuous
 62
     7
370
    25
100
AcDbLine
 10
117.7759766407
 20
126.2282614173
 30
0.0
 11
117.415483698
 21
128.3978945893
 31
0.0
  0
LINE
  5
1EC
330
1F
100
AcDbEntity
  8
0
  6
Continuous
 62
     7
370
    25
100
AcDbLine
 10
118.165483698
 20
143.0761918677
 30
0.0
 11
118.165483698
 21
125.0761918677
 31
0.0
  0
LINE
  5
1ED
330
1F
100
AcDbEntity
  8
0
  6
Continuous
 62
     7
370
    25
100
AcDbLine
 10
74.165483698
 20
143.0761918677
 30
0.0
 11
74.165483698
 21
125.0761918677
 31
0.0
  0
DIMENSION
  5
1EE
330
1F
100
AcDbEntity
  8
FORMAT
100
AcDbDimension
  2
_D
 10
25.365483698
 20
143.0761918677
 30
0.0
 11
25.365483698
 21
134.0761918677
 31
0.0
 70
   160
  1
%%c<>
 71
     2
 42
-1.0
  3
SLDDIMSTYLE0
100
AcDbAlignedDimension
 13
36.365483698
 23
125.0761918677
 33
0.0
 14
36.365483698
 24
143.0761918677
 34
0.0
 50
90.0
100
AcDbRotatedDimension
  0
DIMENSION
  5
1FA
330
1F
100
AcDbEntity
  8
FORMAT
100
AcDbDimension
  2
_D_1
 10
96.165483698
 20
85.0761918677
 30
0.0
 11
82.165483698
 21
85.0761918677
 31
0.0
 70
   160
  1
<>
 71
     2
 42
-1.0
  3
SLDDIMSTYLE0
100
AcDbAlignedDimension
 13
68.165483698
 23
99.5761918677
 33
0.0
 14
96.165483698
 24
93.5761918677
 34
0.0
100
AcDbRotatedDimension
  0
DIMENSION
  5
204
330
1F
100
AcDbEntity
  8
FORMAT
100
AcDbDimension
  2
_D_2
 10
96.165483698
 20
85.0761918677
 30
0.0
 11
110.165483698
 21
85.0761918677
 31
0.0
 70
   160
  1
<>
 71
     2
 42
-1.0
  3
SLDDIMSTYLE0
100
AcDbAlignedDimension
 13
124.165483698
 23
99.5761918677
 33
0.0
 14
96.165483698
 24
93.5761918677
 34
0.0
100
AcDbRotatedDimension
  0
DIMENSION
  5
20E
330
1F
100
AcDbEntity
  8
FORMAT
100
AcDbDimension
  2
_D_3
 10
138.165483698
 20
73.0761918677
 30
0.0
 11
96.165483698
 21
73.0761918677
 31
0.0
 70
   160
  1
<>
 71
     2
 42
-1.0
  3
SLDDIMSTYLE0
100
AcDbAlignedDimension
 13
54.165483698
 23
95.5761918677
 33
0.0
 14
138.165483698
 24
95.5761918677
 34
0.0
100
AcDbRotatedDimension
  0
DIMENSION
  5
218
330
1F
100
AcDbEntity
  8
FORMAT
100
AcDbDimension
  2
_D_4
 10
160.165483698
 20
185.2349410904
 30
0.0
 11
96.165483698
 21
185.2349410904
 31
0.0
 70
   160
  1
<>
 71
     2
 42
-1.0
  3
SLDDIMSTYLE0
100
AcDbAlignedDimension
 13
32.165483698
 23
153.5761918677
 33
0.0
 14
160.165483698
 24
153.5761918677
 34
0.0
100
AcDbRotatedDimension
  0
DIMENSION
  5
225
330
1F
100
AcDbEntity
  8
FORMAT
100
AcDbDimension
  2
_D_5
 10
70.165483698
 20
173.1293881867
 30
0.0
 11
53.6941943111
 21
173.1293881867
 31
0.0
 70
   160
  1
<>
 71
     2
 42
-1.0
  3
SLDDIMSTYLE0
100
AcDbAlignedDimension
 13
44.165483698
 23
166.5761918677
 33
0.0
 14
70.165483698
 24
161.5761918677
 34
0.0
100
AcDbRotatedDimension
  0
DIMENSION
  5
22F
330
1F
100
AcDbEntity
  8
FORMAT
100
AcDbDimension
  2
_D_6
 10
96.165483698
 20
173.1293881867
 30
0.0
 11
83.165483698
 21
173.1293881867
 31
0.0
 70
   160
  1
<>
 71
     2
 42
-1.0
  3
SLDDIMSTYLE0
100
AcDbAlignedDimension
 13
70.165483698
 23
161.5761918677
 33
0.0
 14
96.165483698
 24
166.5761918677
 34
0.0
100
AcDbRotatedDimension
  0
DIMENSION
  5
239
330
1F
100
AcDbEntity
  8
FORMAT
100
AcDbDimension
  2
_D_7
 10
122.165483698
 20
173.1293881867
 30
0.0
 11
109.165483698
 21
173.1293881867
 31
0.0
 70
   160
  1
<>
 71
     2
 42
-1.0
  3
SLDDIMSTYLE0
100
AcDbAlignedDimension
 13
96.165483698
 23
166.5761918677
 33
0.0
 14
122.165483698
 24
161.5761918677
 34
0.0
100
AcDbRotatedDimension
  0
DIMENSION
  5
243
330
1F
100
AcDbEntity
  8
FORMAT
100
AcDbDimension
  2
_D_8
 10
25.365483698
 20
158.5761918677
 30
0.0
 11
25.365483698
 21
162.0761918677
 31
0.0
 70
   160
  1
<>
 71
     2
 42
-1.0
  3
SLDDIMSTYLE1
100
AcDbAlignedDimension
 13
44.165483698
 23
165.5761918677
 33
0.0
 14
36.165483698
 24
158.5761918677
 34
0.0
 50
90.0
100
AcDbRotatedDimension
  0
DIMENSION
  5
252
330
1F
100
AcDbEntity
  8
FORMAT
100
AcDbDimension
  2
_D_9
 10
87.0391240739
 20
165.5761918677
 30
0.0
 11
87.0391240739
 21
159.5761918677
 31
0.0
 70
   160
  1
<>
 71
     2
 42
-1.0
  3
SLDDIMSTYLE0
100
AcDbAlignedDimension
 13
78.165483698
 23
153.5761918677
 33
0.0
 14
44.165483698
 24
165.5761918677
 34
0.0
 50
90.0
100
AcDbRotatedDimension
  0
DIMENSION
  5
25B
330
1F
100
AcDbEntity
  8
FORMAT
100
AcDbDimension
  2
_D_10
 10
109.9702736647
 20
158.5761918677
 30
0.0
 11
109.9702736647
 21
162.0761918677
 31
0.0
 70
   160
  1
<>
 71
     2
 42
-1.0
  3
SLDDIMSTYLE1
100
AcDbAlignedDimension
 13
148.165483698
 23
165.5761918677
 33
0.0
 14
104.165483698
 24
158.5761918677
 34
0.0
 50
90.0
100
AcDbRotatedDimension
  0
DIMENSION
  5
266
330
1F
100
AcDbEntity
  8
FORMAT
100
AcDbDimension
  2
_D_11
 10
148.165483698
 20
153.5761918677
 30
0.0
 11
166.4973345567
 21
171.1479945047
 31
0.0
 70
   164
  1
<>
 71
     1
 42
-1.0
  3
SLDDIMSTYLE2
100
AcDbRadialDimension
 15
156.8284501305
 25
161.8799869392
 35
0.0
 40
0.0
  0
DIMENSION
  5
26E
330
1F
100
AcDbEntity
  8
FORMAT
100
AcDbDimension
  2
_D_12
 10
79.8056683279
 20
165.5761918677
 30
0.0
 11
79.8056683279
 21
161.0761918677
 31
0.0
 70
   160
  1
<>
 71
     2
 42
-1.0
  3
SLDDIMSTYLE0
100
AcDbAlignedDimension
 13
57.165483698
 23
156.5761918677
 33
0.0
 14
44.165483698
 24
165.5761918677
 34
0.0
 50
90.0
100
AcDbRotatedDimension
  0
DIMENSION
  5
277
330
1F
100
AcDbEntity
  8
FORMAT
100
AcDbDimension
  2
_D_13
 10
96.165483698
 20
179.2221570754
 30
0.0
 11
76.665483698
 21
179.2221570754
 31
0.0
 70
   160
  1
<>
 71
     2
 42
-1.0
  3
SLDDIMSTYLE0
100
AcDbAlignedDimension
 13
57.165483698
 23
156.5761918677
 33
0.0
 14
96.165483698
 24
158.5761918677
 34
0.0
100
AcDbRotatedDimension
  0
DIMENSION
  5
282
330
1F
100
AcDbEntity
  8
FORMAT
100
AcDbDimension
  2
_D_14
 10
135.165483698
 20
179.2221570754
 30
0.0
 11
115.665483698
 21
179.2221570754
 31
0.0
 70
   160
  1
<>
 71
     2
 42
-1.0
  3
SLDDIMSTYLE0
100
AcDbAlignedDimension
 13
96.165483698
 23
158.5761918677
 33
0.0
 14
135.165483698
 24
156.5761918677
 34
0.0
100
AcDbRotatedDimension
  0
DIMENSION
  5
28D
330
1F
100
AcDbEntity
  8
FORMAT
100
AcDbDimension
  2
_D_15
 10
148.165483698
 20
173.1293881867
 30
0.0
 11
138.5613150822
 21
173.1293881867
 31
0.0
 70
   160
  1
<>
 71
     2
 42
-1.0
  3
SLDDIMSTYLE0
100
AcDbAlignedDimension
 13
122.165483698
 23
153.5761918677
 33
0.0
 14
148.165483698
 24
158.5761918677
 34
0.0
100
AcDbRotatedDimension
  0
MTEXT
  5
297
330
1F
100
AcDbEntity
  8
FORMAT
100
AcDbMText
 10
91.9309315887
 20
115.2662040608
 30
0.0
 40
3.5
 41
0.0
 71
     1
 72
     1
  1
BBL
  7
SLDTEXTSTYLE0
 11
-3.491481338843133E-15
 21
1.0
 31
0.0
 73
     1
 44
1.0
  0
INSERT
  5
2A3
330
1F
100
AcDbEntity
  8
FORMAT
100
AcDbBlockReference
  2
SW_CENTERMARKSYMBOL_0
 10
44.165483698
 20
158.5761918677
 30
0.0
  0
INSERT
  5
2AF
330
1F
100
AcDbEntity
  8
FORMAT
100
AcDbBlockReference
  2
SW_CENTERMARKSYMBOL_1
 10
70.165483698
 20
153.5761918677
 30
0.0
  0
INSERT
  5
2BB
330
1F
100
AcDbEntity
  8
FORMAT
100
AcDbBlockReference
  2
SW_CENTERMARKSYMBOL_2
 10
96.165483698
 20
158.5761918677
 30
0.0
  0
INSERT
  5
2C7
330
1F
100
AcDbEntity
  8
FORMAT
100
AcDbBlockReference
  2
SW_CENTERMARKSYMBOL_3
 10
122.165483698
 20
153.5761918677
 30
0.0
  0
INSERT
  5
2D3
330
1F
100
AcDbEntity
  8
FORMAT
100
AcDbBlockReference
  2
SW_CENTERMARKSYMBOL_4
 10
148.165483698
 20
158.5761918677
 30
0.0
  0
INSERT
  5
2DF
330
1F
100
AcDbEntity
  8
FORMAT
100
AcDbBlockReference
  2
SW_CENTERMARKSYMBOL_5
 10
57.165483698
 20
156.5761918677
 30
0.0
  0
INSERT
  5
2EB
330
1F
100
AcDbEntity
  8
FORMAT
100
AcDbBlockReference
  2
SW_CENTERMARKSYMBOL_6
 10
135.165483698
 20
156.5761918677
 30
0.0
  0
LINE
  5
2EC
330
1F
100
AcDbEntity
  8
FORMAT
  6
CENTERX2
370
    18
100
AcDbLine
 10
96.165483698
 20
93.5761918677
 30
0.0
 11
96.165483698
 21
171.2230951358
 31
0.0
  0
LINE
  5
2ED
330
1F
100
AcDbEntity
  8
FORMAT
  6
CENTERX2
370
    18
100
AcDbLine
 10
68.165483698
 20
116.1384279386
 30
0.0
 11
68.165483698
 21
99.5761918677
 31
0.0
  0
LINE
  5
2EE
330
1F
100
AcDbEntity
  8
FORMAT
  6
CENTERX2
370
    18
100
AcDbLine
 10
124.165483698
 20
116.7393515807
 30
0.0
 11
124.165483698
 21
99.5761918677
 31
0.0
  0
LINE
  5
2EF
330
1F
100
AcDbEntity
  8
FORMAT
  6
CENTERX2
370
    18
100
AcDbLine
 10
164.2373729603
 20
134.0761918677
 30
0.0
 11
31.2211654543
 21
134.0761918677
 31
0.0
  0
LINE
  5
2F0
330
1F
100
AcDbEntity
  8
0
  6
CENTER
 62
     7
370
    18
100
AcDbLine
 10
173.0285824668
 20
150.5761918677
 30
0.0
 11
228.0285824668
 21
150.5761918677
 31
0.0
  0
LINE
  5
2F1
330
1F
100
AcDbEntity
  8
0
  6
CENTER
 62
     7
370
    18
100
AcDbLine
 10
228.0285824668
 20
162.5761918677
 30
0.0
 11
173.0285824668
 21
162.5761918677
 31
0.0
  0
LINE
  5
2F2
330
1F
100
AcDbEntity
  8
0
  6
CENTER
 62
     7
370
    18
100
AcDbLine
 10
173.0285824668
 20
162.5761918677
 30
0.0
 11
168.0285824668
 21
159.6894405218
 31
0.0
  0
LINE
  5
2F3
330
1F
100
AcDbEntity
  8
0
  6
CENTER
 62
     7
370
    18
100
AcDbLine
 10
168.0285824668
 20
153.4629432136
 30
0.0
 11
173.0285824668
 21
150.5761918677
 31
0.0
  0
LINE
  5
2F4
330
1F
100
AcDbEntity
  8
0
  6
Continuous
 62
     7
370
    25
100
AcDbLine
 10
231.0285824668
 20
150.6978625784
 30
0.0
 11
231.0285824668
 21
145.0761918677
 31
0.0
  0
LINE
  5
2F5
330
1F
100
AcDbEntity
  8
0
  6
Continuous
 62
     7
370
    25
100
AcDbLine
 10
228.0285824668
 20
145.0761918677
 30
0.0
 11
231.0285824668
 21
145.0761918677
 31
0.0
  0
LINE
  5
2F6
330
1F
100
AcDbEntity
  8
0
  6
Continuous
 62
     7
370
    25
100
AcDbLine
 10
228.0285824668
 20
155.0943782169
 30
0.0
 11
228.0285824668
 21
145.0761918677
 31
0.0
  0
LWPOLYLINE
  5
2F7
330
1F
100
AcDbEntity
  8
0
  6
Continuous
 62
     7
370
    18
100
AcDbPolyline
 90
        6
 70
   128
 43
0.0
 10
228.0285824668
 20
155.0943782169
 10
228.2988506578
 20
155.0326778409
 10
228.5324252419
 20
154.8818101279
 10
228.7456060713
 20
154.6018709652
 10
229.0552992142
 20
153.6907061076
 10
229.0821280189
 20
153.5761918845
  0
ARC
  5
2F8
330
1F
100
AcDbEntity
  8
0
  6
Continuous
 62
     7
370
    18
100
AcDbCircle
 10
232.3033807739
 20
153.6572421994
 30
0.0
 40
3.222272251872925
100
AcDbArc
 50
181.4413216595
 51
246.6952952328
  0
ARC
  5
2F9
330
1F
100
AcDbEntity
  8
0
  6
Continuous
 62
     7
370
    25
100
AcDbCircle
 10
231.5285824668
 20
145.0761918677
 30
0.0
 40
3.5
100
AcDbArc
 50
180.0
 51
205.3769335252
  0
ARC
  5
2FA
330
1F
100
AcDbEntity
  8
0
  6
Continuous
 62
     7
370
    25
100
AcDbCircle
 10
231.5285824668
 20
145.0761918677
 30
0.0
 40
0.5
100
AcDbArc
 50
180.0
 51
270.0
  0
LINE
  5
2FB
330
1F
100
AcDbEntity
  8
0
  6
Continuous
 62
     7
370
    25
100
AcDbLine
 10
231.5285824668
 20
143.5761918677
 30
0.0
 11
228.3663048066
 21
143.5761918677
 31
0.0
  0
LINE
  5
2FC
330
1F
100
AcDbEntity
  8
0
  6
Continuous
 62
     7
370
    25
100
AcDbLine
 10
243.8428527538
 20
143.5761918677
 30
0.0
 11
231.5285824668
 21
143.5761918677
 31
0.0
  0
LINE
  5
2FD
330
1F
100
AcDbEntity
  8
0
  6
Continuous
 62
     7
370
    25
100
AcDbLine
 10
243.8428527538
 20
141.5761918677
 30
0.0
 11
231.5285824668
 21
141.5761918677
 31
0.0
  0
ARC
  5
2FE
330
1F
100
AcDbEntity
  8
0
  6
Continuous
 62
     7
370
    25
100
AcDbCircle
 10
231.5285824668
 20
145.0761918677
 30
0.0
 40
3.5
100
AcDbArc
 50
205.3769335252
 51
270.0
  0
LINE
  5
2FF
330
1F
100
AcDbEntity
  8
0
  6
Continuous
 62
     7
370
    25
100
AcDbLine
 10
231.5285824668
 20
144.5761918677
 30
0.0
 11
243.8428527538
 21
144.5761918677
 31
0.0
  0
LINE
  5
300
330
1F
100
AcDbEntity
  8
0
  6
Continuous
 62
     7
370
    25
100
AcDbLine
 10
243.8428527538
 20
141.5761918677
 30
0.0
 11
243.8428527538
 21
143.5761918677
 31
0.0
  0
ARC
  5
301
330
1F
100
AcDbEntity
  8
0
  6
Continuous
 62
     7
370
    25
100
AcDbCircle
 10
243.8428527538
 20
141.0761918677
 30
0.0
 40
0.5
100
AcDbArc
 50
49.2440225849
 51
90.0
  0
ARC
  5
302
330
1F
100
AcDbEntity
  8
0
  6
Continuous
 62
     7
370
    25
100
AcDbCircle
 10
243.8428527538
 20
141.0761918677
 30
0.0
 40
3.499999999999972
100
AcDbArc
 50
49.2440225849
 51
90.0
  0
LINE
  5
303
330
1F
100
AcDbEntity
  8
0
  6
Continuous
 62
     7
370
    25
100
AcDbLine
 10
246.1277884919
 20
143.7274309502
 30
0.0
 11
249.1903687137
 21
141.0879862296
 31
0.0
  0
LINE
  5
304
330
1F
100
AcDbEntity
  8
0
  6
Continuous
 62
     7
370
    25
100
AcDbLine
 10
247.2318523668
 20
138.8154955874
 30
0.0
 11
249.1903687137
 21
141.0879862296
 31
0.0
  0
LINE
  5
305
330
1F
100
AcDbEntity
  8
0
  6
Continuous
 62
     7
370
    25
100
AcDbLine
 10
244.169272145
 20
141.4549403081
 30
0.0
 11
247.2318523668
 21
138.8154955874
 31
0.0
  0
LINE
  5
306
330
1F
100
AcDbEntity
  8
0
  6
Continuous
 62
     7
370
    25
100
AcDbLine
 10
228.7785824668
 20
161.8261918677
 30
0.0
 11
231.0285824668
 21
164.0761918677
 31
0.0
  0
LINE
  5
307
330
1F
100
AcDbEntity
  8
0
  6
Continuous
 62
     7
370
    25
100
AcDbLine
 10
228.0285824668
 20
161.8261918677
 30
0.0
 11
228.7785824668
 21
161.8261918677
 31
0.0
  0
LINE
  5
308
330
1F
100
AcDbEntity
  8
0
  6
Continuous
 62
     7
370
    25
100
AcDbLine
 10
228.0285824668
 20
165.5761918677
 30
0.0
 11
231.0285824668
 21
165.5761918677
 31
0.0
  0
LINE
  5
309
330
1F
100
AcDbEntity
  8
0
  6
Continuous
 62
     7
370
    25
100
AcDbLine
 10
231.0285824668
 20
164.0761918677
 30
0.0
 11
231.0285824668
 21
165.5761918677
 31
0.0
  0
LINE
  5
30A
330
1F
100
AcDbEntity
  8
0
  6
Continuous
 62
     7
370
    25
100
AcDbLine
 10
228.0285824668
 20
162.5761918677
 30
0.0
 11
228.0285824668
 21
165.5761918677
 31
0.0
  0
LINE
  5
30B
330
1F
100
AcDbEntity
  8
0
  6
Continuous
 62
     7
370
    25
100
AcDbLine
 10
228.7785824668
 20
155.3261918677
 30
0.0
 11
228.7785824668
 21
161.8261918677
 31
0.0
  0
LINE
  5
30C
330
1F
100
AcDbEntity
  8
0
  6
Continuous
 62
     7
370
    25
100
AcDbLine
 10
228.7785824668
 20
155.3261918677
 30
0.0
 11
228.0285824668
 21
155.3261918677
 31
0.0
  0
LINE
  5
30D
330
1F
100
AcDbEntity
  8
0
  6
Continuous
 62
     7
370
    25
100
AcDbLine
 10
231.0285824668
 20
153.0761918677
 30
0.0
 11
228.7785824668
 21
155.3261918677
 31
0.0
  0
LINE
  5
30E
330
1F
100
AcDbEntity
  8
0
  6
Continuous
 62
     7
370
    25
100
AcDbLine
 10
231.0285824668
 20
153.0761918677
 30
0.0
 11
231.0285824668
 21
164.0761918677
 31
0.0
  0
LINE
  5
30F
330
1F
100
AcDbEntity
  8
0
  6
Continuous
 62
     7
370
    25
100
AcDbLine
 10
231.0285824668
 20
150.6978625784
 30
0.0
 11
231.0285824668
 21
153.0761918677
 31
0.0
  0
LINE
  5
310
330
1F
100
AcDbEntity
  8
0
  6
CENTER
 62
     7
370
    18
100
AcDbLine
 10
173.0285824668
 20
150.5761918677
 30
0.0
 11
173.0285824668
 21
162.5761918677
 31
0.0
  0
LINE
  5
311
330
1F
100
AcDbEntity
  8
0
  6
CENTER
 62
     7
370
    18
100
AcDbLine
 10
228.0285824668
 20
155.0943782169
 30
0.0
 11
228.0285824668
 21
162.5761918677
 31
0.0
  0
LINE
  5
312
330
1F
100
AcDbEntity
  8
0
  6
CENTER
 62
     7
370
    18
100
AcDbLine
 10
168.0285824668
 20
153.4629432136
 30
0.0
 11
168.0285824668
 21
159.6894405218
 31
0.0
  0
CIRCLE
  5
313
330
1F
100
AcDbEntity
  8
0
  6
Continuous
 62
     7
370
    25
100
AcDbCircle
 10
255.0285824668
 20
134.0761918677
 30
0.0
 40
8.80000000000001
  0
CIRCLE
  5
314
330
1F
100
AcDbEntity
  8
0
  6
Continuous
 62
     7
370
    25
100
AcDbCircle
 10
255.0285824668
 20
134.0761918677
 30
0.0
 40
9.000000000000027
  0
LINE
  5
315
330
1F
100
AcDbEntity
  8
0
  6
Continuous
 62
     7
370
    25
100
AcDbLine
 10
265.0285824668
 20
95.5761918677
 30
0.0
 11
265.0285824668
 21
123.3840062823
 31
0.0
  0
LINE
  5
316
330
1F
100
AcDbEntity
  8
0
  6
Continuous
 62
     7
370
    25
100
AcDbLine
 10
262.0285824668
 20
95.5761918677
 30
0.0
 11
262.0285824668
 21
123.3840062823
 31
0.0
  0
LINE
  5
317
330
1F
100
AcDbEntity
  8
0
  6
Continuous
 62
     7
370
    25
100
AcDbLine
 10
265.0285824668
 20
95.0761918677
 30
0.0
 11
262.0285824668
 21
95.0761918677
 31
0.0
  0
LINE
  5
318
330
1F
100
AcDbEntity
  8
0
  6
Continuous
 62
     7
370
    25
100
AcDbLine
 10
265.0285824668
 20
95.5761918677
 30
0.0
 11
265.0285824668
 21
95.0761918677
 31
0.0
  0
LINE
  5
319
330
1F
100
AcDbEntity
  8
0
  6
Continuous
 62
     7
370
    25
100
AcDbLine
 10
262.0285824668
 20
95.0761918677
 30
0.0
 11
262.0285824668
 21
95.5761918677
 31
0.0
  0
LINE
  5
31A
330
1F
100
AcDbEntity
  8
0
  6
Continuous
 62
     7
370
    25
100
AcDbLine
 10
262.0285824668
 20
123.8840062823
 30
0.0
 11
265.0285824668
 21
123.8840062823
 31
0.0
  0
LINE
  5
31B
330
1F
100
AcDbEntity
  8
0
  6
Continuous
 62
     7
370
    25
100
AcDbLine
 10
265.0285824668
 20
123.8840062823
 30
0.0
 11
265.0285824668
 21
123.3840062823
 31
0.0
  0
LINE
  5
31C
330
1F
100
AcDbEntity
  8
0
  6
Continuous
 62
     7
370
    25
100
AcDbLine
 10
262.0285824668
 20
123.3840062823
 30
0.0
 11
262.0285824668
 21
123.8840062823
 31
0.0
  0
LINE
  5
31D
330
1F
100
AcDbEntity
  8
0
  6
Continuous
 62
     7
370
    25
100
AcDbLine
 10
261.9718223315
 20
124.1153899945
 30
0.0
 11
264.7913457697
 21
125.1506457848
 31
0.0
  0
LINE
  5
31E
330
1F
100
AcDbEntity
  8
0
  6
Continuous
 62
     7
370
    25
100
AcDbLine
 10
264.7913457697
 20
125.1506457847
 30
0.0
 11
264.9469169069
 21
124.6356642199
 31
0.0
  0
LINE
  5
31F
330
1F
100
AcDbEntity
  8
0
  6
Continuous
 62
     7
370
    25
100
AcDbLine
 10
264.9469169069
 20
124.6356642199
 30
0.0
 11
265.0041917237
 21
124.2964869402
 31
0.0
  0
LINE
  5
320
330
1F
100
AcDbEntity
  8
0
  6
Continuous
 62
     7
370
    25
100
AcDbLine
 10
265.0041917237
 20
124.2964869402
 30
0.0
 11
265.0257679795
 21
124.0243397767
 31
0.0
  0
LWPOLYLINE
  5
321
330
1F
100
AcDbEntity
  8
0
  6
Continuous
 62
     7
370
    25
100
AcDbPolyline
 90
        3
 70
   128
 43
0.0
 10
265.0257679795
 20
124.0243397767
 10
265.0283908243
 20
123.920632233
 10
265.0285824668
 20
123.8840062823
  0
ARC
  5
322
330
1F
100
AcDbEntity
  8
0
  6
Continuous
 62
     7
370
    25
100
AcDbCircle
 10
261.5285824668
 20
123.8840062823
 30
0.0
 40
0.4999999999988389
100
AcDbArc
 50
0.6349707311
 51
27.5658290262
  0
LINE
  5
323
330
1F
100
AcDbEntity
  8
0
  6
Continuous
 62
     7
370
    25
100
AcDbLine
 10
264.1275183747
 20
126.2282614181
 30
0.0
 11
261.8998590245
 21
124.2188998729
 31
0.0
  0
LINE
  5
324
330
1F
100
AcDbEntity
  8
0
  6
Continuous
 62
     7
370
    25
100
AcDbLine
 10
264.1275183995
 20
126.2282613916
 30
0.0
 11
264.7913457697
 21
125.1506457848
 31
0.0
  0
LINE
  5
325
330
1F
100
AcDbEntity
  8
0
  6
Continuous
 62
     7
370
    25
100
AcDbLine
 10
261.9718223315
 20
124.1153899945
 30
0.0
 11
261.8998590251
 21
124.2188998731
 31
0.0
  0
LINE
  5
326
330
1F
100
AcDbEntity
  8
0
  6
Continuous
 62
     7
370
    25
100
AcDbLine
 10
259.9428374265
 20
126.3885330441
 30
0.0
 11
261.8998590246
 21
124.2188998727
 31
0.0
  0
LINE
  5
327
330
1F
100
AcDbEntity
  8
0
  6
Continuous
 62
     7
370
    25
100
AcDbLine
 10
262.1704967768
 20
128.3978945893
 30
0.0
 11
259.9428374265
 21
126.3885330441
 31
0.0
  0
LINE
  5
328
330
1F
100
AcDbEntity
  8
0
  6
Continuous
 62
     7
370
    25
100
AcDbLine
 10
262.1704967768
 20
128.3978945893
 30
0.0
 11
264.1275183747
 21
126.2282614181
 31
0.0
  0
HATCH
  5
329
330
1F
100
AcDbEntity
  8
0
  6
Continuous
 62
     7
370
    18
100
AcDbHatch
 10
0.0
 20
0.0
 30
0.0
210
0.0
220
0.0
230
1.0
  2
ANSI31
 70
     0
 71
     0
 91
        1
 92
        0
 93
        3
 72
     4
 94
        3
 73
     1
 74
     0
 95
       47
 96
       43
 40
0.0
 40
0.0
 40
0.0
 40
0.0
 40
0.0002509323986186
 40
0.0002509323986186
 40
0.0002509323986186
 40
0.000588737394906
 40
0.000588737394906
 40
0.000588737394906
 40
0.0008561128278798
 40
0.0008561128278798
 40
0.0008561128278798
 40
0.0011224404770694
 40
0.0011224404770694
 40
0.0011224404770694
 40
0.0014492966254444
 40
0.0014492966254444
 40
0.0014492966254444
 40
0.0024571061071794
 40
0.0024571061071794
 40
0.0024571061071794
 40
0.004463389980633
 40
0.004463389980633
 40
0.004463389980633
 40
0.005078995017629
 40
0.005078995017629
 40
0.005078995017629
 40
0.005287874620846
 40
0.005287874620846
 40
0.005287874620846
 40
0.0054622836658397
 40
0.0054622836658397
 40
0.0054622836658397
 40
0.0056350093762934
 40
0.0056350093762934
 40
0.0056350093762934
 40
0.0059848922233191
 40
0.0059848922233191
 40
0.0059848922233191
 40
0.0063297942569322
 40
0.0063297942569322
 40
0.0063297942569322
 40
0.0072264066128687
 40
0.0072264066128687
 40
0.0072264066128687
 40
0.0072264066128687
 10
228.028582466765
 20
155.094378216876
 42
1.0
 10
228.085619523859
 20
155.0902820215879
 42
1.0
 10
228.1439306072729
 20
155.0813744418627
 42
1.0
 10
228.2027316898684
 20
155.065410274301
 42
1.0
 10
228.2812932673809
 20
155.0440812420459
 42
1.0
 10
228.3623250231805
 20
155.0093153911486
 42
1.0
 10
228.4396302425205
 20
154.9562109032587
 42
1.0
 10
228.5008495971815
 20
154.9141565309151
 42
1.0
 10
228.5609621533904
 20
154.8592153481769
 42
1.0
 10
228.6146790889532
 20
154.7949397625873
 42
1.0
 10
228.668238512733
 20
154.7308526494411
 42
1.0
 10
228.7167764076497
 20
154.6561414338586
 42
1.0
 10
228.7583682788199
 20
154.5785200300227
 42
1.0
 10
228.8094544827204
 20
154.4831796966393
 42
1.0
 10
228.8518192641742
 20
154.381373015726
 42
1.0
 10
228.8877951682051
 20
154.2810708201632
 42
1.0
 10
228.9967222953361
 20
153.9773778261467
 42
1.0
 10
229.0596426866341
 20
153.6764977465141
 42
1.0
 10
229.1211782779519
 20
153.4051313417462
 42
1.0
 10
229.2436058441251
 20
152.8652368227298
 42
1.0
 10
229.3497596551799
 20
152.4097857621152
 42
1.0
 10
229.5497263359035
 20
151.9880124183241
 42
1.0
 10
229.6112644180409
 20
151.8582151812063
 42
1.0
 10
229.6813702380697
 20
151.7293487859763
 42
1.0
 10
229.7823463905974
 20
151.5890438201458
 42
1.0
 10
229.8168244494261
 20
151.5411370347836
 42
1.0
 10
229.8562424590982
 20
151.4906942085515
 42
1.0
 10
229.8999380765303
 20
151.4401896078176
 42
1.0
 10
229.9363736686097
 20
151.3980763447808
 42
1.0
 10
229.9766904283173
 20
151.3549878456433
 42
1.0
 10
230.0170188428459
 20
151.3150664088346
 42
1.0
 10
230.0570936510977
 20
151.2753960190128
 42
1.0
 10
230.0980498280643
 20
151.2378865319467
 42
1.0
 10
230.1371408770846
 20
151.2042485932215
 42
1.0
 10
230.2157513466619
 20
151.1366041010661
 42
1.0
 10
230.2898030914194
 20
151.0814143159864
 42
1.0
 10
230.3588624739343
 20
151.0342202807003
 42
1.0
 10
230.4273904946926
 20
150.9873893692155
 42
1.0
 10
230.4925541897862
 20
150.9474659142797
 42
1.0
 10
230.5559190168848
 20
150.9116816505993
 42
1.0
 10
230.7203132507921
 20
150.8188426595844
 42
1.0
 10
230.8751040342721
 20
150.7518443380687
 42
1.0
 10
231.028582466765
 20
150.6978625783781
 42
1.0
 72
     4
 94
        3
 73
     1
 74
     0
 95
       23
 96
       19
 40
0.0
 40
0.0
 40
0.0
 40
0.0
 40
0.0008642022288309
 40
0.0008642022288309
 40
0.0008642022288309
 40
0.0014843373197771
 40
0.0014843373197771
 40
0.0014843373197771
 40
0.0021106874466429
 40
0.0021106874466429
 40
0.0021106874466429
 40
0.0031303165444539
 40
0.0031303165444539
 40
0.0031303165444539
 40
0.0043132041595619
 40
0.0043132041595619
 40
0.0043132041595619
 40
0.0050787553036385
 40
0.0050787553036385
 40
0.0050787553036385
 40
0.0050787553036385
 10
231.028582466765
 20
150.6978625783781
 42
1.0
 10
230.8269225206443
 20
150.7687908421993
 42
1.0
 10
230.6205522864726
 20
150.864311306826
 42
1.0
 10
230.4178189199816
 20
150.9950756287542
 42
1.0
 10
230.272337590868
 20
151.0889120193003
 42
1.0
 10
230.1263117723325
 20
151.2030070342431
 42
1.0
 10
229.9918056424388
 20
151.3404209837358
 42
1.0
 10
229.8567457003229
 20
151.4784007180354
 42
1.0
 10
229.7324892753505
 20
151.6461186441907
 42
1.0
 10
229.6326162257477
 20
151.8262864231102
 42
1.0
 10
229.4695458501694
 20
152.1204601515819
 42
1.0
 10
229.3601067130099
 20
152.4486218836083
 42
1.0
 10
229.2724272381371
 20
152.7754902387017
 42
1.0
 10
229.1709195843623
 20
153.1539099300478
 42
1.0
 10
229.0963832761539
 20
153.5451646554867
 42
1.0
 10
229.0022493219875
 20
153.9037327560342
 42
1.0
 10
228.9413534694081
 20
154.1356927367227
 42
1.0
 10
228.8699393462958
 20
154.3580021128059
 42
1.0
 10
228.778582466765
 20
154.5395820028953
 42
1.0
 72
     4
 94
        3
 73
     1
 74
     0
 95
       14
 96
       10
 40
0.0
 40
0.0
 40
0.0
 40
0.0
 40
0.0003866482374676
 40
0.0003866482374676
 40
0.0003866482374676
 40
0.000697652188393
 40
0.000697652188393
 40
0.000697652188393
 40
0.0010088828236061
 40
0.0010088828236061
 40
0.0010088828236061
 40
0.0010088828236061
 10
228.778582466765
 20
154.5395820028956
 42
1.0
 10
228.7227627947312
 20
154.650528545343
 42
1.0
 10
228.6551227014539
 20
154.7562525309157
 42
1.0
 10
228.5697444098191
 20
154.8451361928217
 42
1.0
 10
228.5012786699522
 20
154.9164129255596
 42
1.0
 10
228.4188205458528
 20
154.9779352790408
 42
1.0
 10
228.326961257679
 20
155.0203684994336
 42
1.0
 10
228.2351936971331
 20
155.0627593474247
 42
1.0
 10
228.1314927748046
 20
155.0869875705073
 42
1.0
 10
228.028582466765
 20
155.094378216876
 42
1.0
 97
        0
 75
     0
 76
     1
 52
0.0
 41
0.25
 77
     0
 78
     1
 53
45.0
 43
0.0
 44
0.0
 45
-0.5612660075668221
 46
0.5612660075668221
 79
     0
 98
        1
 10
0.0
 20
0.0
  0
HATCH
  5
32A
330
1F
100
AcDbEntity
  8
0
  6
Continuous
 62
     7
370
    18
100
AcDbHatch
 10
0.0
 20
0.0
 30
0.0
210
0.0
220
0.0
230
1.0
  2
ANSI31
 70
     0
 71
     0
 91
        1
 92
        0
 93
        3
 72
     4
 94
        3
 73
     1
 74
     0
 95
       17
 96
       13
 40
0.0019998210730357
 40
0.0019998210730357
 40
0.0019998210730357
 40
0.0019998210730357
 40
0.0036423541300257
 40
0.0036423541300257
 40
0.0036423541300257
 40
0.0045121111983508
 40
0.0045121111983508
 40
0.0045121111983508
 40
0.0053793577843578
 40
0.0053793577843578
 40
0.0053793577843578
 40
0.0057028998429488
 40
0.0057028998429488
 40
0.0057028998429488
 40
0.0057028998429488
 10
229.0821280188621
 20
153.5761918845223
 42
1.0
 10
229.2045186408634
 20
153.0463987821272
 42
1.0
 10
229.3109295212144
 20
152.5031587899
 42
1.0
 10
229.5378956569481
 20
152.0132557934519
 42
1.0
 10
229.6579922298935
 20
151.7540291438069
 42
1.0
 10
229.8199867320147
 20
151.5085573129235
 42
1.0
 10
230.0234163214878
 20
151.3087583590743
 42
1.0
 10
230.2269291488532
 20
151.1088776528908
 42
1.0
 10
230.4704673932182
 20
150.9452697542029
 42
1.0
 10
230.7287945664128
 20
150.8217102902382
 42
1.0
 10
230.8262427082581
 20
150.775100249096
 42
1.0
 10
230.92649654625
 20
150.7337684547904
 42
1.0
 10
231.0285824667651
 20
150.6978625783781
 42
1.0
 72
     4
 94
        3
 73
     1
 74
     0
 95
       47
 96
       43
 40
0.0
 40
0.0
 40
0.0
 40
0.0
 40
0.000282691089871
 40
0.000282691089871
 40
0.000282691089871
 40
0.0012690971326795
 40
0.0012690971326795
 40
0.0012690971326795
 40
0.0015628304640634
 40
0.0015628304640634
 40
0.0015628304640634
 40
0.0017192133525103
 40
0.0017192133525103
 40
0.0017192133525103
 40
0.001900876465412
 40
0.001900876465412
 40
0.001900876465412
 40
0.0020797045339986
 40
0.0020797045339986
 40
0.0020797045339986
 40
0.0025104491840074
 40
0.0025104491840074
 40
0.0025104491840074
 40
0.0046966449690059
 40
0.0046966449690059
 40
0.0046966449690059
 40
0.0054970672519421
 40
0.0054970672519421
 40
0.0054970672519421
 40
0.0059103545616503
 40
0.0059103545616503
 40
0.0059103545616503
 40
0.0061605524413377
 40
0.0061605524413377
 40
0.0061605524413377
 40
0.006412129402406
 40
0.006412129402406
 40
0.006412129402406
 40
0.006756735246044
 40
0.006756735246044
 40
0.006756735246044
 40
0.0070952139509527
 40
0.0070952139509527
 40
0.0070952139509527
 40
0.0070952139509527
 10
231.0285824667652
 20
150.6978625783781
 42
1.0
 10
230.9794401677725
 20
150.7151470119742
 42
1.0
 10
230.9300870154791
 20
150.7339062107782
 42
1.0
 10
230.8803918559706
 20
150.7543537561947
 42
1.0
 10
230.7078963333775
 20
150.8253286774397
 42
1.0
 10
230.5332924673733
 20
150.9116809481683
 42
1.0
 10
230.3329646316731
 20
151.0521476081216
 42
1.0
 10
230.2728640279263
 20
151.0942891859008
 42
1.0
 10
230.2089002154752
 20
151.1427924865305
 42
1.0
 10
230.141575020768
 20
151.2004423547444
 42
1.0
 10
230.1055477759896
 20
151.2312921119952
 42
1.0
 10
230.0679902474862
 20
151.2653440260379
 42
1.0
 10
230.0308841653255
 20
151.3014571661379
 42
1.0
 10
229.9881244618854
 20
151.3430726391558
 42
1.0
 10
229.9449299024784
 20
151.3886058670811
 42
1.0
 10
229.9060378388372
 20
151.4331698896226
 42
1.0
 10
229.8675148257348
 20
151.4773110398609
 42
1.0
 10
229.832106015549
 20
151.5215957043627
 42
1.0
 10
229.8006923835401
 20
151.5639367479077
 42
1.0
 10
229.7254112024151
 20
151.6654049183895
 42
1.0
 10
229.667966958139
 20
151.7603697835531
 42
1.0
 10
229.617736856593
 20
151.8534985109869
 42
1.0
 10
229.363907944292
 20
152.3241080232297
 42
1.0
 10
229.2551934590115
 20
152.8142827720975
 42
1.0
 10
229.1187934132461
 20
153.415647190864
 42
1.0
 10
229.0684545116551
 20
153.6375827783979
 42
1.0
 10
229.0159873855282
 20
153.8765006222702
 42
1.0
 10
228.9402942832227
 20
154.1226744426272
 42
1.0
 10
228.901072785043
 20
154.2502330411378
 42
1.0
 10
228.8543373155553
 20
154.3822046669563
 42
1.0
 10
228.7943839613709
 20
154.5073882795085
 42
1.0
 10
228.7579166330116
 20
154.5835326748679
 42
1.0
 10
228.7157081659406
 20
154.6582460709749
 42
1.0
 10
228.6682327549816
 20
154.7252602980771
 42
1.0
 10
228.6206275598189
 20
154.7924577229214
 42
1.0
 10
228.5664946071003
 20
154.8531281319472
 42
1.0
 10
228.5098982348829
 20
154.9019540871181
 42
1.0
 10
228.4328247339637
 20
154.9684457570487
 42
1.0
 10
228.3490249082996
 20
155.0151510985944
 42
1.0
 10
228.2675523519293
 20
155.0448594845503
 42
1.0
 10
228.1868976794048
 20
155.0742696350017
 42
1.0
 10
228.1064092711458
 20
155.0887889770793
 42
1.0
 10
228.028582466765
 20
155.094378216876
 42
1.0
 72
     4
 94
        3
 73
     1
 74
     0
 95
       20
 96
       16
 40
0.0000000000000007
 40
0.0000000000000007
 40
0.0000000000000007
 40
0.0000000000000007
 40
0.0002773287355761
 40
0.0002773287355761
 40
0.0002773287355761
 40
0.0005565228286774
 40
0.0005565228286774
 40
0.0005565228286774
 40
0.0009101056179684
 40
0.0009101056179684
 40
0.0009101056179684
 40
0.0018817699199689
 40
0.0018817699199689
 40
0.0018817699199689
 40
0.0019998210730357
 40
0.0019998210730357
 40
0.0019998210730357
 40
0.0019998210730357
 10
228.0285824667644
 20
155.0943782168762
 42
1.0
 10
228.1207840575967
 20
155.0877566318724
 42
1.0
 10
228.2135415724429
 20
155.068024290029
 42
1.0
 10
228.2988506577968
 20
155.0326778408894
 42
1.0
 10
228.3845539581203
 20
154.9971680551096
 42
1.0
 10
228.4644838377856
 20
154.9447494968932
 42
1.0
 10
228.5324252419061
 20
154.8818101278509
 42
1.0
 10
228.6184897747102
 20
154.802081905249
 42
1.0
 10
228.6884787272144
 20
154.7043357982736
 42
1.0
 10
228.7456060713095
 20
154.6018709651624
 42
1.0
 10
228.9015376248612
 20
154.3221887768065
 42
1.0
 10
228.980904614774
 20
154.0030664840056
 42
1.0
 10
229.0552992141768
 20
153.6907061075977
 42
1.0
 10
229.0643822717552
 20
153.6525691015933
 42
1.0
 10
229.0733033601828
 20
153.6143912434504
 42
1.0
 10
229.0821280188621
 20
153.5761918845223
 42
1.0
 97
        0
 75
     0
 76
     1
 52
0.0
 41
0.25
 77
     0
 78
     1
 53
45.0
 43
0.0
 44
0.0
 45
-0.5612660075668221
 46
0.5612660075668221
 79
     0
 98
        1
 10
0.0
 20
0.0
  0
HATCH
  5
32B
330
1F
100
AcDbEntity
  8
0
  6
Continuous
 62
     7
370
    18
100
AcDbHatch
 10
0.0
 20
0.0
 30
0.0
210
0.0
220
0.0
230
1.0
  2
ANSI31
 70
     0
 71
     0
 91
        1
 92
        0
 93
        4
 72
     4
 94
        3
 73
     1
 74
     0
 95
       10
 96
        6
 40
0.4239673244113927
 40
0.4239673244113927
 40
0.4239673244113927
 40
0.4239673244113927
 40
0.4482848413926457
 40
0.5234571792048889
 40
0.5235158313233651
 40
0.5235158313233651
 40
0.5235158313233651
 40
0.5235158313233651
 10
231.0285824667585
 20
150.6978625783804
 42
1.0
 10
230.558888102193
 20
150.8630644761608
 42
1.0
 10
228.7683799392439
 20
152.0187213789999
 42
1.0
 10
229.2763010410267
 20
155.0030158752208
 42
1.0
 10
228.0295554613837
 20
155.0943083399022
 42
1.0
 10
228.0285824849451
 20
155.0943782155703
 42
1.0
 72
     1
 10
228.0285824849451
 20
155.0943782155703
 11
228.028582466765
 21
155.094378216876
 72
     4
 94
        3
 73
     1
 74
     0
 95
       17
 96
       13
 40
0.0
 40
0.0
 40
0.0
 40
0.0
 40
0.0000429060018566
 40
0.0000429060018566
 40
0.0000429060018566
 40
0.0003445498431553
 40
0.0003445498431553
 40
0.0003445498431553
 40
0.0006865815531755
 40
0.0006865815531755
 40
0.0006865815531755
 40
0.0010223233615876
 40
0.0010223233615876
 40
0.0010223233615876
 40
0.0010223233615876
 10
228.028582466765
 20
155.094378216876
 42
1.0
 10
228.0428375229772
 20
155.0933544702617
 42
1.0
 10
228.0570698353682
 20
155.0920347212259
 42
1.0
 10
228.0712524043151
 20
155.0904027022709
 42
1.0
 10
228.1692230979519
 20
155.0791290021641
 42
1.0
 10
228.2668275113185
 20
155.0515466894534
 42
1.0
 10
228.352795190931
 20
155.0078405104998
 42
1.0
 10
228.4501228374173
 20
154.9583588965534
 42
1.0
 10
228.5354962914672
 20
154.8871114335872
 42
1.0
 10
228.6051872496579
 20
154.8061324006109
 42
1.0
 10
228.6741529043602
 20
154.7259961509258
 42
1.0
 10
228.7306435720213
 20
154.6348648024317
 42
1.0
 10
228.778582466765
 20
154.5395820028956
 42
1.0
 72
     4
 94
        3
 73
     1
 74
     0
 95
       23
 96
       19
 40
0.0
 40
0.0
 40
0.0
 40
0.0
 40
0.0003940458365008
 40
0.0003940458365008
 40
0.0003940458365008
 40
0.0012185051024544
 40
0.0012185051024544
 40
0.0012185051024544
 40
0.0028649364359143
 40
0.0028649364359143
 40
0.0028649364359143
 40
0.0035223610103487
 40
0.0035223610103487
 40
0.0035223610103487
 40
0.0041709085803249
 40
0.0041709085803249
 40
0.0041709085803249
 40
0.0050963284889439
 40
0.0050963284889439
 40
0.0050963284889439
 40
0.0050963284889439
 10
228.778582466765
 20
154.5395820028956
 42
1.0
 10
228.8258580705986
 20
154.4456175527949
 42
1.0
 10
228.8678491829791
 20
154.3410576745152
 42
1.0
 10
228.9054498836446
 20
154.2305162563489
 42
1.0
 10
228.9834536022956
 20
154.0011949530403
 42
1.0
 10
229.0444070822188
 20
153.7423962936441
 42
1.0
 10
229.1037872139847
 20
153.4816938061668
 42
1.0
 10
229.2223400684715
 20
152.9611994397327
 42
1.0
 10
229.3368455425537
 20
152.409771567713
 42
1.0
 10
229.5800993241547
 20
151.9257898635033
 42
1.0
 10
229.6771995668133
 20
151.7325976318686
 42
1.0
 10
229.7997680961807
 20
151.5489554578468
 42
1.0
 10
229.9376501483409
 20
151.3977347175383
 42
1.0
 10
230.0743570934573
 20
151.2478027639451
 42
1.0
 10
230.2259358623575
 20
151.1233313620021
 42
1.0
 10
230.3770947592729
 20
151.0218720522143
 42
1.0
 10
230.5927645348098
 20
150.8771124183814
 42
1.0
 10
230.8135320133172
 20
150.7735005798277
 42
1.0
 10
231.028582466765
 20
150.6978625783781
 42
1.0
 97
        0
 75
     0
 76
     1
 52
0.0
 41
0.25
 77
     0
 78
     1
 53
45.0
 43
0.0
 44
0.0
 45
-0.5612660075668221
 46
0.5612660075668221
 79
     0
 98
        1
 10
0.0
 20
0.0
  0
HATCH
  5
32C
330
1F
100
AcDbEntity
  8
0
  6
Continuous
 62
     7
370
    18
100
AcDbHatch
 10
0.0
 20
0.0
 30
0.0
210
0.0
220
0.0
230
1.0
  2
ANSI31
 70
     0
 71
     0
 91
        1
 92
        0
 93
        5
 72
     1
 10
231.0285824667585
 20
150.6978625783804
 11
231.0285824667649
 21
153.0761918676993
 72
     1
 10
231.0285824667649
 20
153.0761918676993
 11
228.7785824667649
 21
155.3261918676993
 72
     1
 10
228.7785824667649
 20
155.3261918676993
 11
228.0285824667649
 21
155.3261918676993
 72
     1
 10
228.0285824667649
 20
155.3261918676993
 11
228.0285824849451
 21
155.0943782155703
 72
     4
 94
        3
 73
     1
 74
     0
 95
       10
 96
        6
 40
0.4764841686766348
 40
0.4764841686766348
 40
0.4764841686766348
 40
0.4764841686766348
 40
0.4765428207951111
 40
0.5517151586073543
 40
0.5760326755886073
 40
0.5760326755886073
 40
0.5760326755886073
 40
0.5760326755886073
 10
228.0285824849451
 20
155.0943782155703
 42
1.0
 10
228.0295554613837
 20
155.0943083399022
 42
1.0
 10
229.2763010410267
 20
155.0030158752208
 42
1.0
 10
228.7683799392439
 20
152.0187213789999
 42
1.0
 10
230.558888102193
 20
150.8630644761608
 42
1.0
 10
231.0285824667585
 20
150.6978625783804
 42
1.0
 97
        0
 75
     0
 76
     1
 52
0.0
 41
0.25
 77
     0
 78
     1
 53
45.0
 43
0.0
 44
0.0
 45
-0.5612660075668221
 46
0.5612660075668221
 79
     0
 98
        1
 10
0.0
 20
0.0
  0
HATCH
  5
32D
330
1F
100
AcDbEntity
  8
0
  6
Continuous
 62
     7
370
    18
100
AcDbHatch
 10
0.0
 20
0.0
 30
0.0
210
0.0
220
0.0
230
1.0
  2
ANSI31
 70
     0
 71
     0
 91
        1
 92
        0
 93
        5
 72
     1
 10
231.0285824667649
 20
164.0761918676993
 11
231.0285824667649
 21
165.5761918676993
 72
     1
 10
231.0285824667649
 20
165.5761918676993
 11
228.0285824667649
 21
165.5761918676993
 72
     1
 10
228.0285824667649
 20
165.5761918676993
 11
228.0285824667649
 21
161.8261918676993
 72
     1
 10
228.0285824667649
 20
161.8261918676993
 11
228.7785824667649
 21
161.8261918676993
 72
     1
 10
228.7785824667649
 20
161.8261918676993
 11
231.0285824667649
 21
164.0761918676993
 97
        0
 75
     0
 76
     1
 52
0.0
 41
0.25
 77
     0
 78
     1
 53
45.0
 43
0.0
 44
0.0
 45
-0.5612660075668221
 46
0.5612660075668221
 79
     0
 98
        1
 10
0.0
 20
0.0
  0
HATCH
  5
32E
330
1F
100
AcDbEntity
  8
0
  6
Continuous
 62
     7
370
    18
100
AcDbHatch
 10
0.0
 20
0.0
 30
0.0
210
0.0
220
0.0
230
1.0
  2
ANSI31
 70
     0
 71
     0
 91
        2
 92
        0
 93
        5
 72
     4
 94
        3
 73
     1
 74
     0
 95
       44
 96
       40
 40
0.0
 40
0.0
 40
0.0
 40
0.0
 40
0.0009947179069685
 40
0.0009947179069685
 40
0.0009947179069685
 40
0.001330889055139
 40
0.001330889055139
 40
0.001330889055139
 40
0.0015944546866623
 40
0.0015944546866623
 40
0.0015944546866623
 40
0.0018570791419222
 40
0.0018570791419222
 40
0.0018570791419222
 40
0.0021791251278365
 40
0.0021791251278365
 40
0.0021791251278365
 40
0.0031719522187672
 40
0.0031719522187672
 40
0.0031719522187672
 40
0.0051480585733554
 40
0.0051480585733554
 40
0.0051480585733554
 40
0.005772184091645
 40
0.005772184091645
 40
0.005772184091645
 40
0.0059808146311444
 40
0.0059808146311444
 40
0.0059808146311444
 40
0.0061530076525646
 40
0.0061530076525646
 40
0.0061530076525646
 40
0.0063236169542439
 40
0.0063236169542439
 40
0.0063236169542439
 40
0.0065970513563684
 40
0.0065970513563684
 40
0.0065970513563684
 40
0.0069642838641281
 40
0.0069642838641281
 40
0.0069642838641281
 40
0.0069642838641281
 10
227.5285824667651
 20
155.0977118311605
 42
1.0
 10
227.7511469675172
 20
155.0787470656697
 42
1.0
 10
227.9655182508236
 20
155.1284785408002
 42
1.0
 10
228.1984952861631
 20
155.0665483996779
 42
1.0
 10
228.2774854705856
 20
155.0455511659314
 42
1.0
 10
228.359003053102
 20
155.0110953477255
 42
1.0
 10
228.4368434244009
 20
154.9581164566793
 42
1.0
 10
228.4979142487207
 20
154.9165510775097
 42
1.0
 10
228.5579382276649
 20
154.8622224496827
 42
1.0
 10
228.6116718058034
 20
154.7985214976922
 42
1.0
 10
228.6652586688648
 20
154.7349944758662
 42
1.0
 10
228.7139111188712
 20
154.6608065286763
 42
1.0
 10
228.7556308063865
 20
154.583607171517
 42
1.0
 10
228.8068288613156
 20
154.4888687599006
 42
1.0
 10
228.8493418243213
 20
154.3875372215213
 42
1.0
 10
228.8854289224144
 20
154.2876443982762
 42
1.0
 10
228.9946516613117
 20
153.9853045503096
 42
1.0
 10
229.0576522110326
 20
153.6852163211921
 42
1.0
 10
229.1190330211051
 20
153.4145907850425
 42
1.0
 10
229.2411349206225
 20
152.8762483945983
 42
1.0
 10
229.3467617667013
 20
152.4212409278291
 42
1.0
 10
229.5435131766784
 20
152.0011968798275
 42
1.0
 10
229.6058446862722
 20
151.8681255101695
 42
1.0
 10
229.6767758133256
 20
151.7363979336226
 42
1.0
 10
229.7795969684549
 20
151.592872872471
 42
1.0
 10
229.8141824856008
 20
151.5445959545831
 42
1.0
 10
229.8537322425902
 20
151.4937635283571
 42
1.0
 10
229.8976906637822
 20
151.4427914111216
 42
1.0
 10
229.9339283534735
 20
151.4007718909205
 42
1.0
 10
229.9740583413356
 20
151.357732981071
 42
1.0
 10
230.0142784813526
 20
151.3177837104899
 42
1.0
 10
230.0542554263756
 20
151.2780759970644
 42
1.0
 10
230.0951844249718
 20
151.2404637265826
 42
1.0
 10
230.1342634822267
 20
151.2067285542348
 42
1.0
 10
230.1967674812336
 20
151.1527716953173
 42
1.0
 10
230.2565106919255
 20
151.1067071549401
 42
1.0
 10
230.3127282708318
 20
151.0664815443138
 42
1.0
 10
230.3884671460278
 20
151.0122877749951
 42
1.0
 10
230.4597092417906
 20
150.9672489946289
 42
1.0
 10
230.5285824667651
 20
150.9273231592242
 42
1.0
 72
     4
 94
        3
 73
     1
 74
     0
 95
        8
 96
        4
 40
0.0
 40
0.0
 40
0.0
 40
0.0
 40
0.000590807482845
 40
0.000590807482845
 40
0.000590807482845
 40
0.000590807482845
 10
230.5285824667652
 20
150.9273231592242
 42
1.0
 10
230.6275750015401
 20
150.8699371481701
 42
1.0
 10
230.7284300258536
 20
150.8196613558046
 42
1.0
 10
230.8285824667651
 20
150.7762403706723
 42
1.0
 72
     4
 94
        3
 73
     1
 74
     0
 95
        8
 96
        4
 40
0.0
 40
0.0
 40
0.0
 40
0.0
 40
0.0005908074828453
 40
0.0005908074828453
 40
0.0005908074828453
 40
0.0005908074828453
 10
230.8285824667651
 20
150.7762403706723
 42
1.0
 10
230.7284300258536
 20
150.8196613558047
 42
1.0
 10
230.62757500154
 20
150.8699371481702
 42
1.0
 10
230.5285824667651
 20
150.9273231592243
 42
1.0
 72
     4
 94
        3
 73
     1
 74
     0
 95
       47
 96
       43
 40
0.0
 40
0.0
 40
0.0
 40
0.0
 40
0.0003302057101292
 40
0.0003302057101292
 40
0.0003302057101292
 40
0.000627901877011
 40
0.000627901877011
 40
0.000627901877011
 40
0.0007855757462963
 40
0.0007855757462963
 40
0.0007855757462963
 40
0.0009736395220089
 40
0.0009736395220089
 40
0.0009736395220089
 40
0.0011585027047803
 40
0.0011585027047803
 40
0.0011585027047803
 40
0.001640297193901
 40
0.001640297193901
 40
0.001640297193901
 40
0.0036324019380288
 40
0.0036324019380288
 40
0.0036324019380288
 40
0.0045234032200983
 40
0.0045234032200983
 40
0.0045234032200983
 40
0.0049707342953164
 40
0.0049707342953164
 40
0.0049707342953164
 40
0.0052216772107044
 40
0.0052216772107044
 40
0.0052216772107044
 40
0.0054938490337732
 40
0.0054938490337732
 40
0.0054938490337732
 40
0.0057637051323919
 40
0.0057637051323919
 40
0.0057637051323919
 40
0.0063701506806439
 40
0.0063701506806439
 40
0.0063701506806439
 40
0.0069644957078117
 40
0.0069644957078117
 40
0.0069644957078117
 40
0.0069644957078117
 10
230.5285824667651
 20
150.9273231592243
 42
1.0
 10
230.4665850201437
 20
150.9632631032335
 42
1.0
 10
230.4026851821654
 20
151.0033752314967
 42
1.0
 10
230.3353589395788
 20
151.0504707602781
 42
1.0
 10
230.2749398685549
 20
151.0927346382109
 42
1.0
 10
230.2106432030295
 20
151.1413869775614
 42
1.0
 10
230.1429209346371
 20
151.1992907189081
 42
1.0
 10
230.106867084858
 20
151.2301174003191
 42
1.0
 10
230.0692757509931
 20
151.2641477162805
 42
1.0
 10
230.032111392706
 20
151.3002636692116
 42
1.0
 10
229.9881865119665
 20
151.3429494304734
 42
1.0
 10
229.9437547052622
 20
151.3898194483769
 42
1.0
 10
229.9039308752691
 20
151.4355877398203
 42
1.0
 10
229.8645181408024
 20
151.4808835719381
 42
1.0
 10
229.8284324033407
 20
151.5262677235074
 42
1.0
 10
229.7965002485391
 20
151.5696067433853
 42
1.0
 10
229.7137770758364
 20
151.6818804451883
 42
1.0
 10
229.6523872760754
 20
151.7863028597695
 42
1.0
 10
229.5987440638621
 20
151.8893407284613
 42
1.0
 10
229.3775159570262
 20
152.3142756211078
 42
1.0
 10
229.2684928691566
 20
152.7580951391327
 42
1.0
 10
229.1472834600394
 20
153.2901494239444
 42
1.0
 10
229.0928399015832
 20
153.5291319317217
 42
1.0
 10
229.0383883988195
 20
153.7878860900754
 42
1.0
 10
228.9597858061843
 20
154.0575450585012
 42
1.0
 10
228.9201767255983
 20
154.1934304466675
 42
1.0
 10
228.8731670750693
 20
154.3347404286112
 42
1.0
 10
228.8117660153059
 20
154.4700919841451
 42
1.0
 10
228.7771238743415
 20
154.5464565890008
 42
1.0
 10
228.7371450274402
 20
154.6219109573611
 42
1.0
 10
228.6918167651397
 20
154.6907282154623
 42
1.0
 10
228.6429282409915
 20
154.7649506544824
 42
1.0
 10
228.5863207884219
 20
154.8328585745527
 42
1.0
 10
228.5264873775561
 20
154.8872597231926
 42
1.0
 10
228.46698245931
 20
154.9413622029855
 42
1.0
 10
228.4029778736885
 20
154.9837127144828
 42
1.0
 10
228.3394321405287
 20
155.0144706328971
 42
1.0
 10
228.1984858588545
 20
155.0826925892262
 42
1.0
 10
228.0557094954712
 20
155.0977742188254
 42
1.0
 10
227.9221628659878
 20
155.0976679135141
 42
1.0
 10
227.789844159003
 20
155.0975625856493
 42
1.0
 10
227.6613683025449
 20
155.0863971236148
 42
1.0
 10
227.5285824667651
 20
155.0977118311605
 42
1.0
 72
     4
 94
        3
 73
     1
 74
     0
 95
       59
 96
       55
 40
0.0
 40
0.0
 40
0.0
 40
0.0
 40
0.0003240051851492
 40
0.0003240051851492
 40
0.0003240051851492
 40
0.0007099098743782
 40
0.0007099098743782
 40
0.0007099098743782
 40
0.0012036550067122
 40
0.0012036550067122
 40
0.0012036550067122
 40
0.0019558184838784
 40
0.0019558184838784
 40
0.0019558184838784
 40
0.0029543376436012
 40
0.0029543376436012
 40
0.0029543376436012
 40
0.0039695104983253
 40
0.0039695104983253
 40
0.0039695104983253
 40
0.0049879306981324
 40
0.0049879306981324
 40
0.0049879306981324
 40
0.0060068521008084
 40
0.0060068521008084
 40
0.0060068521008084
 40
0.0070256963305555
 40
0.0070256963305555
 40
0.0070256963305555
 40
0.0080436557587682
 40
0.0080436557587682
 40
0.0080436557587682
 40
0.0090560537240317
 40
0.0090560537240317
 40
0.0090560537240317
 40
0.0100470164267708
 40
0.0100470164267708
 40
0.0100470164267708
 40
0.0109864975852805
 40
0.0109864975852805
 40
0.0109864975852805
 40
0.0117934940470923
 40
0.0117934940470923
 40
0.0117934940470923
 40
0.0125783680062304
 40
0.0125783680062304
 40
0.0125783680062304
 40
0.0131211909083536
 40
0.0131211909083536
 40
0.0131211909083536
 40
0.013487523303011
 40
0.013487523303011
 40
0.013487523303011
 40
0.0138552330071017
 40
0.0138552330071017
 40
0.0138552330071017
 40
0.0138552330071017
 10
227.5285824667651
 20
155.0977118311605
 42
1.0
 10
227.4210949099731
 20
155.1068708673089
 42
1.0
 10
227.3138953444064
 20
155.1300094208379
 42
1.0
 10
227.2143898464739
 20
155.1670778078404
 42
1.0
 10
227.0962330065493
 20
155.2110943050223
 42
1.0
 10
226.9862824956288
 20
155.275754344328
 42
1.0
 10
226.8904258495373
 20
155.3535544656131
 42
1.0
 10
226.7678333645859
 20
155.4530541934541
 42
1.0
 10
226.6641118970975
 20
155.5760178225636
 42
1.0
 10
226.577242167906
 20
155.709202502548
 42
1.0
 10
226.4454664114057
 20
155.9112350416446
 42
1.0
 10
226.347316782239
 20
156.1426705197265
 42
1.0
 10
226.2711028217253
 20
156.3789981344978
 42
1.0
 10
226.1704062660548
 20
156.6912424616118
 42
1.0
 10
226.1047014258382
 20
157.0228031313783
 42
1.0
 10
226.0585839718075
 20
157.3376181709344
 42
1.0
 10
226.0116702950237
 20
157.6578685256613
 42
1.0
 10
225.9837756225077
 20
157.970839728858
 42
1.0
 10
225.9652206273114
 20
158.2480691751471
 42
1.0
 10
225.9466018047299
 20
158.5262522638627
 42
1.0
 10
225.9368428837968
 20
158.7764836343065
 42
1.0
 10
225.9303668996646
 20
158.9775702288807
 42
1.0
 10
225.9238874177105
 20
159.1787654347632
 42
1.0
 10
225.9207273327964
 20
159.3363925581569
 42
1.0
 10
225.9189765373795
 20
159.4373461774665
 42
1.0
 10
225.9172258519176
 20
159.538293456595
 42
1.0
 10
225.9167606287803
 20
159.5853674026405
 42
1.0
 10
225.916898880201
 20
159.5746677768994
 42
1.0
 10
225.9170370148377
 20
159.5639771893615
 42
1.0
 10
225.9177891678312
 20
159.4953182662605
 42
1.0
 10
225.9201327079228
 20
159.3743718139332
 42
1.0
 10
225.9224637684086
 20
159.2540694146099
 42
1.0
 10
225.9264611802363
 20
159.0787518281385
 42
1.0
 10
225.9342891278665
 20
158.8628382908859
 42
1.0
 10
225.9419551727362
 20
158.651390419397
 42
1.0
 10
225.9534923091942
 20
158.3953684098653
 42
1.0
 10
225.9746613865146
 20
158.1155088397946
 42
1.0
 10
225.9947517410178
 20
157.8499102079452
 42
1.0
 10
226.0240427111715
 20
157.5561321059969
 42
1.0
 10
226.0706954301582
 20
157.2575841562093
 42
1.0
 10
226.1108781823036
 20
157.0004399097341
 42
1.0
 10
226.1647453889763
 20
156.7342890207577
 42
1.0
 10
226.2404384080841
 20
156.4782904782919
 42
1.0
 10
226.3139497383854
 20
156.2296705443311
 42
1.0
 10
226.4096290319098
 20
155.9844034801764
 42
1.0
 10
226.5400493676933
 20
155.7684684260047
 42
1.0
 10
226.6305480597251
 20
155.6186310570934
 42
1.0
 10
226.7403741888733
 20
155.4796298531953
 42
1.0
 10
226.8728410217639
 20
155.3680925983283
 42
1.0
 10
226.9625817134652
 20
155.2925308129078
 42
1.0
 10
227.0648034416038
 20
155.2284600699703
 42
1.0
 10
227.1751621349786
 20
155.1825390901737
 42
1.0
 10
227.2856973495138
 20
155.1365446587586
 42
1.0
 10
227.4070340596765
 20
155.1080689951665
 42
1.0
 10
227.5285824667651
 20
155.0977118311605
 42
1.0
 97
        0
 92
        0
 93
        2
 72
     4
 94
        3
 73
     1
 74
     0
 95
       20
 96
       16
 40
0.0
 40
0.0
 40
0.0
 40
0.0
 40
0.0008469533282679
 40
0.0008469533282679
 40
0.0008469533282679
 40
0.0014518178722236
 40
0.0014518178722236
 40
0.0014518178722236
 40
0.0017051353587143
 40
0.0017051353587143
 40
0.0017051353587143
 40
0.0018985103347133
 40
0.0018985103347133
 40
0.0018985103347133
 40
0.0021678305830599
 40
0.0021678305830599
 40
0.0021678305830599
 40
0.0021678305830599
 10
228.8928777864941
 20
154.2667907909407
 42
1.0
 10
228.8437792750312
 20
154.4057985810715
 42
1.0
 10
228.7858636863578
 20
154.5446939238311
 42
1.0
 10
228.6994056507037
 20
154.6790705724413
 42
1.0
 10
228.6379333322994
 20
154.7746133877154
 42
1.0
 10
228.5621605598512
 20
154.8704123691789
 42
1.0
 10
228.4455495115597
 20
154.9521045162132
 42
1.0
 10
228.396372515793
 20
154.9865555774783
 42
1.0
 10
228.3382600918784
 20
155.0188017268759
 42
1.0
 10
228.2701225174073
 20
155.0439172118752
 42
1.0
 10
228.2181089348815
 20
155.0630893993478
 42
1.0
 10
228.1587560331962
 20
155.0782942302104
 42
1.0
 10
228.0966063528835
 20
155.0871418442127
 42
1.0
 10
228.0104854365908
 20
155.0994019977814
 42
1.0
 10
227.9180033166531
 20
155.0985092115316
 42
1.0
 10
227.8285824667651
 20
155.0961656410438
 42
1.0
 72
     4
 94
        3
 73
     1
 74
     0
 95
       23
 96
       19
 40
0.0
 40
0.0
 40
0.0
 40
0.0
 40
0.0001573291346893
 40
0.0001573291346893
 40
0.0001573291346893
 40
0.0003500354350057
 40
0.0003500354350057
 40
0.0003500354350057
 40
0.0005409933147287
 40
0.0005409933147287
 40
0.0005409933147287
 40
0.0008848176731002
 40
0.0008848176731002
 40
0.0008848176731002
 40
0.0012238351286217
 40
0.0012238351286217
 40
0.0012238351286217
 40
0.0021899099672595
 40
0.0021899099672595
 40
0.0021899099672595
 40
0.0021899099672595
 10
227.828582466765
 20
155.0961656410437
 42
1.0
 10
227.8809536160213
 20
155.0975382010223
 42
1.0
 10
227.9336009434094
 20
155.0985241169202
 42
1.0
 10
227.9859087170573
 20
155.096641978907
 42
1.0
 10
228.0492016154891
 20
155.0943645741964
 42
1.0
 10
228.112879720623
 20
155.086703684361
 42
1.0
 10
228.1705490974288
 20
155.0734656684638
 42
1.0
 10
228.2278800311272
 20
155.0603053422432
 42
1.0
 10
228.2807832992134
 20
155.0417116351175
 42
1.0
 10
228.3271075422747
 20
155.0203009064491
 42
1.0
 10
228.4100287236379
 20
154.9819753387182
 42
1.0
 10
228.4755146616262
 20
154.9340643287044
 42
1.0
 10
228.5295284141808
 20
154.8844814853481
 42
1.0
 10
228.5831285666034
 20
154.8352783132715
 42
1.0
 10
228.6266738226831
 20
154.7832773985448
 42
1.0
 10
228.6644755556323
 20
154.7305331716205
 42
1.0
 10
228.771885083953
 20
154.5806661657035
 42
1.0
 10
228.8375044836434
 20
154.4235637812448
 42
1.0
 10
228.8928777864941
 20
154.2667907909407
 42
1.0
 97
        0
 75
     0
 76
     1
 52
90.0
 41
1.0
 77
     0
 78
     1
 53
135.0000000000002
 43
0.0
 44
0.0
 45
-2.245064030267281
 46
-2.245064030267296
 79
     0
 98
        1
 10
0.0
 20
0.0
  0
DIMENSION
  5
32F
330
1F
100
AcDbEntity
  8
FORMAT
100
AcDbDimension
  2
_D_16
 10
213.2513032292
 20
141.5761918677
 30
0.0
 11
213.2513032292
 21
153.5761918677
 31
0.0
 70
   160
  1
<>
 71
     2
 42
-1.0
  3
SLDDIMSTYLE0
100
AcDbAlignedDimension
 13
228.0285824668
 23
165.5761918677
 33
0.0
 14
231.5285824668
 24
141.5761918677
 34
0.0
 50
90.0
100
AcDbRotatedDimension
  0
DIMENSION
  5
33A
330
1F
100
AcDbEntity
  8
FORMAT
100
AcDbDimension
  2
_D_17
 10
220.3426550483
 20
155.3261918677
 30
0.0
 11
220.3426550483
 21
172.9574022992
 31
0.0
 70
   160
  1
%%c<>
 71
     2
 42
-1.0
  3
SLDDIMSTYLE1
100
AcDbAlignedDimension
 13
228.0285824668
 23
161.8261918677
 33
0.0
 14
228.0285824668
 24
155.3261918677
 34
0.0
 50
90.0
100
AcDbRotatedDimension
  0
DIMENSION
  5
347
330
1F
100
AcDbEntity
  8
FORMAT
100
AcDbDimension
  2
_D_18
 10
240.8452819493
 20
153.0761918677
 30
0.0
 11
240.8452819493
 21
158.5761918677
 31
0.0
 70
   160
  1
%%c<>
 71
     2
 42
-1.0
  3
SLDDIMSTYLE0
100
AcDbAlignedDimension
 13
231.0285824668
 23
164.0761918677
 33
0.0
 14
231.0285824668
 24
153.0761918677
 34
0.0
 50
90.0
100
AcDbRotatedDimension
  0
DIMENSION
  5
352
330
1F
100
AcDbEntity
  8
FORMAT
100
AcDbDimension
  2
_D_19
 10
231.0285824668
 20
164.0761918677
 30
0.0
 11
247.2627203966
 21
158.5761918677
 31
0.0
 70
   162
  1
<>
 71
     1
 42
-1.0
  3
SLDDIMSTYLE3
100
AcDb2LineAngularDimension
 13
231.0285824668
 23
153.0761918677
 33
0.0
 14
228.7785824668
 24
155.3261918677
 34
0.0
 15
228.7785824668
 25
161.8261918677
 35
0.0
 16
247.2627203966
 26
158.5761918677
 36
0.0
  0
INSERT
  5
368
330
1F
100
AcDbEntity
  8
FORMAT
100
AcDbBlockReference
  2
SW_CENTERMARKSYMBOL_7
 10
255.0285824668
 20
134.0761918677
 30
0.0
  0
LINE
  5
369
330
1F
100
AcDbEntity
  8
FORMAT
  6
CENTERX2
370
    18
100
AcDbLine
 10
226.0285824668
 20
158.5761918677
 30
0.0
 11
228.7785824668
 21
158.5761918677
 31
0.0
  0
LINE
  5
36A
330
1F
100
AcDbEntity
  8
FORMAT
  6
CENTERX2
370
    18
100
AcDbLine
 10
233.0285824668
 20
158.5761918677
 30
0.0
 11
228.7785824668
 21
158.5761918677
 31
0.0
  0
LINE
  5
36B
330
1F
100
AcDbEntity
  8
FORMAT
  6
CENTERX2
370
    18
100
AcDbLine
 10
166.0285824668
 20
156.5761918677
 30
0.0
 11
230.0285824668
 21
156.5761918677
 31
0.0
  0
LINE
  5
36C
330
1F
100
AcDbEntity
  8
FORMAT
  6
CENTERX2
370
    18
100
AcDbLine
 10
226.0285824668
 20
153.5761918677
 30
0.0
 11
233.0285824668
 21
153.5761918677
 31
0.0
  0
LINE
  5
36D
330
1F
100
AcDbEntity
  8
0
  6
CENTER
 62
     7
370
    18
100
AcDbLine
 10
173.0285824668
 20
83.871111484
 30
0.0
 11
228.0285824668
 21
83.871111484
 31
0.0
  0
LINE
  5
36E
330
1F
100
AcDbEntity
  8
0
  6
CENTER
 62
     7
370
    18
100
AcDbLine
 10
228.0285824668
 20
95.871111484
 30
0.0
 11
173.0285824668
 21
95.871111484
 31
0.0
  0
LINE
  5
36F
330
1F
100
AcDbEntity
  8
0
  6
CENTER
 62
     7
370
    18
100
AcDbLine
 10
173.0285824668
 20
95.871111484
 30
0.0
 11
168.0285824668
 21
92.984360138
 31
0.0
  0
LINE
  5
370
330
1F
100
AcDbEntity
  8
0
  6
CENTER
 62
     7
370
    18
100
AcDbLine
 10
168.0285824668
 20
86.7578628299
 30
0.0
 11
173.0285824668
 21
83.871111484
 31
0.0
  0
LINE
  5
371
330
1F
100
AcDbEntity
  8
0
  6
Continuous
 62
     7
370
    25
100
AcDbLine
 10
231.0285824668
 20
81.738414643
 30
0.0
 11
231.0285824668
 21
78.371111484
 31
0.0
  0
LINE
  5
372
330
1F
100
AcDbEntity
  8
0
  6
Continuous
 62
     7
370
    25
100
AcDbLine
 10
228.0285824668
 20
78.371111484
 30
0.0
 11
231.0285824668
 21
78.371111484
 31
0.0
  0
LINE
  5
373
330
1F
100
AcDbEntity
  8
0
  6
Continuous
 62
     7
370
    25
100
AcDbLine
 10
228.0285824668
 20
82.1449066905
 30
0.0
 11
228.0285824668
 21
78.371111484
 31
0.0
  0
ARC
  5
374
330
1F
100
AcDbEntity
  8
0
  6
Continuous
 62
     7
370
    18
100
AcDbCircle
 10
230.2722735097
 20
87.4302628242
 30
0.0
 40
5.741875909133801
100
AcDbArc
 50
246.9982504742
 51
277.5688857534
  0
LINE
  5
375
330
1F
100
AcDbEntity
  8
0
  6
Continuous
 62
     7
370
    25
100
AcDbLine
 10
228.0285824668
 20
98.871111484
 30
0.0
 11
231.0285824668
 21
98.871111484
 31
0.0
  0
ARC
  5
376
330
1F
100
AcDbEntity
  8
0
  6
Continuous
 62
     7
370
    18
100
AcDbCircle
 10
228.080683291
 20
90.6282353832
 30
0.0
 40
6.89999582251893
100
AcDbArc
 50
64.7079747921
 51
90.432635871
  0
LINE
  5
377
330
1F
100
AcDbEntity
  8
0
  6
Continuous
 62
     7
370
    25
100
AcDbLine
 10
231.0285824668
 20
98.871111484
 30
0.0
 11
231.0285824668
 21
96.8668115669
 31
0.0
  0
LINE
  5
378
330
1F
100
AcDbEntity
  8
0
  6
Continuous
 62
     7
370
    25
100
AcDbLine
 10
228.0285824668
 20
98.871111484
 30
0.0
 11
228.0285824668
 21
97.5280345002
 31
0.0
  0
LINE
  5
379
330
1F
100
AcDbEntity
  8
0
  6
Continuous
 62
     7
370
    25
100
AcDbLine
 10
246.1277884919
 20
77.0223505665
 30
0.0
 11
249.1903687137
 21
74.3829058459
 31
0.0
  0
LINE
  5
37A
330
1F
100
AcDbEntity
  8
0
  6
Continuous
 62
     7
370
    25
100
AcDbLine
 10
247.2318523668
 20
72.1104152037
 30
0.0
 11
249.1903687137
 21
74.3829058459
 31
0.0
  0
LINE
  5
37B
330
1F
100
AcDbEntity
  8
0
  6
Continuous
 62
     7
370
    25
100
AcDbLine
 10
244.169272145
 20
74.7498599243
 30
0.0
 11
247.2318523668
 21
72.1104152037
 31
0.0
  0
ARC
  5
37C
330
1F
100
AcDbEntity
  8
0
  6
Continuous
 62
     7
370
    25
100
AcDbCircle
 10
243.8428527538
 20
74.371111484
 30
0.0
 40
0.5000000000000142
100
AcDbArc
 50
49.2440225849
 51
90.0
  0
LINE
  5
37D
330
1F
100
AcDbEntity
  8
0
  6
Continuous
 62
     7
370
    25
100
AcDbLine
 10
243.8428527538
 20
74.871111484
 30
0.0
 11
243.8428527538
 21
76.871111484
 31
0.0
  0
ARC
  5
37E
330
1F
100
AcDbEntity
  8
0
  6
Continuous
 62
     7
370
    25
100
AcDbCircle
 10
243.8428527538
 20
74.371111484
 30
0.0
 40
3.500000000000014
100
AcDbArc
 50
49.2440225849
 51
90.0
  0
LINE
  5
37F
330
1F
100
AcDbEntity
  8
0
  6
Continuous
 62
     7
370
    25
100
AcDbLine
 10
243.8428527538
 20
76.871111484
 30
0.0
 11
231.5285824668
 21
76.871111484
 31
0.0
  0
LINE
  5
380
330
1F
100
AcDbEntity
  8
0
  6
Continuous
 62
     7
370
    25
100
AcDbLine
 10
231.5285824668
 20
77.871111484
 30
0.0
 11
243.8428527538
 21
77.871111484
 31
0.0
  0
LINE
  5
381
330
1F
100
AcDbEntity
  8
0
  6
Continuous
 62
     7
370
    25
100
AcDbLine
 10
231.5285824668
 20
76.871111484
 30
0.0
 11
228.3663048066
 21
76.871111484
 31
0.0
  0
LINE
  5
382
330
1F
100
AcDbEntity
  8
0
  6
Continuous
 62
     7
370
    25
100
AcDbLine
 10
243.8428527538
 20
74.871111484
 30
0.0
 11
231.5285824668
 21
74.871111484
 31
0.0
  0
ARC
  5
383
330
1F
100
AcDbEntity
  8
0
  6
Continuous
 62
     7
370
    25
100
AcDbCircle
 10
231.5285824668
 20
78.371111484
 30
0.0
 40
3.500000000000014
100
AcDbArc
 50
205.3769335252
 51
270.0
  0
ARC
  5
384
330
1F
100
AcDbEntity
  8
0
  6
Continuous
 62
     7
370
    25
100
AcDbCircle
 10
231.5285824668
 20
78.371111484
 30
0.0
 40
3.499999999999972
100
AcDbArc
 50
180.0
 51
205.3769335252
  0
ARC
  5
385
330
1F
100
AcDbEntity
  8
0
  6
Continuous
 62
     7
370
    25
100
AcDbCircle
 10
231.5285824668
 20
78.371111484
 30
0.0
 40
0.5
100
AcDbArc
 50
180.0
 51
270.0
  0
LINE
  5
386
330
1F
100
AcDbEntity
  8
0
  6
Continuous
 62
     7
370
    25
100
AcDbLine
 10
231.0285824668
 20
96.371111484
 30
0.0
 11
228.0285824668
 21
93.371111484
 31
0.0
  0
LINE
  5
387
330
1F
100
AcDbEntity
  8
0
  6
Continuous
 62
     7
370
    25
100
AcDbLine
 10
231.0285824668
 20
96.8668115669
 30
0.0
 11
231.0285824668
 21
96.371111484
 31
0.0
  0
LINE
  5
388
330
1F
100
AcDbEntity
  8
0
  6
Continuous
 62
     7
370
    25
100
AcDbLine
 10
228.0285824863
 20
97.5280345017
 30
0.0
 11
228.0285824785
 21
95.871111484
 31
0.0
  0
LINE
  5
389
330
1F
100
AcDbEntity
  8
0
  6
Continuous
 62
     7
370
    25
100
AcDbLine
 10
228.0285824668
 20
86.371111484
 30
0.0
 11
231.0285824668
 21
83.371111484
 31
0.0
  0
LINE
  5
38A
330
1F
100
AcDbEntity
  8
0
  6
Continuous
 62
     7
370
    25
100
AcDbLine
 10
231.0285824668
 20
83.371111484
 30
0.0
 11
231.0285824668
 21
96.371111484
 31
0.0
  0
LINE
  5
38B
330
1F
100
AcDbEntity
  8
0
  6
Continuous
 62
     7
370
    25
100
AcDbLine
 10
231.0285824668
 20
83.371111484
 30
0.0
 11
231.0285824473
 21
81.7384146397
 31
0.0
  0
LINE
  5
38C
330
1F
100
AcDbEntity
  8
0
  6
Continuous
 62
     7
370
    25
100
AcDbLine
 10
228.0285824668
 20
83.871111484
 30
0.0
 11
228.0285824668
 21
82.1449066905
 31
0.0
  0
LINE
  5
38D
330
1F
100
AcDbEntity
  8
0
  6
CENTER
 62
     7
370
    18
100
AcDbLine
 10
173.0285824668
 20
83.871111484
 30
0.0
 11
173.0285824668
 21
95.871111484
 31
0.0
  0
LINE
  5
38E
330
1F
100
AcDbEntity
  8
0
  6
CENTER
 62
     7
370
    18
100
AcDbLine
 10
228.0285824668
 20
83.871111484
 30
0.0
 11
228.0285824668
 21
95.871111484
 31
0.0
  0
LINE
  5
38F
330
1F
100
AcDbEntity
  8
0
  6
CENTER
 62
     7
370
    18
100
AcDbLine
 10
168.0285824668
 20
86.7578628299
 30
0.0
 11
168.0285824668
 21
92.984360138
 31
0.0
  0
CIRCLE
  5
390
330
1F
100
AcDbEntity
  8
0
  6
Continuous
 62
     7
370
    25
100
AcDbCircle
 10
255.0285824668
 20
67.371111484
 30
0.0
 40
8.80000000000001
  0
CIRCLE
  5
391
330
1F
100
AcDbEntity
  8
0
  6
Continuous
 62
     7
370
    25
100
AcDbCircle
 10
255.0285824668
 20
67.371111484
 30
0.0
 40
9.000000000000007
  0
LINE
  5
392
330
1F
100
AcDbEntity
  8
0
  6
Continuous
 62
     7
370
    25
100
AcDbLine
 10
245.0285824668
 20
105.871111484
 30
0.0
 11
245.0285824668
 21
78.0632970694
 31
0.0
  0
LINE
  5
393
330
1F
100
AcDbEntity
  8
0
  6
Continuous
 62
     7
370
    25
100
AcDbLine
 10
248.0285824668
 20
105.871111484
 30
0.0
 11
248.0285824668
 21
78.0632970694
 31
0.0
  0
LINE
  5
394
330
1F
100
AcDbEntity
  8
0
  6
Continuous
 62
     7
370
    25
100
AcDbLine
 10
245.0285824668
 20
106.371111484
 30
0.0
 11
248.0285824668
 21
106.371111484
 31
0.0
  0
LINE
  5
395
330
1F
100
AcDbEntity
  8
0
  6
Continuous
 62
     7
370
    25
100
AcDbLine
 10
245.0285824668
 20
105.871111484
 30
0.0
 11
245.0285824668
 21
106.371111484
 31
0.0
  0
LINE
  5
396
330
1F
100
AcDbEntity
  8
0
  6
Continuous
 62
     7
370
    25
100
AcDbLine
 10
248.0285824668
 20
106.371111484
 30
0.0
 11
248.0285824668
 21
105.871111484
 31
0.0
  0
LINE
  5
397
330
1F
100
AcDbEntity
  8
0
  6
Continuous
 62
     7
370
    25
100
AcDbLine
 10
248.0285824668
 20
77.5632970694
 30
0.0
 11
245.2781057588
 21
77.5632970694
 31
0.0
  0
LINE
  5
398
330
1F
100
AcDbEntity
  8
0
  6
Continuous
 62
     7
370
    25
100
AcDbLine
 10
245.0285824668
 20
77.6641412512
 30
0.0
 11
245.0285824668
 21
78.0632970694
 31
0.0
  0
LINE
  5
399
330
1F
100
AcDbEntity
  8
0
  6
Continuous
 62
     7
370
    25
100
AcDbLine
 10
248.0285824668
 20
78.0632970694
 30
0.0
 11
248.0285824668
 21
77.5632970694
 31
0.0
  0
LINE
  5
39A
330
1F
100
AcDbEntity
  8
0
  6
Continuous
 62
     7
370
    25
100
AcDbLine
 10
248.085342602
 20
77.3319133572
 30
0.0
 11
246.4607393441
 21
76.7354012279
 31
0.0
  0
ARC
  5
39B
330
1F
100
AcDbEntity
  8
0
  6
Continuous
 62
     7
370
    25
100
AcDbCircle
 10
248.5285824668
 20
77.5632970694
 30
0.0
 40
0.5000000000004876
100
AcDbArc
 50
180.6349707312
 51
207.5658290261
  0
LINE
  5
39C
330
1F
100
AcDbEntity
  8
0
  6
Continuous
 62
     7
370
    25
100
AcDbLine
 10
247.0488363223
 20
76.2285575367
 30
0.0
 11
248.1573059091
 21
77.2284034788
 31
0.0
  0
LINE
  5
39D
330
1F
100
AcDbEntity
  8
0
  6
Continuous
 62
     7
370
    25
100
AcDbLine
 10
248.085342602
 20
77.3319133572
 30
0.0
 11
248.1573059084
 21
77.2284034785
 31
0.0
  0
LINE
  5
39E
330
1F
100
AcDbEntity
  8
0
  6
Continuous
 62
     7
370
    25
100
AcDbLine
 10
248.5804280318
 20
73.6751841595
 30
0.0
 11
250.114327507
 21
75.0587703076
 31
0.0
  0
LINE
  5
39F
330
1F
100
AcDbEntity
  8
0
  6
Continuous
 62
     7
370
    25
100
AcDbLine
 10
250.114327507
 20
75.0587703076
 30
0.0
 11
248.1573059089
 21
77.228403479
 31
0.0
  0
HATCH
  5
3A0
330
1F
100
AcDbEntity
  8
0
  6
Continuous
 62
     7
370
    18
100
AcDbHatch
 10
0.0
 20
0.0
 30
0.0
210
0.0
220
0.0
230
1.0
  2
ANSI31
 70
     0
 71
     0
 91
        1
 92
        0
 93
        4
 72
     1
 10
231.0285824667649
 20
83.37111148398044
 11
228.0285824667649
 21
86.37111148398046
 72
     1
 10
228.0285824667649
 20
86.37111148398046
 11
228.0285824667589
 21
82.14490669053185
 72
     4
 94
        3
 73
     1
 74
     0
 95
        8
 96
        4
 40
0.573231715024461
 40
0.573231715024461
 40
0.573231715024461
 40
0.573231715024461
 40
0.6407836380918775
 40
0.6407836380918775
 40
0.6407836380918775
 40
0.6407836380918775
 10
228.0285824667689
 20
82.14490669052782
 42
1.0
 10
228.9978877410303
 20
81.74915322165528
 42
1.0
 10
230.1162604927325
 20
81.58082499239207
 42
1.0
 10
231.0285824472614
 20
81.73841463967173
 42
1.0
 72
     1
 10
231.0285824472614
 20
81.73841463967172
 11
231.0285824667649
 21
83.37111148398044
 97
        0
 75
     0
 76
     1
 52
0.0
 41
1.0
 77
     0
 78
     1
 53
45.0
 43
0.0
 44
0.0
 45
-2.245064030267288
 46
2.245064030267288
 79
     0
 98
        1
 10
0.0
 20
0.0
  0
HATCH
  5
3A1
330
1F
100
AcDbEntity
  8
0
  6
Continuous
 62
     7
370
    18
100
AcDbHatch
 10
0.0
 20
0.0
 30
0.0
210
0.0
220
0.0
230
1.0
  2
ANSI31
 70
     0
 71
     0
 91
        1
 92
        0
 93
        3
 72
     4
 94
        3
 73
     1
 74
     0
 95
        8
 96
        4
 40
0.3592163619081225
 40
0.3592163619081225
 40
0.3592163619081225
 40
0.3592163619081225
 40
0.4267682849753088
 40
0.4267682849753088
 40
0.4267682849753088
 40
0.4267682849753088
 10
231.0285824472614
 20
81.73841463967173
 42
1.0
 10
230.1162604927356
 20
81.5808249923926
 42
1.0
 10
228.9978877410379
 20
81.74915322165414
 42
1.0
 10
228.0285824667788
 20
82.14490669052377
 42
1.0
 72
     4
 94
        3
 73
     1
 74
     0
 95
       11
 96
        7
 40
0.0
 40
0.0
 40
0.0
 40
0.0
 40
0.0020361616690121
 40
0.0020361616690121
 40
0.0020361616690121
 40
0.0030540038931807
 40
0.0030540038931807
 40
0.0030540038931807
 40
0.0030540038931807
 10
228.0285824667648
 20
82.14490669052947
 42
1.0
 10
228.6488643262181
 20
81.89165448601123
 42
1.0
 10
229.3249786686206
 20
81.7290567441814
 42
1.0
 10
230.0022417229363
 20
81.68895964122005
 42
1.0
 10
230.3441064059226
 20
81.66871967197146
 42
1.0
 10
230.6920713749664
 20
81.6802875030187
 42
1.0
 10
231.0285824667648
 20
81.73841464304061
 42
1.0
 72
     1
 10
231.0285824667648
 20
81.73841464304063
 11
231.0285824472614
 21
81.73841463967172
 97
        0
 75
     0
 76
     1
 52
0.0
 41
1.0
 77
     0
 78
     1
 53
45.0
 43
0.0
 44
0.0
 45
-2.245064030267288
 46
2.245064030267288
 79
     0
 98
        1
 10
0.0
 20
0.0
  0
HATCH
  5
3A2
330
1F
100
AcDbEntity
  8
0
  6
Continuous
 62
     7
370
    18
100
AcDbHatch
 10
0.0
 20
0.0
 30
0.0
210
0.0
220
0.0
230
1.0
  2
ANSI31
 70
     0
 71
     0
 91
        1
 92
        0
 93
        4
 72
     4
 94
        3
 73
     1
 74
     0
 95
        9
 96
        5
 40
0.0736360972183132
 40
0.0736360972183132
 40
0.0736360972183132
 40
0.0736360972183132
 40
0.0925787115144432
 40
0.1395171115678114
 40
0.1395171115678114
 40
0.1395171115678114
 40
0.1395171115678114
 10
231.0285824667762
 20
96.86681156690807
 42
1.0
 10
230.756994372852
 20
96.98232056484183
 42
1.0
 10
229.7547253297822
 20
97.3417729360101
 42
1.0
 10
228.6435531230668
 20
97.57631031580561
 42
1.0
 10
228.0285824862647
 20
97.52803450172476
 42
1.0
 72
     1
 10
228.0285824862647
 20
97.52803450172476
 11
228.0285824667649
 21
93.37111148398046
 72
     1
 10
228.0285824667649
 20
93.37111148398046
 11
231.028582466765
 21
96.37111148398043
 72
     1
 10
231.028582466765
 20
96.37111148398043
 11
231.0285824667762
 21
96.86681156690807
 97
        0
 75
     0
 76
     1
 52
0.0
 41
1.0
 77
     0
 78
     1
 53
45.0
 43
0.0
 44
0.0
 45
-2.245064030267288
 46
2.245064030267288
 79
     0
 98
        1
 10
0.0
 20
0.0
  0
HATCH
  5
3A3
330
1F
100
AcDbEntity
  8
0
  6
Continuous
 62
     7
370
    18
100
AcDbHatch
 10
0.0
 20
0.0
 30
0.0
210
0.0
220
0.0
230
1.0
  2
ANSI31
 70
     0
 71
     0
 91
        1
 92
        0
 93
        4
 72
     1
 10
228.0285824667649
 20
97.528034500194
 11
228.0285824862647
 21
97.52803450172476
 72
     4
 94
        3
 73
     1
 74
     0
 95
        9
 96
        5
 40
0.8604828884321886
 40
0.8604828884321886
 40
0.8604828884321886
 40
0.8604828884321886
 40
0.9074212884855568
 40
0.9263639027816867
 40
0.9263639027816867
 40
0.9263639027816867
 40
0.9263639027816867
 10
228.0285824862647
 20
97.52803450172476
 42
1.0
 10
228.6435531230668
 20
97.57631031580561
 42
1.0
 10
229.7547253297822
 20
97.3417729360101
 42
1.0
 10
230.756994372852
 20
96.98232056484183
 42
1.0
 10
231.0285824667762
 20
96.86681156690805
 42
1.0
 72
     4
 94
        3
 73
     1
 74
     0
 95
       11
 96
        7
 40
0.0
 40
0.0
 40
0.0
 40
0.0
 40
0.0020107883401906
 40
0.0020107883401906
 40
0.0020107883401906
 40
0.0046884103868681
 40
0.0046884103868681
 40
0.0046884103868681
 40
0.0046884103868681
 10
231.0285824667649
 20
96.86681156691284
 42
1.0
 10
230.8364074213866
 20
96.94854544043682
 42
1.0
 10
230.7059931064502
 20
96.99572444541538
 42
1.0
 10
230.675034688125
 20
97.00721731502477
 42
1.0
 10
230.6341698870431
 20
97.02238778741501
 42
1.0
 10
230.7749133380719
 20
96.9746994586041
 42
1.0
 10
231.0285824667649
 20
96.86681156691284
 42
1.0
 72
     4
 94
        3
 73
     1
 74
     0
 95
       14
 96
       10
 40
0.0000000000000001
 40
0.0000000000000001
 40
0.0000000000000001
 40
0.0000000000000001
 40
0.001899881957103
 40
0.001899881957103
 40
0.001899881957103
 40
0.0026995924423494
 40
0.0026995924423494
 40
0.0026995924423494
 40
0.0033345934144767
 40
0.0033345934144767
 40
0.0033345934144767
 40
0.0033345934144767
 10
231.0285824667649
 20
96.86681156691284
 42
1.0
 10
230.5264807706039
 20
97.08036019103008
 42
1.0
 10
229.9860934622
 20
97.2547910333216
 42
1.0
 10
229.4134725449104
 20
97.3851686384654
 42
1.0
 10
229.1719195734353
 20
97.44016680040012
 42
1.0
 10
228.9204329500089
 20
97.48673956477522
 42
1.0
 10
228.6597894421849
 20
97.51380597518092
 42
1.0
 10
228.4542638791237
 20
97.53514868686061
 42
1.0
 10
228.2362304368235
 20
97.54433507651945
 42
1.0
 10
228.0285824667649
 20
97.52803450019401
 42
1.0
 97
        0
 75
     0
 76
     1
 52
0.0
 41
1.0
 77
     0
 78
     1
 53
45.0
 43
0.0
 44
0.0
 45
-2.245064030267288
 46
2.245064030267288
 79
     0
 98
        1
 10
0.0
 20
0.0
  0
DIMENSION
  5
3A4
330
1F
100
AcDbEntity
  8
FORMAT
100
AcDbDimension
  2
_D_20
 10
231.0285824668
 20
111.8807508557
 30
0.0
 11
221.3535596222
 21
111.8807508557
 31
0.0
 70
   160
  1
<>
 71
     2
 42
-1.0
  3
SLDDIMSTYLE1
100
AcDbAlignedDimension
 13
228.0285824668
 23
98.871111484
 33
0.0
 14
231.0285824668
 24
98.871111484
 34
0.0
 50
0.0
100
AcDbRotatedDimension
  0
DIMENSION
  5
3B0
330
1F
100
AcDbEntity
  8
FORMAT
100
AcDbDimension
  2
_D_21
 10
248.0285824668
 20
116.371111484
 30
0.0
 11
252.1520644107
 21
116.371111484
 31
0.0
 70
   160
  1
<>
 71
     2
 42
-1.0
  3
SLDDIMSTYLE1
100
AcDbAlignedDimension
 13
245.0285824668
 23
106.371111484
 33
0.0
 14
248.0285824668
 24
106.371111484
 34
0.0
 50
0.0
100
AcDbRotatedDimension
  0
DIMENSION
  5
3BC
330
1F
100
AcDbEntity
  8
FORMAT
100
AcDbDimension
  2
_D_22
 10
245.0285824668
 20
122.371111484
 30
0.0
 11
238.0285824668
 21
122.371111484
 31
0.0
 70
   160
  1
<>
 71
     2
 42
-1.0
  3
SLDDIMSTYLE0
100
AcDbAlignedDimension
 13
231.0285824668
 23
98.871111484
 33
0.0
 14
245.0285824668
 24
105.871111484
 34
0.0
 50
0.0
100
AcDbRotatedDimension
  0
DIMENSION
  5
3C6
330
1F
100
AcDbEntity
  8
FORMAT
100
AcDbDimension
  2
_D_23
 10
259.994602646
 20
67.371111484
 30
0.0
 11
259.994602646
 21
86.871111484
 31
0.0
 70
   160
  1
<>
 71
     2
 42
-1.0
  3
SLDDIMSTYLE0
100
AcDbAlignedDimension
 13
248.0285824668
 23
106.371111484
 33
0.0
 14
255.0285824668
 24
67.371111484
 34
0.0
 50
90.0
100
AcDbRotatedDimension
  0
DIMENSION
  5
3D0
330
1F
100
AcDbEntity
  8
FORMAT
100
AcDbDimension
  2
_D_24
 10
228.0285824668
 20
67.5814547362
 30
0.0
 11
198.0285824668
 21
67.5814547362
 31
0.0
 70
   160
  1
<>
 71
     2
 42
-1.0
  3
SLDDIMSTYLE0
100
AcDbAlignedDimension
 13
168.0285824668
 23
86.7578628299
 33
0.0
 14
228.0285824668
 24
98.871111484
 34
0.0
 50
0.0
100
AcDbRotatedDimension
  0
DIMENSION
  5
3DA
330
1F
100
AcDbEntity
  8
FORMAT
100
AcDbDimension
  2
_D_25
 10
217.669831372
 20
86.371111484
 30
0.0
 11
217.669831372
 21
89.871111484
 31
0.0
 70
   160
  1
%%c<>
 71
     2
 42
-1.0
  3
SLDDIMSTYLE1
100
AcDbAlignedDimension
 13
228.0285824668
 23
93.371111484
 33
0.0
 14
228.0285824668
 24
86.371111484
 34
0.0
 50
90.0
100
AcDbRotatedDimension
  0
DIMENSION
  5
3E7
330
1F
100
AcDbEntity
  8
FORMAT
100
AcDbDimension
  2
_D_26
 10
236.6057542812
 20
83.371111484
 30
0.0
 11
236.6057542812
 21
89.871111484
 31
0.0
 70
   160
  1
%%c<>
 71
     2
 42
-1.0
  3
SLDDIMSTYLE0
100
AcDbAlignedDimension
 13
231.0285824668
 23
96.371111484
 33
0.0
 14
231.0285824668
 24
83.371111484
 34
0.0
 50
90.0
100
AcDbRotatedDimension
  0
DIMENSION
  5
3F2
330
1F
100
AcDbEntity
  8
FORMAT
100
AcDbDimension
  2
_D_27
 10
228.0285824668
 20
93.371111484
 30
0.0
 11
244.1717179624
 21
89.871111484
 31
0.0
 70
   162
  1
<>
 71
     1
 42
-1.0
  3
SLDDIMSTYLE3
100
AcDb2LineAngularDimension
 13
228.0285824668
 23
86.371111484
 33
0.0
 14
231.0285824668
 24
83.371111484
 34
0.0
 15
231.0285824668
 25
96.371111484
 35
0.0
 16
244.1717179624
 26
89.871111484
 36
0.0
  0
INSERT
  5
401
102
{ACAD_REACTORS
330
408
102
}
330
1F
100
AcDbEntity
  8
FORMAT
100
AcDbBlockReference
  2
SW_NOTE_0_10
 10
159.8327702703
 20
105.1711707993
 30
0.0
  0
LEADER
  5
408
330
1F
100
AcDbEntity
  8
FORMAT
100
AcDbLeader
  3
SLDDIMSTYLE4
 73
     2
 76
     3
 10
199.2348868299
 20
92.937540373
 30
0.0
 10
213.3951259349
 20
105.1711707993
 30
0.0
 10
159.8327702703
 20
105.1711707993
 30
0.0
340
401
  0
INSERT
  5
414
330
1F
100
AcDbEntity
  8
FORMAT
100
AcDbBlockReference
  2
SW_CENTERMARKSYMBOL_8
 10
255.0285824668
 20
67.371111484
 30
0.0
  0
LINE
  5
415
330
1F
100
AcDbEntity
  8
FORMAT
  6
CENTERX2
370
    18
100
AcDbLine
 10
166.0285824668
 20
89.871111484
 30
0.0
 11
230.0285824668
 21
89.871111484
 31
0.0
  0
ENDSEC
  0
SECTION
  2
OBJECTS
  0
DICTIONARY
  5
C
330
0
100
AcDbDictionary
281
     1
  3
ACAD_GROUP
350
D
  3
ACAD_LAYOUT
350
1A
  3
ACAD_MLINESTYLE
350
17
  3
ACAD_PLOTSETTINGS
350
19
  3
ACAD_PLOTSTYLENAME
350
E
  3
ACAD_SCALELIST
350
47
  3
DWGPROPS
350
416
  0
DICTIONARY
  5
D
102
{ACAD_REACTORS
330
C
102
}
330
C
100
AcDbDictionary
281
     1
  0
DICTIONARY
  5
1A
102
{ACAD_REACTORS
330
C
102
}
330
C
100
AcDbDictionary
281
     1
  3
Layout1
350
1E
  3
Layout2
350
26
  3
Model
350
22
  0
DICTIONARY
  5
17
102
{ACAD_REACTORS
330
C
102
}
330
C
100
AcDbDictionary
281
     1
  3
Standard
350
18
  0
DICTIONARY
  5
19
102
{ACAD_REACTORS
330
C
102
}
330
C
100
AcDbDictionary
281
     1
  0
ACDBDICTIONARYWDFLT
  5
E
102
{ACAD_REACTORS
330
C
102
}
330
C
100
AcDbDictionary
281
     1
  3
Normal
350
F
100
AcDbDictionaryWithDefault
340
F
  0
DICTIONARY
  5
47
102
{ACAD_REACTORS
330
C
102
}
330
C
100
AcDbDictionary
281
     1
  3
A0
350
48
  3
A1
350
49
  3
A2
350
4A
  3
A3
350
4B
  3
A4
350
4C
  3
A5
350
4D
  3
A6
350
4E
  3
A7
350
4F
  3
A8
350
50
  3
A9
350
51
  3
B0
350
52
  3
B1
350
53
  3
B2
350
54
  3
B3
350
55
  3
B4
350
56
  3
B5
350
57
  3
B6
350
58
  3
B7
350
59
  3
B8
350
5A
  3
B9
350
5B
  3
C0
350
5C
  3
C1
350
5D
  3
C2
350
5E
  3
C3
350
5F
  3
C4
350
60
  3
C5
350
61
  3
C6
350
62
  3
C7
350
63
  3
C8
350
64
  3
C9
350
65
  3
D0
350
66
  3
D1
350
67
  3
D2
350
68
  0
XRECORD
  5
416
102
{ACAD_REACTORS
330
C
102
}
330
C
100
AcDbXrecord
280
     1
  1
DWGPROPS COOKIE
  2

  3

  4

  6

  7

  8
blumenstein
  9

300
=
301
=
302
=
303
=
304
=
305
=
306
=
307
=
308
=
309
=
 40
0.0
 41
2459704.318737303
 42
2459704.318742107
  1

 90
        0
  0
LAYOUT
  5
1E
102
{ACAD_REACTORS
330
1A
102
}
330
1A
100
AcDbPlotSettings
  1

  2
none_device
  4

  6

 40
0.0
 41
0.0
 42
0.0
 43
0.0
 44
0.0
 45
0.0
 46
0.0
 47
0.0
 48
0.0
 49
0.0
140
0.0
141
0.0
142
1.0
143
1.0
 70
   688
 72
     1
 73
     0
 74
     5
  7

 75
    16
147
1.0
148
0.0
149
0.0
100
AcDbLayout
  1
Layout1
 70
     1
 71
     1
 10
0.0
 20
0.0
 11
420.0
 21
297.0
 12
0.0
 22
0.0
 32
0.0
 14
1.0000000000E+20
 24
1.0000000000E+20
 34
1.0000000000E+20
 15
-1.0000000000E+20
 25
-1.0000000000E+20
 35
-1.0000000000E+20
146
0.0
 13
0.0
 23
0.0
 33
0.0
 16
1.0
 26
0.0
 36
0.0
 17
0.0
 27
1.0
 37
0.0
 76
     0
330
1B
  0
LAYOUT
  5
26
102
{ACAD_REACTORS
330
1A
102
}
330
1A
100
AcDbPlotSettings
  1

  2
none_device
  4

  6

 40
0.0
 41
0.0
 42
0.0
 43
0.0
 44
0.0
 45
0.0
 46
0.0
 47
0.0
 48
0.0
 49
0.0
140
0.0
141
0.0
142
1.0
143
1.0
 70
   688
 72
     1
 73
     0
 74
     5
  7

 75
    16
147
1.0
148
0.0
149
0.0
100
AcDbLayout
  1
Layout2
 70
     1
 71
     2
 10
0.0
 20
0.0
 11
0.0
 21
0.0
 12
0.0
 22
0.0
 32
0.0
 14
0.0
 24
0.0
 34
0.0
 15
0.0
 25
0.0
 35
0.0
146
0.0
 13
0.0
 23
0.0
 33
0.0
 16
1.0
 26
0.0
 36
0.0
 17
0.0
 27
1.0
 37
0.0
 76
     0
330
23
  0
LAYOUT
  5
22
102
{ACAD_REACTORS
330
1A
102
}
330
1A
100
AcDbPlotSettings
  1

  2
none_device
  4
Letter_(8.50_x_11.00_Inches)
  6

 40
6.35
 41
6.35
 42
6.35000508
 43
6.35000508
 44
215.9
 45
279.4
 46
0.0
 47
0.0
 48
0.0
 49
0.0
140
0.0
141
0.0
142
1.0
143
1.0
 70
  1712
 72
     1
 73
     0
 74
     0
  7

 75
     0
147
1.0
148
0.0
149
0.0
100
AcDbLayout
  1
Model
 70
     1
 71
     0
 10
0.0
 20
0.0
 11
297.0
 21
210.0
 12
0.0
 22
0.0
 32
0.0
 14
0.0
 24
0.0
 34
0.0
 15
297.0
 25
210.0
 35
0.0
146
0.0
 13
0.0
 23
0.0
 33
0.0
 16
1.0
 26
0.0
 36
0.0
 17
0.0
 27
1.0
 37
0.0
 76
     0
330
1F
331
29
  0
MLINESTYLE
  5
18
102
{ACAD_REACTORS
330
17
102
}
330
17
100
AcDbMlineStyle
  2
Standard
 70
     0
  3

 62
   256
 51
90.0
 52
90.0
 71
     2
 49
0.5
 62
   256
  6
BYLAYER
 49
-0.5
 62
   256
  6
BYLAYER
  0
ACDBPLACEHOLDER
  5
F
102
{ACAD_REACTORS
330
E
102
}
330
E
  0
SCALE
  5
48
102
{ACAD_REACTORS
330
47
102
}
330
47
100
AcDbScale
 70
     0
300
1:1
140
1.0
141
1.0
290
     1
  0
SCALE
  5
49
102
{ACAD_REACTORS
330
47
102
}
330
47
100
AcDbScale
 70
     0
300
1:2
140
1.0
141
2.0
290
     0
  0
SCALE
  5
4A
102
{ACAD_REACTORS
330
47
102
}
330
47
100
AcDbScale
 70
     0
300
1:4
140
1.0
141
4.0
290
     0
  0
SCALE
  5
4B
102
{ACAD_REACTORS
330
47
102
}
330
47
100
AcDbScale
 70
     0
300
1:5
140
1.0
141
5.0
290
     0
  0
SCALE
  5
4C
102
{ACAD_REACTORS
330
47
102
}
330
47
100
AcDbScale
 70
     0
300
1:8
140
1.0
141
8.0
290
     0
  0
SCALE
  5
4D
102
{ACAD_REACTORS
330
47
102
}
330
47
100
AcDbScale
 70
     0
300
1:10
140
1.0
141
10.0
290
     0
  0
SCALE
  5
4E
102
{ACAD_REACTORS
330
47
102
}
330
47
100
AcDbScale
 70
     0
300
1:16
140
1.0
141
16.0
290
     0
  0
SCALE
  5
4F
102
{ACAD_REACTORS
330
47
102
}
330
47
100
AcDbScale
 70
     0
300
1:20
140
1.0
141
20.0
290
     0
  0
SCALE
  5
50
102
{ACAD_REACTORS
330
47
102
}
330
47
100
AcDbScale
 70
     0
300
1:30
140
1.0
141
30.0
290
     0
  0
SCALE
  5
51
102
{ACAD_REACTORS
330
47
102
}
330
47
100
AcDbScale
 70
     0
300
1:40
140
1.0
141
40.0
290
     0
  0
SCALE
  5
52
102
{ACAD_REACTORS
330
47
102
}
330
47
100
AcDbScale
 70
     0
300
1:50
140
1.0
141
50.0
290
     0
  0
SCALE
  5
53
102
{ACAD_REACTORS
330
47
102
}
330
47
100
AcDbScale
 70
     0
300
1:100
140
1.0
141
100.0
290
     0
  0
SCALE
  5
54
102
{ACAD_REACTORS
330
47
102
}
330
47
100
AcDbScale
 70
     0
300
2:1
140
2.0
141
1.0
290
     0
  0
SCALE
  5
55
102
{ACAD_REACTORS
330
47
102
}
330
47
100
AcDbScale
 70
     0
300
4:1
140
4.0
141
1.0
290
     0
  0
SCALE
  5
56
102
{ACAD_REACTORS
330
47
102
}
330
47
100
AcDbScale
 70
     0
300
8:1
140
8.0
141
1.0
290
     0
  0
SCALE
  5
57
102
{ACAD_REACTORS
330
47
102
}
330
47
100
AcDbScale
 70
     0
300
10:1
140
10.0
141
1.0
290
     0
  0
SCALE
  5
58
102
{ACAD_REACTORS
330
47
102
}
330
47
100
AcDbScale
 70
     0
300
100:1
140
100.0
141
1.0
290
     0
  0
SCALE
  5
59
102
{ACAD_REACTORS
330
47
102
}
330
47
100
AcDbScale
 70
     0
300
1/128" = 1'-0"
140
0.0078125
141
12.0
290
     0
  0
SCALE
  5
5A
102
{ACAD_REACTORS
330
47
102
}
330
47
100
AcDbScale
 70
     0
300
1/64" = 1'-0"
140
0.015625
141
12.0
290
     0
  0
SCALE
  5
5B
102
{ACAD_REACTORS
330
47
102
}
330
47
100
AcDbScale
 70
     0
300
1/32" = 1'-0"
140
0.03125
141
12.0
290
     0
  0
SCALE
  5
5C
102
{ACAD_REACTORS
330
47
102
}
330
47
100
AcDbScale
 70
     0
300
1/16" = 1'-0"
140
0.0625
141
12.0
290
     0
  0
SCALE
  5
5D
102
{ACAD_REACTORS
330
47
102
}
330
47
100
AcDbScale
 70
     0
300
3/32" = 1'-0"
140
0.09375
141
12.0
290
     0
  0
SCALE
  5
5E
102
{ACAD_REACTORS
330
47
102
}
330
47
100
AcDbScale
 70
     0
300
1/8" = 1'-0"
140
0.125
141
12.0
290
     0
  0
SCALE
  5
5F
102
{ACAD_REACTORS
330
47
102
}
330
47
100
AcDbScale
 70
     0
300
3/16" = 1'-0"
140
0.1875
141
12.0
290
     0
  0
SCALE
  5
60
102
{ACAD_REACTORS
330
47
102
}
330
47
100
AcDbScale
 70
     0
300
1/4" = 1'-0"
140
0.25
141
12.0
290
     0
  0
SCALE
  5
61
102
{ACAD_REACTORS
330
47
102
}
330
47
100
AcDbScale
 70
     0
300
3/8" = 1'-0"
140
0.375
141
12.0
290
     0
  0
SCALE
  5
62
102
{ACAD_REACTORS
330
47
102
}
330
47
100
AcDbScale
 70
     0
300
1/2" = 1'-0"
140
0.5
141
12.0
290
     0
  0
SCALE
  5
63
102
{ACAD_REACTORS
330
47
102
}
330
47
100
AcDbScale
 70
     0
300
3/4" = 1'-0"
140
0.75
141
12.0
290
     0
  0
SCALE
  5
64
102
{ACAD_REACTORS
330
47
102
}
330
47
100
AcDbScale
 70
     0
300
1" = 1'-0"
140
1.0
141
12.0
290
     0
  0
SCALE
  5
65
102
{ACAD_REACTORS
330
47
102
}
330
47
100
AcDbScale
 70
     0
300
1-1/2" = 1'-0"
140
1.5
141
12.0
290
     0
  0
SCALE
  5
66
102
{ACAD_REACTORS
330
47
102
}
330
47
100
AcDbScale
 70
     0
300
3" = 1'-0"
140
3.0
141
12.0
290
     0
  0
SCALE
  5
67
102
{ACAD_REACTORS
330
47
102
}
330
47
100
AcDbScale
 70
     0
300
6" = 1'-0"
140
6.0
141
12.0
290
     0
  0
SCALE
  5
68
102
{ACAD_REACTORS
330
47
102
}
330
47
100
AcDbScale
 70
     0
300
1'-0" = 1'-0"
140
12.0
141
12.0
290
     0
  0
ENDSEC
  0
EOF
